<?xml version="1.0" standalone="no"?>
<!DOCTYPE svg PUBLIC "-//W3C//DTD SVG 1.1//EN" "http://www.w3.org/Graphics/SVG/1.1/DTD/svg11.dtd" >
<svg xmlns="http://www.w3.org/2000/svg" xmlns:xlink="http://www.w3.org/1999/xlink" version="1.1">
<metadata>
Created by FontForge 20170731 at Wed Mar 15 10:31:55 2023
 By Aleksey,,,
Copyright (c) 2015 ParaType, Inc., ParaType Ltd. All rights reserved.
</metadata>
<defs>
<font id="CirceRounded-Regular" horiz-adv-x="1155" >
  <font-face 
    font-family="Circe Rounded"
    font-weight="400"
    font-stretch="normal"
    units-per-em="2048"
    panose-1="2 15 5 2 2 2 3 2 2 3"
    ascent="1583"
    descent="-465"
    x-height="922"
    cap-height="1434"
    bbox="-1075 -655 2978 1890"
    underline-thickness="102"
    underline-position="-307"
    unicode-range="U+0020-FB02"
  />
<missing-glyph horiz-adv-x="460" 
 />
    <glyph glyph-name="uniF350.var.accented" unicode="&#xf350;`" horiz-adv-x="1167" 
d="M961 41l-113 246h-535l-114 -250q-11 -23 -32.5 -37t-47.5 -14q-32 0 -54 22.5t-22 52.5q0 16 6 31l436 918q32 75 101 75q68 0 100 -75l430 -904q8 -16 8 -36q0 -33 -24 -58.5t-58 -25.5q-59 0 -81 55zM774 451l-192 413l-195 -413h387zM502 1325l176 197q15 18 39 18
q27 0 41 -20l22 -27q15 -18 15 -41q0 -30 -21 -51l-186 -170q-19 -19 -43 -19q-26 0 -47 21q-19 19 -19 41q0 24 23 51z" />
    <glyph glyph-name="uniF355.var.accented" unicode="&#xf355;`" horiz-adv-x="999" 
d="M346 164h453q35 0 60.5 -24.5t25.5 -57.5t-25.5 -57.5t-60.5 -24.5h-541q-35 0 -60.5 25.5t-25.5 60.5v903q0 35 25.5 60.5t60.5 25.5h524q35 0 60.5 -24.5t25.5 -57.5t-25.5 -57.5t-60.5 -24.5h-436v-286h385q35 0 60.5 -24.5t25.5 -57.5t-25.5 -57.5t-60.5 -24.5h-385
v-297zM434 1325l176 197q15 18 39 18q27 0 41 -20l23 -27q14 -17 14 -41q0 -31 -20 -51l-187 -170q-19 -19 -43 -19q-26 0 -47 21q-18 18 -18 41q0 25 22 51z" />
    <glyph glyph-name="uniF358.var.accented" unicode="&#xf358;`" horiz-adv-x="1343" 
d="M1171 999v-927q0 -35 -25.5 -60.5t-60.5 -25.5q-37 0 -62.5 25.5t-25.5 60.5v727l-647 -770q-37 -43 -88 -43q-41 0 -65.5 25.5t-24.5 66.5v921q0 35 25.5 60.5t62.5 25.5q35 0 60.5 -25.5t25.5 -60.5v-723l635 756q47 53 98 53q39 0 65.5 -25t26.5 -61zM578 1325
l176 197q15 18 39 18q27 0 41 -20l22 -27q14 -17 14 -41q0 -31 -20 -51l-186 -170q-19 -19 -43 -19q-27 0 -48 21q-18 18 -18 41q0 24 23 51z" />
    <glyph glyph-name="uniF35E.var.accented" unicode="&#xf35e;`" horiz-adv-x="1341" 
d="M672 -18q-168 0 -302 68.5t-211 195.5t-77 291q0 115 43.5 217t120.5 176t187.5 117t238.5 43q167 0 300.5 -68.5t210.5 -195t77 -289.5q0 -159 -76.5 -286.5t-211 -198t-300.5 -70.5zM672 926q-175 0 -290.5 -109.5t-115.5 -279.5q0 -167 117.5 -279.5t288.5 -112.5
q184 0 293.5 111t109.5 281t-115.5 279.5t-287.5 109.5zM600 1325l176 197q15 18 39 18q27 0 41 -20l23 -27q14 -17 14 -41q0 -30 -21 -51l-186 -170q-19 -19 -43 -19q-26 0 -47 21q-18 18 -18 41q0 25 22 51z" />
    <glyph glyph-name="uniF363.var.accented" unicode="&#xf363;`" horiz-adv-x="1073" 
d="M68 997q0 36 23.5 62t64.5 26q53 0 82 -47l362 -569l272 565q23 51 78 51q34 0 57 -21.5t23 -53.5q0 -17 -10 -37l-352 -719q-64 -129 -137.5 -191.5t-174.5 -62.5q-49 0 -90 24.5t-41 65.5q0 74 78 74q29 0 45 -4q8 -2 21 -2q22 0 41 8.5t34 26.5t23.5 31t21.5 36l21 37
l-426 645q-16 21 -16 55zM469 1325l176 197q15 18 39 18q27 0 41 -20l23 -27q14 -17 14 -41q0 -30 -21 -51l-186 -170q-19 -19 -43 -19q-26 0 -47 21q-19 19 -19 41q0 24 23 51z" />
    <glyph glyph-name="uniF36B.var.accented" unicode="&#xf36b;`" horiz-adv-x="1445" 
d="M1100 999q0 35 25.5 60.5t62.5 25.5q35 0 60.5 -25.5t25.5 -60.5v-927q0 -35 -25.5 -60.5t-60.5 -25.5q-37 0 -62.5 25.5t-25.5 60.5v927zM346 537v-373q82 -4 127 -4q268 0 268 198q0 90 -68 137.5t-196 47.5q-52 0 -131 -6zM453 -4q-37 0 -102.5 1t-92.5 1
q-37 1 -61.5 27t-24.5 61v913q0 35 25.5 60.5t62.5 25.5q35 0 60.5 -25.5t25.5 -60.5v-299q100 7 146 7q216 0 325 -91t109 -254q0 -171 -125.5 -268.5t-347.5 -97.5zM598 1325l176 197q15 18 39 18q27 0 41 -20l23 -27q14 -17 14 -41q0 -30 -21 -51l-186 -170
q-19 -19 -43 -19q-26 0 -47 21q-19 19 -19 41q0 24 23 51z" />
    <glyph glyph-name="uniF36D.var.accented" unicode="&#xf36d;`" horiz-adv-x="1122" 
d="M45 139q0 22 12 43q22 35 62 35q23 0 55 -14q118 -56 277 -56q170 0 280 83t131 237h-483q-31 0 -53.5 23.5t-22.5 58.5t22.5 58.5t53.5 23.5h481q-28 143 -136.5 220t-283.5 77q-155 0 -252 -47q-26 -11 -43 -11q-38 0 -61 33q-14 21 -14 41q0 41 53 76q122 72 326 72
q263 0 428 -151.5t165 -401.5q0 -251 -166.5 -403t-445.5 -152q-211 0 -338 79q-47 29 -47 76zM375 1325l176 197q15 18 39 18q27 0 41 -20l22 -27q15 -18 15 -41q0 -30 -21 -51l-186 -170q-19 -19 -43 -19q-26 0 -47 21q-19 19 -19 41q0 24 23 51z" />
    <glyph glyph-name="uniF36E.var.accented" unicode="&#xf36e;`" horiz-adv-x="1783" 
d="M573 467h-227v-395q0 -35 -25.5 -60.5t-60.5 -25.5q-37 0 -62.5 25.5t-25.5 60.5v927q0 35 25.5 60.5t62.5 25.5q35 0 60.5 -25.5t25.5 -60.5v-368h229q28 203 177.5 332t377.5 129q260 0 416 -151.5t156 -401.5q0 -245 -156.5 -400t-415.5 -155q-227 0 -380.5 132
t-176.5 351zM1135 928q-167 0 -274 -108.5t-107 -280.5q0 -169 106.5 -280.5t274.5 -111.5q177 0 280 110.5t103 281.5q0 173 -105.5 281t-277.5 108zM784 1325l177 197q15 18 38 18q27 0 41 -20l23 -27q14 -17 14 -41q0 -31 -20 -51l-187 -170q-19 -19 -43 -19
q-26 0 -47 21q-18 18 -18 41q0 25 22 51z" />
    <glyph glyph-name="uniF36F.var.accented" unicode="&#xf36f;`" horiz-adv-x="1062" 
d="M563 1081q102 0 242 -4q37 -1 61.5 -27t24.5 -61v-917q0 -35 -25.5 -60.5t-60.5 -25.5q-37 0 -62.5 25.5t-25.5 60.5v297h-230l-251 -338q-33 -45 -80 -45q-34 0 -56 22t-22 55t18 56l215 284q-92 42 -151.5 120t-59.5 184q0 77 27.5 143t82 118.5t145 82.5t208.5 30z
M717 532v379q-123 7 -170 7q-127 0 -194.5 -56t-67.5 -145q0 -71 55 -122.5t131 -62.5h246zM465 1325l176 197q15 18 39 18q27 0 41 -20l22 -27q15 -18 15 -41q0 -30 -21 -51l-186 -170q-19 -19 -43 -19q-26 0 -47 21q-19 19 -19 41q0 24 23 51z" />
    <glyph glyph-name="uniF371.var.accented" unicode="&#xf371;`" horiz-adv-x="999" 
d="M270 1245q-41 0 -69.5 25.5t-28.5 68.5q0 39 28.5 63.5t69.5 24.5q34 0 61 -25t27 -63q0 -42 -27 -68t-61 -26zM774 1245q-39 0 -66.5 25.5t-27.5 68.5q0 39 28 63.5t66 24.5q37 0 63.5 -24.5t26.5 -63.5q0 -43 -26.5 -68.5t-63.5 -25.5zM639 1413l-121 -158
q-24 -34 -57 -34q-18 0 -35 10q-25 16 -25 41q0 22 15 49l92 172q20 39 67 39q25 0 46 -12q34 -21 34 -60q0 -25 -16 -47zM346 164h453q35 0 60.5 -24.5t25.5 -57.5t-25.5 -57.5t-60.5 -24.5h-541q-35 0 -60.5 25.5t-25.5 60.5v903q0 35 25.5 60.5t60.5 25.5h524
q35 0 60.5 -24.5t25.5 -57.5t-25.5 -57.5t-60.5 -24.5h-436v-286h385q35 0 60.5 -24.5t25.5 -57.5t-25.5 -57.5t-60.5 -24.5h-385v-297z" />
    <glyph glyph-name="afii10017.var.accented" unicode="&#x410;`" horiz-adv-x="1402" 
d="M1190 43l-166 391h-653l-164 -391q-23 -57 -78 -57q-38 0 -60 23.5t-22 56.5q0 12 8 36l549 1272q31 70 101 70q69 0 98 -70l547 -1265q6 -18 6 -35q0 -36 -23 -62t-61 -26q-59 0 -82 57zM956 598l-258 612l-258 -612h516zM621 1630l301 160q12 6 24 6q14 0 27.5 -9
t19.5 -22l17 -36q4 -8 4 -23q0 -36 -33 -49l-311 -131q-12 -4 -21 -4q-36 0 -53 30q-6 12 -6 27q0 34 31 51z" />
    <glyph glyph-name="afii10022.var.accented" unicode="&#x415;`" horiz-adv-x="1177" 
d="M389 164h576q32 0 55.5 -24t23.5 -58t-23.5 -58t-55.5 -24h-664q-35 0 -60.5 25.5t-25.5 60.5v1262q0 35 25.5 60.5t60.5 25.5h643q32 0 56 -24t24 -58t-24 -58t-56 -24h-555v-463h494q32 0 56 -24t24 -58t-24 -58t-56 -24h-494v-479zM537 1630l301 160q12 6 24 6
q14 0 27.5 -9t19.5 -22l17 -36q4 -8 4 -23q0 -36 -33 -49l-311 -131q-12 -4 -21 -4q-36 0 -53 30q-6 12 -6 27q0 34 31 51z" />
    <glyph glyph-name="afii10026.var.accented" unicode="&#x418;`" horiz-adv-x="1628" 
d="M1413 1352v-1280q0 -35 -25.5 -60.5t-60.5 -25.5q-37 0 -62.5 25.5t-25.5 60.5v1073l-833 -1096q-48 -63 -103 -63q-42 0 -65 25.5t-23 68.5v1280q0 34 26 59t62 25q35 0 60.5 -25t25.5 -59v-1073l834 1095q25 32 46.5 47t51.5 15q44 0 68 -25t24 -67zM721 1630l301 160
q12 6 25 6q14 0 27.5 -9t19.5 -22l16 -36q4 -8 4 -23q0 -36 -33 -49l-311 -131q-12 -4 -20 -4q-37 0 -54 30q-6 12 -6 27q0 34 31 51z" />
    <glyph glyph-name="afii10032.var.accented" unicode="&#x41e;`" horiz-adv-x="1667" 
d="M834 -20q-207 0 -373.5 92.5t-262.5 261.5t-96 383q0 206 93.5 374.5t261.5 265.5t377 97q154 0 289 -54.5t232.5 -150t153.5 -233.5t56 -299q0 -157 -56 -294.5t-153 -234.5t-232.5 -152.5t-289.5 -55.5zM834 1290q-154 0 -279 -73t-196.5 -204.5t-71.5 -295.5
q0 -160 72.5 -292t198 -207t276.5 -75q161 0 286 76t192.5 206.5t67.5 291.5q0 248 -157 410.5t-389 162.5zM741 1630l301 160q12 6 25 6q14 0 27.5 -9t19.5 -22l16 -36q5 -10 5 -23q0 -36 -33 -49l-311 -131q-12 -4 -21 -4q-36 0 -53 30q-6 12 -6 27q0 34 30 51z" />
    <glyph glyph-name="afii10037.var.accented" unicode="&#x423;`" horiz-adv-x="1335" 
d="M63 1364q0 33 22 56.5t60 23.5q52 0 91 -64l503 -845l369 841q30 68 82 68q38 0 60 -21.5t22 -52.5q0 -23 -8 -39l-451 -1003q-76 -170 -158.5 -249t-197.5 -79q-60 0 -109 16q-24 7 -44.5 29t-20.5 53q0 16 10 39q21 43 67 43q21 0 33 -6q30 -12 62 -12q107 0 176 145
l24 53l-577 955q-15 21 -15 49zM604 1630l301 160q12 6 25 6q14 0 27.5 -9t19.5 -22l16 -36q4 -8 4 -23q0 -36 -32 -49l-312 -131q-12 -4 -20 -4q-36 0 -53 30q-7 14 -7 27q0 34 31 51z" />
    <glyph glyph-name="afii10045.var.accented" unicode="&#x42b;`" horiz-adv-x="1730" 
d="M1341 1360q0 34 26 59t63 25q35 0 60.5 -25t25.5 -59v-1288q0 -35 -25.5 -60.5t-60.5 -25.5q-37 0 -63 25.5t-26 60.5v1288zM389 735v-569q165 -6 172 -6q178 0 271.5 77t93.5 228q0 137 -93 210t-266 73q-61 0 -178 -13zM541 -4q-100 0 -240 4q-36 0 -61 25t-25 61v1274
q0 34 26 59t62 25q35 0 60.5 -25t25.5 -59v-459q130 10 191 10q263 0 396.5 -117t133.5 -325q0 -225 -150.5 -349t-418.5 -124zM741 1630l301 160q12 6 25 6q14 0 27.5 -9t19.5 -22l16 -36q5 -10 5 -23q0 -36 -33 -49l-311 -131q-12 -4 -21 -4q-36 0 -53 30q-6 12 -6 27
q0 34 30 51z" />
    <glyph glyph-name="afii10047.var.accented" unicode="&#x42d;`" horiz-adv-x="1361" 
d="M61 150q0 24 13 43q23 36 65 36q27 0 45 -10q162 -76 336 -76q230 0 384 136t177 370h-630q-32 0 -56 24t-24 58t24 58t56 24h628q-28 223 -183 350t-396 127q-122 0 -295 -78q-16 -8 -37 -8q-47 0 -68 37q-10 15 -10 39q0 22 11 40.5t28 27.5q197 106 412 106
q322 0 520.5 -200.5t198.5 -532.5q0 -162 -52.5 -299.5t-147 -235t-232.5 -152t-304 -54.5q-246 0 -424 98q-39 24 -39 72zM471 1630l301 160q12 6 25 6q14 0 27.5 -9t19.5 -22l16 -36q4 -8 4 -23q0 -36 -33 -49l-311 -131q-12 -4 -20 -4q-37 0 -54 30q-6 12 -6 27
q0 34 31 51z" />
    <glyph glyph-name="afii10048.var.accented" unicode="&#x42e;`" horiz-adv-x="2207" 
d="M696 649h-307v-577q0 -35 -25.5 -60.5t-60.5 -25.5q-37 0 -62.5 25.5t-25.5 60.5v1288q0 34 26 59t62 25q35 0 60.5 -25t25.5 -59v-547h309q15 138 72.5 256t147 203t213 133.5t264.5 48.5q206 0 367.5 -92.5t252 -261t90.5 -383.5q0 -211 -90 -379t-252.5 -263
t-367.5 -95q-284 0 -480.5 186t-218.5 483zM1399 1290q-226 0 -373 -161.5t-147 -411.5q0 -245 149 -409.5t371 -164.5q161 0 281 76.5t180.5 205.5t60.5 292q0 251 -145.5 412t-376.5 161zM1049 1630l301 160q12 6 24 6q14 0 27.5 -9t19.5 -22l17 -36q4 -8 4 -23
q0 -36 -33 -49l-311 -131q-12 -4 -21 -4q-36 0 -53 30q-6 12 -6 27q0 34 31 51z" />
    <glyph glyph-name="afii10049.var.accented" unicode="&#x42f;`" horiz-adv-x="1245" 
d="M694 1440q34 0 121 -2t129 -2q37 -1 61.5 -27t24.5 -61v-1276q0 -35 -25.5 -60.5t-60.5 -25.5q-37 0 -62.5 25.5t-25.5 60.5v460h-268l-346 -495q-33 -51 -86 -51q-35 0 -55.5 21t-20.5 52q0 30 18 54l320 450q-121 48 -202 153t-81 249q0 99 33.5 183.5t100 150.5
t175.5 103.5t250 37.5zM856 696v574q-141 6 -194 6q-162 0 -252.5 -84.5t-90.5 -216.5q0 -109 74 -186t174 -93h289zM618 1630l302 160q12 6 24 6q14 0 27.5 -9t19.5 -22l17 -36q4 -8 4 -23q0 -36 -33 -49l-311 -131q-12 -4 -21 -4q-36 0 -53 30q-6 12 -6 27q0 34 30 51z
" />
    <glyph glyph-name="afii10023.var.accented" unicode="&#x401;`" horiz-adv-x="1177" 
d="M342 1565q-38 0 -63 26t-25 74q0 42 25 67t63 25q34 0 59 -25.5t25 -66.5q0 -47 -24.5 -73.5t-59.5 -26.5zM915 1565q-38 0 -64 26.5t-26 73.5q0 41 26.5 66.5t63.5 25.5q34 0 59 -25.5t25 -66.5q0 -47 -24.5 -73.5t-59.5 -26.5zM756 1710l-168 -151q-26 -23 -47 -23
q-15 0 -24 9t-9 22q0 15 8 26l133 174q34 43 70 43q26 0 42.5 -15.5t16.5 -39.5q0 -26 -22 -45zM389 164h576q32 0 55.5 -24t23.5 -58t-23.5 -58t-55.5 -24h-664q-35 0 -60.5 25.5t-25.5 60.5v1262q0 35 25.5 60.5t60.5 25.5h643q32 0 56 -24t24 -58t-24 -58t-56 -24h-555
v-463h494q32 0 56 -24t24 -58t-24 -58t-56 -24h-494v-479z" />
    <glyph glyph-name="afii10065.var.accented" unicode="&#x430;`" horiz-adv-x="942" 
d="M82 270q0 137 97 215t251 78q149 0 229 -59q0 57 -4 97t-17 79t-35 62.5t-60.5 38t-91.5 14.5q-92 0 -185 -37q-15 -6 -30 -6q-46 0 -64 41q-6 15 -6 28q0 22 11 40.5t30 25.5q133 55 254 55q190 0 272 -94.5t82 -282.5v-508q0 -30 -22.5 -50.5t-55.5 -20.5t-55.5 20.5
t-22.5 50.5v62q-105 -133 -294 -133q-128 0 -205.5 76t-77.5 208zM659 252v117q-85 61 -206 61q-81 0 -139 -38.5t-58 -112.5q0 -67 44 -106.5t122 -39.5q81 0 136.5 33t100.5 86zM418 1208l147 219q16 25 49 25q20 0 35 -12l29 -21q22 -19 22 -47q0 -25 -14 -39l-164 -198
q-22 -25 -53 -25q-18 0 -35 10q-26 17 -26 54q0 17 10 34z" />
    <glyph glyph-name="afii10070.var.accented" unicode="&#x435;`" horiz-adv-x="1075" 
d="M819 543q-6 115 -76.5 180t-189.5 65q-123 0 -201 -68t-92 -177h559zM989 520q0 -31 -2 -45q-1 -25 -22.5 -45t-46.5 -20h-648q10 -129 97.5 -203t224.5 -74q131 0 225 55q23 13 45 13q32 0 56 -27q12 -15 12 -37q0 -39 -25 -55q-143 -102 -325 -102q-224 0 -359 131.5
t-135 349.5q0 135 54.5 243t164 173t256.5 65q182 0 305 -117.5t123 -304.5zM477 1208l148 219q16 25 49 25q20 0 35 -12l28 -21q23 -20 23 -47q0 -24 -15 -39l-163 -198q-22 -25 -54 -25q-17 0 -34 10q-27 18 -27 54q0 17 10 34z" />
    <glyph glyph-name="afii10074.var.accented" unicode="&#x438;`" 
d="M1008 63q0 -32 -23.5 -54.5t-58.5 -22.5t-58.5 22.5t-23.5 54.5v609l-498 -613q-32 -39 -57.5 -56t-59.5 -17q-36 0 -59 24.5t-23 57.5v786q0 33 23.5 55.5t58.5 22.5t58.5 -22.5t23.5 -55.5v-610l498 612q23 27 35 39.5t34.5 24.5t47.5 12q36 0 59 -25t23 -59v-785z
M494 1208l147 219q16 25 49 25q20 0 35 -12l29 -21q22 -19 22 -47q0 -25 -14 -39l-164 -198q-22 -25 -53 -25q-18 0 -35 10q-27 18 -27 54q0 16 11 34z" />
    <glyph glyph-name="afii10080.var.accented" unicode="&#x43e;`" 
d="M86 461q0 209 136.5 345t355.5 136t355 -136t136 -345t-136 -345t-355 -136t-355.5 136t-136.5 345zM260 461q0 -144 89.5 -236t228.5 -92t228 90.5t89 237.5q0 144 -89 235.5t-228 91.5q-137 0 -227.5 -91t-90.5 -236zM504 1208l147 219q16 25 49 25q20 0 35 -12l29 -21
q22 -19 22 -47q0 -25 -14 -39l-164 -198q-22 -25 -53 -25q-18 0 -35 10q-26 17 -26 54q0 17 10 34z" />
    <glyph glyph-name="afii10085.var.accented" unicode="&#x443;`" horiz-adv-x="980" 
d="M469 336q8 -17 55 -139q14 51 43 141l195 530q8 27 29 45.5t51 18.5q42 0 66 -23t24 -57q0 -15 -8 -39l-326 -813q-66 -164 -122.5 -254t-108.5 -123t-121 -33q-42 0 -76 7.5t-61 30t-27 59.5q0 31 17 48t48 17q10 0 35.5 -5t44.5 -5q58 0 104.5 49.5t92.5 159.5l20 49
l-387 807q-8 16 -8 39q0 35 25 60.5t65 25.5q25 0 46.5 -14t31.5 -37zM430 1208l148 219q16 25 49 25q20 0 35 -12l28 -21q23 -20 23 -47q0 -24 -15 -39l-163 -198q-22 -25 -54 -25q-18 0 -35 10q-26 17 -26 54q0 17 10 34z" />
    <glyph glyph-name="afii10093.var.accented" unicode="&#x44b;`" horiz-adv-x="1314" 
d="M311 645h152q82 0 146 -17.5t104.5 -46.5t66.5 -70.5t36.5 -86t10.5 -96.5q0 -64 -20 -120t-62.5 -104t-119.5 -76t-181 -28h-219q-32 0 -55 23t-23 55v776q0 33 23.5 55.5t58.5 22.5t58.5 -22.5t23.5 -55.5v-209zM1167 854v-791q0 -32 -23.5 -54.5t-58.5 -22.5t-58 22
t-23 55v791q0 33 23 55.5t58 22.5t58.5 -22.5t23.5 -55.5zM311 154h119q119 0 171 41.5t52 126.5t-52.5 127.5t-168.5 42.5h-121v-338zM551 1208l147 219q16 25 50 25q19 0 34 -12l29 -21q23 -20 23 -47q0 -24 -15 -39l-164 -198q-22 -25 -53 -25q-18 0 -35 10
q-26 17 -26 54q0 17 10 34z" />
    <glyph glyph-name="afii10095.var.accented" unicode="&#x44d;`" horiz-adv-x="978" 
d="M137 197q25 0 56 -17q89 -47 221 -47q128 0 210 70.5t99 197.5h-385q-29 0 -49.5 20t-20.5 48q0 27 20.5 46.5t49.5 19.5h383q-20 124 -105.5 188.5t-214.5 64.5q-126 0 -225 -61q-22 -14 -49 -14q-37 0 -57 28q-15 21 -15 43q0 39 33 62q69 46 151.5 71t159.5 25
q220 0 356 -131.5t136 -349.5q0 -133 -60 -243t-167.5 -174t-239.5 -64q-209 0 -326 79q-32 22 -32 62q0 28 16 47q23 29 55 29zM348 1208l148 219q16 25 49 25q20 0 35 -12l28 -21q23 -20 23 -47q0 -24 -15 -39l-163 -198q-22 -25 -54 -25q-17 0 -34 10q-27 18 -27 54
q0 17 10 34z" />
    <glyph glyph-name="afii10096.var.accented" unicode="&#x44e;`" horiz-adv-x="1556" 
d="M322 389v-321q0 -34 -25 -58t-61 -24q-38 0 -63.5 24t-25.5 58v782q0 34 25.5 58t63.5 24q36 0 61 -24t25 -58v-297h200q28 173 153.5 281t311.5 108q214 0 347.5 -136t133.5 -345t-134.5 -345t-346.5 -136q-192 0 -318.5 113t-148.5 296h-198zM700 461q0 -144 82 -231
t211 -87t210 87.5t81 230.5q0 142 -80 229.5t-211 87.5q-130 0 -211.5 -87.5t-81.5 -229.5zM709 1208l147 219q16 25 49 25q20 0 35 -12l29 -21q22 -19 22 -47q0 -25 -14 -39l-164 -198q-22 -25 -53 -25q-18 0 -35 10q-27 18 -27 54q0 16 11 34z" />
    <glyph glyph-name="afii10097.var.accented" unicode="&#x44f;`" horiz-adv-x="948" 
d="M123 117l176 231q-79 19 -139 89.5t-60 176.5q0 62 22 115t68 97.5t128.5 70t193.5 25.5h209q32 0 55 -23t23 -55v-781q0 -32 -23.5 -54.5t-58.5 -22.5t-58.5 22.5t-23.5 54.5v244h-178l-203 -276q-31 -45 -72 -45q-37 0 -59.5 20.5t-22.5 50.5q0 27 23 60zM635 461v307
h-150q-109 0 -160 -44t-51 -114q0 -67 53 -108t119 -41h189zM457 1208l147 219q16 25 49 25q20 0 35 -12l29 -21q22 -19 22 -47q0 -25 -14 -39l-164 -198q-22 -25 -53 -25q-18 0 -35 10q-27 18 -27 54q0 16 11 34z" />
    <glyph glyph-name="afii10071.var.accented" unicode="&#x451;`" horiz-adv-x="1075" 
d="M197 1233q0 36 23.5 58t58.5 22q31 0 53 -22.5t22 -57.5q0 -38 -22 -61t-53 -23q-35 0 -58.5 22.5t-23.5 61.5zM737 1233q0 36 24 58t58 22q31 0 53.5 -22.5t22.5 -57.5q0 -38 -22.5 -61t-53.5 -23q-34 0 -58 23t-24 61zM449 1196l145 215q20 27 51 27q17 0 39 -15
q25 -22 25 -53q0 -23 -15 -41l-159 -190q-24 -27 -52 -27q-15 0 -26 8q-23 14 -23 39q0 18 15 37zM819 543q-6 115 -76.5 180t-189.5 65q-123 0 -201 -68t-92 -177h559zM989 520q0 -31 -2 -45q-1 -25 -22.5 -45t-46.5 -20h-648q10 -129 97.5 -203t224.5 -74q131 0 225 55
q24 15 49 15q31 0 52 -27q14 -20 14 -43q0 -34 -27 -51q-143 -102 -325 -102q-224 0 -359 131.5t-135 349.5q0 135 54.5 243t164 173t256.5 65q182 0 305 -117.5t123 -304.5z" />
    <glyph glyph-name="fi" unicode="fi" horiz-adv-x="1052" 
d="M909 844v-781q0 -32 -23.5 -54.5t-58.5 -22.5t-58.5 22.5t-23.5 54.5v705h-413v-705q0 -32 -23.5 -54.5t-58.5 -22.5t-58.5 22.5t-23.5 54.5v984q0 204 102.5 305.5t282.5 101.5q168 0 274 -86q33 -26 33 -61q0 -32 -21 -53t-51 -21q-31 0 -73 29q-58 38 -135 38
q-123 0 -185.5 -64.5t-62.5 -207.5v-106h499q32 0 55 -23t23 -55z" />
    <glyph glyph-name="fl" unicode="fl" horiz-adv-x="1144" 
d="M1069 147q25 0 46.5 -16.5t21.5 -48.5t-18 -53t-52 -29.5t-60 -11t-63 -2.5q-239 0 -239 260v997q-77 57 -168 57q-103 0 -154 -60t-51 -187v-131h133q32 0 55 -22.5t23 -53.5q0 -32 -23 -55t-55 -23h-133v-705q0 -32 -23.5 -54.5t-58.5 -22.5t-58.5 22.5t-23.5 54.5
v1008q0 190 84 286.5t240 96.5q149 0 233 -65h66q32 0 54.5 -23t22.5 -55v-992q0 -95 25.5 -138.5t83.5 -43.5q19 0 50.5 5t41.5 5z" />
    <glyph glyph-name=".notdef" horiz-adv-x="460" 
 />
    <glyph glyph-name=".null" horiz-adv-x="0" 
 />
    <glyph glyph-name="nonmarkingreturn" horiz-adv-x="682" 
 />
    <glyph glyph-name="space" unicode=" " horiz-adv-x="460" 
 />
    <glyph glyph-name="exclam" unicode="!" horiz-adv-x="632" 
d="M229 1360q0 34 26 59t62 25q35 0 60.5 -25t25.5 -59v-834q0 -35 -25.5 -60.5t-60.5 -25.5q-37 0 -62.5 25.5t-25.5 60.5v834zM322 -6q-53 0 -86 34.5t-33 82.5q0 42 33 75t86 33q46 0 77 -33t31 -75q0 -47 -31 -82t-77 -35z" />
    <glyph glyph-name="quotedbl" unicode="&#x22;" horiz-adv-x="849" 
d="M676 1352v-293q0 -34 -24 -58t-58 -24t-58 24t-24 58v293q0 34 24 58t58 24t58 -24t24 -58zM338 1352v-293q0 -34 -24 -58t-58 -24t-58 24t-24 58v293q0 34 24 58t58 24t58 -24t24 -58z" />
    <glyph glyph-name="numbersign" unicode="#" horiz-adv-x="1441" 
d="M1290 399h-358l-133 -358q-16 -43 -62 -43q-8 0 -24 4q-20 7 -32.5 25.5t-12.5 38.5q0 8 4 20l114 313h-376l-134 -358q-7 -20 -24.5 -31.5t-38.5 -11.5q-7 0 -23 4q-21 7 -34 25t-13 39q0 8 4 20l117 313h-112q-29 0 -49.5 20.5t-20.5 51.5t20.5 51.5t49.5 20.5h165
l129 348h-294q-29 0 -49.5 20.5t-20.5 51.5t20 51t50 20h348l133 357q8 20 25.5 32.5t39.5 12.5q7 0 23 -4q20 -9 32.5 -27.5t12.5 -38.5q0 -8 -4 -20l-117 -312h377l133 359q7 20 25.5 31.5t40.5 11.5q6 0 22 -4q20 -7 32.5 -25.5t12.5 -38.5q0 -8 -4 -20l-117 -314h123
q30 0 50 -20t20 -51t-20.5 -51.5t-49.5 -20.5h-176l-129 -348h305q29 0 49.5 -20.5t20.5 -51.5t-20.5 -51.5t-49.5 -20.5zM592 891l-129 -348h377l129 348h-377z" />
    <glyph glyph-name="dollar" unicode="$" horiz-adv-x="1163" 
d="M487 -16q-176 19 -331 151q-31 24 -31 64q0 27 18 51q26 33 64 33q29 0 59 -23q156 -117 295 -117q117 0 193.5 59.5t76.5 164.5q0 56 -24 100.5t-64.5 76t-93 58t-110.5 50.5t-116 49.5t-110.5 60t-93 76.5t-64.5 103.5t-24 137.5q0 141 96 243t260 126v90q0 32 24 56
t58 24t58 -24t24 -56v-88q147 -17 246 -76q51 -28 51 -76q0 -21 -16 -47q-22 -32 -64 -32q-28 0 -53 14q-102 57 -231 57q-127 0 -198 -57t-71 -154q0 -56 24 -101t64.5 -75.5t93 -56t111 -48.5t116.5 -48t110.5 -58.5t93 -76t64.5 -105.5t24 -141q0 -152 -101 -254.5
t-264 -126.5v-113q0 -32 -24 -56t-58 -24t-58 24t-24 56v109z" />
    <glyph glyph-name="percent" unicode="%" horiz-adv-x="1796" 
d="M1438 1337l-981 -1310q-16 -25 -47 -25q-22 0 -37 12q-23 16 -23 47q0 21 10 33l983 1313q16 25 48 25q18 0 34 -13q23 -16 23 -49q0 -20 -10 -33zM467 752q-163 0 -269 97t-106 251t106 250t269 96t269 -96t106 -250t-106 -251t-269 -97zM467 1313q-93 0 -157 -59
t-64 -154t65 -155t156 -60q93 0 157 59.5t64 155.5q0 94 -64.5 153.5t-156.5 59.5zM1329 -12q-163 0 -269 97t-106 251t106 250t269 96t269 -96t106 -250t-106 -251t-269 -97zM1329 549q-93 0 -157 -59t-64 -154t65 -155t156 -60q93 0 157 59.5t64 155.5q0 94 -64.5 153.5
t-156.5 59.5z" />
    <glyph glyph-name="ampersand" unicode="&#x26;" horiz-adv-x="1482" 
d="M1178 844q2 36 22 59t55 23q41 0 62.5 -23t21.5 -55v-4q-22 -317 -178 -539l142 -178q24 -30 24 -61q0 -33 -23.5 -56.5t-54.5 -23.5q-42 0 -80 49l-122 153q-160 -208 -441 -208q-204 0 -333.5 115t-129.5 294q0 69 20 133t50 112.5t77.5 97t91 82.5t101.5 73
q-86 29 -138 99.5t-52 170.5q0 130 93 213.5t222 83.5q130 0 224 -83.5t94 -213.5q0 -99 -62 -177t-151 -95l348 -449q100 180 117 408zM328 422q0 -121 83 -200t199 -79q216 0 336 176l-358 472q-127 -96 -193.5 -182t-66.5 -187zM608 1321q-68 0 -115 -47.5t-47 -116.5
q0 -66 47.5 -114t114.5 -48q68 0 116 47.5t48 114.5t-48 115.5t-116 48.5z" />
    <glyph glyph-name="quotesingle" unicode="'" horiz-adv-x="512" 
d="M338 1352v-293q0 -34 -24 -58t-58 -24t-58 24t-24 58v293q0 34 24 58t58 24t58 -24t24 -58z" />
    <glyph glyph-name="parenleft" unicode="(" horiz-adv-x="593" 
d="M514 1331q27 0 45 -18q21 -21 21 -47q0 -29 -27 -60q-161 -167 -234 -348t-73 -397q0 -208 80 -402.5t227 -345.5q27 -27 27 -57q0 -26 -21 -47t-47 -21q-30 0 -61 27q-369 355 -369 846q0 481 373 846q24 24 59 24z" />
    <glyph glyph-name="parenright" unicode=")" horiz-adv-x="593" 
d="M14 1266q0 26 21 47q18 18 45 18q35 0 59 -24q373 -365 373 -846q0 -491 -369 -846q-31 -27 -61 -27q-26 0 -47 21t-21 47q0 30 27 57q147 151 227 345.5t80 402.5q0 216 -73 397t-234 348q-27 31 -27 60z" />
    <glyph glyph-name="asterisk" unicode="*" horiz-adv-x="980" 
d="M492 1241q-42 0 -73.5 30.5t-31.5 74.5q0 42 31.5 74t73.5 32q45 0 76.5 -31.5t31.5 -74.5q0 -44 -31 -74.5t-77 -30.5zM489 662q-41 0 -73.5 32.5t-32.5 73.5q0 45 32 78t74 33q43 0 76 -33t33 -78q0 -41 -33 -73.5t-76 -32.5zM727 1090q-42 0 -72 31.5t-30 74.5
q0 45 30 77t72 32q44 0 76.5 -32.5t32.5 -76.5q0 -43 -32.5 -74.5t-76.5 -31.5zM727 815q-42 0 -72 32t-30 77q0 44 29.5 75t72.5 31q45 0 77 -31t32 -75t-32.5 -76.5t-76.5 -32.5zM250 815q-43 0 -74 32.5t-31 76.5t31 75t74 31q44 0 75 -31t31 -75q0 -45 -31 -77t-75 -32z
M250 1090q-43 0 -74 31.5t-31 74.5q0 44 31 76.5t74 32.5q44 0 75 -32t31 -77q0 -43 -31 -74.5t-75 -31.5z" />
    <glyph glyph-name="plus" unicode="+" horiz-adv-x="1212" 
d="M680 342q0 -29 -21.5 -51.5t-56.5 -22.5q-34 0 -55 22.5t-21 51.5v324h-319q-28 0 -47 19.5t-19 51.5t19 52t47 20h319v319q0 29 21 50.5t55 21.5q35 0 56.5 -21.5t21.5 -50.5v-319h326q28 0 46.5 -20t18.5 -52t-18.5 -51.5t-46.5 -19.5h-326v-324z" />
    <glyph glyph-name="comma" unicode="," horiz-adv-x="423" 
d="M121 -205q65 45 84 121q8 31 8 57q0 28 -10 45q-11 -18 -45 -18q-31 0 -54.5 27.5t-23.5 66.5q0 49 30.5 79t86.5 30q65 0 106 -54.5t41 -144.5q0 -98 -46 -171.5t-122 -113.5q-21 -12 -39 -12q-23 0 -37 21q-8 11 -8 22q0 27 29 45z" />
    <glyph glyph-name="hyphen" unicode="-" horiz-adv-x="796" 
d="M231 635h334q32 0 55 -22.5t23 -53.5q0 -32 -23 -55t-55 -23h-334q-32 0 -54.5 22.5t-22.5 53.5q0 32 22.5 55t54.5 23z" />
    <glyph glyph-name="period" unicode="." horiz-adv-x="430" 
d="M102 111q0 42 32.5 75t84.5 33q46 0 77.5 -33.5t31.5 -74.5q0 -47 -31.5 -82t-77.5 -35q-52 0 -84.5 34.5t-32.5 82.5z" />
    <glyph glyph-name="slash" unicode="/" horiz-adv-x="710" 
d="M737 1346l-635 -1711q-8 -19 -25 -31t-38 -12q-5 0 -25 5q-20 9 -32.5 27t-12.5 38q0 9 4 21l637 1710q7 19 24.5 30t37.5 11q18 0 26 -4q20 -7 31.5 -25t11.5 -39q0 -8 -4 -20z" />
    <glyph glyph-name="zero" unicode="0" 
d="M582 -16q-158 0 -265 94.5t-155.5 256t-48.5 382.5q0 164 27.5 296.5t83 231t145.5 152t209 53.5q158 0 263.5 -95t153 -256t47.5 -382q0 -165 -26.5 -297t-81.5 -231t-144 -152t-208 -53zM578 1296q-152 0 -221.5 -147t-69.5 -432q0 -580 295 -580q152 0 219 145.5
t67 434.5q0 287 -69 433t-221 146z" />
    <glyph glyph-name="one" unicode="1" horiz-adv-x="749" 
d="M340 63v1143l-139 -108q-22 -19 -54 -19q-40 0 -63 29q-16 19 -16 45q0 41 34 68l260 200q28 21 62 21t57 -23t23 -55v-1301q0 -32 -23.5 -54.5t-58.5 -22.5t-58.5 22.5t-23.5 54.5z" />
    <glyph glyph-name="two" unicode="2" horiz-adv-x="1058" 
d="M285 154h583q32 0 55 -22.5t23 -53.5q0 -32 -23 -55t-55 -23h-727q-41 0 -64.5 21.5t-23.5 54.5q0 8 1.5 15.5t3.5 13.5t6.5 13.5t7.5 11.5t9.5 11.5t9 10l10 10l8.5 8.5q64 62 109.5 107.5t113.5 118t115.5 130t101.5 132t87 137t55 131.5t22 129q0 100 -61 165.5
t-173 65.5q-159 0 -227 -147q-25 -54 -82 -54q-38 0 -60 24t-22 58q0 9 4 29q43 124 152.5 189t249.5 65q97 0 174 -31.5t123.5 -83.5t71 -115.5t24.5 -132.5q0 -82 -28 -173t-70 -169t-103.5 -162.5t-114.5 -145t-117.5 -125.5t-98 -95.5t-70.5 -62.5z" />
    <glyph glyph-name="three" unicode="3" horiz-adv-x="1089" 
d="M135 1278q125 176 371 176q181 0 288 -97t107 -265q0 -118 -57.5 -209t-165.5 -138q130 -24 204 -122t74 -228q0 -189 -127 -302t-323 -113q-134 0 -241 44.5t-171 135.5q-22 31 -22 63q0 43 32 62q24 14 43 14q44 0 76 -43q54 -63 121 -88t156 -25q130 0 206 73t76 185
q0 114 -81 182t-212 68h-34q-39 0 -63.5 23t-24.5 59t24.5 59t63.5 23h24q99 0 173.5 70.5t74.5 177.5q0 106 -62 166.5t-171 60.5q-82 0 -135.5 -24t-94.5 -76q-30 -37 -74 -37q-22 0 -43 12q-30 20 -30 58q0 28 18 55z" />
    <glyph glyph-name="four" unicode="4" horiz-adv-x="1116" 
d="M969 358h-113v-276q0 -35 -24.5 -58.5t-57.5 -23.5t-57.5 23.5t-24.5 58.5v276h-575q-36 0 -62 24.5t-26 59.5q0 31 18 58l549 886q30 52 80 52q33 0 54.5 -22.5t21.5 -53.5q0 -25 -15 -49l-491 -791h446v318q0 35 24.5 58.5t57.5 23.5t57.5 -23.5t24.5 -58.5v-318h113
q35 0 60.5 -24.5t25.5 -57.5t-25.5 -57.5t-60.5 -24.5z" />
    <glyph glyph-name="five" unicode="5" horiz-adv-x="1034" 
d="M133 293q34 0 70 -39q100 -111 262 -111q124 0 206.5 86t82.5 217q0 132 -95.5 218t-252.5 86q-27 0 -101 -9q-3 0 -9 -1t-9 -1q-41 0 -65.5 26t-24.5 66v17l63 508q4 33 29.5 55.5t58.5 22.5h492q33 0 55.5 -23.5t22.5 -58.5t-22.5 -58.5t-55.5 -23.5h-426l-54 -387
q54 14 115 14q198 0 325.5 -121.5t127.5 -322.5q0 -144 -64 -253t-169.5 -164.5t-233.5 -55.5q-245 0 -391 184q-17 24 -17 49q0 43 33 63q27 17 47 17z" />
    <glyph glyph-name="six" unicode="6" horiz-adv-x="1144" 
d="M780 1296q-84 -33 -160 -86.5t-142 -127.5t-114 -174t-69 -216q46 87 131 139t207 52q178 0 293.5 -123.5t115.5 -317.5q0 -103 -37.5 -191t-100 -146.5t-141.5 -91.5t-163 -33q-116 0 -211.5 42.5t-157.5 115t-95.5 167.5t-33.5 203q0 141 37 273.5t98.5 236.5
t142 189.5t168 142.5t175.5 86q28 8 45 8q51 0 68 -45q6 -15 6 -29q0 -25 -17.5 -45t-44.5 -29zM578 729q-116 0 -194.5 -67t-107.5 -154q0 -155 84 -260t238 -105q116 0 193 84.5t77 202.5q0 131 -75.5 215t-214.5 84z" />
    <glyph glyph-name="seven" unicode="7" horiz-adv-x="983" 
d="M915 1309l-507 -1272q-9 -23 -30.5 -37t-47.5 -14q-39 0 -61.5 22t-22.5 55q0 17 6 35l471 1172h-576q-35 0 -60.5 24.5t-25.5 57.5t25.5 57.5t60.5 24.5h689q35 0 60.5 -25.5t25.5 -60.5q0 -22 -7 -39z" />
    <glyph glyph-name="eight" unicode="8" horiz-adv-x="1218" 
d="M584 819h53q92 0 160.5 69.5t68.5 166.5q0 108 -75.5 171.5t-184.5 63.5q-108 0 -181 -65t-73 -170q0 -97 69.5 -166.5t162.5 -69.5zM635 655h-45q-117 0 -200 -72t-83 -182q0 -112 85 -185t216 -73q137 0 220 71t83 187q-1 118 -80 186t-196 68zM178 1079
q0 166 124 270.5t306 104.5t307 -104.5t125 -270.5q0 -107 -63.5 -202t-171.5 -138q122 -24 201 -120.5t79 -235.5q0 -124 -65.5 -217t-172 -139.5t-237.5 -46.5q-130 0 -237.5 46t-173.5 136.5t-66 208.5q0 132 74 230.5t196 135.5q-96 35 -160.5 130t-64.5 212z" />
    <glyph glyph-name="nine" unicode="9" horiz-adv-x="1128" 
d="M336 129q211 62 339.5 214.5t158.5 385.5q-44 -82 -127.5 -130t-196.5 -48q-186 0 -307 126t-121 314q0 136 68.5 244t172 163.5t216.5 55.5q155 0 267 -72t166 -192t54 -275q0 -187 -50.5 -347.5t-139.5 -276.5t-207 -193.5t-256 -109.5q-8 -2 -23 -2q-27 0 -47 14.5
t-24 38.5q-3 9 -3 16q0 26 17 47t43 27zM551 705q117 0 195 62t106 148q0 102 -32 184.5t-104 136.5t-175 54q-118 0 -201.5 -85t-83.5 -201q0 -124 78.5 -211.5t216.5 -87.5z" />
    <glyph glyph-name="colon" unicode=":" horiz-adv-x="655" 
d="M215 831q0 42 32.5 75.5t84.5 33.5q46 0 77 -33.5t31 -75.5q0 -47 -31 -81.5t-77 -34.5q-52 0 -84.5 34t-32.5 82zM215 111q0 42 32.5 75t84.5 33q46 0 77 -33t31 -75q0 -47 -31 -82t-77 -35q-52 0 -84.5 34.5t-32.5 82.5z" />
    <glyph glyph-name="semicolon" unicode=";" horiz-adv-x="657" 
d="M217 831q0 42 32.5 75.5t84.5 33.5q46 0 77 -33.5t31 -75.5q0 -47 -31 -81.5t-77 -34.5q-52 0 -84.5 34t-32.5 82zM250 -205q65 45 84 121q8 31 8 57q0 28 -10 45q-11 -18 -45 -18q-31 0 -54.5 27.5t-23.5 66.5q0 49 30.5 79t86.5 30q65 0 106 -54.5t41 -144.5
q0 -98 -46 -171.5t-122 -113.5q-21 -12 -39 -12q-23 0 -37 21q-8 11 -8 22q0 27 29 45z" />
    <glyph glyph-name="less" unicode="&#x3c;" horiz-adv-x="1175" 
d="M999 362q39 -24 39 -65q0 -33 -22 -55.5t-53 -22.5q-20 0 -41 12l-748 453q-37 20 -37 57q0 38 37 58l748 448q23 13 43 13q31 0 52 -21t21 -51q0 -48 -39 -72l-637 -375z" />
    <glyph glyph-name="equal" unicode="=" horiz-adv-x="1212" 
d="M207 993h799q28 0 46.5 -19.5t18.5 -51.5t-18.5 -52t-46.5 -20h-799q-28 0 -47 20t-19 52t19 51.5t47 19.5zM207 625h799q28 0 46.5 -20t18.5 -52t-18.5 -52t-46.5 -20h-799q-28 0 -47 20t-19 52t19 52t47 20z" />
    <glyph glyph-name="greater" unicode="&#x3e;" horiz-adv-x="1175" 
d="M213 219q-31 0 -53.5 22.5t-22.5 55.5q0 41 39 65l637 379l-637 375q-39 24 -39 72q0 29 21.5 50.5t52.5 21.5q20 0 43 -13l747 -448q37 -20 37 -58q0 -37 -37 -57l-747 -453q-21 -12 -41 -12z" />
    <glyph glyph-name="question" unicode="?" horiz-adv-x="937" 
d="M467 457l2 -29v-4q0 -28 -16 -49.5t-47 -24.5h-9q-33 0 -52.5 20t-22.5 50l-5 37q-2 14 -2 41q0 59 20.5 108t53.5 83t72.5 64.5t79.5 60.5t73 63.5t53.5 81.5t20.5 106q0 95 -71 160t-179 65q-70 0 -121 -21.5t-114 -70.5q-27 -20 -56 -20q-35 0 -57 28q-16 19 -16 47
q0 35 24 56q82 74 163 109.5t188 35.5q192 0 303.5 -101.5t111.5 -252.5q0 -77 -22 -140.5t-57 -106t-77 -79.5t-84.5 -68.5t-77.5 -64t-57 -75t-22 -93.5v-16zM401 -6q-53 0 -85.5 34.5t-32.5 82.5q0 42 32.5 75t85.5 33q46 0 77.5 -33.5t31.5 -74.5q0 -47 -31.5 -82
t-77.5 -35z" />
    <glyph glyph-name="at" unicode="@" horiz-adv-x="2060" 
d="M1051 -436q-196 0 -366.5 68.5t-291.5 187.5t-190.5 285.5t-69.5 355.5q0 185 69.5 350.5t190 286t292 190.5t366.5 70q248 0 447.5 -100.5t314 -284.5t114.5 -418q0 -85 -18.5 -165t-57.5 -151t-93.5 -124t-132.5 -84t-169 -31h-86q-36 0 -60 25.5t-24 64.5
q-53 -48 -129 -79t-156 -31q-209 0 -332.5 131t-123.5 350q0 99 39 188t107 153.5t164.5 102t207.5 37.5q177 0 332 -74q23 -10 39 -36.5t16 -51.5v-626h43q127 0 204 113.5t77 285.5q0 136 -52.5 255.5t-145.5 207t-229.5 138t-295.5 50.5q-160 0 -300.5 -54.5t-243 -151
t-161.5 -235.5t-59 -302q0 -209 101 -380t276 -267.5t387 -96.5q57 0 153 15q3 0 10.5 1t10.5 1q64 0 75 -58q3 -9 3 -20q0 -30 -19.5 -50t-52.5 -26q-84 -16 -180 -16zM1286 254v475q-104 59 -225 59q-152 0 -247 -97t-95 -238q0 -149 85 -234.5t224 -85.5q74 0 145 36
t113 85z" />
    <glyph glyph-name="A" unicode="A" horiz-adv-x="1402" 
d="M1190 43l-166 391h-653l-164 -391q-23 -57 -78 -57q-38 0 -60 23.5t-22 56.5q0 12 8 36l549 1272q31 70 101 70q69 0 98 -70l547 -1265q6 -18 6 -35q0 -36 -23 -62t-61 -26q-59 0 -82 57zM956 598l-258 612l-258 -612h516z" />
    <glyph glyph-name="B" unicode="B" horiz-adv-x="1263" 
d="M608 1440q124 0 215.5 -27t144 -76.5t77 -111.5t24.5 -140q0 -128 -67.5 -211.5t-178.5 -121.5q138 -24 217.5 -111t79.5 -231q0 -106 -39 -187t-110 -130.5t-164 -74t-207 -24.5q-123 0 -299 4q-35 1 -60.5 27.5t-25.5 60.5v1260q0 35 25.5 61.5t60.5 26.5q264 6 307 6z
M389 653v-487q94 -8 221 -8q161 0 248.5 66t87.5 196q0 113 -84.5 173t-240.5 60h-232zM389 1270v-463h229q119 0 198 63.5t79 176.5q0 112 -74 170.5t-217 58.5q-62 0 -215 -6z" />
    <glyph glyph-name="C" unicode="C" horiz-adv-x="1323" 
d="M1159 1212q-23 0 -49 13q-121 65 -291 65q-234 0 -383 -159.5t-149 -413.5q0 -256 155 -415t404 -159q164 0 297 80q24 15 51 15q38 0 61 -29q15 -18 15 -41q0 -43 -39 -70q-79 -56 -184 -87t-218 -31q-213 0 -378 90.5t-257 258.5t-92 388q0 207 84 373t248 265t383 99
q220 0 377 -96q43 -27 43 -70q0 -21 -12 -39q-22 -37 -66 -37z" />
    <glyph glyph-name="D" unicode="D" horiz-adv-x="1513" 
d="M215 1348q0 36 25 61t61 25q300 6 305 6q167 0 303 -37.5t228.5 -102.5t155 -155t90.5 -192.5t28 -217.5q0 -155 -52.5 -288t-152 -234t-258 -159t-358.5 -58q-67 0 -289 4q-35 0 -60.5 25.5t-25.5 60.5v1262zM389 1270v-1106q188 -4 207 -4q151 0 271 43t198.5 119.5
t120 181.5t41.5 231q0 242 -161.5 391.5t-463.5 149.5q-38 0 -73.5 -1t-75.5 -2.5t-64 -2.5z" />
    <glyph glyph-name="E" unicode="E" horiz-adv-x="1177" 
d="M389 164h576q32 0 55.5 -24t23.5 -58t-23.5 -58t-55.5 -24h-664q-35 0 -60.5 25.5t-25.5 60.5v1262q0 35 25.5 60.5t60.5 25.5h643q32 0 56 -24t24 -58t-24 -58t-56 -24h-555v-463h494q32 0 56 -24t24 -58t-24 -58t-56 -24h-494v-479z" />
    <glyph glyph-name="F" unicode="F" horiz-adv-x="1105" 
d="M883 598h-494v-526q0 -35 -25.5 -60.5t-60.5 -25.5q-37 0 -62.5 25.5t-25.5 60.5v1276q0 35 25.5 60.5t60.5 25.5h643q32 0 56 -24t24 -58t-24 -58t-56 -24h-555v-508h494q32 0 56 -24t24 -58t-24 -58t-56 -24z" />
    <glyph glyph-name="G" unicode="G" horiz-adv-x="1488" 
d="M827 1290q-241 0 -390.5 -157.5t-149.5 -415.5q0 -260 150.5 -417t396.5 -157q102 0 206.5 36t161.5 91v295h-307q-32 0 -56 24t-24 58t24 58t56 24h385q35 0 60.5 -25.5t25.5 -60.5v-410q0 -61 -49 -96q-95 -73 -230 -115t-258 -42q-333 0 -530 200.5t-197 536.5
q0 206 86 373t248 265.5t371 98.5q227 0 393 -98q43 -24 43 -68q0 -22 -12 -43q-21 -37 -68 -37q-26 0 -53 15q-127 67 -283 67z" />
    <glyph glyph-name="H" unicode="H" horiz-adv-x="1566" 
d="M1178 1360q0 34 26 59t62 25q35 0 60.5 -25t25.5 -59v-1288q0 -35 -25.5 -60.5t-60.5 -25.5q-37 0 -62.5 25.5t-25.5 60.5v577h-789v-577q0 -35 -25.5 -60.5t-60.5 -25.5q-37 0 -62.5 25.5t-25.5 60.5v1288q0 34 26 59t62 25q35 0 60.5 -25t25.5 -59v-547h789v547z" />
    <glyph glyph-name="I" unicode="I" horiz-adv-x="686" 
d="M256 1360q0 34 26 59t62 25q35 0 60.5 -25t25.5 -59v-1288q0 -35 -25.5 -60.5t-60.5 -25.5q-37 0 -62.5 25.5t-25.5 60.5v1288z" />
    <glyph glyph-name="J" unicode="J" horiz-adv-x="755" 
d="M131 158q51 -15 74 -15q88 0 125 55.5t37 155.5v1006q0 34 26 59t62 25q35 0 60.5 -25t25.5 -59v-1034q0 -346 -314 -346q-78 0 -159 34q-20 9 -31.5 28.5t-11.5 41.5q0 18 6 33q21 47 69 47q16 0 31 -6z" />
    <glyph glyph-name="K" unicode="K" horiz-adv-x="1300" 
d="M1044 33l-565 651q-22 25 -22 61q0 39 24 66l537 588q39 45 80 45q33 0 54.5 -20.5t21.5 -49.5q0 -36 -31 -67l-518 -547l555 -627q30 -33 30 -72q0 -32 -23 -53.5t-57 -21.5q-45 0 -86 47zM215 1360q0 34 26 59t62 25q35 0 60.5 -25t25.5 -59v-1288q0 -35 -25.5 -60.5
t-60.5 -25.5q-37 0 -62.5 25.5t-25.5 60.5v1288z" />
    <glyph glyph-name="L" unicode="L" horiz-adv-x="1126" 
d="M389 164h627q32 0 56 -24t24 -58t-24 -58t-56 -24h-715q-35 0 -60.5 25.5t-25.5 60.5v1274q0 34 26 59t62 25q35 0 60.5 -25t25.5 -59v-1196z" />
    <glyph glyph-name="M" unicode="M" horiz-adv-x="1826" 
d="M1438 1161l-430 -606q-41 -55 -93 -55q-51 0 -92 55l-434 594v-1077q0 -35 -25.5 -60.5t-60.5 -25.5q-37 0 -62.5 25.5t-25.5 60.5v1261q0 49 28 80t72 31q65 0 113 -66l502 -680l481 686q39 60 100 60q47 0 74 -29t27 -69v-1274q0 -35 -25.5 -60.5t-60.5 -25.5
q-37 0 -62.5 25.5t-25.5 60.5v1089z" />
    <glyph glyph-name="N" unicode="N" horiz-adv-x="1628" 
d="M1249 303v1061q0 32 24 56t58 24t58 -24t24 -56v-1290q0 -39 -20.5 -63.5t-53.5 -24.5q-31 0 -53.5 14.5t-50.5 48.5l-856 1079v-1062q0 -32 -24 -56t-58 -24t-58 24t-24 56v1282q0 40 20.5 68t59.5 28q31 0 55 -16.5t56 -57.5z" />
    <glyph glyph-name="O" unicode="O" horiz-adv-x="1667" 
d="M834 -20q-207 0 -373.5 92.5t-262.5 261.5t-96 383q0 206 93.5 374.5t261.5 265.5t377 97q154 0 289 -54.5t232.5 -150t153.5 -233.5t56 -299q0 -157 -56 -294.5t-153 -234.5t-232.5 -152.5t-289.5 -55.5zM834 1290q-154 0 -279 -73t-196.5 -204.5t-71.5 -295.5
q0 -160 72.5 -292t198 -207t276.5 -75q161 0 286 76t192.5 206.5t67.5 291.5q0 248 -157 410.5t-389 162.5z" />
    <glyph glyph-name="P" unicode="P" horiz-adv-x="1222" 
d="M301 1434q188 4 289 4q119 0 212 -25t152 -67t97 -100.5t53.5 -120.5t15.5 -132q0 -89 -32 -169t-94 -143.5t-162.5 -100.5t-227.5 -37q-119 0 -215 8v-479q0 -35 -25.5 -60.5t-60.5 -25.5q-37 0 -62.5 25.5t-25.5 60.5v1276q0 35 25.5 60.5t60.5 25.5zM389 1270v-553
q117 -10 209 -10q158 0 248 76.5t90 211.5q0 132 -82 205.5t-248 73.5q-81 0 -217 -4z" />
    <glyph glyph-name="Q" unicode="Q" horiz-adv-x="1667" 
d="M1458 33q0 -37 -26 -60q-24 -18 -54 -18q-35 0 -59 27l-92 106q-174 -108 -393 -108q-207 0 -373.5 92.5t-262.5 261.5t-96 383q0 206 93.5 374.5t261.5 265.5t377 97q154 0 289 -54.5t232.5 -150t153.5 -233.5t56 -299q0 -158 -56.5 -295.5t-158.5 -237.5l90 -102
q18 -21 18 -49zM1155 414l82 -97q143 162 143 400q0 248 -157 410.5t-389 162.5q-154 0 -279 -73t-196.5 -204.5t-71.5 -295.5q0 -160 72.5 -292t198 -207t276.5 -75q156 0 282 74l-76 92q-18 21 -18 51q0 35 25 60q21 18 51 18q36 0 57 -24z" />
    <glyph glyph-name="R" unicode="R" horiz-adv-x="1284" 
d="M1202 66q0 -33 -22 -56.5t-58 -23.5q-48 0 -88 49l-411 538h-234v-501q0 -35 -25.5 -60.5t-60.5 -25.5q-37 0 -62.5 25.5t-25.5 60.5v1276q0 35 25.5 60.5t60.5 25.5q218 4 299 4q114 0 203 -22.5t146 -60.5t94 -93.5t52 -116.5t15 -133q0 -81 -26 -151.5t-70.5 -120.5
t-99 -84t-115.5 -50l381 -481q22 -28 22 -59zM389 1270v-533h211q131 0 228.5 75.5t97.5 197.5q0 121 -78.5 192.5t-257.5 71.5q-65 0 -201 -4z" />
    <glyph glyph-name="S" unicode="S" horiz-adv-x="1077" 
d="M516 -20q-203 0 -397 163q-25 22 -25 58q0 29 19 51q25 31 63 31q26 0 47 -15q88 -65 155.5 -95t139.5 -30q118 0 199.5 60t81.5 164q0 56 -24 100.5t-64.5 76t-93 58t-111 50.5t-116.5 49.5t-110.5 60t-93 76.5t-64.5 103.5t-24 137.5q0 161 117 268t315 107
q184 0 336 -96q33 -23 33 -66q0 -26 -14 -43q-28 -39 -68 -39q-17 0 -47 15q-108 65 -229 65q-119 0 -188.5 -57.5t-69.5 -153.5q0 -56 24 -101t64.5 -75.5t93 -56t110.5 -48.5t116 -48t110.5 -58.5t93 -76t64.5 -105.5t24 -141q0 -115 -62.5 -204.5t-168.5 -137t-236 -47.5
z" />
    <glyph glyph-name="T" unicode="T" horiz-adv-x="1218" 
d="M696 1270v-1198q0 -35 -25.5 -60.5t-60.5 -25.5q-37 0 -62.5 25.5t-25.5 60.5v1198h-422q-32 0 -56 24t-24 58t24 58t56 24h1018q32 0 56 -24t24 -58t-24 -58t-56 -24h-422z" />
    <glyph glyph-name="U" unicode="U" horiz-adv-x="1538" 
d="M369 645q0 -235 109.5 -367.5t309.5 -132.5q180 0 280.5 124t100.5 364v727q0 34 26 59t62 25q35 0 60.5 -25t25.5 -59v-762q0 -159 -45 -280t-123.5 -193t-176 -107.5t-210.5 -35.5q-130 0 -238 40t-187.5 117t-123.5 198t-44 275v748q0 34 26 59t62 25q35 0 60.5 -25
t25.5 -59v-715z" />
    <glyph glyph-name="V" unicode="V" horiz-adv-x="1318" 
d="M35 1358q0 36 23 61t63 25q59 0 86 -68l463 -1122l450 1122q28 68 82 68q37 0 59.5 -23t22.5 -55q0 -11 -8 -35l-522 -1280q-25 -65 -88 -65q-65 0 -91 65l-532 1270q-8 24 -8 37z" />
    <glyph glyph-name="W" unicode="W" horiz-adv-x="1966" 
d="M889 1354q31 90 102 90q74 0 105 -90l360 -1057l309 1077q19 70 80 70q40 0 61 -24t21 -58q0 -11 -4 -31l-371 -1261q-25 -84 -90 -84q-72 0 -102 84l-373 1083l-366 -1083q-27 -84 -99 -84q-36 0 -60.5 23t-35.5 61l-381 1237q-6 21 -6 41q0 41 25 68.5t73 27.5
q64 0 84 -70l316 -1077z" />
    <glyph glyph-name="X" unicode="X" horiz-adv-x="1296" 
d="M104 1362q0 34 23 58t61 24q26 0 44 -14t42 -48l379 -522l373 522q23 34 44.5 48t49.5 14q35 0 57.5 -22.5t22.5 -55.5q0 -26 -18 -53l-420 -584l442 -614q15 -18 15 -45q0 -33 -22.5 -58.5t-57.5 -25.5q-47 0 -84 51l-408 559l-403 -559q-38 -51 -86 -51q-36 0 -58 24
t-22 58q0 29 18 53l441 608l-416 580q-17 23 -17 53z" />
    <glyph glyph-name="Y" unicode="Y" horiz-adv-x="1196" 
d="M57 1360q0 35 24.5 59.5t63.5 24.5q27 0 46 -14.5t40 -49.5l369 -602l371 602q39 64 90 64q37 0 57.5 -21.5t20.5 -52.5q0 -21 -15 -47l-444 -709v-542q0 -35 -25.5 -60.5t-60.5 -25.5q-37 0 -62.5 25.5t-25.5 60.5v542l-434 697q-15 24 -15 49z" />
    <glyph glyph-name="Z" unicode="Z" horiz-adv-x="1280" 
d="M1118 0h-999q-31 0 -50.5 16.5t-19.5 44.5q0 18 6.5 35.5t13 27t21.5 30.5l848 1116h-756q-32 0 -56 24t-24 58t24 58t56 24h940q32 0 51 -17.5t19 -48.5q0 -33 -43 -88l-852 -1116h821q32 0 56 -24t24 -58t-24 -58t-56 -24z" />
    <glyph glyph-name="bracketleft" unicode="[" horiz-adv-x="655" 
d="M287 -256h272q31 0 53.5 -23t22.5 -55q0 -31 -22.5 -53.5t-53.5 -22.5h-360q-31 0 -53.5 22.5t-22.5 53.5v1589q0 31 22.5 53.5t53.5 22.5h360q31 0 53.5 -23t22.5 -55q0 -31 -22.5 -53t-53.5 -22h-272v-1434z" />
    <glyph glyph-name="backslash" unicode="\" horiz-adv-x="710" 
d="M606 -360l-631 1701q-4 8 -4 27q0 21 11.5 39t31.5 25q16 4 23 4q22 0 40 -12.5t25 -34.5l633 -1702q4 -8 4 -27q0 -45 -43 -61q-10 -5 -24 -5q-22 0 -40.5 12.5t-25.5 33.5z" />
    <glyph glyph-name="bracketright" unicode="]" horiz-adv-x="655" 
d="M369 1178h-273q-31 0 -53.5 22.5t-22.5 54.5q0 31 22.5 53.5t53.5 22.5h361q31 0 53 -22.5t22 -53.5v-1589q0 -31 -22 -53.5t-53 -22.5h-361q-31 0 -53.5 23t-22.5 55q0 31 22.5 53.5t53.5 22.5h273v1434z" />
    <glyph glyph-name="asciicircum" unicode="^" horiz-adv-x="1007" 
d="M504 1282l-215 -317q-25 -43 -74 -43q-28 0 -48 19t-20 48q0 25 19 53l254 365q40 55 88 55q46 0 84 -55l254 -371q14 -20 14 -45q0 -29 -20 -49t-47 -20q-49 0 -74 43z" />
    <glyph glyph-name="underscore" unicode="_" horiz-adv-x="638" 
d="M82 -246h475q34 0 58 -24t24 -58t-24 -58t-58 -24h-475q-34 0 -58 24t-24 58t24 58t58 24z" />
    <glyph glyph-name="grave" unicode="`" horiz-adv-x="593" 
d="M289 1423l145 -213q12 -15 12 -36q0 -31 -24 -52q-17 -10 -37 -10q-35 0 -57 25l-162 192q-14 17 -14 41q0 28 22 47l27 21q15 12 37 12q31 0 51 -27z" />
    <glyph glyph-name="a" unicode="a" horiz-adv-x="942" 
d="M82 270q0 137 97 215t251 78q149 0 229 -59q0 57 -4 97t-17 79t-35 62.5t-60.5 38t-91.5 14.5q-92 0 -185 -37q-15 -6 -30 -6q-46 0 -64 41q-6 15 -6 28q0 22 11 40.5t30 25.5q133 55 254 55q190 0 272 -94.5t82 -282.5v-508q0 -30 -22.5 -50.5t-55.5 -20.5t-55.5 20.5
t-22.5 50.5v62q-105 -133 -294 -133q-128 0 -205.5 76t-77.5 208zM659 252v117q-85 61 -206 61q-81 0 -139 -38.5t-58 -112.5q0 -67 44 -106.5t122 -39.5q81 0 136.5 33t100.5 86z" />
    <glyph glyph-name="b" unicode="b" horiz-adv-x="1124" 
d="M311 834q52 47 129.5 77.5t157.5 30.5q202 0 320 -129.5t118 -337.5q0 -226 -139.5 -360.5t-372.5 -134.5q-185 0 -329 77q-19 9 -33.5 32.5t-14.5 45.5v1221q0 33 23.5 55.5t58.5 22.5t58.5 -22.5t23.5 -55.5v-522zM311 670v-473q97 -64 221 -64q143 0 236.5 89
t93.5 241q0 153 -82.5 239t-218.5 86q-75 0 -144 -35.5t-106 -82.5z" />
    <glyph glyph-name="c" unicode="c" horiz-adv-x="976" 
d="M778 735q-100 53 -203 53q-128 0 -221.5 -92.5t-93.5 -234.5q0 -148 95.5 -238t236.5 -90q112 0 196 64q33 26 64 26q27 0 47 -20q23 -20 23 -51q0 -34 -23 -54q-73 -65 -149.5 -91.5t-169.5 -26.5q-221 0 -357.5 132t-136.5 349q0 133 60 243t167.5 174t239.5 64
q172 0 299 -72q43 -22 43 -69q0 -22 -10 -37q-21 -37 -68 -37q-23 0 -39 8z" />
    <glyph glyph-name="d" unicode="d" horiz-adv-x="1134" 
d="M987 1356v-1293q0 -32 -23.5 -54.5t-58.5 -22.5t-58.5 22.5t-23.5 54.5v54q-122 -133 -293 -133q-202 0 -323 128.5t-121 342.5t142.5 350.5t361.5 136.5q142 0 233 -65v479q0 33 23.5 55.5t58.5 22.5t58.5 -22.5t23.5 -55.5zM823 260v457q-113 71 -227 71
q-141 0 -238.5 -90.5t-97.5 -238.5q0 -149 84.5 -235.5t216.5 -86.5q75 0 145 35.5t117 87.5z" />
    <glyph glyph-name="e" unicode="e" horiz-adv-x="1075" 
d="M819 543q-6 115 -76.5 180t-189.5 65q-123 0 -201 -68t-92 -177h559zM989 520q0 -31 -2 -45q-1 -25 -22.5 -45t-46.5 -20h-648q10 -129 97.5 -203t224.5 -74q131 0 225 55q23 13 45 13q32 0 56 -27q12 -15 12 -37q0 -39 -25 -55q-143 -102 -325 -102q-224 0 -359 131.5
t-135 349.5q0 135 54.5 243t164 173t256.5 65q182 0 305 -117.5t123 -304.5z" />
    <glyph glyph-name="f" unicode="f" horiz-adv-x="692" 
d="M332 768v-705q0 -32 -23.5 -54.5t-58.5 -22.5t-58.5 22.5t-23.5 54.5v1008q0 190 84 286.5t240 96.5q116 0 204 -53q35 -20 35 -60q0 -30 -20.5 -48.5t-51.5 -18.5q-24 0 -43 8q-50 18 -98 18q-186 0 -186 -247v-131h229q32 0 55 -22.5t23 -53.5q0 -32 -23 -55t-55 -23
h-229z" />
    <glyph glyph-name="g" unicode="g" horiz-adv-x="1028" 
d="M434 162q9 0 27.5 1t27.5 1q210 0 339.5 -76t129.5 -221q0 -96 -62 -163t-166 -98.5t-241 -31.5q-138 0 -241 30.5t-165.5 98t-62.5 164.5q0 109 79 180t216 100q-22 28 -22 76t24 78q-97 39 -151.5 120t-54.5 183q0 142 103.5 240t272.5 98q134 0 234 -68l207 50
q6 2 16 2q22 0 40 -14t22 -35q2 -4 2 -15q0 -22 -14.5 -40.5t-37.5 -24.5l-135 -33q43 -70 43 -160q0 -141 -105 -236.5t-272 -95.5q-41 0 -61 2q-10 -20 -10 -51q0 -37 18 -61zM174 -133q0 -76 85.5 -118t229.5 -42q145 0 230.5 41.5t85.5 118.5t-84 120.5t-232 43.5
t-231.5 -43.5t-83.5 -120.5zM264 604q0 -87 61.5 -142.5t161.5 -55.5q98 0 161 55t63 143t-61.5 146.5t-162.5 58.5q-100 0 -161.5 -58.5t-61.5 -146.5z" />
    <glyph glyph-name="h" unicode="h" horiz-adv-x="1142" 
d="M311 668v-605q0 -32 -23.5 -54.5t-58.5 -22.5t-58.5 22.5t-23.5 54.5v1293q0 33 23.5 55.5t58.5 22.5t58.5 -22.5t23.5 -55.5v-541q53 54 134.5 88.5t166.5 34.5q383 0 383 -410v-465q0 -32 -23.5 -54.5t-58.5 -22.5t-58.5 22.5t-23.5 54.5v443q0 278 -258 278
q-75 0 -146.5 -32.5t-115.5 -83.5z" />
    <glyph glyph-name="i" unicode="i" horiz-adv-x="548" 
d="M356 854v-791q0 -32 -23.5 -54.5t-58.5 -22.5t-58 22t-23 55v791q0 33 23 55.5t58 22.5t58.5 -22.5t23.5 -55.5zM172 1268q0 43 31.5 70.5t75.5 27.5q40 0 70 -27.5t30 -70.5q0 -49 -29.5 -78t-70.5 -29q-45 0 -76 29t-31 78z" />
    <glyph glyph-name="j" unicode="j" horiz-adv-x="579" 
d="M236 -55v909q0 33 23 55.5t58 22.5t58.5 -22.5t23.5 -55.5v-922q0 -358 -288 -358q-82 0 -144 23q-53 19 -53 71q0 32 21 51t55 19q23 0 35 -4q24 -6 49 -6q162 0 162 217zM213 1268q0 43 31 70.5t75 27.5q40 0 70.5 -27.5t30.5 -70.5q0 -49 -30 -78t-71 -29
q-45 0 -75.5 29t-30.5 78z" />
    <glyph glyph-name="k" unicode="k" horiz-adv-x="974" 
d="M737 29l-340 393q-22 25 -22 59q0 35 22 60l301 348q37 43 74 43q36 0 58 -20.5t22 -49.5t-25 -57l-282 -311l329 -371q25 -31 25 -62q0 -32 -22.5 -53.5t-59.5 -21.5q-43 0 -80 43zM311 1356v-1293q0 -32 -23.5 -54.5t-58.5 -22.5t-58.5 22.5t-23.5 54.5v1293
q0 33 23.5 55.5t58.5 22.5t58.5 -22.5t23.5 -55.5z" />
    <glyph glyph-name="l" unicode="l" horiz-adv-x="589" 
d="M311 1356v-1037q0 -95 25.5 -138.5t83.5 -43.5q19 0 50.5 5t41.5 5q25 0 46.5 -16.5t21.5 -48.5t-18 -53t-52 -29.5t-60 -11t-63 -2.5q-116 0 -178 64.5t-62 195.5v1110q0 33 23.5 55.5t58.5 22.5t58.5 -22.5t23.5 -55.5z" />
    <glyph glyph-name="m" unicode="m" horiz-adv-x="1662" 
d="M311 805q51 60 133.5 96.5t171.5 36.5q105 0 178.5 -43.5t100.5 -116.5q51 73 136.5 116.5t187.5 43.5q297 0 297 -334v-541q0 -32 -23.5 -54.5t-58.5 -22.5t-58.5 22.5t-23.5 54.5v496q0 225 -199 225q-81 0 -144.5 -37t-97.5 -96q2 -16 2 -65v-523q0 -32 -23.5 -54.5
t-58.5 -22.5t-58 22t-23 55v531q0 87 -51 138.5t-146 51.5q-76 0 -140.5 -35.5t-101.5 -89.5v-596q0 -32 -23.5 -54.5t-58.5 -22.5t-58.5 22.5t-23.5 54.5v791q0 33 23.5 55.5t58.5 22.5t58.5 -22.5t23.5 -55.5v-49z" />
    <glyph glyph-name="n" unicode="n" horiz-adv-x="1142" 
d="M311 666v-603q0 -32 -23.5 -54.5t-58.5 -22.5t-58.5 22.5t-23.5 54.5v791q0 33 23.5 55.5t58.5 22.5t58.5 -22.5t23.5 -55.5v-45q50 55 132 92t169 37q383 0 383 -406v-469q0 -32 -23.5 -54.5t-58.5 -22.5t-58.5 22.5t-23.5 54.5v439q0 282 -260 282q-76 0 -145 -32.5
t-115 -85.5z" />
    <glyph glyph-name="o" unicode="o" 
d="M86 461q0 209 136.5 345t355.5 136t355 -136t136 -345t-136 -345t-355 -136t-355.5 136t-136.5 345zM260 461q0 -144 89.5 -236t228.5 -92t228 90.5t89 237.5q0 144 -89 235.5t-228 91.5q-137 0 -227.5 -91t-90.5 -236z" />
    <glyph glyph-name="p" unicode="p" horiz-adv-x="1138" 
d="M311 43v-375q0 -33 -23.5 -55.5t-58.5 -22.5t-58.5 22.5t-23.5 55.5v1186q0 33 23.5 55.5t58.5 22.5t58.5 -22.5t23.5 -55.5v-41q48 57 134 93t180 36q194 0 310 -130t116 -337q0 -214 -133 -354.5t-347 -140.5q-163 0 -260 63zM311 662v-457q107 -72 246 -72
q146 0 233 94t87 242q0 143 -79.5 231t-219.5 88q-79 0 -151 -35t-116 -91z" />
    <glyph glyph-name="q" unicode="q" horiz-adv-x="1140" 
d="M991 786v-1118q0 -33 -23.5 -55.5t-58.5 -22.5t-58.5 22.5t-23.5 55.5v406q-56 -43 -128 -68.5t-140 -25.5q-216 0 -344.5 131t-128.5 350q0 99 39 188t107 153.5t164.5 102t207.5 37.5q179 0 338 -78q20 -9 34.5 -32.5t14.5 -45.5zM827 244v485q-104 59 -225 59
q-152 0 -247 -97t-95 -238q0 -142 88 -231t232 -89q71 0 140 32.5t107 78.5z" />
    <glyph glyph-name="r" unicode="r" horiz-adv-x="696" 
d="M311 653v-585q0 -34 -24 -58t-58 -24t-58 24t-24 58v782q0 34 24 58t58 24t58 -24t24 -58v-37q84 125 232 125q34 0 84 -12q59 -18 59 -66q0 -6 -4 -26q-17 -58 -82 -58q-13 0 -41 4q-18 4 -55 4q-126 0 -193 -131z" />
    <glyph glyph-name="s" unicode="s" horiz-adv-x="839" 
d="M84 135q0 26 16 45q23 29 58 29q27 0 47 -14q107 -72 213 -72q69 0 116.5 33.5t47.5 93.5q0 37 -27.5 64t-71.5 44t-97 33t-106 38t-97 51.5t-71.5 81t-27.5 120.5q0 120 87 190t226 70q140 0 262 -70q33 -20 33 -57q0 -21 -12 -39q-20 -33 -62 -33q-21 0 -40 11
q-85 45 -172 45q-67 0 -107.5 -33.5t-40.5 -81.5q0 -39 27.5 -67.5t71.5 -46t97 -33.5t106 -37t97 -49.5t71.5 -77.5t27.5 -115q0 -71 -29.5 -125.5t-80.5 -87t-113.5 -49t-133.5 -16.5q-159 0 -288 98q-27 20 -27 57z" />
    <glyph glyph-name="t" unicode="t" horiz-adv-x="704" 
d="M455 137q29 0 73.5 12.5t57.5 12.5q29 0 49 -18.5t20 -49.5q0 -40 -43 -65q-72 -45 -196 -45q-151 0 -220 92t-69 274v750q0 33 23.5 55.5t58.5 22.5t58.5 -22.5t23.5 -55.5v-178h260q32 0 55 -22.5t23 -53.5q0 -32 -23 -55t-55 -23h-260v-401q0 -230 164 -230z" />
    <glyph glyph-name="u" unicode="u" horiz-adv-x="1105" 
d="M793 270v584q0 33 23 55.5t58 22.5t58.5 -22.5t23.5 -55.5v-791q0 -32 -23.5 -54.5t-58.5 -22.5t-58 22t-23 55v68q-52 -64 -138 -107.5t-188 -43.5q-159 0 -249.5 98t-90.5 295v481q0 33 23.5 55.5t58.5 22.5t58.5 -22.5t23.5 -55.5v-444q0 -277 237 -277q76 0 148 39
t117 98z" />
    <glyph glyph-name="v" unicode="v" horiz-adv-x="952" 
d="M412 424q29 -64 77 -205q33 111 76 209l193 453q9 23 30.5 37t47.5 14q33 0 55 -22.5t22 -53.5q0 -16 -6 -31l-342 -782q-23 -57 -82 -57q-56 0 -82 57l-354 766q-8 16 -8 35q0 36 26 62t64 26q55 0 78 -51z" />
    <glyph glyph-name="w" unicode="w" horiz-adv-x="1419" 
d="M997 342q10 -27 43 -133q12 59 37 141l152 520q8 27 29.5 44.5t48.5 17.5q37 0 58 -21.5t21 -52.5q0 -8 -4 -24l-247 -783q-9 -31 -33 -48t-58 -17q-71 0 -94 63l-207 543q-16 41 -34 113q-21 -75 -39 -119l-201 -535q-23 -65 -90 -65q-66 0 -86 65l-256 774q-4 16 -4 27
q0 33 24.5 56.5t59.5 23.5q30 0 51 -16.5t29 -43.5l165 -532q8 -26 20 -71.5t15 -57.5q32 108 39 129l189 522q25 70 92 70q65 0 90 -70z" />
    <glyph glyph-name="x" unicode="x" horiz-adv-x="968" 
d="M264 887l225 -314l228 314q34 45 74 45q36 0 56.5 -21t20.5 -51q0 -25 -14 -45l-250 -338l266 -362q17 -24 17 -52q0 -32 -21.5 -54.5t-60.5 -22.5q-41 0 -74 45l-248 342l-252 -342q-33 -45 -75 -45q-35 0 -54.5 20.5t-19.5 50.5q0 27 16 49l269 363l-244 338
q-14 20 -14 47q0 31 21.5 54.5t59.5 23.5q41 0 74 -45z" />
    <glyph glyph-name="y" unicode="y" horiz-adv-x="980" 
d="M469 336q8 -17 55 -139q14 51 43 141l195 530q8 27 29 45.5t51 18.5q42 0 66 -23t24 -57q0 -15 -8 -39l-326 -813q-66 -164 -122.5 -254t-108.5 -123t-121 -33q-42 0 -76 7.5t-61 30t-27 59.5q0 31 17 48t48 17q10 0 35.5 -5t44.5 -5q58 0 104.5 49.5t92.5 159.5l20 49
l-387 807q-8 16 -8 39q0 35 25 60.5t65 25.5q25 0 46.5 -14t31.5 -37z" />
    <glyph glyph-name="z" unicode="z" horiz-adv-x="933" 
d="M152 0q-34 0 -58 21.5t-24 56.5t26 61l537 629h-459q-32 0 -55 23t-23 55q0 31 23 53.5t55 22.5h606q34 0 57 -21t23 -59q0 -28 -24 -60l-539 -628h489q32 0 55 -22.5t23 -53.5q0 -32 -23 -55t-55 -23h-634z" />
    <glyph glyph-name="braceleft" unicode="{" horiz-adv-x="686" 
d="M553 -256q44 0 68 -20.5t24 -57.5q0 -34 -25 -55t-63 -21h-57q-136 0 -205.5 66t-69.5 211v321q0 84 -33.5 131t-85.5 62q-65 19 -65 80q0 33 14.5 51.5t50.5 30.5q119 46 119 215v284q0 146 64.5 217.5t218.5 71.5h53q37 0 60.5 -20.5t23.5 -53.5q0 -38 -22.5 -58.5
t-59.5 -20.5h-16q-87 0 -122.5 -43t-35.5 -148v-291q0 -99 -41.5 -161.5t-111.5 -71.5q70 -8 111.5 -65t41.5 -169v-297q0 -100 39 -144t125 -44z" />
    <glyph glyph-name="bar" unicode="|" horiz-adv-x="675" 
d="M420 1356v-1293q0 -32 -23.5 -54.5t-58.5 -22.5t-58.5 22.5t-23.5 54.5v1293q0 33 23.5 55.5t58.5 22.5t58.5 -22.5t23.5 -55.5z" />
    <glyph glyph-name="braceright" unicode="}" horiz-adv-x="686" 
d="M129 -410q-38 0 -63 21t-25 55q0 37 24 57.5t68 20.5q86 0 125 44t39 144v297q0 112 42 169t112 65q-70 9 -112 71.5t-42 161.5v291q0 105 -35.5 148t-122.5 43h-16q-37 0 -59.5 20.5t-22.5 58.5q0 33 23.5 53.5t60.5 20.5h53q154 0 218.5 -71.5t64.5 -217.5v-284
q0 -169 119 -215q36 -12 50.5 -30.5t14.5 -51.5q0 -61 -65 -80q-52 -15 -85.5 -62t-33.5 -131v-321q0 -145 -69.5 -211t-205.5 -66h-57z" />
    <glyph glyph-name="asciitilde" unicode="~" horiz-adv-x="1212" 
d="M1104 737q0 -29 -21 -47q-114 -98 -229 -98q-55 0 -122 23.5t-119 52t-114.5 52t-109.5 23.5q-84 0 -164 -71q-22 -19 -45 -19q-27 0 -53 23q-18 18 -18 45q0 30 18 45q124 115 254 115q56 0 124 -23.5t121 -51.5t119 -51.5t119 -23.5q51 0 125 53q27 17 47 17
q28 0 54 -23q14 -17 14 -41z" />
    <glyph glyph-name="uni00A0" unicode="&#xa0;" horiz-adv-x="460" 
 />
    <glyph glyph-name="exclamdown" unicode="&#xa1;" horiz-adv-x="632" 
d="M406 -424q0 -34 -26 -59t-63 -25q-35 0 -60.5 25t-25.5 59v834q0 35 25.5 60.5t60.5 25.5q37 0 63 -25.5t26 -60.5v-834zM313 942q53 0 86 -34.5t33 -82.5q0 -42 -33 -75t-86 -33q-46 0 -77 33t-31 75q0 47 31 82t77 35z" />
    <glyph glyph-name="cent" unicode="&#xa2;" horiz-adv-x="1157" 
d="M995 98q-112 -101 -258 -114v-158q0 -30 -23 -51t-59 -21t-59 21t-23 51v162q-180 29 -285.5 155.5t-105.5 317.5q0 182 109 314.5t282 160.5v151q0 30 23 51t59 21t59 -21t23 -51v-149q106 -11 211 -68q43 -22 43 -69q0 -22 -10 -37q-21 -37 -68 -37q-23 0 -39 8
q-100 53 -202 53q-128 0 -222 -92.5t-94 -234.5q0 -148 95.5 -238t236.5 -90q113 0 197 64q33 26 63 26q27 0 47 -20q23 -20 23 -51q0 -34 -23 -54z" />
    <glyph glyph-name="sterling" unicode="&#xa3;" horiz-adv-x="1189" 
d="M78 82q0 31 24 55q80 74 148 101q106 137 106 276q0 33 -2 49h-135q-28 0 -46.5 19.5t-18.5 48.5q0 28 18.5 46.5t46.5 18.5h96q-9 20 -35 74.5t-38 85t-24.5 85.5t-12.5 112q0 166 122.5 281.5t319.5 115.5q97 0 174.5 -26.5t159.5 -77.5q41 -26 41 -70q0 -25 -18 -49
q-20 -29 -60 -29q-28 0 -57 16q-122 72 -236 72q-116 0 -189 -72t-73 -172q0 -68 19 -124.5t51.5 -118.5t46.5 -103h268q26 0 45 -19t19 -46q0 -29 -18.5 -48.5t-45.5 -21.5l-244 -6q0 -155 -110 -295q68 -6 209.5 -55t216.5 -49q83 0 160 51q27 18 55 18q37 0 57 -26
q19 -22 19 -49q0 -35 -29 -60q-126 -98 -266 -98q-79 0 -233.5 53t-233.5 53q-83 0 -168 -63q-30 -23 -62 -23q-26 0 -47 21q-20 23 -20 49z" />
    <glyph glyph-name="currency" unicode="&#xa4;" horiz-adv-x="1169" 
d="M125 176q-28 0 -49 21t-21 51t21 51l127 131q-84 119 -84 277q0 154 84 276l-119 123q-21 21 -21 51t21 51q23 23 51 23t51 -23l119 -123q120 86 279 86q154 0 276 -84l129 127q23 23 51 23q29 0 52 -23q22 -22 22 -51t-22 -51l-129 -127q86 -125 86 -278
q0 -155 -86 -277l122 -123q23 -23 23 -51t-21 -49t-51 -21t-51 21l-123 121q-120 -86 -278 -86q-159 0 -279 86l-129 -129q-23 -23 -51 -23zM272 707q0 -135 85 -228.5t227 -93.5q145 0 228 92.5t83 229.5q0 139 -84 230t-227 91q-141 0 -226.5 -92t-85.5 -229z" />
    <glyph glyph-name="yen" unicode="&#xa5;" horiz-adv-x="1161" 
d="M178 264q-28 0 -46.5 19.5t-18.5 48.5q0 28 18.5 46.5t46.5 18.5h311v215h-311q-28 0 -46.5 19.5t-18.5 48.5q0 28 18.5 46.5t46.5 18.5h234l-332 570q-12 21 -12 45q0 34 24.5 59t65.5 25q29 0 47 -15.5t39 -50.5l340 -600l342 602q35 64 86 64q37 0 59.5 -24t22.5 -56
q0 -22 -11 -39l-342 -580h238q26 0 44.5 -18.5t18.5 -46.5q0 -29 -18.5 -48.5t-44.5 -19.5h-315v-215h315q26 0 44.5 -18.5t18.5 -46.5q0 -29 -18.5 -48.5t-44.5 -19.5h-315v-178q0 -35 -25.5 -60.5t-60.5 -25.5q-37 0 -63 25.5t-26 60.5v178h-311z" />
    <glyph glyph-name="brokenbar" unicode="&#xa6;" horiz-adv-x="675" 
d="M256 979v377q0 33 23.5 55.5t58.5 22.5t58.5 -22.5t23.5 -55.5v-377q0 -33 -23.5 -55.5t-58.5 -22.5t-58.5 22.5t-23.5 55.5zM420 455v-377q0 -33 -23.5 -55.5t-58.5 -22.5t-58.5 22.5t-23.5 55.5v377q0 32 23.5 54.5t58.5 22.5t58.5 -22.5t23.5 -54.5z" />
    <glyph glyph-name="section" unicode="&#xa7;" horiz-adv-x="1073" 
d="M377 -219q50 -37 123 -37q71 0 120.5 48.5t49.5 117.5q0 77 -49 131t-134 96q-163 15 -258.5 118.5t-95.5 254.5q0 130 72 226.5t198 131.5q-74 41 -120.5 112.5t-46.5 164.5q0 124 88.5 206.5t240.5 82.5q85 0 142 -20.5t104 -67.5q20 -20 20 -54t-22 -53
q-23 -20 -53 -20q-32 0 -66 24q-47 37 -121 37q-71 0 -120.5 -48.5t-49.5 -117.5q0 -140 179 -229q166 -12 264 -116.5t98 -258.5q0 -130 -73 -227.5t-201 -130.5q74 -42 121 -112t47 -161q0 -124 -89 -206.5t-241 -82.5q-156 0 -248 95q-23 23 -23 53t23 53q24 21 49 21
q29 0 72 -31zM297 510q0 -96 68 -163.5t172 -67.5q106 0 172.5 67.5t66.5 163.5t-67.5 164.5t-171.5 68.5t-172 -68t-68 -165z" />
    <glyph glyph-name="dieresis" unicode="&#xa8;" horiz-adv-x="849" 
d="M219 1147q-41 0 -68.5 27t-27.5 75q0 42 27.5 68t68.5 26q35 0 62.5 -26.5t27.5 -67.5q0 -47 -27 -74.5t-63 -27.5zM637 1147q-42 0 -70 27t-28 75q0 42 28.5 68t69.5 26q35 0 62.5 -26.5t27.5 -67.5q0 -47 -27 -74.5t-63 -27.5z" />
    <glyph glyph-name="copyright" unicode="&#xa9;" horiz-adv-x="2084" 
d="M154 453q0 183 68 347.5t185.5 283t283 188t351.5 69.5t351.5 -69.5t283 -188t186 -283t68.5 -347.5t-68.5 -347.5t-186 -283.5t-283 -188.5t-351.5 -69.5t-351.5 69.5t-283 188.5t-185.5 283.5t-68 347.5zM297 451q0 -152 56.5 -289t154 -237t237 -159t297.5 -59
q210 0 381.5 100t268 270.5t96.5 373.5q0 204 -96.5 375t-268 271.5t-381.5 100.5q-158 0 -297.5 -59t-237 -159.5t-154 -238t-56.5 -290.5zM565 461q0 133 60 243t167.5 174t239.5 64q172 0 299 -72q43 -22 43 -69q0 -22 -10 -37q-21 -37 -68 -37q-23 0 -39 8
q-100 53 -202 53q-128 0 -222 -92.5t-94 -234.5q0 -148 95.5 -238t236.5 -90q113 0 197 64q32 26 63 26q27 0 47 -20q23 -20 23 -51q0 -34 -23 -54q-73 -65 -149.5 -91.5t-169.5 -26.5q-221 0 -357.5 132t-136.5 349z" />
    <glyph glyph-name="ordfeminine" unicode="&#xaa;" horiz-adv-x="870" 
d="M102 868q0 106 68.5 164t189.5 58q130 0 224 -46q0 181 -172 181q-59 0 -117 -21q-30 -10 -47 -10q-28 0 -45 25q-10 17 -10 28q0 41 47 60q80 41 198 41q126 0 207.5 -68.5t81.5 -196.5v-356q0 -30 -21 -50t-53 -20q-29 0 -49 20.5t-20 49.5v35q-87 -105 -254 -105
q-102 0 -165 61t-63 150zM584 852v94q-84 41 -176 41q-68 0 -110 -28t-42 -76q0 -46 39 -75.5t104 -29.5q95 0 185 74z" />
    <glyph glyph-name="guillemotleft" unicode="&#xab;" horiz-adv-x="1028" 
d="M670 512l256 -301q16 -19 16 -45q0 -34 -27 -55q-21 -21 -47 -21q-34 0 -53 25l-289 344q-20 27 -20 53q0 28 20 51l295 344q20 23 49 23q28 0 52 -21q22 -17 22 -51q0 -29 -16 -45zM248 512l256 -301q16 -19 16 -45q0 -35 -26 -55q-21 -21 -48 -21q-34 0 -53 25
l-289 344q-20 27 -20 53q0 28 20 51l295 344q20 23 50 23q27 0 51 -21q22 -17 22 -51q0 -29 -16 -45z" />
    <glyph glyph-name="logicalnot" unicode="&#xac;" horiz-adv-x="1212" 
d="M1092 463q0 -28 -20 -47t-52 -19t-52 19t-20 47v203h-762q-28 0 -46.5 19.5t-18.5 51.5t18.5 52t46.5 20h840q28 0 47 -19t19 -47v-280z" />
    <glyph glyph-name="uni00AD" unicode="&#xad;" horiz-adv-x="796" 
d="M229 635h338q31 0 53.5 -23t22.5 -55q0 -31 -22.5 -53.5t-53.5 -22.5h-338q-31 0 -53 23t-22 55q0 31 22 53.5t53 22.5z" />
    <glyph glyph-name="registered" unicode="&#xae;" horiz-adv-x="1265" 
d="M102 1018q0 143 70.5 264.5t193.5 192.5t269 71q143 0 264.5 -71t192.5 -192.5t71 -264.5q0 -146 -71 -269.5t-192.5 -194.5t-264.5 -71q-146 0 -268.5 71.5t-193.5 194.5t-71 269zM238 1018q0 -165 116.5 -282.5t280.5 -117.5t278.5 117.5t114.5 282.5
q0 164 -114.5 278.5t-278.5 114.5q-165 0 -281 -114.5t-116 -278.5zM725 776l-104 168h-76v-151q0 -23 -16.5 -39.5t-41.5 -16.5q-23 0 -39 16.5t-16 39.5v462q0 23 16 39.5t39 16.5h146q115 0 168 -48.5t53 -129.5q0 -59 -35 -105t-88 -61l94 -142q11 -14 11 -34
q0 -23 -14.5 -38.5t-41.5 -15.5q-33 0 -55 39zM545 1026h80q50 0 83 29.5t33 74.5t-32 72t-91 27h-73v-203z" />
    <glyph glyph-name="macron" unicode="&#xaf;" horiz-adv-x="786" 
d="M188 1321h410q28 0 47 -19.5t19 -48.5q0 -28 -19 -46.5t-47 -18.5h-410q-28 0 -46.5 19t-18.5 48q0 28 18.5 47t46.5 19z" />
    <glyph glyph-name="degree" unicode="&#xb0;" horiz-adv-x="839" 
d="M418 850q-131 0 -223.5 91t-92.5 224q0 134 92.5 227t223.5 93q134 0 226.5 -89.5t92.5 -224.5q0 -133 -93.5 -227t-225.5 -94zM420 1341q-72 0 -123 -51.5t-51 -122.5q0 -72 51 -123t123 -51q71 0 122.5 51t51.5 123q0 71 -52 122.5t-122 51.5z" />
    <glyph glyph-name="plusminus" unicode="&#xb1;" horiz-adv-x="1212" 
d="M680 659q0 -29 -22 -50t-54 -21q-33 0 -55.5 20.5t-22.5 50.5v181h-313q-29 0 -50.5 21t-21.5 50t21.5 50.5t50.5 21.5h313v320q0 30 22.5 50.5t55.5 20.5q32 0 54 -21t22 -50v-320h319q29 0 50.5 -21.5t21.5 -50.5t-21.5 -50t-50.5 -21h-319v-181zM213 481h786
q29 0 50.5 -21t21.5 -50t-21.5 -50.5t-50.5 -21.5h-786q-29 0 -50.5 21.5t-21.5 50.5t21.5 50t50.5 21z" />
    <glyph glyph-name="twosuperior" unicode="&#xb2;" horiz-adv-x="684" 
d="M242 840h331q25 0 43.5 -18.5t18.5 -43.5t-18.5 -43t-43.5 -18h-458q-29 0 -47.5 17t-18.5 48q0 36 55 74q159 110 212 155q130 111 130 195q0 49 -32.5 81t-91.5 32q-79 0 -119 -51q-34 -43 -68 -43q-16 0 -31 6q-34 15 -34 53q0 20 10 37q29 57 97 89t159 32
q127 0 194.5 -61t67.5 -158q0 -54 -29 -108.5t-69 -95t-93.5 -80t-91 -61t-73.5 -38.5z" />
    <glyph glyph-name="threesuperior" unicode="&#xb3;" horiz-adv-x="698" 
d="M336 1444q115 0 184.5 -48t69.5 -132q0 -63 -40.5 -108t-111.5 -64q84 -7 131 -56t47 -116q0 -97 -83 -156t-205 -59q-185 0 -275 122q-10 13 -10 33q0 28 25 45q15 10 32 10q28 0 54 -26q63 -66 151 -66q74 0 116 31t42 78q0 43 -40.5 69.5t-115.5 26.5q-27 0 -43 14.5
t-16 38.5q0 21 15.5 35t39.5 14q58 0 95.5 30t37.5 75q0 43 -35 67.5t-94 24.5q-93 0 -141 -45q-27 -20 -47 -20q-18 0 -33 12q-18 15 -18 37q0 25 20 45q88 88 248 88z" />
    <glyph glyph-name="acute" unicode="&#xb4;" horiz-adv-x="589" 
d="M158 1208l147 219q16 25 49 25q20 0 35 -12l29 -21q22 -19 22 -47q0 -25 -14 -39l-164 -198q-22 -25 -53 -25q-18 0 -35 10q-27 18 -27 54q0 16 11 34z" />
    <glyph glyph-name="mu" unicode="&#xb5;" horiz-adv-x="1103" 
d="M803 270v584q0 33 23.5 55.5t58.5 22.5t58.5 -22.5t23.5 -55.5v-791q0 -32 -23.5 -54.5t-58.5 -22.5t-58.5 22.5t-23.5 54.5v68q-52 -64 -138 -107.5t-188 -43.5q-103 0 -176 40v-352q0 -33 -23.5 -55.5t-58.5 -22.5t-58.5 22.5t-23.5 55.5v1186q0 33 23.5 55.5
t58.5 22.5t58.5 -22.5t23.5 -55.5v-444q0 -277 238 -277q76 0 147.5 39t116.5 98z" />
    <glyph glyph-name="mu" unicode="&#x3bc;" horiz-adv-x="1103" 
d="M803 270v584q0 33 23.5 55.5t58.5 22.5t58.5 -22.5t23.5 -55.5v-791q0 -32 -23.5 -54.5t-58.5 -22.5t-58.5 22.5t-23.5 54.5v68q-52 -64 -138 -107.5t-188 -43.5q-103 0 -176 40v-352q0 -33 -23.5 -55.5t-58.5 -22.5t-58.5 22.5t-23.5 55.5v1186q0 33 23.5 55.5
t58.5 22.5t58.5 -22.5t23.5 -55.5v-444q0 -277 238 -277q76 0 147.5 39t116.5 98z" />
    <glyph glyph-name="paragraph" unicode="&#xb6;" horiz-adv-x="944" 
d="M197 -242q27 0 51 -12q49 -18 92 -18q45 0 78.5 13t53.5 35t32.5 55.5t17 68.5t4.5 80v559q-118 1 -215.5 52.5t-158 154.5t-60.5 239q0 207 120.5 328t317.5 121h279q29 0 51.5 -22.5t22.5 -53.5q0 -32 -22 -55t-52 -23h-119v-1307q0 -399 -338 -399q-103 0 -182 39
q-19 8 -32 26.5t-13 41.5q0 15 6 30q19 47 66 47z" />
    <glyph glyph-name="periodcentered" unicode="&#xb7;" horiz-adv-x="460" 
d="M117 612q0 42 32.5 75.5t83.5 33.5q46 0 77.5 -33.5t31.5 -75.5q0 -47 -31.5 -81.5t-77.5 -34.5q-52 0 -84 34t-32 82z" />
    <glyph glyph-name="cedilla" unicode="&#xb8;" horiz-adv-x="718" 
d="M389 0v-88q103 -6 155 -48.5t52 -115.5q0 -75 -68 -121.5t-190 -46.5q-95 0 -172 43q-27 13 -27 45q0 13 4 21q11 24 41 24q16 0 31 -6q57 -24 102 -24q52 0 83.5 20.5t31.5 60.5q0 32 -21.5 52t-60.5 20q-20 0 -34.5 14.5t-14.5 34.5v115h88z" />
    <glyph glyph-name="onesuperior" unicode="&#xb9;" horiz-adv-x="497" 
d="M201 1268l-68 -43q-18 -11 -35 -11q-31 0 -47 25q-8 13 -8 29q0 28 31 49l121 84q8 5 21.5 15t19 14t15 10t15 8t13 4t14.5 2q22 0 36.5 -14.5t14.5 -40.5v-613q0 -31 -21 -50t-53 -19q-30 0 -49.5 19.5t-19.5 49.5v482z" />
    <glyph glyph-name="ordmasculine" unicode="&#xba;" horiz-adv-x="974" 
d="M487 653q-163 0 -268.5 97t-105.5 251t105.5 250.5t268.5 96.5t269 -96.5t106 -250.5t-106 -251t-269 -97zM487 1214q-93 0 -157 -59t-64 -154t65 -155t156 -60q93 0 157.5 59.5t64.5 155.5q0 94 -65 153.5t-157 59.5z" />
    <glyph glyph-name="guillemotright" unicode="&#xbb;" horiz-adv-x="1028" 
d="M784 512l-258 301q-16 19 -16 45q0 31 27 55q20 17 45 17q28 0 51 -23l295 -344q20 -20 20 -53q0 -32 -20 -55l-289 -340q-19 -25 -53 -25q-26 0 -47 21q-27 21 -27 55q0 26 16 45zM354 512l-258 301q-16 19 -16 45q0 32 26 55q20 17 46 17q28 0 51 -23l295 -344
q20 -20 20 -53q0 -32 -20 -55l-289 -340q-19 -25 -53 -25q-26 0 -47 21q-27 21 -27 55q0 26 16 45z" />
    <glyph glyph-name="onequarter" unicode="&#xbc;" horiz-adv-x="1388" 
d="M221 1268l-67 -43q-18 -11 -35 -11q-31 0 -47 25q-9 15 -9 29q0 28 31 49l121 84q8 5 21.5 15t19 14t15 10t15 8t13 4t14.5 2q23 0 37.5 -15t14.5 -40v-613q0 -31 -21 -50t-53 -19q-30 0 -50 19.5t-20 49.5v482zM1190 1337l-981 -1310q-16 -25 -47 -25q-22 0 -37 12
q-23 16 -23 47q0 19 11 33l983 1313q16 25 47 25q19 0 35 -13q22 -16 22 -49q0 -20 -10 -33zM1186 162v-99q0 -25 -19 -44t-47 -19q-30 0 -48.5 18.5t-18.5 44.5v99h-344q-28 0 -45 16t-17 43q0 6 1 11t4 11.5t5 10.5t7 11.5t8 11.5t10 13t10 13l273 367q32 47 67 47
q22 0 36.5 -13t14.5 -34q0 -26 -18 -49l-260 -347h248v121q0 28 18.5 47t48.5 19q29 0 47.5 -19t18.5 -47v-121h61q24 0 42 -16t18 -37q0 -25 -17.5 -42t-42.5 -17h-61z" />
    <glyph glyph-name="onehalf" unicode="&#xbd;" horiz-adv-x="1337" 
d="M236 1268l-68 -43q-18 -11 -35 -11q-31 0 -47 25q-8 13 -8 29q0 28 31 49l120 84q7 5 21.5 15t19.5 13.5t15 10t15.5 8.5t13 4t14.5 2q22 0 36.5 -14.5t14.5 -40.5v-613q0 -31 -21 -50t-53 -19q-30 0 -49.5 19.5t-19.5 49.5v482zM1151 1337l-981 -1310q-16 -25 -47 -25
q-22 0 -37 12q-23 16 -23 47q0 19 11 33l983 1313q16 25 47 25q19 0 35 -13q22 -16 22 -49q0 -20 -10 -33zM895 123h332q25 0 43 -18.5t18 -43.5t-18 -43t-43 -18h-459q-29 0 -47.5 17.5t-18.5 48.5q0 34 56 73q159 110 212 155q130 111 130 195q0 49 -33 81t-92 32
q-79 0 -119 -51q-34 -43 -68 -43q-15 0 -30 6q-35 15 -35 53q0 19 10 37q29 57 97 89t159 32q127 0 194.5 -61t67.5 -158q0 -54 -29 -108.5t-69 -95t-93.5 -80t-91 -61t-73.5 -38.5z" />
    <glyph glyph-name="threequarters" unicode="&#xbe;" horiz-adv-x="1490" 
d="M1337 1337l-981 -1310q-16 -25 -47 -25q-22 0 -37 12q-22 16 -22 47q0 21 10 33l983 1313q16 25 47 25q19 0 35 -13q23 -16 23 -49q0 -19 -11 -33zM1288 162v-99q0 -26 -18.5 -44.5t-46.5 -18.5q-30 0 -49 18.5t-19 44.5v99h-344q-28 0 -44.5 15.5t-16.5 43.5q0 6 1 11
t4 11.5t5 10.5t7 11.5t8 11.5t10 13t10 13l272 367q32 47 68 47q22 0 36.5 -13t14.5 -34q0 -25 -19 -49l-260 -347h248v121q0 28 19 47t49 19q29 0 47 -19t18 -47v-121h62q24 0 41.5 -16t17.5 -37q0 -25 -17 -42t-42 -17h-62zM322 1444q115 0 184 -48t69 -132
q0 -63 -40 -108t-111 -64q84 -7 131 -56t47 -116q0 -97 -83.5 -156t-205.5 -59q-184 0 -274 122q-10 13 -10 33q0 29 24 45q15 10 33 10q27 0 53 -26q63 -66 152 -66q74 0 116 31t42 78q0 43 -40.5 69.5t-115.5 26.5q-27 0 -43.5 14.5t-16.5 38.5q0 21 16 35t40 14
q58 0 95.5 30t37.5 75q0 43 -35 67.5t-94 24.5q-93 0 -141 -45q-27 -20 -48 -20q-17 0 -32 12q-19 16 -19 37q0 24 21 45q88 88 248 88z" />
    <glyph glyph-name="questiondown" unicode="&#xbf;" horiz-adv-x="937" 
d="M487 479l-2 29v4q0 28 16.5 49.5t47.5 24.5h8q33 0 53 -20t23 -50l4 -37q2 -14 2 -41q0 -59 -20.5 -108t-53.5 -83t-72.5 -64.5t-79.5 -60.5t-73 -63.5t-53.5 -81.5t-20.5 -106q0 -95 71 -160t179 -65q70 0 122 22t114 70q27 20 55 20q35 0 57 -28q17 -20 17 -47
q0 -34 -25 -56q-82 -74 -162.5 -109.5t-187.5 -35.5q-192 0 -304 101.5t-112 252.5q0 77 22 140.5t57 106t77 79.5t84.5 68.5t77.5 64t57 75t22 93.5v16zM553 942q53 0 86 -34.5t33 -82.5q0 -42 -33 -75t-86 -33q-46 0 -77.5 33.5t-31.5 74.5q0 47 31.5 82t77.5 35z" />
    <glyph glyph-name="Agrave" unicode="&#xc0;" horiz-adv-x="1402" 
d="M1190 43l-166 391h-653l-164 -391q-23 -57 -78 -57q-38 0 -60 23.5t-22 56.5q0 12 8 36l549 1272q31 70 101 70q69 0 98 -70l547 -1265q6 -18 6 -35q0 -36 -23 -62t-61 -26q-59 0 -82 57zM956 598l-258 612l-258 -612h516zM399 1729l17 36q6 13 19.5 22t27.5 9
q12 0 24 -6l301 -160q33 -18 33 -53q0 -13 -6 -25q-15 -30 -51 -30q-17 0 -25 4l-311 131q-33 13 -33 49q0 15 4 23z" />
    <glyph glyph-name="Aacute" unicode="&#xc1;" horiz-adv-x="1402" 
d="M1190 43l-166 391h-653l-164 -391q-23 -57 -78 -57q-38 0 -60 23.5t-22 56.5q0 12 8 36l549 1272q31 70 101 70q69 0 98 -70l547 -1265q6 -18 6 -35q0 -36 -23 -62t-61 -26q-59 0 -82 57zM956 598l-258 612l-258 -612h516zM621 1630l301 160q12 6 24 6q14 0 27.5 -9
t19.5 -22l17 -36q4 -8 4 -23q0 -36 -33 -49l-311 -131q-12 -4 -21 -4q-36 0 -53 30q-6 12 -6 27q0 34 31 51z" />
    <glyph glyph-name="Acircumflex" unicode="&#xc2;" horiz-adv-x="1402" 
d="M1190 43l-166 391h-653l-164 -391q-23 -57 -78 -57q-38 0 -60 23.5t-22 56.5q0 12 8 36l549 1272q31 70 101 70q69 0 98 -70l547 -1265q6 -18 6 -35q0 -36 -23 -62t-61 -26q-59 0 -82 57zM956 598l-258 612l-258 -612h516zM946 1524l-248 137l-235 -133q-17 -10 -35 -10
q-34 0 -51 26q-10 12 -10 33q0 34 30 51l250 148q22 14 51 14q32 0 52 -14l258 -150q28 -16 28 -49q0 -20 -8 -31q-17 -30 -53 -30q-16 0 -29 8z" />
    <glyph glyph-name="Atilde" unicode="&#xc3;" horiz-adv-x="1402" 
d="M1190 43l-166 391h-653l-164 -391q-23 -57 -78 -57q-38 0 -60 23.5t-22 56.5q0 12 8 36l549 1272q31 70 101 70q69 0 98 -70l547 -1265q6 -18 6 -35q0 -36 -23 -62t-61 -26q-59 0 -82 57zM956 598l-258 612l-258 -612h516zM1073 1673q0 -24 -22 -49q-50 -51 -98 -71.5
t-105 -20.5q-46 0 -99 25l-106 50t-98 25q-36 0 -103 -43q-20 -14 -41 -14q-25 0 -45 20q-14 14 -14 37q0 28 18 43q97 82 191 82q52 0 107.5 -25t108.5 -50t99 -25q10 0 20 2.5t22 9.5t19 11t23 15t21 15q26 16 47 16q20 0 39 -16q16 -16 16 -37z" />
    <glyph glyph-name="Adieresis" unicode="&#xc4;" horiz-adv-x="1402" 
d="M1190 43l-166 391h-653l-164 -391q-23 -57 -78 -57q-38 0 -60 23.5t-22 56.5q0 12 8 36l549 1272q31 70 101 70q69 0 98 -70l547 -1265q6 -18 6 -35q0 -36 -23 -62t-61 -26q-59 0 -82 57zM956 598l-258 612l-258 -612h516zM354 1665q0 41 33 66.5t80 25.5q42 0 74 -25.5
t32 -66.5q0 -45 -31.5 -71.5t-74.5 -26.5q-48 0 -80.5 26t-32.5 72zM829 1665q0 41 33.5 66.5t81.5 25.5q42 0 73.5 -25t31.5 -67q0 -45 -31.5 -71.5t-73.5 -26.5q-48 0 -81.5 26.5t-33.5 71.5z" />
    <glyph glyph-name="Aring" unicode="&#xc5;" horiz-adv-x="1402" 
d="M371 434l-164 -391q-23 -57 -84 -57q-34 0 -55 24t-21 56q0 17 6 32l568 1327q-78 16 -126.5 67t-48.5 130q0 98 71.5 147.5t182.5 49.5q114 0 186 -49.5t72 -147.5q0 -77 -47.5 -128t-126.5 -69l566 -1316q6 -18 6 -35q0 -36 -23 -62t-61 -26q-59 0 -82 57l-166 391
h-653zM956 598l-258 612l-258 -612h516zM702 1726q-61 0 -97 -25.5t-36 -78.5q0 -55 36.5 -84t96.5 -29q59 0 96.5 29t37.5 84q0 53 -37 78.5t-97 25.5z" />
    <glyph glyph-name="AE" unicode="&#xc6;" horiz-adv-x="1947" 
d="M1735 0h-664q-35 0 -60.5 25.5t-25.5 60.5v356h-512l-285 -405q-38 -51 -84 -51q-35 0 -56 22.5t-21 54.5q0 34 20 60l905 1259q39 52 99 52h663q32 0 56 -24t24 -58t-24 -58t-56 -24h-555v-463h494q32 0 56 -24t24 -58t-24 -58t-56 -24h-494v-479h576q32 0 56 -24
t24 -58t-24 -58t-56 -24zM985 606v563l-397 -563h397z" />
    <glyph glyph-name="Ccedilla" unicode="&#xc7;" horiz-adv-x="1323" 
d="M1159 1212q-23 0 -49 13q-121 65 -291 65q-234 0 -383 -159.5t-149 -413.5q0 -256 155 -415t404 -159q164 0 297 80q24 15 51 15q38 0 61 -29q15 -18 15 -41q0 -43 -39 -70q-79 -56 -184 -87t-218 -31v-68q218 -11 218 -164q0 -75 -67.5 -121.5t-184.5 -46.5
q-115 0 -201 53q-21 14 -21 37q0 17 9 29q16 25 41 25q10 0 24 -7q66 -34 111 -34q51 0 82.5 19.5t31.5 53.5q0 36 -22.5 58t-58.5 22q-22 0 -36 13t-14 32v103q-290 28 -464.5 225.5t-174.5 507.5q0 207 84 373t248 265t383 99q220 0 377 -96q43 -27 43 -70q0 -21 -12 -39
q-22 -37 -66 -37z" />
    <glyph glyph-name="Egrave" unicode="&#xc8;" horiz-adv-x="1177" 
d="M389 164h576q32 0 55.5 -24t23.5 -58t-23.5 -58t-55.5 -24h-664q-35 0 -60.5 25.5t-25.5 60.5v1262q0 35 25.5 60.5t60.5 25.5h643q32 0 56 -24t24 -58t-24 -58t-56 -24h-555v-463h494q32 0 56 -24t24 -58t-24 -58t-56 -24h-494v-479zM346 1729l16 36q6 13 20 22t28 9
q12 0 24 -6l301 -160q33 -18 33 -53q0 -13 -6 -25q-15 -30 -51 -30q-17 0 -25 4l-311 131q-33 13 -33 49q0 15 4 23z" />
    <glyph glyph-name="Eacute" unicode="&#xc9;" horiz-adv-x="1177" 
d="M389 164h576q32 0 55.5 -24t23.5 -58t-23.5 -58t-55.5 -24h-664q-35 0 -60.5 25.5t-25.5 60.5v1262q0 35 25.5 60.5t60.5 25.5h643q32 0 56 -24t24 -58t-24 -58t-56 -24h-555v-463h494q32 0 56 -24t24 -58t-24 -58t-56 -24h-494v-479zM516 1630l301 160q12 6 25 6
q14 0 27.5 -9t19.5 -22l16 -36q4 -8 4 -23q0 -36 -32 -49l-312 -131q-12 -4 -20 -4q-36 0 -53 30q-7 14 -7 27q0 34 31 51z" />
    <glyph glyph-name="Ecircumflex" unicode="&#xca;" horiz-adv-x="1177" 
d="M389 164h576q32 0 55.5 -24t23.5 -58t-23.5 -58t-55.5 -24h-664q-35 0 -60.5 25.5t-25.5 60.5v1262q0 35 25.5 60.5t60.5 25.5h643q32 0 56 -24t24 -58t-24 -58t-56 -24h-555v-463h494q32 0 56 -24t24 -58t-24 -58t-56 -24h-494v-479zM866 1524l-248 137l-235 -133
q-17 -10 -35 -10q-34 0 -51 26q-10 12 -10 33q0 34 30 51l250 148q22 14 51 14q32 0 52 -14l258 -150q28 -16 28 -49q0 -20 -8 -31q-17 -30 -53 -30q-16 0 -29 8z" />
    <glyph glyph-name="Edieresis" unicode="&#xcb;" horiz-adv-x="1177" 
d="M389 164h576q32 0 55.5 -24t23.5 -58t-23.5 -58t-55.5 -24h-664q-35 0 -60.5 25.5t-25.5 60.5v1262q0 35 25.5 60.5t60.5 25.5h643q32 0 56 -24t24 -58t-24 -58t-56 -24h-555v-463h494q32 0 56 -24t24 -58t-24 -58t-56 -24h-494v-479zM279 1665q0 42 32.5 67t79.5 25
q42 0 74.5 -25.5t32.5 -66.5q0 -45 -32 -71.5t-75 -26.5q-48 0 -80 26t-32 72zM754 1665q0 41 33.5 66.5t80.5 25.5q42 0 73.5 -25t31.5 -67q0 -45 -31.5 -71.5t-73.5 -26.5q-48 0 -81 26.5t-33 71.5z" />
    <glyph glyph-name="Igrave" unicode="&#xcc;" horiz-adv-x="686" 
d="M256 1360q0 34 26 59t62 25q35 0 60.5 -25t25.5 -59v-1288q0 -35 -25.5 -60.5t-60.5 -25.5q-37 0 -62.5 25.5t-25.5 60.5v1288zM18 1729l17 36q6 13 19.5 22t27.5 9q12 0 24 -6l302 -160q32 -18 32 -53q0 -13 -6 -25q-15 -30 -51 -30q-17 0 -25 4l-311 131q-33 13 -33 49
q0 15 4 23z" />
    <glyph glyph-name="Iacute" unicode="&#xcd;" horiz-adv-x="686" 
d="M256 1360q0 34 26 59t62 25q35 0 60.5 -25t25.5 -59v-1288q0 -35 -25.5 -60.5t-60.5 -25.5q-37 0 -62.5 25.5t-25.5 60.5v1288zM281 1630l301 160q12 6 24 6q14 0 27.5 -9t19.5 -22l17 -36q4 -8 4 -23q0 -36 -33 -49l-311 -131q-12 -4 -21 -4q-36 0 -53 30q-6 12 -6 27
q0 34 31 51z" />
    <glyph glyph-name="Icircumflex" unicode="&#xce;" horiz-adv-x="686" 
d="M256 1360q0 34 26 59t62 25q35 0 60.5 -25t25.5 -59v-1288q0 -35 -25.5 -60.5t-60.5 -25.5q-37 0 -62.5 25.5t-25.5 60.5v1288zM588 1524l-248 137l-236 -133q-17 -10 -34 -10q-35 0 -52 26q-10 12 -10 33q0 34 31 51l250 148q22 14 51 14q31 0 51 -14l258 -150
q29 -16 29 -49q0 -20 -8 -31q-17 -30 -54 -30q-15 0 -28 8z" />
    <glyph glyph-name="Idieresis" unicode="&#xcf;" horiz-adv-x="686" 
d="M256 1360q0 34 26 59t62 25q35 0 60.5 -25t25.5 -59v-1288q0 -35 -25.5 -60.5t-60.5 -25.5q-37 0 -62.5 25.5t-25.5 60.5v1288zM-4 1665q0 41 33 66.5t80 25.5q42 0 74 -25.5t32 -66.5q0 -45 -31.5 -71.5t-74.5 -26.5q-48 0 -80.5 26t-32.5 72zM471 1665q0 41 33.5 66.5
t81.5 25.5q42 0 73 -25t31 -67q0 -45 -31 -71.5t-73 -26.5q-48 0 -81.5 26.5t-33.5 71.5z" />
    <glyph glyph-name="Eth" unicode="&#xd0;" horiz-adv-x="1544" 
d="M1442 735q0 -155 -52.5 -288t-152 -234t-258 -159t-358.5 -58q-67 0 -289 4q-35 0 -60.5 25.5t-25.5 60.5v561h-150q-31 0 -53.5 23t-22.5 55q0 31 22.5 53.5t53.5 22.5h150v547q0 36 25 61t61 25q300 6 305 6q167 0 303 -37.5t228.5 -102.5t155 -155t90.5 -192.5
t28 -217.5zM420 647v-483q188 -4 207 -4q151 0 271 43t198 119.5t119.5 181.5t41.5 231q0 118 -39.5 216t-116 171t-196 113.5t-272.5 40.5q-38 0 -73.5 -1t-75.5 -2.5t-64 -2.5v-469h311q29 0 51.5 -22.5t22.5 -53.5q0 -32 -22 -55t-52 -23h-311z" />
    <glyph glyph-name="Ntilde" unicode="&#xd1;" horiz-adv-x="1628" 
d="M1249 303v1061q0 32 24 56t58 24t58 -24t24 -56v-1290q0 -39 -20.5 -63.5t-53.5 -24.5q-31 0 -53.5 14.5t-50.5 48.5l-856 1079v-1062q0 -32 -24 -56t-58 -24t-58 24t-24 56v1282q0 40 20.5 68t59.5 28q31 0 55 -16.5t56 -57.5zM1198 1673q0 -24 -22 -49
q-50 -51 -98 -71.5t-105 -20.5q-46 0 -99 25l-106 50t-98 25q-36 0 -103 -43q-20 -14 -41 -14q-25 0 -45 20q-14 14 -14 37q0 28 18 43q97 82 191 82q52 0 107.5 -25t108.5 -50t99 -25q10 0 20 2.5t22 9.5t19 11t23 15t21 15q26 16 47 16q20 0 39 -16q16 -16 16 -37z" />
    <glyph glyph-name="Ograve" unicode="&#xd2;" horiz-adv-x="1667" 
d="M834 -20q-207 0 -373.5 92.5t-262.5 261.5t-96 383q0 206 93.5 374.5t261.5 265.5t377 97q154 0 289 -54.5t232.5 -150t153.5 -233.5t56 -299q0 -157 -56 -294.5t-153 -234.5t-232.5 -152.5t-289.5 -55.5zM834 1290q-154 0 -279 -73t-196.5 -204.5t-71.5 -295.5
q0 -160 72.5 -292t198 -207t276.5 -75q161 0 286 76t192.5 206.5t67.5 291.5q0 248 -157 410.5t-389 162.5zM592 1729l16 36q6 13 19.5 22t27.5 9q13 0 25 -6l301 -160q33 -18 33 -53q0 -13 -6 -25q-15 -30 -52 -30q-16 0 -24 4l-311 131q-33 13 -33 49q0 15 4 23z" />
    <glyph glyph-name="Oacute" unicode="&#xd3;" horiz-adv-x="1667" 
d="M834 -20q-207 0 -373.5 92.5t-262.5 261.5t-96 383q0 206 93.5 374.5t261.5 265.5t377 97q154 0 289 -54.5t232.5 -150t153.5 -233.5t56 -299q0 -157 -56 -294.5t-153 -234.5t-232.5 -152.5t-289.5 -55.5zM834 1290q-154 0 -279 -73t-196.5 -204.5t-71.5 -295.5
q0 -160 72.5 -292t198 -207t276.5 -75q161 0 286 76t192.5 206.5t67.5 291.5q0 248 -157 410.5t-389 162.5zM741 1630l301 160q12 6 25 6q14 0 27.5 -9t19.5 -22l16 -36q5 -10 5 -23q0 -36 -33 -49l-311 -131q-12 -4 -21 -4q-36 0 -53 30q-6 12 -6 27q0 34 30 51z" />
    <glyph glyph-name="Ocircumflex" unicode="&#xd4;" horiz-adv-x="1667" 
d="M834 -20q-207 0 -373.5 92.5t-262.5 261.5t-96 383q0 206 93.5 374.5t261.5 265.5t377 97q154 0 289 -54.5t232.5 -150t153.5 -233.5t56 -299q0 -157 -56 -294.5t-153 -234.5t-232.5 -152.5t-289.5 -55.5zM834 1290q-154 0 -279 -73t-196.5 -204.5t-71.5 -295.5
q0 -160 72.5 -292t198 -207t276.5 -75q161 0 286 76t192.5 206.5t67.5 291.5q0 248 -157 410.5t-389 162.5zM1085 1524l-247 137l-236 -133q-17 -10 -35 -10q-34 0 -51 26q-10 12 -10 33q0 34 31 51l249 148q22 14 52 14q31 0 51 -14l258 -150q29 -16 29 -49q0 -19 -9 -31
q-17 -30 -53 -30q-16 0 -29 8z" />
    <glyph glyph-name="Otilde" unicode="&#xd5;" horiz-adv-x="1667" 
d="M834 -20q-207 0 -373.5 92.5t-262.5 261.5t-96 383q0 206 93.5 374.5t261.5 265.5t377 97q154 0 289 -54.5t232.5 -150t153.5 -233.5t56 -299q0 -157 -56 -294.5t-153 -234.5t-232.5 -152.5t-289.5 -55.5zM834 1290q-154 0 -279 -73t-196.5 -204.5t-71.5 -295.5
q0 -160 72.5 -292t198 -207t276.5 -75q161 0 286 76t192.5 206.5t67.5 291.5q0 248 -157 410.5t-389 162.5zM1202 1673q0 -24 -22 -49q-50 -51 -98 -71.5t-105 -20.5q-46 0 -99 25l-106 50t-98 25q-36 0 -103 -43q-20 -14 -41 -14q-25 0 -45 20q-14 14 -14 37q0 28 18 43
q97 82 191 82q52 0 107.5 -25t108.5 -50t99 -25q10 0 20 2.5t22 9.5t19 11t23 15t21 15q26 16 47 16q20 0 39 -16q16 -16 16 -37z" />
    <glyph glyph-name="Odieresis" unicode="&#xd6;" horiz-adv-x="1667" 
d="M834 -20q-207 0 -373.5 92.5t-262.5 261.5t-96 383q0 206 93.5 374.5t261.5 265.5t377 97q154 0 289 -54.5t232.5 -150t153.5 -233.5t56 -299q0 -157 -56 -294.5t-153 -234.5t-232.5 -152.5t-289.5 -55.5zM834 1290q-154 0 -279 -73t-196.5 -204.5t-71.5 -295.5
q0 -160 72.5 -292t198 -207t276.5 -75q161 0 286 76t192.5 206.5t67.5 291.5q0 248 -157 410.5t-389 162.5zM483 1665q0 41 33 66.5t80 25.5q42 0 74 -25.5t32 -66.5q0 -45 -31.5 -71.5t-74.5 -26.5q-48 0 -80.5 26t-32.5 72zM958 1665q0 41 33.5 66.5t81.5 25.5
q42 0 73.5 -25t31.5 -67q0 -45 -31.5 -71.5t-73.5 -26.5q-48 0 -81.5 26.5t-33.5 71.5z" />
    <glyph glyph-name="multiply" unicode="&#xd7;" horiz-adv-x="1067" 
d="M252 387q-28 0 -49 21t-21 51t21 51l227 227l-225 226q-23 23 -23 51t23 51q22 22 51 22t51 -22l225 -227l226 227q22 22 51 22q30 0 49 -22q23 -23 23 -51t-23 -51l-225 -226l229 -227q23 -23 23 -51t-23 -51q-21 -21 -51 -21t-51 21l-228 227l-229 -227
q-21 -21 -51 -21z" />
    <glyph glyph-name="Oslash" unicode="&#xd8;" horiz-adv-x="1667" 
d="M248 94q-26 0 -49 23q-21 21 -21 45q0 28 25 53l45 43q-146 192 -146 459q0 206 93.5 374.5t261.5 265.5t377 97q276 0 473 -164l41 39q21 21 49 21q29 0 45 -19q20 -17 20 -49q0 -29 -20 -49l-39 -37q162 -199 162 -479q0 -157 -56 -294.5t-153 -234.5t-232.5 -152.5
t-289.5 -55.5q-292 0 -492 178l-43 -41q-23 -23 -51 -23zM1272 1067l-803 -784q153 -140 365 -140q161 0 286 76t192.5 206.5t67.5 291.5q0 201 -108 350zM381 387l799 780q-145 123 -346 123q-154 0 -279 -73t-196.5 -204.5t-71.5 -295.5q0 -183 94 -330z" />
    <glyph glyph-name="Ugrave" unicode="&#xd9;" horiz-adv-x="1538" 
d="M369 645q0 -235 109.5 -367.5t309.5 -132.5q180 0 280.5 124t100.5 364v727q0 34 26 59t62 25q35 0 60.5 -25t25.5 -59v-762q0 -159 -45 -280t-123.5 -193t-176 -107.5t-210.5 -35.5q-130 0 -238 40t-187.5 117t-123.5 198t-44 275v748q0 34 26 59t62 25q35 0 60.5 -25
t25.5 -59v-715zM500 1729l16 36q6 13 19.5 22t27.5 9q13 0 25 -6l301 -160q33 -18 33 -53q0 -11 -7 -25q-15 -30 -51 -30q-16 0 -24 4l-312 131q-32 13 -32 49q0 15 4 23z" />
    <glyph glyph-name="Uacute" unicode="&#xda;" horiz-adv-x="1538" 
d="M369 645q0 -235 109.5 -367.5t309.5 -132.5q180 0 280.5 124t100.5 364v727q0 34 26 59t62 25q35 0 60.5 -25t25.5 -59v-762q0 -159 -45 -280t-123.5 -193t-176 -107.5t-210.5 -35.5q-130 0 -238 40t-187.5 117t-123.5 198t-44 275v748q0 34 26 59t62 25q35 0 60.5 -25
t25.5 -59v-715zM670 1630l301 160q12 6 24 6q14 0 27.5 -9t19.5 -22l17 -36q4 -8 4 -23q0 -36 -33 -49l-311 -131q-12 -4 -21 -4q-36 0 -53 30q-6 12 -6 27q0 34 31 51z" />
    <glyph glyph-name="Ucircumflex" unicode="&#xdb;" horiz-adv-x="1538" 
d="M369 645q0 -235 109.5 -367.5t309.5 -132.5q180 0 280.5 124t100.5 364v727q0 34 26 59t62 25q35 0 60.5 -25t25.5 -59v-762q0 -159 -45 -280t-123.5 -193t-176 -107.5t-210.5 -35.5q-130 0 -238 40t-187.5 117t-123.5 198t-44 275v748q0 34 26 59t62 25q35 0 60.5 -25
t25.5 -59v-715zM1012 1524l-248 137l-236 -133q-17 -10 -34 -10q-35 0 -52 26q-10 12 -10 33q0 34 31 51l250 148q22 14 51 14q31 0 51 -14l258 -150q29 -16 29 -49q0 -20 -8 -31q-17 -30 -54 -30q-15 0 -28 8z" />
    <glyph glyph-name="Udieresis" unicode="&#xdc;" horiz-adv-x="1538" 
d="M369 645q0 -235 109.5 -367.5t309.5 -132.5q180 0 280.5 124t100.5 364v727q0 34 26 59t62 25q35 0 60.5 -25t25.5 -59v-762q0 -159 -45 -280t-123.5 -193t-176 -107.5t-210.5 -35.5q-130 0 -238 40t-187.5 117t-123.5 198t-44 275v748q0 34 26 59t62 25q35 0 60.5 -25
t25.5 -59v-715zM412 1665q0 42 32.5 67t79.5 25q42 0 74.5 -25.5t32.5 -66.5q0 -45 -32 -71.5t-75 -26.5q-48 0 -80 26t-32 72zM887 1665q0 41 33.5 66.5t80.5 25.5q42 0 73.5 -25t31.5 -67q0 -45 -31.5 -71.5t-73.5 -26.5q-48 0 -81 26.5t-33 71.5z" />
    <glyph glyph-name="Yacute" unicode="&#xdd;" horiz-adv-x="1196" 
d="M57 1360q0 35 24.5 59.5t63.5 24.5q27 0 46 -14.5t40 -49.5l369 -602l371 602q39 64 90 64q37 0 57.5 -21.5t20.5 -52.5q0 -21 -15 -47l-444 -709v-542q0 -35 -25.5 -60.5t-60.5 -25.5q-37 0 -62.5 25.5t-25.5 60.5v542l-434 697q-15 24 -15 49zM504 1630l301 160
q12 6 24 6q14 0 28 -9t20 -22l16 -36q4 -8 4 -23q0 -36 -33 -49l-311 -131q-12 -4 -21 -4q-36 0 -53 30q-6 12 -6 27q0 34 31 51z" />
    <glyph glyph-name="Thorn" unicode="&#xde;" horiz-adv-x="1222" 
d="M389 1219q27 0 104 2t97 2q119 0 212 -25t152 -67t97 -100.5t53.5 -120.5t15.5 -132q0 -89 -32 -169t-94 -143.5t-162.5 -100.5t-227.5 -37q-119 0 -215 8v-264q0 -35 -25.5 -60.5t-60.5 -25.5q-37 0 -62.5 25.5t-25.5 60.5v1288q0 34 26 59t62 25q35 0 60.5 -25
t25.5 -59v-141zM389 1053v-551q117 -10 209 -10q158 0 248 76.5t90 211.5q0 132 -86 205.5t-258 73.5q-62 0 -203 -6z" />
    <glyph glyph-name="germandbls" unicode="&#xdf;" horiz-adv-x="1118" 
d="M479 51q-28 25 -28 66q0 29 19 48t46 19q36 0 78 -23.5t88 -23.5q74 0 127 49t53 133q0 45 -20.5 83t-54 66.5t-73.5 55.5t-79.5 54.5t-73 57.5t-54 72t-20.5 91q0 55 20 100t48.5 75.5t56.5 58.5t48 62.5t20 73.5q0 59 -48 97.5t-116 38.5q-103 0 -151 -67.5t-48 -213.5
v-961q0 -33 -23 -55t-58 -22t-58.5 22.5t-23.5 54.5v981q0 414 385 414q135 0 225 -74.5t90 -185.5q0 -56 -20 -100.5t-48 -74.5t-56 -57.5t-48 -62t-20 -74.5q0 -43 20.5 -78.5t53.5 -61.5t73 -51t80 -54.5t73 -64t53.5 -87t20.5 -117.5q0 -141 -91 -236t-234 -95
q-157 0 -232 67z" />
    <glyph glyph-name="agrave" unicode="&#xe0;" horiz-adv-x="942" 
d="M82 270q0 137 97 215t251 78q149 0 229 -59q0 57 -4 97t-17 79t-35 62.5t-60.5 38t-91.5 14.5q-92 0 -185 -37q-15 -6 -30 -6q-46 0 -64 41q-6 15 -6 28q0 22 11 40.5t30 25.5q133 55 254 55q190 0 272 -94.5t82 -282.5v-508q0 -30 -22.5 -50.5t-55.5 -20.5t-55.5 20.5
t-22.5 50.5v62q-105 -133 -294 -133q-128 0 -205.5 76t-77.5 208zM659 252v117q-85 61 -206 61q-81 0 -139 -38.5t-58 -112.5q0 -67 44 -106.5t122 -39.5q81 0 136.5 33t100.5 86zM432 1423l146 -213q12 -15 12 -36q0 -31 -25 -52q-17 -10 -37 -10q-35 0 -57 25l-162 192
q-14 17 -14 41q0 28 22 47l27 21q15 12 37 12q31 0 51 -27z" />
    <glyph glyph-name="aacute" unicode="&#xe1;" horiz-adv-x="942" 
d="M82 270q0 137 97 215t251 78q149 0 229 -59q0 57 -4 97t-17 79t-35 62.5t-60.5 38t-91.5 14.5q-92 0 -185 -37q-15 -6 -30 -6q-46 0 -64 41q-6 15 -6 28q0 22 11 40.5t30 25.5q133 55 254 55q190 0 272 -94.5t82 -282.5v-508q0 -30 -22.5 -50.5t-55.5 -20.5t-55.5 20.5
t-22.5 50.5v62q-105 -133 -294 -133q-128 0 -205.5 76t-77.5 208zM659 252v117q-85 61 -206 61q-81 0 -139 -38.5t-58 -112.5q0 -67 44 -106.5t122 -39.5q81 0 136.5 33t100.5 86zM377 1208l147 219q16 25 49 25q20 0 35 -12l29 -21q22 -19 22 -47q0 -25 -14 -39l-164 -198
q-22 -25 -53 -25q-18 0 -35 10q-26 17 -26 54q0 17 10 34z" />
    <glyph glyph-name="acircumflex" unicode="&#xe2;" horiz-adv-x="942" 
d="M82 270q0 137 97 215t251 78q149 0 229 -59q0 57 -4 97t-17 79t-35 62.5t-60.5 38t-91.5 14.5q-92 0 -185 -37q-15 -6 -30 -6q-46 0 -64 41q-6 15 -6 28q0 22 11 40.5t30 25.5q133 55 254 55q190 0 272 -94.5t82 -282.5v-508q0 -30 -22.5 -50.5t-55.5 -20.5t-55.5 20.5
t-22.5 50.5v62q-105 -133 -294 -133q-128 0 -205.5 76t-77.5 208zM659 252v117q-85 61 -206 61q-81 0 -139 -38.5t-58 -112.5q0 -67 44 -106.5t122 -39.5q81 0 136.5 33t100.5 86zM469 1264l-166 -144q-19 -16 -43 -16q-25 0 -45 20q-16 16 -16 41q0 29 18 47l209 193
q18 18 47 18t47 -18l203 -193q20 -20 20 -47q0 -25 -18 -43q-20 -20 -47 -20q-24 0 -43 16z" />
    <glyph glyph-name="atilde" unicode="&#xe3;" horiz-adv-x="942" 
d="M82 270q0 137 97 215t251 78q149 0 229 -59q0 57 -4 97t-17 79t-35 62.5t-60.5 38t-91.5 14.5q-92 0 -185 -37q-15 -6 -30 -6q-46 0 -64 41q-6 15 -6 28q0 22 11 40.5t30 25.5q133 55 254 55q190 0 272 -94.5t82 -282.5v-508q0 -30 -22.5 -50.5t-55.5 -20.5t-55.5 20.5
t-22.5 50.5v62q-105 -133 -294 -133q-128 0 -205.5 76t-77.5 208zM659 252v117q-85 61 -206 61q-81 0 -139 -38.5t-58 -112.5q0 -67 44 -106.5t122 -39.5q81 0 136.5 33t100.5 86zM786 1257q0 -27 -16 -40q-107 -93 -190 -93q-47 0 -122.5 44t-121.5 44q-9 0 -18 -2
t-20.5 -8.5t-18 -10t-22 -14t-21.5 -14.5q-21 -12 -41 -12q-21 0 -39 18q-11 15 -11 29q0 27 27 51q95 80 178 80q40 0 83.5 -21.5t84.5 -43t76 -21.5q11 0 21 2t23 9.5t17.5 10.5t22 16t20.5 15q16 13 35 13q22 0 43 -21q10 -10 10 -31z" />
    <glyph glyph-name="adieresis" unicode="&#xe4;" horiz-adv-x="942" 
d="M82 270q0 137 97 215t251 78q149 0 229 -59q0 57 -4 97t-17 79t-35 62.5t-60.5 38t-91.5 14.5q-92 0 -185 -37q-15 -6 -30 -6q-46 0 -64 41q-6 15 -6 28q0 22 11 40.5t30 25.5q133 55 254 55q190 0 272 -94.5t82 -282.5v-508q0 -30 -22.5 -50.5t-55.5 -20.5t-55.5 20.5
t-22.5 50.5v62q-105 -133 -294 -133q-128 0 -205.5 76t-77.5 208zM659 252v117q-85 61 -206 61q-81 0 -139 -38.5t-58 -112.5q0 -67 44 -106.5t122 -39.5q81 0 136.5 33t100.5 86zM266 1147q-41 0 -68.5 27t-27.5 75q0 42 27.5 68t68.5 26q35 0 62.5 -26.5t27.5 -67.5
q0 -47 -27 -74.5t-63 -27.5zM684 1147q-42 0 -70 27t-28 75q0 42 28.5 68t69.5 26q35 0 62.5 -26.5t27.5 -67.5q0 -47 -27 -74.5t-63 -27.5z" />
    <glyph glyph-name="aring" unicode="&#xe5;" horiz-adv-x="942" 
d="M82 270q0 137 97 215t251 78q149 0 229 -59q0 57 -4 97t-17 79t-35 62.5t-60.5 38t-91.5 14.5q-92 0 -185 -37q-15 -6 -30 -6q-46 0 -64 41q-6 15 -6 28q0 22 11 40.5t30 25.5q133 55 254 55q190 0 272 -94.5t82 -282.5v-508q0 -30 -22.5 -50.5t-55.5 -20.5t-55.5 20.5
t-22.5 50.5v62q-105 -133 -294 -133q-128 0 -205.5 76t-77.5 208zM659 252v117q-85 61 -206 61q-81 0 -139 -38.5t-58 -112.5q0 -67 44 -106.5t122 -39.5q81 0 136.5 33t100.5 86zM471 1030q-99 0 -166 65.5t-67 159.5q0 95 67 161.5t166 66.5q100 0 169 -66.5t69 -161.5
q0 -94 -68.5 -159.5t-169.5 -65.5zM473 1391q-55 0 -92 -39t-37 -95q0 -57 37 -96t92 -39t92 39t37 96q0 56 -37 95t-92 39z" />
    <glyph glyph-name="ae" unicode="&#xe6;" horiz-adv-x="1593" 
d="M815 543h526q-6 115 -76.5 180t-189.5 65q-86 0 -154.5 -36.5t-109.5 -104.5q4 -50 4 -82v-22zM651 252v149q-110 29 -198 29q-81 0 -139 -38.5t-58 -112.5q0 -64 47 -102t119 -38q81 0 132.5 30.5t96.5 82.5zM397 -14q-150 0 -232.5 75t-82.5 209q0 137 97 215t251 78
q53 0 119.5 -8.5t101.5 -19.5v32q0 113 -46 170.5t-154 57.5q-95 0 -185 -37q-12 -6 -28 -6q-21 0 -40 11.5t-26 31.5q-6 15 -6 28q0 46 39 62q131 57 256 57q209 0 291 -121q131 121 331 121q182 0 305 -117.5t123 -304.5q0 -29 -2 -43q-2 -25 -23.5 -46t-47.5 -21h-623
v-127q91 -150 299 -150q129 0 221 53q30 15 47 15q33 0 56 -29q12 -15 12 -37q0 -35 -27 -55q-142 -100 -321 -100q-234 0 -371 143q-151 -137 -334 -137z" />
    <glyph glyph-name="ccedilla" unicode="&#xe7;" horiz-adv-x="976" 
d="M778 735q-100 53 -203 53q-128 0 -221.5 -92.5t-93.5 -234.5q0 -148 95.5 -238t236.5 -90q112 0 196 64q33 26 64 26q27 0 47 -20q23 -20 23 -51q0 -34 -23 -54q-128 -115 -305 -118v-68q103 -6 155 -48.5t52 -115.5q0 -75 -68 -121.5t-190 -46.5q-95 0 -172 43
q-27 13 -27 45q0 13 4 21q11 24 41 24q16 0 31 -6q57 -24 102 -24q52 0 83.5 20.5t31.5 60.5q0 32 -21.5 52t-60.5 20q-20 0 -34.5 14.5t-14.5 34.5v99q-191 22 -305.5 150.5t-114.5 326.5q0 133 60 243t167.5 174t239.5 64q172 0 299 -72q43 -22 43 -69q0 -22 -10 -37
q-21 -37 -68 -37q-23 0 -39 8z" />
    <glyph glyph-name="egrave" unicode="&#xe8;" horiz-adv-x="1075" 
d="M819 543q-6 115 -76.5 180t-189.5 65q-123 0 -201 -68t-92 -177h559zM989 520q0 -31 -2 -45q-1 -25 -22.5 -45t-46.5 -20h-648q10 -129 97.5 -203t224.5 -74q131 0 225 55q23 13 45 13q32 0 56 -27q12 -15 12 -37q0 -39 -25 -55q-143 -102 -325 -102q-224 0 -359 131.5
t-135 349.5q0 135 54.5 243t164 173t256.5 65q182 0 305 -117.5t123 -304.5zM504 1423l145 -213q13 -16 13 -36q0 -31 -25 -52q-17 -10 -37 -10q-35 0 -57 25l-162 192q-14 17 -14 41q0 28 22 47l27 21q15 12 37 12q31 0 51 -27z" />
    <glyph glyph-name="eacute" unicode="&#xe9;" horiz-adv-x="1075" 
d="M819 543q-6 115 -76.5 180t-189.5 65q-123 0 -201 -68t-92 -177h559zM989 520q0 -31 -2 -45q-1 -25 -22.5 -45t-46.5 -20h-648q10 -129 97.5 -203t224.5 -74q131 0 225 55q23 13 45 13q32 0 56 -27q12 -15 12 -37q0 -39 -25 -55q-143 -102 -325 -102q-224 0 -359 131.5
t-135 349.5q0 135 54.5 243t164 173t256.5 65q182 0 305 -117.5t123 -304.5zM489 1208l148 219q16 25 49 25q20 0 35 -12l29 -21q22 -19 22 -47q0 -25 -14 -39l-164 -198q-22 -25 -53 -25q-18 0 -35 10q-27 18 -27 54q0 17 10 34z" />
    <glyph glyph-name="ecircumflex" unicode="&#xea;" horiz-adv-x="1075" 
d="M819 543q-6 115 -76.5 180t-189.5 65q-123 0 -201 -68t-92 -177h559zM989 520q0 -31 -2 -45q-1 -25 -22.5 -45t-46.5 -20h-648q10 -129 97.5 -203t224.5 -74q131 0 225 55q23 13 45 13q32 0 56 -27q12 -15 12 -37q0 -39 -25 -55q-143 -102 -325 -102q-224 0 -359 131.5
t-135 349.5q0 135 54.5 243t164 173t256.5 65q182 0 305 -117.5t123 -304.5zM551 1264l-166 -144q-19 -16 -43 -16q-25 0 -45 20q-16 16 -16 41q0 29 18 47l209 193q18 18 47 18t47 -18l203 -193q20 -20 20 -47q0 -25 -18 -43q-20 -20 -47 -20q-24 0 -43 16z" />
    <glyph glyph-name="edieresis" unicode="&#xeb;" horiz-adv-x="1075" 
d="M819 543q-6 115 -76.5 180t-189.5 65q-123 0 -201 -68t-92 -177h559zM989 520q0 -31 -2 -45q-1 -25 -22.5 -45t-46.5 -20h-648q10 -129 97.5 -203t224.5 -74q131 0 225 55q23 13 45 13q32 0 56 -27q12 -15 12 -37q0 -39 -25 -55q-143 -102 -325 -102q-224 0 -359 131.5
t-135 349.5q0 135 54.5 243t164 173t256.5 65q182 0 305 -117.5t123 -304.5zM340 1147q-41 0 -68.5 27t-27.5 75q0 42 27.5 68t68.5 26q35 0 62.5 -26.5t27.5 -67.5q0 -47 -27 -74.5t-63 -27.5zM758 1147q-42 0 -70.5 27t-28.5 75q0 42 29 68t70 26q35 0 62.5 -26.5
t27.5 -67.5q0 -47 -27 -74.5t-63 -27.5z" />
    <glyph glyph-name="igrave" unicode="&#xec;" horiz-adv-x="548" 
d="M356 854v-791q0 -32 -23.5 -54.5t-58.5 -22.5t-58 22t-23 55v791q0 33 23 55.5t58 22.5t58.5 -22.5t23.5 -55.5zM178 1423l146 -213q12 -15 12 -36q0 -31 -25 -52q-17 -10 -37 -10q-35 0 -57 25l-162 192q-14 17 -14 41q0 28 22 47l27 21q15 12 37 12q31 0 51 -27z" />
    <glyph glyph-name="iacute" unicode="&#xed;" horiz-adv-x="548" 
d="M356 854v-791q0 -32 -23.5 -54.5t-58.5 -22.5t-58 22t-23 55v791q0 33 23 55.5t58 22.5t58.5 -22.5t23.5 -55.5zM195 1208l147 219q16 25 49 25q20 0 35 -12l29 -21q22 -19 22 -47q0 -25 -14 -39l-164 -198q-22 -25 -53 -25q-18 0 -35 10q-27 18 -27 54q0 16 11 34z" />
    <glyph glyph-name="icircumflex" unicode="&#xee;" horiz-adv-x="548" 
d="M356 854v-791q0 -32 -23.5 -54.5t-58.5 -22.5t-58 22t-23 55v791q0 33 23 55.5t58 22.5t58.5 -22.5t23.5 -55.5zM274 1264l-165 -144q-19 -16 -43 -16q-26 0 -46 20q-16 16 -16 41q0 28 19 47l208 193q18 18 48 18q29 0 47 -18l202 -193q21 -21 21 -47q0 -24 -19 -43
q-20 -20 -47 -20q-24 0 -43 16z" />
    <glyph glyph-name="idieresis" unicode="&#xef;" horiz-adv-x="548" 
d="M356 854v-791q0 -32 -23.5 -54.5t-58.5 -22.5t-58 22t-23 55v791q0 33 23 55.5t58 22.5t58.5 -22.5t23.5 -55.5zM70 1147q-42 0 -69.5 27t-27.5 75q0 42 28 68t69 26q35 0 62.5 -26.5t27.5 -67.5q0 -47 -27 -74.5t-63 -27.5zM487 1147q-42 0 -70 27t-28 75q0 42 28.5 68
t69.5 26q36 0 63.5 -26.5t27.5 -67.5q0 -47 -27.5 -74.5t-63.5 -27.5z" />
    <glyph glyph-name="eth" unicode="&#xf0;" 
d="M86 461q0 209 136.5 345t355.5 136q88 0 162 -44t114 -118q-49 208 -190 379l-191 -78q-15 -6 -31 -6q-48 0 -69 47q-6 15 -6 29q0 24 14 42t35 26l135 57q-47 43 -115 90q-28 19 -28 53q0 18 10 35q19 29 53 29q18 0 35 -10q96 -55 190 -136l156 66q15 6 33 6
q50 0 67 -43q6 -15 6 -29q0 -24 -14 -43.5t-35 -27.5l-98 -43q123 -146 190.5 -329t67.5 -362q0 -257 -133.5 -404.5t-357.5 -147.5q-219 0 -355.5 136t-136.5 345zM260 461q0 -144 89.5 -236t228.5 -92q141 0 229 103.5t88 279.5v27q-22 101 -107.5 173t-209.5 72
q-137 0 -227.5 -91t-90.5 -236z" />
    <glyph glyph-name="ntilde" unicode="&#xf1;" horiz-adv-x="1142" 
d="M311 666v-603q0 -32 -23.5 -54.5t-58.5 -22.5t-58.5 22.5t-23.5 54.5v791q0 33 23.5 55.5t58.5 22.5t58.5 -22.5t23.5 -55.5v-45q50 55 132 92t169 37q383 0 383 -406v-469q0 -32 -23.5 -54.5t-58.5 -22.5t-58.5 22.5t-23.5 54.5v439q0 282 -260 282q-76 0 -145 -32.5
t-115 -85.5zM879 1257q0 -26 -17 -40q-107 -93 -190 -93q-47 0 -122.5 44t-121.5 44q-9 0 -18 -2t-20.5 -8.5t-18 -10t-22 -14t-21.5 -14.5q-21 -12 -41 -12q-21 0 -39 18q-10 13 -10 29q0 28 26 51q95 80 178 80q40 0 83.5 -21.5t84.5 -43t76 -21.5q9 0 19 2.5t16.5 5
t18 9.5t16 10t18 13t17.5 13q16 13 34 13q22 0 43 -21q11 -11 11 -31z" />
    <glyph glyph-name="ograve" unicode="&#xf2;" 
d="M86 461q0 209 136.5 345t355.5 136t355 -136t136 -345t-136 -345t-355 -136t-355.5 136t-136.5 345zM260 461q0 -144 89.5 -236t228.5 -92t228 90.5t89 237.5q0 144 -89 235.5t-228 91.5q-137 0 -227.5 -91t-90.5 -236zM512 1423l145 -213q13 -16 13 -36q0 -31 -25 -52
q-17 -10 -37 -10q-35 0 -57 25l-162 192q-14 17 -14 41q0 28 22 47l27 21q15 12 37 12q31 0 51 -27z" />
    <glyph glyph-name="oacute" unicode="&#xf3;" 
d="M86 461q0 209 136.5 345t355.5 136t355 -136t136 -345t-136 -345t-355 -136t-355.5 136t-136.5 345zM260 461q0 -144 89.5 -236t228.5 -92t228 90.5t89 237.5q0 144 -89 235.5t-228 91.5q-137 0 -227.5 -91t-90.5 -236zM498 1208l147 219q16 25 49 25q20 0 35 -12l29 -21
q22 -19 22 -47q0 -25 -14 -39l-164 -198q-22 -25 -53 -25q-18 0 -35 10q-27 18 -27 54q0 16 11 34z" />
    <glyph glyph-name="ocircumflex" unicode="&#xf4;" 
d="M86 461q0 209 136.5 345t355.5 136t355 -136t136 -345t-136 -345t-355 -136t-355.5 136t-136.5 345zM260 461q0 -144 89.5 -236t228.5 -92t228 90.5t89 237.5q0 144 -89 235.5t-228 91.5q-137 0 -227.5 -91t-90.5 -236zM578 1264l-166 -144q-19 -16 -43 -16q-25 0 -45 20
q-17 17 -17 41q0 28 19 47l209 193q18 18 47 18t47 -18l202 -193q21 -21 21 -47q0 -25 -18 -43q-20 -20 -48 -20q-24 0 -43 16z" />
    <glyph glyph-name="otilde" unicode="&#xf5;" 
d="M86 461q0 209 136.5 345t355.5 136t355 -136t136 -345t-136 -345t-355 -136t-355.5 136t-136.5 345zM260 461q0 -144 89.5 -236t228.5 -92t228 90.5t89 237.5q0 144 -89 235.5t-228 91.5q-137 0 -227.5 -91t-90.5 -236zM895 1257q0 -27 -16 -40q-107 -93 -191 -93
q-47 0 -122.5 44t-121.5 44q-9 0 -18 -2t-20.5 -8.5t-18 -10t-22 -14t-21.5 -14.5q-21 -12 -41 -12q-21 0 -39 18q-10 13 -10 29q0 27 27 51q95 80 178 80q49 0 126 -43t117 -43q9 0 19 2.5t16.5 5t18 9.5t16 10t18 13t17.5 13q16 13 35 13q22 0 43 -21q10 -10 10 -31z" />
    <glyph glyph-name="odieresis" unicode="&#xf6;" 
d="M86 461q0 209 136.5 345t355.5 136t355 -136t136 -345t-136 -345t-355 -136t-355.5 136t-136.5 345zM260 461q0 -144 89.5 -236t228.5 -92t228 90.5t89 237.5q0 144 -89 235.5t-228 91.5q-137 0 -227.5 -91t-90.5 -236zM381 1147q-41 0 -68.5 27t-27.5 75q0 42 27.5 68
t68.5 26q35 0 62.5 -26.5t27.5 -67.5q0 -47 -27 -74.5t-63 -27.5zM799 1147q-42 0 -70.5 27t-28.5 75q0 42 29 68t70 26q35 0 62.5 -26.5t27.5 -67.5q0 -47 -27 -74.5t-63 -27.5z" />
    <glyph glyph-name="divide" unicode="&#xf7;" horiz-adv-x="1212" 
d="M504 1155q0 38 27.5 68t74.5 30q44 0 72.5 -30.5t28.5 -67.5q0 -42 -28.5 -73t-72.5 -31q-47 0 -74.5 31t-27.5 73zM504 322q0 37 27.5 66.5t74.5 29.5q42 0 71.5 -30t29.5 -66q0 -43 -28.5 -74t-72.5 -31q-47 0 -74.5 30.5t-27.5 74.5zM213 809h786q29 0 50.5 -21.5
t21.5 -50.5t-21.5 -50t-50.5 -21h-786q-29 0 -50.5 21t-21.5 50t21.5 50.5t50.5 21.5z" />
    <glyph glyph-name="oslash" unicode="&#xf8;" horiz-adv-x="1105" 
d="M150 -2q-33 0 -52 22q-18 21 -18 46q0 29 26 55l48 45q-93 126 -93 295q0 209 136.5 345t355.5 136q183 0 313 -100l47 45q16 16 43 16q35 0 54 -22q16 -19 16 -43q0 -30 -22 -52l-46 -43q86 -122 86 -282q0 -209 -136 -345t-355 -136q-171 0 -299 88l-55 -52
q-18 -18 -49 -18zM279 285l466 442q-83 61 -192 61q-137 0 -227 -91t-90 -236q0 -103 43 -176zM834 623l-459 -439q76 -51 178 -51q139 0 228 90.5t89 237.5q0 88 -36 162z" />
    <glyph glyph-name="ugrave" unicode="&#xf9;" horiz-adv-x="1105" 
d="M793 270v584q0 33 23 55.5t58 22.5t58.5 -22.5t23.5 -55.5v-791q0 -32 -23.5 -54.5t-58.5 -22.5t-58 22t-23 55v68q-52 -64 -138 -107.5t-188 -43.5q-159 0 -249.5 98t-90.5 295v481q0 33 23.5 55.5t58.5 22.5t58.5 -22.5t23.5 -55.5v-444q0 -277 237 -277q76 0 148 39
t117 98zM481 1423l146 -213q12 -15 12 -36q0 -31 -25 -52q-17 -10 -36 -10q-36 0 -58 25l-162 192q-14 17 -14 41q0 27 23 47l26 21q15 12 37 12q31 0 51 -27z" />
    <glyph glyph-name="uacute" unicode="&#xfa;" horiz-adv-x="1105" 
d="M793 270v584q0 33 23 55.5t58 22.5t58.5 -22.5t23.5 -55.5v-791q0 -32 -23.5 -54.5t-58.5 -22.5t-58 22t-23 55v68q-52 -64 -138 -107.5t-188 -43.5q-159 0 -249.5 98t-90.5 295v481q0 33 23.5 55.5t58.5 22.5t58.5 -22.5t23.5 -55.5v-444q0 -277 237 -277q76 0 148 39
t117 98zM477 1208l148 219q16 25 49 25q20 0 35 -12l28 -21q23 -20 23 -47q0 -24 -15 -39l-163 -198q-22 -25 -54 -25q-17 0 -34 10q-27 18 -27 54q0 17 10 34z" />
    <glyph glyph-name="ucircumflex" unicode="&#xfb;" horiz-adv-x="1105" 
d="M793 270v584q0 33 23 55.5t58 22.5t58.5 -22.5t23.5 -55.5v-791q0 -32 -23.5 -54.5t-58.5 -22.5t-58 22t-23 55v68q-52 -64 -138 -107.5t-188 -43.5q-159 0 -249.5 98t-90.5 295v481q0 33 23.5 55.5t58.5 22.5t58.5 -22.5t23.5 -55.5v-444q0 -277 237 -277q76 0 148 39
t117 98zM545 1264l-166 -144q-19 -16 -43 -16q-25 0 -45 20q-17 17 -17 41q0 28 19 47l209 193q18 18 47 18t47 -18l203 -193q20 -20 20 -47q0 -25 -18 -43q-20 -20 -47 -20q-24 0 -43 16z" />
    <glyph glyph-name="udieresis" unicode="&#xfc;" horiz-adv-x="1105" 
d="M793 270v584q0 33 23 55.5t58 22.5t58.5 -22.5t23.5 -55.5v-791q0 -32 -23.5 -54.5t-58.5 -22.5t-58 22t-23 55v68q-52 -64 -138 -107.5t-188 -43.5q-159 0 -249.5 98t-90.5 295v481q0 33 23.5 55.5t58.5 22.5t58.5 -22.5t23.5 -55.5v-444q0 -277 237 -277q76 0 148 39
t117 98zM344 1147q-41 0 -68.5 27t-27.5 75q0 42 27.5 68t68.5 26q35 0 62.5 -26.5t27.5 -67.5q0 -47 -27 -74.5t-63 -27.5zM762 1147q-42 0 -70 27t-28 75q0 42 28.5 68t69.5 26q35 0 62.5 -26.5t27.5 -67.5q0 -47 -27 -74.5t-63 -27.5z" />
    <glyph glyph-name="yacute" unicode="&#xfd;" horiz-adv-x="980" 
d="M469 336q8 -17 55 -139q14 51 43 141l195 530q8 27 29 45.5t51 18.5q42 0 66 -23t24 -57q0 -15 -8 -39l-326 -813q-66 -164 -122.5 -254t-108.5 -123t-121 -33q-42 0 -76 7.5t-61 30t-27 59.5q0 31 17 48t48 17q10 0 35.5 -5t44.5 -5q58 0 104.5 49.5t92.5 159.5l20 49
l-387 807q-8 16 -8 39q0 35 25 60.5t65 25.5q25 0 46.5 -14t31.5 -37zM399 1208l148 219q16 25 49 25q20 0 35 -12l28 -21q23 -20 23 -47q0 -25 -14 -39l-164 -198q-22 -25 -53 -25q-18 0 -35 10q-27 18 -27 54q0 17 10 34z" />
    <glyph glyph-name="thorn" unicode="&#xfe;" horiz-adv-x="1138" 
d="M311 43v-375q0 -33 -23.5 -55.5t-58.5 -22.5t-58.5 22.5t-23.5 55.5v1688q0 33 23.5 55.5t58.5 22.5t58.5 -22.5t23.5 -55.5v-533q55 53 138 86t176 33q194 0 310 -130t116 -337q0 -214 -133 -354.5t-347 -140.5q-163 0 -260 63zM311 662v-457q107 -72 246 -72
q146 0 233 94t87 242q0 143 -79.5 231t-219.5 88q-79 0 -151 -35t-116 -91z" />
    <glyph glyph-name="ydieresis" unicode="&#xff;" horiz-adv-x="980" 
d="M469 336q8 -17 55 -139q14 51 43 141l195 530q8 27 29 45.5t51 18.5q42 0 66 -23t24 -57q0 -15 -8 -39l-326 -813q-66 -164 -122.5 -254t-108.5 -123t-121 -33q-42 0 -76 7.5t-61 30t-27 59.5q0 31 17 48t48 17q10 0 35.5 -5t44.5 -5q58 0 104.5 49.5t92.5 159.5l20 49
l-387 807q-8 16 -8 39q0 35 25 60.5t65 25.5q25 0 46.5 -14t31.5 -37zM289 1147q-41 0 -68.5 27t-27.5 75q0 42 27.5 68t68.5 26q35 0 62.5 -26.5t27.5 -67.5q0 -47 -27 -74.5t-63 -27.5zM707 1147q-42 0 -70.5 27t-28.5 75q0 42 29 68t70 26q35 0 62.5 -26.5t27.5 -67.5
q0 -47 -27 -74.5t-63 -27.5z" />
    <glyph glyph-name="Amacron" unicode="&#x100;" horiz-adv-x="1402" 
d="M1190 43l-166 391h-653l-164 -391q-23 -57 -78 -57q-38 0 -60 23.5t-22 56.5q0 12 8 36l549 1272q31 70 101 70q69 0 98 -70l547 -1265q6 -18 6 -35q0 -36 -23 -62t-61 -26q-59 0 -82 57zM956 598l-258 612l-258 -612h516zM457 1710h491q28 0 47 -19.5t19 -48.5
q0 -28 -19 -46.5t-47 -18.5h-491q-28 0 -47 19.5t-19 48.5q0 28 19 46.5t47 18.5z" />
    <glyph glyph-name="amacron" unicode="&#x101;" horiz-adv-x="942" 
d="M82 270q0 137 97 215t251 78q149 0 229 -59q0 57 -4 97t-17 79t-35 62.5t-60.5 38t-91.5 14.5q-92 0 -185 -37q-15 -6 -30 -6q-46 0 -64 41q-6 15 -6 28q0 22 11 40.5t30 25.5q133 55 254 55q190 0 272 -94.5t82 -282.5v-508q0 -30 -22.5 -50.5t-55.5 -20.5t-55.5 20.5
t-22.5 50.5v62q-105 -133 -294 -133q-128 0 -205.5 76t-77.5 208zM659 252v117q-85 61 -206 61q-81 0 -139 -38.5t-58 -112.5q0 -67 44 -106.5t122 -39.5q81 0 136.5 33t100.5 86zM272 1321h410q28 0 47 -19.5t19 -48.5q0 -28 -19 -46.5t-47 -18.5h-410q-28 0 -46.5 19
t-18.5 48q0 28 18.5 47t46.5 19z" />
    <glyph glyph-name="Abreve" unicode="&#x102;" horiz-adv-x="1402" 
d="M1190 43l-166 391h-653l-164 -391q-23 -57 -78 -57q-38 0 -60 23.5t-22 56.5q0 12 8 36l549 1272q31 70 101 70q69 0 98 -70l547 -1265q6 -18 6 -35q0 -36 -23 -62t-61 -26q-59 0 -82 57zM956 598l-258 612l-258 -612h516zM1001 1782q23 0 41 -15q19 -16 19 -43
q0 -17 -10 -30q-65 -76 -152.5 -122t-187.5 -46q-214 0 -349 164q-10 13 -10 30q0 27 23 47q18 15 39 15q23 0 43 -17q104 -96 254 -96q147 0 250 96q17 17 40 17z" />
    <glyph glyph-name="abreve" unicode="&#x103;" horiz-adv-x="942" 
d="M82 270q0 137 97 215t251 78q149 0 229 -59q0 57 -4 97t-17 79t-35 62.5t-60.5 38t-91.5 14.5q-92 0 -185 -37q-15 -6 -30 -6q-46 0 -64 41q-6 15 -6 28q0 22 11 40.5t30 25.5q133 55 254 55q190 0 272 -94.5t82 -282.5v-508q0 -30 -22.5 -50.5t-55.5 -20.5t-55.5 20.5
t-22.5 50.5v62q-105 -133 -294 -133q-128 0 -205.5 76t-77.5 208zM659 252v117q-85 61 -206 61q-81 0 -139 -38.5t-58 -112.5q0 -67 44 -106.5t122 -39.5q81 0 136.5 33t100.5 86zM713 1372q19 0 37 -14q16 -16 16 -39q0 -17 -14 -35q-124 -147 -287 -147q-166 0 -283 145
q-12 15 -12 37q0 26 18 41q19 16 39 16q25 0 47 -22q84 -84 197 -84q108 0 197 82q23 20 45 20z" />
    <glyph glyph-name="Aogonek" unicode="&#x104;" horiz-adv-x="1402" 
d="M1190 43l-166 391h-653l-164 -391q-23 -57 -78 -57q-38 0 -60 23.5t-22 56.5q0 12 8 36l549 1272q31 70 101 70q69 0 98 -70l547 -1265q6 -18 6 -35q0 -36 -23 -62t-61 -26q-30 0 -47 14q-79 -6 -137 -56.5t-58 -111.5q0 -40 22 -65.5t47.5 -34t53.5 -8.5q24 0 45 6
q16 4 25 4q42 0 55 -43q2 -6 2 -19q0 -37 -45 -59q-51 -23 -119 -23q-65 0 -118.5 17t-92.5 61t-39 111q0 70 48 126.5t121 87.5t159 38zM956 598l-258 612l-258 -612h516z" />
    <glyph glyph-name="aogonek" unicode="&#x105;" horiz-adv-x="942" 
d="M82 270q0 137 97 215t251 78q149 0 229 -59q0 57 -4 97t-17 79t-35 62.5t-60.5 38t-91.5 14.5q-92 0 -185 -37q-15 -6 -30 -6q-46 0 -64 41q-6 15 -6 28q0 22 11 40.5t30 25.5q133 55 254 55q190 0 272 -94.5t82 -282.5v-508q0 -30 -22.5 -50.5t-55.5 -20.5q-22 0 -39 10
q-69 -15 -115 -62.5t-46 -101.5q0 -40 21.5 -65.5t47 -34t53.5 -8.5q25 0 46 6q16 4 24 4q42 0 55 -43q2 -6 2 -19q0 -37 -45 -59q-51 -23 -118 -23q-65 0 -118.5 17t-92.5 61t-39 111q0 98 84.5 164t208.5 86q-7 14 -7 28v62q-105 -133 -294 -133q-128 0 -205.5 76
t-77.5 208zM659 252v117q-85 61 -206 61q-81 0 -139 -38.5t-58 -112.5q0 -67 44 -106.5t122 -39.5q81 0 136.5 33t100.5 86z" />
    <glyph glyph-name="Cacute" unicode="&#x106;" horiz-adv-x="1323" 
d="M1159 1212q-23 0 -49 13q-121 65 -291 65q-234 0 -383 -159.5t-149 -413.5q0 -256 155 -415t404 -159q164 0 297 80q24 15 51 15q38 0 61 -29q15 -18 15 -41q0 -43 -39 -70q-79 -56 -184 -87t-218 -31q-213 0 -378 90.5t-257 258.5t-92 388q0 207 84 373t248 265t383 99
q220 0 377 -96q43 -27 43 -70q0 -21 -12 -39q-22 -37 -66 -37zM690 1630l301 160q12 6 25 6q14 0 27.5 -9t19.5 -22l16 -36q4 -8 4 -23q0 -36 -32 -49l-312 -131q-12 -4 -20 -4q-36 0 -53 30q-7 14 -7 27q0 34 31 51z" />
    <glyph glyph-name="cacute" unicode="&#x107;" horiz-adv-x="976" 
d="M778 735q-100 53 -203 53q-128 0 -221.5 -92.5t-93.5 -234.5q0 -148 95.5 -238t236.5 -90q112 0 196 64q33 26 64 26q27 0 47 -20q23 -20 23 -51q0 -34 -23 -54q-73 -65 -149.5 -91.5t-169.5 -26.5q-221 0 -357.5 132t-136.5 349q0 133 60 243t167.5 174t239.5 64
q172 0 299 -72q43 -22 43 -69q0 -22 -10 -37q-21 -37 -68 -37q-23 0 -39 8zM473 1208l148 219q16 25 49 25q20 0 35 -12l28 -21q23 -20 23 -47q0 -24 -15 -39l-163 -198q-22 -25 -54 -25q-18 0 -35 10q-26 17 -26 54q0 17 10 34z" />
    <glyph glyph-name="Ccircumflex" unicode="&#x108;" horiz-adv-x="1323" 
d="M1159 1212q-23 0 -49 13q-121 65 -291 65q-234 0 -383 -159.5t-149 -413.5q0 -256 155 -415t404 -159q164 0 297 80q24 15 51 15q38 0 61 -29q15 -18 15 -41q0 -43 -39 -70q-79 -56 -184 -87t-218 -31q-213 0 -378 90.5t-257 258.5t-92 388q0 207 84 373t248 265t383 99
q220 0 377 -96q43 -27 43 -70q0 -21 -12 -39q-22 -37 -66 -37zM1044 1524l-247 137l-236 -133q-17 -10 -35 -10q-34 0 -51 26q-10 12 -10 33q0 34 31 51l249 148q22 14 52 14q31 0 51 -14l258 -150q29 -16 29 -49q0 -19 -9 -31q-17 -30 -53 -30q-16 0 -29 8z" />
    <glyph glyph-name="ccircumflex" unicode="&#x109;" horiz-adv-x="976" 
d="M778 735q-100 53 -203 53q-128 0 -221.5 -92.5t-93.5 -234.5q0 -148 95.5 -238t236.5 -90q112 0 196 64q33 26 64 26q27 0 47 -20q23 -20 23 -51q0 -34 -23 -54q-73 -65 -149.5 -91.5t-169.5 -26.5q-221 0 -357.5 132t-136.5 349q0 133 60 243t167.5 174t239.5 64
q172 0 299 -72q43 -22 43 -69q0 -22 -10 -37q-21 -37 -68 -37q-23 0 -39 8zM565 1264l-166 -144q-19 -16 -43 -16q-25 0 -45 20q-16 16 -16 41q0 29 18 47l209 193q18 18 47 18t47 -18l203 -193q21 -21 21 -47q0 -24 -19 -43q-20 -20 -47 -20q-24 0 -43 16z" />
    <glyph glyph-name="Cdotaccent" unicode="&#x10a;" horiz-adv-x="1323" 
d="M1159 1212q-23 0 -49 13q-121 65 -291 65q-234 0 -383 -159.5t-149 -413.5q0 -256 155 -415t404 -159q164 0 297 80q24 15 51 15q38 0 61 -29q15 -18 15 -41q0 -43 -39 -70q-79 -56 -184 -87t-218 -31q-213 0 -378 90.5t-257 258.5t-92 388q0 207 84 373t248 265t383 99
q220 0 377 -96q43 -27 43 -70q0 -21 -12 -39q-22 -37 -66 -37zM666 1673q0 48 34 76.5t82 28.5q45 0 78 -29t33 -76q0 -51 -32.5 -80.5t-78.5 -29.5q-49 0 -82.5 29t-33.5 81z" />
    <glyph glyph-name="cdotaccent" unicode="&#x10b;" horiz-adv-x="976" 
d="M778 735q-100 53 -203 53q-128 0 -221.5 -92.5t-93.5 -234.5q0 -148 95.5 -238t236.5 -90q112 0 196 64q33 26 64 26q27 0 47 -20q23 -20 23 -51q0 -34 -23 -54q-73 -65 -149.5 -91.5t-169.5 -26.5q-221 0 -357.5 132t-136.5 349q0 133 60 243t167.5 174t239.5 64
q172 0 299 -72q43 -22 43 -69q0 -22 -10 -37q-21 -37 -68 -37q-23 0 -39 8zM463 1268q0 43 31 70.5t75 27.5q40 0 70.5 -27.5t30.5 -70.5q0 -49 -30 -78t-71 -29q-45 0 -75.5 29t-30.5 78z" />
    <glyph glyph-name="Ccaron" unicode="&#x10c;" horiz-adv-x="1323" 
d="M1159 1212q-23 0 -49 13q-121 65 -291 65q-234 0 -383 -159.5t-149 -413.5q0 -256 155 -415t404 -159q164 0 297 80q24 15 51 15q38 0 61 -29q15 -18 15 -41q0 -43 -39 -70q-79 -56 -184 -87t-218 -31q-213 0 -378 90.5t-257 258.5t-92 388q0 207 84 373t248 265t383 99
q220 0 377 -96q43 -27 43 -70q0 -21 -12 -39q-22 -37 -66 -37zM803 1651l241 141q13 8 33 8q33 0 49 -26q9 -15 9 -31q0 -35 -29 -51l-252 -150q-22 -14 -53 -14t-53 14l-256 150q-29 16 -29 51q0 17 6 29q17 30 53 30q16 0 29 -8z" />
    <glyph glyph-name="ccaron" unicode="&#x10d;" horiz-adv-x="976" 
d="M778 735q-100 53 -203 53q-128 0 -221.5 -92.5t-93.5 -234.5q0 -148 95.5 -238t236.5 -90q112 0 196 64q33 26 64 26q27 0 47 -20q23 -20 23 -51q0 -34 -23 -54q-73 -65 -149.5 -91.5t-169.5 -26.5q-221 0 -357.5 132t-136.5 349q0 133 60 243t167.5 174t239.5 64
q172 0 299 -72q43 -22 43 -69q0 -22 -10 -37q-21 -37 -68 -37q-23 0 -39 8zM565 1243l168 166q18 18 47 18q25 0 41 -16q19 -16 19 -43q0 -24 -19 -43l-213 -199q-18 -18 -47 -18t-47 18l-209 199q-18 15 -18 43t20 45t43 17q28 0 47 -19z" />
    <glyph glyph-name="Dcaron" unicode="&#x10e;" horiz-adv-x="1513" 
d="M215 1348q0 36 25 61t61 25q300 6 305 6q167 0 303 -37.5t228.5 -102.5t155 -155t90.5 -192.5t28 -217.5q0 -155 -52.5 -288t-152 -234t-258 -159t-358.5 -58q-67 0 -289 4q-35 0 -60.5 25.5t-25.5 60.5v1262zM389 1270v-1106q188 -4 207 -4q151 0 271 43t198.5 119.5
t120 181.5t41.5 231q0 242 -161.5 391.5t-463.5 149.5q-38 0 -73.5 -1t-75.5 -2.5t-64 -2.5zM690 1651l242 141q13 8 33 8q33 0 49 -26q8 -13 8 -31q0 -35 -29 -51l-252 -150q-22 -14 -53 -14t-53 14l-256 150q-29 16 -29 51q0 17 6 29q17 30 54 30q15 0 28 -8z" />
    <glyph glyph-name="dcaron" unicode="&#x10f;" horiz-adv-x="1134" 
d="M987 1356v-1293q0 -32 -23.5 -54.5t-58.5 -22.5t-58.5 22.5t-23.5 54.5v54q-122 -133 -293 -133q-202 0 -323 128.5t-121 342.5t142.5 350.5t361.5 136.5q142 0 233 -65v479q0 33 23.5 55.5t58.5 22.5t58.5 -22.5t23.5 -55.5zM823 260v457q-113 71 -227 71
q-141 0 -238.5 -90.5t-97.5 -238.5q0 -149 84.5 -235.5t216.5 -86.5q75 0 145 35.5t117 87.5zM1165 1053q-20 0 -35 12q-16 13 -16 37q0 25 21 49q57 68 57 186q0 19 -4 47q0 2 -1 6.5t-1 6.5q0 37 43 37h57q27 0 41 -16t16 -36q3 -12 3 -26q0 -95 -39 -168t-93 -117
q-23 -18 -49 -18z" />
    <glyph glyph-name="Dcroat" unicode="&#x110;" horiz-adv-x="1544" 
d="M1442 735q0 -155 -52.5 -288t-152 -234t-258 -159t-358.5 -58q-67 0 -289 4q-35 0 -60.5 25.5t-25.5 60.5v561h-150q-31 0 -53.5 23t-22.5 55q0 31 22.5 53.5t53.5 22.5h150v547q0 36 25 61t61 25q300 6 305 6q167 0 303 -37.5t228.5 -102.5t155 -155t90.5 -192.5
t28 -217.5zM420 647v-483q188 -4 207 -4q151 0 271 43t198 119.5t119.5 181.5t41.5 231q0 118 -39.5 216t-116 171t-196 113.5t-272.5 40.5q-38 0 -73.5 -1t-75.5 -2.5t-64 -2.5v-469h311q29 0 51.5 -22.5t22.5 -53.5q0 -32 -22 -55t-52 -23h-311z" />
    <glyph glyph-name="dcroat" unicode="&#x111;" horiz-adv-x="1134" 
d="M823 260v457q-113 71 -227 71q-141 0 -238.5 -90.5t-97.5 -238.5q0 -149 84.5 -235.5t216.5 -86.5q75 0 145 35.5t117 87.5zM987 1094v-1031q0 -32 -23.5 -54.5t-58.5 -22.5t-58.5 22.5t-23.5 54.5v54q-122 -133 -293 -133q-202 0 -323 128.5t-121 342.5t142.5 350.5
t361.5 136.5q142 0 233 -65v217h-250q-36 0 -53.5 20.5t-17.5 46.5q0 28 21 47t50 19h250v129q0 33 23.5 55.5t58.5 22.5t58.5 -22.5t23.5 -55.5v-129h117q35 0 53.5 -20.5t18.5 -45.5q0 -28 -19 -47.5t-53 -19.5h-117z" />
    <glyph glyph-name="Emacron" unicode="&#x112;" horiz-adv-x="1177" 
d="M389 164h576q32 0 55.5 -24t23.5 -58t-23.5 -58t-55.5 -24h-664q-35 0 -60.5 25.5t-25.5 60.5v1262q0 35 25.5 60.5t60.5 25.5h643q32 0 56 -24t24 -58t-24 -58t-56 -24h-555v-463h494q32 0 56 -24t24 -58t-24 -58t-56 -24h-494v-479zM373 1710h491q28 0 47 -19.5
t19 -48.5q0 -28 -19 -46.5t-47 -18.5h-491q-28 0 -47 19.5t-19 48.5q0 28 19 46.5t47 18.5z" />
    <glyph glyph-name="emacron" unicode="&#x113;" horiz-adv-x="1075" 
d="M819 543q-6 115 -76.5 180t-189.5 65q-123 0 -201 -68t-92 -177h559zM989 520q0 -31 -2 -45q-1 -25 -22.5 -45t-46.5 -20h-648q10 -129 97.5 -203t224.5 -74q131 0 225 55q23 13 45 13q32 0 56 -27q12 -15 12 -37q0 -39 -25 -55q-143 -102 -325 -102q-224 0 -359 131.5
t-135 349.5q0 135 54.5 243t164 173t256.5 65q182 0 305 -117.5t123 -304.5zM336 1321h409q28 0 47 -19.5t19 -48.5q0 -28 -19 -46.5t-47 -18.5h-409q-28 0 -47 19t-19 48q0 28 19 47t47 19z" />
    <glyph glyph-name="Edotaccent" unicode="&#x116;" horiz-adv-x="1177" 
d="M389 164h576q32 0 55.5 -24t23.5 -58t-23.5 -58t-55.5 -24h-664q-35 0 -60.5 25.5t-25.5 60.5v1262q0 35 25.5 60.5t60.5 25.5h643q32 0 56 -24t24 -58t-24 -58t-56 -24h-555v-463h494q32 0 56 -24t24 -58t-24 -58t-56 -24h-494v-479zM512 1673q0 48 34.5 76.5t82.5 28.5
q45 0 77.5 -28.5t32.5 -76.5q0 -51 -32 -80.5t-78 -29.5q-49 0 -83 29t-34 81z" />
    <glyph glyph-name="edotaccent" unicode="&#x117;" horiz-adv-x="1075" 
d="M819 543q-6 115 -76.5 180t-189.5 65q-123 0 -201 -68t-92 -177h559zM989 520q0 -31 -2 -45q-1 -25 -22.5 -45t-46.5 -20h-648q10 -129 97.5 -203t224.5 -74q131 0 225 55q23 13 45 13q32 0 56 -27q12 -15 12 -37q0 -39 -25 -55q-143 -102 -325 -102q-224 0 -359 131.5
t-135 349.5q0 135 54.5 243t164 173t256.5 65q182 0 305 -117.5t123 -304.5zM440 1268q0 43 31.5 70.5t75.5 27.5q40 0 70 -27.5t30 -70.5q0 -49 -29.5 -78t-70.5 -29q-45 0 -76 29t-31 78z" />
    <glyph glyph-name="Eogonek" unicode="&#x118;" horiz-adv-x="1177" 
d="M389 164h576q32 0 55.5 -24t23.5 -58t-23.5 -58t-55.5 -24h-41q-82 -3 -143.5 -54.5t-61.5 -113.5q0 -40 22 -65.5t47.5 -34t53.5 -8.5q24 0 45 6q16 4 24 4q43 0 56 -43q2 -6 2 -19q0 -37 -45 -59q-51 -23 -119 -23q-65 0 -118.5 17t-92.5 61t-39 111q0 75 51 131.5
t135 89.5h-440q-35 0 -60.5 25.5t-25.5 60.5v1262q0 35 25.5 60.5t60.5 25.5h643q32 0 56 -24t24 -58t-24 -58t-56 -24h-555v-463h494q32 0 56 -24t24 -58t-24 -58t-56 -24h-494v-479z" />
    <glyph glyph-name="eogonek" unicode="&#x119;" horiz-adv-x="1075" 
d="M989 520q0 -31 -2 -45q-1 -25 -22.5 -45t-46.5 -20h-648q10 -129 97.5 -203t224.5 -74q131 0 225 55q23 13 45 13q32 0 56 -27q12 -15 12 -37q0 -39 -25 -55q-134 -96 -305 -102q-52 -22 -84.5 -63t-32.5 -85q0 -40 22 -65.5t47.5 -34t53.5 -8.5q24 0 45 6q16 4 25 4
q42 0 55 -43q2 -6 2 -19q0 -37 -45 -59q-51 -23 -119 -23q-65 0 -118.5 17t-92.5 61t-39 111q0 68 43 121.5t115 87.5q-181 29 -286 155.5t-105 317.5q0 135 54.5 243t164 173t256.5 65q182 0 305 -117.5t123 -304.5zM819 543q-6 115 -76.5 180t-189.5 65q-123 0 -201 -68
t-92 -177h559z" />
    <glyph glyph-name="Ecaron" unicode="&#x11a;" horiz-adv-x="1177" 
d="M389 164h576q32 0 55.5 -24t23.5 -58t-23.5 -58t-55.5 -24h-664q-35 0 -60.5 25.5t-25.5 60.5v1262q0 35 25.5 60.5t60.5 25.5h643q32 0 56 -24t24 -58t-24 -58t-56 -24h-555v-463h494q32 0 56 -24t24 -58t-24 -58t-56 -24h-494v-479zM639 1651l242 141q13 8 32 8
q34 0 50 -26q8 -13 8 -31q0 -35 -29 -51l-252 -150q-22 -14 -53 -14t-53 14l-256 150q-29 16 -29 51q0 17 6 29q17 30 53 30q16 0 29 -8z" />
    <glyph glyph-name="ecaron" unicode="&#x11b;" horiz-adv-x="1075" 
d="M819 543q-6 115 -76.5 180t-189.5 65q-123 0 -201 -68t-92 -177h559zM989 520q0 -31 -2 -45q-1 -25 -22.5 -45t-46.5 -20h-648q10 -129 97.5 -203t224.5 -74q131 0 225 55q23 13 45 13q32 0 56 -27q12 -15 12 -37q0 -39 -25 -55q-143 -102 -325 -102q-224 0 -359 131.5
t-135 349.5q0 135 54.5 243t164 173t256.5 65q182 0 305 -117.5t123 -304.5zM561 1243l168 166q18 18 47 18q25 0 41 -16q19 -16 19 -43q0 -24 -19 -43l-213 -199q-18 -18 -47 -18t-47 18l-209 199q-18 15 -18 43t20 45t43 17q28 0 47 -19z" />
    <glyph glyph-name="Gcircumflex" unicode="&#x11c;" horiz-adv-x="1488" 
d="M827 1290q-241 0 -390.5 -157.5t-149.5 -415.5q0 -260 150.5 -417t396.5 -157q102 0 206.5 36t161.5 91v295h-307q-32 0 -56 24t-24 58t24 58t56 24h385q35 0 60.5 -25.5t25.5 -60.5v-410q0 -61 -49 -96q-95 -73 -230 -115t-258 -42q-333 0 -530 200.5t-197 536.5
q0 206 86 373t248 265.5t371 98.5q227 0 393 -98q43 -24 43 -68q0 -22 -12 -43q-21 -37 -68 -37q-26 0 -53 15q-127 67 -283 67zM1044 1524l-247 137l-236 -133q-17 -10 -35 -10q-34 0 -51 26q-10 12 -10 33q0 34 31 51l249 148q22 14 52 14q31 0 51 -14l258 -150
q29 -16 29 -49q0 -19 -9 -31q-17 -30 -53 -30q-16 0 -29 8z" />
    <glyph glyph-name="gcircumflex" unicode="&#x11d;" horiz-adv-x="1028" 
d="M434 162q9 0 27.5 1t27.5 1q210 0 339.5 -76t129.5 -221q0 -96 -62 -163t-166 -98.5t-241 -31.5q-138 0 -241 30.5t-165.5 98t-62.5 164.5q0 109 79 180t216 100q-22 28 -22 76t24 78q-97 39 -151.5 120t-54.5 183q0 142 103.5 240t272.5 98q134 0 234 -68l207 50
q6 2 16 2q22 0 40 -14t22 -35q2 -4 2 -15q0 -22 -14.5 -40.5t-37.5 -24.5l-135 -33q43 -70 43 -160q0 -141 -105 -236.5t-272 -95.5q-41 0 -61 2q-10 -20 -10 -51q0 -37 18 -61zM174 -133q0 -76 85.5 -118t229.5 -42q145 0 230.5 41.5t85.5 118.5t-84 120.5t-232 43.5
t-231.5 -43.5t-83.5 -120.5zM264 604q0 -87 61.5 -142.5t161.5 -55.5q98 0 161 55t63 143t-61.5 146.5t-162.5 58.5q-100 0 -161.5 -58.5t-61.5 -146.5zM496 1264l-166 -144q-19 -16 -43 -16q-25 0 -45 20q-17 17 -17 41q0 28 19 47l209 193q18 18 47 18t47 -18l203 -193
q20 -20 20 -47q0 -25 -18 -43q-20 -20 -47 -20q-24 0 -43 16z" />
    <glyph glyph-name="Gbreve" unicode="&#x11e;" horiz-adv-x="1488" 
d="M827 1290q-241 0 -390.5 -157.5t-149.5 -415.5q0 -260 150.5 -417t396.5 -157q102 0 206.5 36t161.5 91v295h-307q-32 0 -56 24t-24 58t24 58t56 24h385q35 0 60.5 -25.5t25.5 -60.5v-410q0 -61 -49 -96q-95 -73 -230 -115t-258 -42q-333 0 -530 200.5t-197 536.5
q0 206 86 373t248 265.5t371 98.5q227 0 393 -98q43 -24 43 -68q0 -22 -12 -43q-21 -37 -68 -37q-26 0 -53 15q-127 67 -283 67zM1120 1782q23 0 41 -15q19 -16 19 -43q0 -15 -11 -30q-65 -76 -152.5 -122t-187.5 -46q-213 0 -348 164q-10 13 -10 30q0 27 23 47q18 15 38 15
q23 0 43 -17q104 -96 254 -96q147 0 250 96q17 17 41 17z" />
    <glyph glyph-name="gbreve" unicode="&#x11f;" horiz-adv-x="1028" 
d="M434 162q9 0 27.5 1t27.5 1q210 0 339.5 -76t129.5 -221q0 -96 -62 -163t-166 -98.5t-241 -31.5q-138 0 -241 30.5t-165.5 98t-62.5 164.5q0 109 79 180t216 100q-22 28 -22 76t24 78q-97 39 -151.5 120t-54.5 183q0 142 103.5 240t272.5 98q134 0 234 -68l207 50
q6 2 16 2q22 0 40 -14t22 -35q2 -4 2 -15q0 -22 -14.5 -40.5t-37.5 -24.5l-135 -33q43 -70 43 -160q0 -141 -105 -236.5t-272 -95.5q-41 0 -61 2q-10 -20 -10 -51q0 -37 18 -61zM174 -133q0 -76 85.5 -118t229.5 -42q145 0 230.5 41.5t85.5 118.5t-84 120.5t-232 43.5
t-231.5 -43.5t-83.5 -120.5zM264 604q0 -87 61.5 -142.5t161.5 -55.5q98 0 161 55t63 143t-61.5 146.5t-162.5 58.5q-100 0 -161.5 -58.5t-61.5 -146.5zM739 1372q19 0 37 -14q17 -17 17 -39q0 -16 -15 -35q-124 -147 -286 -147q-166 0 -283 145q-12 15 -12 37q0 26 18 41
q19 16 39 16q25 0 47 -22q84 -84 197 -84q107 0 196 82q23 20 45 20z" />
    <glyph glyph-name="Gdotaccent" unicode="&#x120;" horiz-adv-x="1488" 
d="M827 1290q-241 0 -390.5 -157.5t-149.5 -415.5q0 -260 150.5 -417t396.5 -157q102 0 206.5 36t161.5 91v295h-307q-32 0 -56 24t-24 58t24 58t56 24h385q35 0 60.5 -25.5t25.5 -60.5v-410q0 -61 -49 -96q-95 -73 -230 -115t-258 -42q-333 0 -530 200.5t-197 536.5
q0 206 86 373t248 265.5t371 98.5q227 0 393 -98q43 -24 43 -68q0 -22 -12 -43q-21 -37 -68 -37q-26 0 -53 15q-127 67 -283 67zM666 1673q0 48 34 76.5t82 28.5q45 0 78 -29t33 -76q0 -51 -32.5 -80.5t-78.5 -29.5q-49 0 -82.5 29t-33.5 81z" />
    <glyph glyph-name="gdotaccent" unicode="&#x121;" horiz-adv-x="1028" 
d="M434 162q9 0 27.5 1t27.5 1q210 0 339.5 -76t129.5 -221q0 -96 -62 -163t-166 -98.5t-241 -31.5q-138 0 -241 30.5t-165.5 98t-62.5 164.5q0 109 79 180t216 100q-22 28 -22 76t24 78q-97 39 -151.5 120t-54.5 183q0 142 103.5 240t272.5 98q134 0 234 -68l207 50
q6 2 16 2q22 0 40 -14t22 -35q2 -4 2 -15q0 -22 -14.5 -40.5t-37.5 -24.5l-135 -33q43 -70 43 -160q0 -141 -105 -236.5t-272 -95.5q-41 0 -61 2q-10 -20 -10 -51q0 -37 18 -61zM174 -133q0 -76 85.5 -118t229.5 -42q145 0 230.5 41.5t85.5 118.5t-84 120.5t-232 43.5
t-231.5 -43.5t-83.5 -120.5zM264 604q0 -87 61.5 -142.5t161.5 -55.5q98 0 161 55t63 143t-61.5 146.5t-162.5 58.5q-100 0 -161.5 -58.5t-61.5 -146.5zM387 1268q0 43 31.5 70.5t75.5 27.5q40 0 70 -27.5t30 -70.5q0 -49 -29.5 -78t-70.5 -29q-45 0 -76 29t-31 78z" />
    <glyph glyph-name="Gcommaaccent" unicode="&#x122;" horiz-adv-x="1488" 
d="M827 1290q-241 0 -390.5 -157.5t-149.5 -415.5q0 -260 150.5 -417t396.5 -157q102 0 206.5 36t161.5 91v295h-307q-32 0 -56 24t-24 58t24 58t56 24h385q35 0 60.5 -25.5t25.5 -60.5v-410q0 -61 -49 -96q-95 -73 -230 -115t-258 -42q-333 0 -530 200.5t-197 536.5
q0 206 86 373t248 265.5t371 98.5q227 0 393 -98q43 -24 43 -68q0 -22 -12 -43q-21 -37 -68 -37q-26 0 -53 15q-127 67 -283 67zM735 -410q-31 0 -41 21q-6 12 -6 22q0 25 25 41q55 38 55 109q0 25 -10 45q-6 12 -6 22q0 17 12 30t29 16l55 12q6 2 16 2q36 0 52 -33t16 -72
q0 -79 -47.5 -132t-122.5 -79q-16 -4 -27 -4z" />
    <glyph glyph-name="gcommaaccent" unicode="&#x123;" horiz-adv-x="1028" 
d="M434 162q9 0 27.5 1t27.5 1q210 0 339.5 -76t129.5 -221q0 -96 -62 -163t-166 -98.5t-241 -31.5q-138 0 -241 30.5t-165.5 98t-62.5 164.5q0 109 79 180t216 100q-22 28 -22 76t24 78q-97 39 -151.5 120t-54.5 183q0 142 103.5 240t272.5 98q134 0 234 -68l207 50
q6 2 16 2q22 0 40 -14t22 -35q2 -4 2 -15q0 -22 -14.5 -40.5t-37.5 -24.5l-135 -33q43 -70 43 -160q0 -141 -105 -236.5t-272 -95.5q-41 0 -61 2q-10 -20 -10 -51q0 -37 18 -61zM174 -133q0 -76 85.5 -118t229.5 -42q145 0 230.5 41.5t85.5 118.5t-84 120.5t-232 43.5
t-231.5 -43.5t-83.5 -120.5zM264 604q0 -87 61.5 -142.5t161.5 -55.5q98 0 161 55t63 143t-61.5 146.5t-162.5 58.5q-100 0 -161.5 -58.5t-61.5 -146.5zM567 1427q31 0 41 -20q6 -12 6 -23q0 -26 -24 -41q-55 -38 -55 -108q0 -25 10 -45q6 -12 6 -23q0 -17 -11.5 -29.5
t-29.5 -15.5l-55 -12q-6 -2 -17 -2q-36 0 -51.5 32.5t-15.5 71.5q0 79 47.5 132t122.5 79q16 4 26 4z" />
    <glyph glyph-name="Hcircumflex" unicode="&#x124;" horiz-adv-x="1566" 
d="M1178 1360q0 34 26 59t62 25q35 0 60.5 -25t25.5 -59v-1288q0 -35 -25.5 -60.5t-60.5 -25.5q-37 0 -62.5 25.5t-25.5 60.5v577h-789v-577q0 -35 -25.5 -60.5t-60.5 -25.5q-37 0 -62.5 25.5t-25.5 60.5v1288q0 34 26 59t62 25q35 0 60.5 -25t25.5 -59v-547h789v547z
M1030 1524l-248 137l-235 -133q-17 -10 -35 -10q-34 0 -51 26q-10 12 -10 33q0 34 30 51l250 148q22 14 51 14q32 0 52 -14l258 -150q28 -16 28 -49q0 -20 -8 -31q-17 -30 -53 -30q-16 0 -29 8z" />
    <glyph glyph-name="hcircumflex" unicode="&#x125;" horiz-adv-x="1142" 
d="M311 668v-605q0 -32 -23.5 -54.5t-58.5 -22.5t-58.5 22.5t-23.5 54.5v1293q0 33 23.5 55.5t58.5 22.5t58.5 -22.5t23.5 -55.5v-541q53 54 134.5 88.5t166.5 34.5q383 0 383 -410v-465q0 -32 -23.5 -54.5t-58.5 -22.5t-58.5 22.5t-23.5 54.5v443q0 278 -258 278
q-75 0 -146.5 -32.5t-115.5 -83.5zM567 1524l-248 137l-235 -133q-17 -10 -35 -10q-34 0 -51 26q-10 12 -10 33q0 34 30 51l250 148q22 14 51 14q32 0 52 -14l258 -150q28 -16 28 -49q0 -20 -8 -31q-17 -30 -53 -30q-16 0 -29 8z" />
    <glyph glyph-name="Hbar" unicode="&#x126;" horiz-adv-x="1587" 
d="M399 649v-577q0 -35 -25.5 -60.5t-60.5 -25.5q-37 0 -62.5 25.5t-25.5 60.5v981h-98q-31 0 -53.5 22.5t-22.5 54.5q0 31 22.5 53.5t53.5 22.5h98v154q0 34 26 59t62 25q35 0 60.5 -25t25.5 -59v-154h789v154q0 34 26 59t62 25q35 0 60.5 -25t25.5 -59v-154h100
q29 0 51.5 -22.5t22.5 -53.5q0 -32 -22 -54.5t-52 -22.5h-100v-981q0 -35 -25.5 -60.5t-60.5 -25.5q-37 0 -62.5 25.5t-25.5 60.5v577h-789zM399 813h789v240h-789v-240z" />
    <glyph glyph-name="hbar" unicode="&#x127;" horiz-adv-x="1175" 
d="M362 63q0 -33 -23 -55t-58 -22t-58.5 22.5t-23.5 54.5v1002h-162q-32 0 -55 23t-23 55q0 31 23 53.5t55 22.5h162v137q0 33 23.5 55.5t58.5 22.5t58 -22.5t23 -55.5v-137h254q32 0 55 -22.5t23 -53.5q0 -32 -23 -55t-55 -23h-254v-250q53 54 135 88.5t167 34.5
q383 0 383 -410v-465q0 -32 -23.5 -54.5t-58.5 -22.5t-58.5 22.5t-23.5 54.5v443q0 278 -258 278q-75 0 -147 -32.5t-116 -83.5v-605z" />
    <glyph glyph-name="Imacron" unicode="&#x12a;" horiz-adv-x="686" 
d="M256 1360q0 34 26 59t62 25q35 0 60.5 -25t25.5 -59v-1288q0 -35 -25.5 -60.5t-60.5 -25.5q-37 0 -62.5 25.5t-25.5 60.5v1288zM102 1710h492q28 0 46.5 -19.5t18.5 -48.5q0 -28 -18.5 -46.5t-46.5 -18.5h-492q-28 0 -46.5 19.5t-18.5 48.5q0 28 18.5 46.5t46.5 18.5z
" />
    <glyph glyph-name="imacron" unicode="&#x12b;" horiz-adv-x="548" 
d="M356 854v-791q0 -32 -23.5 -54.5t-58.5 -22.5t-58 22t-23 55v791q0 33 23 55.5t58 22.5t58.5 -22.5t23.5 -55.5zM70 1321h409q28 0 47 -19.5t19 -48.5q0 -28 -19 -46.5t-47 -18.5h-409q-28 0 -47 19t-19 48q0 28 19 47t47 19z" />
    <glyph glyph-name="Iogonek" unicode="&#x12e;" horiz-adv-x="686" 
d="M256 1360q0 34 26 59t62 25q35 0 60.5 -25t25.5 -59v-1288q0 -35 -25.5 -60.5t-60.5 -25.5q-21 0 -41 10q-69 -15 -116.5 -62.5t-47.5 -101.5q0 -40 22 -65.5t47.5 -34t53.5 -8.5q24 0 45 6q16 4 25 4q42 0 55 -43q2 -6 2 -19q0 -37 -45 -59q-51 -23 -119 -23
q-65 0 -118.5 17t-92.5 61t-39 111q0 98 84.5 164t208.5 86q-12 18 -12 43v1288z" />
    <glyph glyph-name="iogonek" unicode="&#x12f;" horiz-adv-x="548" 
d="M356 854v-791q0 -32 -23.5 -54.5t-58.5 -22.5q-21 0 -41 10q-67 -15 -113 -62.5t-46 -101.5q0 -40 22 -65.5t47.5 -34t53.5 -8.5q24 0 45 6q16 4 24 4q43 0 56 -43q2 -6 2 -19q0 -37 -45 -59q-51 -23 -119 -23q-65 0 -118.5 17t-92.5 61t-39 111q0 97 84 162.5t207 85.5
q-8 13 -8 36v791q0 33 23 55.5t58 22.5t58.5 -22.5t23.5 -55.5zM172 1268q0 43 31.5 70.5t75.5 27.5q40 0 70 -27.5t30 -70.5q0 -49 -29.5 -78t-70.5 -29q-45 0 -76 29t-31 78z" />
    <glyph glyph-name="Idotaccent" unicode="&#x130;" horiz-adv-x="686" 
d="M256 1360q0 34 26 59t62 25q35 0 60.5 -25t25.5 -59v-1288q0 -35 -25.5 -60.5t-60.5 -25.5q-37 0 -62.5 25.5t-25.5 60.5v1288zM229 1673q0 48 34.5 76.5t82.5 28.5q45 0 78 -29t33 -76q0 -51 -32.5 -80.5t-78.5 -29.5q-49 0 -83 29t-34 81z" />
    <glyph glyph-name="dotlessi" unicode="&#x131;" horiz-adv-x="548" 
d="M356 854v-791q0 -32 -23.5 -54.5t-58.5 -22.5t-58 22t-23 55v791q0 33 23 55.5t58 22.5t58.5 -22.5t23.5 -55.5z" />
    <glyph glyph-name="Jcircumflex" unicode="&#x134;" horiz-adv-x="755" 
d="M131 158q51 -15 74 -15q88 0 125 55.5t37 155.5v1006q0 34 26 59t62 25q35 0 60.5 -25t25.5 -59v-1034q0 -346 -314 -346q-78 0 -159 34q-20 9 -31.5 28.5t-11.5 41.5q0 18 6 33q21 47 69 47q16 0 31 -6zM688 1524l-248 137l-235 -133q-17 -10 -35 -10q-34 0 -51 26
q-10 12 -10 33q0 34 30 51l250 148q22 14 51 14q32 0 52 -14l258 -150q28 -16 28 -49q0 -20 -8 -31q-17 -30 -53 -30q-16 0 -29 8z" />
    <glyph glyph-name="jcircumflex" unicode="&#x135;" horiz-adv-x="579" 
d="M236 -55v909q0 33 23 55.5t58 22.5t58.5 -22.5t23.5 -55.5v-922q0 -358 -288 -358q-82 0 -144 23q-53 19 -53 71q0 32 21 51t55 19q23 0 35 -4q24 -6 49 -6q162 0 162 217zM317 1264l-165 -144q-19 -16 -43 -16q-26 0 -46 20q-16 16 -16 41q0 28 19 47l208 193
q18 18 48 18q29 0 47 -18l202 -193q21 -21 21 -47q0 -24 -19 -43q-20 -20 -47 -20q-24 0 -43 16z" />
    <glyph glyph-name="Kcommaaccent" unicode="&#x136;" horiz-adv-x="1300" 
d="M1044 33l-565 651q-22 25 -22 61q0 39 24 66l537 588q39 45 80 45q33 0 54.5 -20.5t21.5 -49.5q0 -36 -31 -67l-518 -547l555 -627q30 -33 30 -72q0 -32 -23 -53.5t-57 -21.5q-45 0 -86 47zM215 1360q0 34 26 59t62 25q35 0 60.5 -25t25.5 -59v-1288q0 -35 -25.5 -60.5
t-60.5 -25.5q-37 0 -62.5 25.5t-25.5 60.5v1288zM571 -410q-31 0 -41 21q-6 12 -6 22q0 25 25 41q55 38 55 109q0 25 -10 45q-6 12 -6 22q0 17 12 30t29 16l55 12q6 2 16 2q36 0 52 -33t16 -72q0 -79 -47.5 -132t-122.5 -79q-16 -4 -27 -4z" />
    <glyph glyph-name="kcommaaccent" unicode="&#x137;" horiz-adv-x="974" 
d="M737 29l-340 393q-22 25 -22 59q0 35 22 60l301 348q37 43 74 43q36 0 58 -20.5t22 -49.5t-25 -57l-282 -311l329 -371q25 -31 25 -62q0 -32 -22.5 -53.5t-59.5 -21.5q-43 0 -80 43zM311 1356v-1293q0 -32 -23.5 -54.5t-58.5 -22.5t-58.5 22.5t-23.5 54.5v1293
q0 33 23.5 55.5t58.5 22.5t58.5 -22.5t23.5 -55.5zM395 -410q-31 0 -41 21q-6 12 -6 22q0 25 25 41q55 38 55 109q0 25 -10 45q-6 12 -6 22q0 17 12 30t29 16l55 12q6 2 16 2q36 0 52 -33t16 -72q0 -79 -47.5 -132t-122.5 -79q-16 -4 -27 -4z" />
    <glyph glyph-name="Lacute" unicode="&#x139;" horiz-adv-x="1126" 
d="M389 164h627q32 0 56 -24t24 -58t-24 -58t-56 -24h-715q-35 0 -60.5 25.5t-25.5 60.5v1274q0 34 26 59t62 25q35 0 60.5 -25t25.5 -59v-1196zM485 1630l301 160q12 6 25 6q14 0 27.5 -9t19.5 -22l16 -36q5 -10 5 -23q0 -36 -33 -49l-311 -131q-12 -4 -21 -4q-36 0 -53 30
q-6 12 -6 27q0 34 30 51z" />
    <glyph glyph-name="lacute" unicode="&#x13a;" horiz-adv-x="589" 
d="M311 1356v-1037q0 -95 25.5 -138.5t83.5 -43.5q19 0 50.5 5t41.5 5q25 0 46.5 -16.5t21.5 -48.5t-18 -53t-52 -29.5t-60 -11t-63 -2.5q-116 0 -178 64.5t-62 195.5v1110q0 33 23.5 55.5t58.5 22.5t58.5 -22.5t23.5 -55.5zM193 1630l301 160q12 6 24 6q14 0 27.5 -9
t19.5 -22l17 -36q4 -8 4 -23q0 -36 -33 -49l-311 -131q-12 -4 -21 -4q-36 0 -53 30q-6 12 -6 27q0 34 31 51z" />
    <glyph glyph-name="Lcommaaccent" unicode="&#x13b;" horiz-adv-x="1126" 
d="M389 164h627q32 0 56 -24t24 -58t-24 -58t-56 -24h-715q-35 0 -60.5 25.5t-25.5 60.5v1274q0 34 26 59t62 25q35 0 60.5 -25t25.5 -59v-1196zM551 -410q-31 0 -41 21q-6 12 -6 22q0 26 24 41q56 39 56 109q0 23 -11 45q-6 12 -6 22q0 17 12 30t29 16l56 12q6 2 16 2
q36 0 52 -33t16 -72q0 -79 -47.5 -132t-122.5 -79q-16 -4 -27 -4z" />
    <glyph glyph-name="lcommaaccent" unicode="&#x13c;" horiz-adv-x="589" 
d="M311 1356v-1037q0 -95 25.5 -138.5t83.5 -43.5q19 0 50.5 5t41.5 5q25 0 46.5 -16.5t21.5 -48.5t-18 -53t-52 -29.5t-60 -11t-63 -2.5q-116 0 -178 64.5t-62 195.5v1110q0 33 23.5 55.5t58.5 22.5t58.5 -22.5t23.5 -55.5zM258 -410q-30 0 -41 21q-6 12 -6 22q0 25 25 41
q55 38 55 109q0 25 -10 45q-7 14 -7 22q0 17 12 30t29 16l56 12q6 2 16 2q36 0 52 -33t16 -72q0 -79 -47.5 -132t-122.5 -79q-16 -4 -27 -4z" />
    <glyph glyph-name="Lcaron" unicode="&#x13d;" horiz-adv-x="1126" 
d="M389 164h627q32 0 56 -24t24 -58t-24 -58t-56 -24h-715q-35 0 -60.5 25.5t-25.5 60.5v1274q0 34 26 59t62 25q35 0 60.5 -25t25.5 -59v-1196zM725 1053q-20 0 -35 12q-16 13 -16 37q0 26 20 49q58 69 58 186q0 19 -4 47q0 2 -1.5 6.5t-1.5 6.5q0 37 43 37h58q27 0 41 -16
t16 -36q2 -8 2 -26q0 -95 -38.5 -168.5t-92.5 -116.5q-23 -18 -49 -18z" />
    <glyph glyph-name="lcaron" unicode="&#x13e;" horiz-adv-x="589" 
d="M311 1356v-1037q0 -95 25.5 -138.5t83.5 -43.5q19 0 50.5 5t41.5 5q25 0 46.5 -16.5t21.5 -48.5t-18 -53t-52 -29.5t-60 -11t-63 -2.5q-116 0 -178 64.5t-62 195.5v1110q0 33 23.5 55.5t58.5 22.5t58.5 -22.5t23.5 -55.5zM500 1053q-20 0 -35 12q-16 13 -16 37
q0 26 20 49q57 68 57 186q0 19 -4 47q0 2 -1 6.5t-1 6.5q0 37 43 37h58q27 0 41 -16t16 -36q2 -8 2 -26q0 -95 -38.5 -168.5t-92.5 -116.5q-23 -18 -49 -18z" />
    <glyph glyph-name="Ldot" unicode="&#x13f;" horiz-adv-x="1126" 
d="M389 164h627q32 0 56 -24t24 -58t-24 -58t-56 -24h-715q-35 0 -60.5 25.5t-25.5 60.5v1274q0 34 26 59t62 25q35 0 60.5 -25t25.5 -59v-1196zM754 766q0 42 32 75t84 33q46 0 77.5 -33.5t31.5 -74.5q0 -47 -31.5 -82t-77.5 -35q-52 0 -84 34.5t-32 82.5z" />
    <glyph glyph-name="ldot" unicode="&#x140;" horiz-adv-x="663" 
d="M311 1356v-1037q0 -95 25.5 -138.5t83.5 -43.5q19 0 50.5 5t41.5 5q25 0 46.5 -16.5t21.5 -48.5t-18 -53t-52 -29.5t-60 -11t-63 -2.5q-116 0 -178 64.5t-62 195.5v1110q0 33 23.5 55.5t58.5 22.5t58.5 -22.5t23.5 -55.5zM463 668q0 43 31 70.5t75 27.5q40 0 70.5 -27.5
t30.5 -70.5q0 -49 -30 -78t-71 -29q-45 0 -75.5 29t-30.5 78z" />
    <glyph glyph-name="Lslash" unicode="&#x141;" horiz-adv-x="1132" 
d="M1026 0h-715q-35 0 -60.5 25.5t-25.5 60.5v453l-92 -45q-18 -7 -31 -7q-46 0 -67 43q-8 13 -8 33q0 21 11.5 40t29.5 28l157 76v653q0 34 26 59t62 25q35 0 60.5 -25t25.5 -59v-569l260 127q15 6 31 6q49 0 70 -41q8 -13 8 -33q0 -47 -39 -66l-330 -161v-459h627
q32 0 56 -24t24 -58t-24 -58t-56 -24z" />
    <glyph glyph-name="lslash" unicode="&#x142;" horiz-adv-x="626" 
d="M346 610v-291q0 -95 25.5 -138.5t83.5 -43.5q19 0 50.5 5t41.5 5q24 0 45.5 -16.5t21.5 -48.5t-18 -53t-51.5 -29.5t-59.5 -11t-63 -2.5q-116 0 -178 64.5t-62 195.5v289l-61 -31q-13 -8 -35 -8q-49 0 -68 39q-6 15 -6 30q0 51 43 72l127 63v656q0 33 23.5 55.5
t58.5 22.5t58.5 -22.5t23.5 -55.5v-578l143 70q13 8 35 8t41.5 -11t28.5 -30q6 -12 6 -29q0 -51 -45 -73z" />
    <glyph glyph-name="Nacute" unicode="&#x143;" horiz-adv-x="1628" 
d="M1249 303v1061q0 32 24 56t58 24t58 -24t24 -56v-1290q0 -39 -20.5 -63.5t-53.5 -24.5q-31 0 -53.5 14.5t-50.5 48.5l-856 1079v-1062q0 -32 -24 -56t-58 -24t-58 24t-24 56v1282q0 40 20.5 68t59.5 28q31 0 55 -16.5t56 -57.5zM741 1630l301 160q12 6 25 6q14 0 27.5 -9
t19.5 -22l16 -36q5 -10 5 -23q0 -36 -33 -49l-311 -131q-12 -4 -21 -4q-36 0 -53 30q-6 12 -6 27q0 34 30 51z" />
    <glyph glyph-name="nacute" unicode="&#x144;" horiz-adv-x="1142" 
d="M311 666v-603q0 -32 -23.5 -54.5t-58.5 -22.5t-58.5 22.5t-23.5 54.5v791q0 33 23.5 55.5t58.5 22.5t58.5 -22.5t23.5 -55.5v-45q50 55 132 92t169 37q383 0 383 -406v-469q0 -32 -23.5 -54.5t-58.5 -22.5t-58.5 22.5t-23.5 54.5v439q0 282 -260 282q-76 0 -145 -32.5
t-115 -85.5zM492 1208l147 219q16 25 49 25q20 0 35 -12l29 -21q22 -19 22 -47q0 -25 -14 -39l-164 -198q-22 -25 -53 -25q-18 0 -35 10q-27 18 -27 54q0 16 11 34z" />
    <glyph glyph-name="Ncommaaccent" unicode="&#x145;" horiz-adv-x="1628" 
d="M1249 303v1061q0 32 24 56t58 24t58 -24t24 -56v-1290q0 -39 -20.5 -63.5t-53.5 -24.5q-31 0 -53.5 14.5t-50.5 48.5l-856 1079v-1062q0 -32 -24 -56t-58 -24t-58 24t-24 56v1282q0 40 20.5 68t59.5 28q31 0 55 -16.5t56 -57.5zM725 -410q-31 0 -41 21q-6 12 -6 22
q0 26 24 41q56 39 56 109q0 25 -10 45q-7 14 -7 22q0 17 12 30t29 16l56 12q6 2 16 2q36 0 52 -33t16 -72q0 -79 -47.5 -132t-122.5 -79q-16 -4 -27 -4z" />
    <glyph glyph-name="ncommaaccent" unicode="&#x146;" horiz-adv-x="1142" 
d="M311 666v-603q0 -32 -23.5 -54.5t-58.5 -22.5t-58.5 22.5t-23.5 54.5v791q0 33 23.5 55.5t58.5 22.5t58.5 -22.5t23.5 -55.5v-45q50 55 132 92t169 37q383 0 383 -406v-469q0 -32 -23.5 -54.5t-58.5 -22.5t-58.5 22.5t-23.5 54.5v439q0 282 -260 282q-76 0 -145 -32.5
t-115 -85.5zM475 -410q-31 0 -41 21q-6 12 -6 22q0 25 25 41q55 38 55 109q0 25 -10 45q-6 12 -6 22q0 17 11.5 30t28.5 16l56 12q6 2 16 2q36 0 52 -33t16 -72q0 -79 -47.5 -132t-122.5 -79q-16 -4 -27 -4z" />
    <glyph glyph-name="Ncaron" unicode="&#x147;" horiz-adv-x="1628" 
d="M1249 303v1061q0 32 24 56t58 24t58 -24t24 -56v-1290q0 -39 -20.5 -63.5t-53.5 -24.5q-31 0 -53.5 14.5t-50.5 48.5l-856 1079v-1062q0 -32 -24 -56t-58 -24t-58 24t-24 56v1282q0 40 20.5 68t59.5 28q31 0 55 -16.5t56 -57.5zM817 1651l242 141q13 8 33 8q33 0 49 -26
q8 -13 8 -31q0 -35 -29 -51l-252 -150q-22 -14 -53 -14t-53 14l-256 150q-29 16 -29 51q0 17 6 29q17 30 54 30q15 0 28 -8z" />
    <glyph glyph-name="ncaron" unicode="&#x148;" horiz-adv-x="1142" 
d="M311 666v-603q0 -32 -23.5 -54.5t-58.5 -22.5t-58.5 22.5t-23.5 54.5v791q0 33 23.5 55.5t58.5 22.5t58.5 -22.5t23.5 -55.5v-45q50 55 132 92t169 37q383 0 383 -406v-469q0 -32 -23.5 -54.5t-58.5 -22.5t-58.5 22.5t-23.5 54.5v439q0 282 -260 282q-76 0 -145 -32.5
t-115 -85.5zM561 1243l168 166q18 18 47 18q25 0 41 -16q19 -16 19 -43q0 -24 -19 -43l-213 -199q-18 -18 -47 -18t-47 18l-209 199q-18 15 -18 43t20 45t43 17q28 0 47 -19z" />
    <glyph glyph-name="Omacron" unicode="&#x14c;" horiz-adv-x="1667" 
d="M834 -20q-207 0 -373.5 92.5t-262.5 261.5t-96 383q0 206 93.5 374.5t261.5 265.5t377 97q154 0 289 -54.5t232.5 -150t153.5 -233.5t56 -299q0 -157 -56 -294.5t-153 -234.5t-232.5 -152.5t-289.5 -55.5zM834 1290q-154 0 -279 -73t-196.5 -204.5t-71.5 -295.5
q0 -160 72.5 -292t198 -207t276.5 -75q161 0 286 76t192.5 206.5t67.5 291.5q0 248 -157 410.5t-389 162.5zM598 1710h492q28 0 46.5 -19.5t18.5 -48.5q0 -28 -18.5 -46.5t-46.5 -18.5h-492q-28 0 -47 19.5t-19 48.5q0 28 19 46.5t47 18.5z" />
    <glyph glyph-name="omacron" unicode="&#x14d;" 
d="M86 461q0 209 136.5 345t355.5 136t355 -136t136 -345t-136 -345t-355 -136t-355.5 136t-136.5 345zM260 461q0 -144 89.5 -236t228.5 -92t228 90.5t89 237.5q0 144 -89 235.5t-228 91.5q-137 0 -227.5 -91t-90.5 -236zM383 1321h410q28 0 46.5 -19.5t18.5 -48.5
q0 -28 -18.5 -46.5t-46.5 -18.5h-410q-28 0 -47 19t-19 48q0 28 19 47t47 19z" />
    <glyph glyph-name="Ohungarumlaut" unicode="&#x150;" horiz-adv-x="1667" 
d="M834 -20q-207 0 -373.5 92.5t-262.5 261.5t-96 383q0 206 93.5 374.5t261.5 265.5t377 97q154 0 289 -54.5t232.5 -150t153.5 -233.5t56 -299q0 -157 -56 -294.5t-153 -234.5t-232.5 -152.5t-289.5 -55.5zM834 1290q-154 0 -279 -73t-196.5 -204.5t-71.5 -295.5
q0 -160 72.5 -292t198 -207t276.5 -75q161 0 286 76t192.5 206.5t67.5 291.5q0 248 -157 410.5t-389 162.5zM965 1608l235 178q15 12 37 12q26 0 45 -16l35 -35q14 -11 14 -27q0 -21 -20 -34l-277 -154q-20 -10 -37 -10q-25 0 -41 16q-12 12 -12 31q0 21 21 39zM596 1608
l184 172q20 20 51 20q19 0 35 -8l43 -25q19 -9 19 -28q0 -18 -15 -27l-243 -176q-21 -14 -41 -14q-21 0 -37 16q-14 14 -14 33t18 37z" />
    <glyph glyph-name="ohungarumlaut" unicode="&#x151;" 
d="M86 461q0 209 136.5 345t355.5 136t355 -136t136 -345t-136 -345t-355 -136t-355.5 136t-136.5 345zM260 461q0 -144 89.5 -236t228.5 -92t228 90.5t89 237.5q0 144 -89 235.5t-228 91.5q-137 0 -227.5 -91t-90.5 -236zM674 1204l164 215q14 23 45 23q22 0 37 -12l26 -19
q21 -18 21 -45q0 -21 -13 -37l-178 -196q-20 -23 -49 -23q-21 0 -39 12q-24 18 -24 49q0 16 10 33zM354 1206l146 226q15 24 47 24q16 0 33 -10l24 -19q23 -16 23 -47q0 -20 -11 -34l-161 -211q-16 -25 -47 -25q-22 0 -37 12q-27 20 -27 52q0 15 10 32z" />
    <glyph glyph-name="OE" unicode="&#x152;" horiz-adv-x="2134" 
d="M1346 164h575q32 0 56 -24t24 -58t-24 -58t-56 -24h-694q-23 0 -39.5 16t-16.5 41q-145 -77 -342 -77q-213 0 -378 90.5t-257 258.5t-92 388q0 207 84 373t248 265t383 99q201 0 354 -80q0 25 17.5 42.5t42.5 17.5h670q32 0 55.5 -24t23.5 -58t-23.5 -58t-55.5 -24h-555
v-463h493q32 0 56 -24t24 -58t-24 -58t-56 -24h-493v-479zM1171 238v946q-142 106 -352 106q-234 0 -383 -159.5t-149 -413.5q0 -256 155 -415t404 -159q182 0 325 95z" />
    <glyph glyph-name="oe" unicode="&#x153;" horiz-adv-x="1724" 
d="M737 461q0 138 60 252q-88 75 -219 75q-138 0 -228 -91t-90 -236q0 -144 89.5 -236t228.5 -92q133 0 219 76q-60 108 -60 252zM1470 543q-8 115 -78.5 180t-189.5 65q-123 0 -200 -68t-91 -177h559zM1243 133q131 0 225 55q24 15 50 15q34 0 53 -25q14 -17 14 -41
q0 -33 -29 -55q-143 -102 -325 -102q-202 0 -330 104q-128 -104 -323 -104q-219 0 -355.5 136t-136.5 345t136.5 345t355.5 136q191 0 319 -106q128 106 315 106q182 0 304 -117.5t122 -304.5q0 -31 -2 -45q-1 -25 -22.5 -45t-46.5 -20h-645q9 -129 96 -203t225 -74z" />
    <glyph glyph-name="Racute" unicode="&#x154;" horiz-adv-x="1284" 
d="M1202 66q0 -33 -22 -56.5t-58 -23.5q-48 0 -88 49l-411 538h-234v-501q0 -35 -25.5 -60.5t-60.5 -25.5q-37 0 -62.5 25.5t-25.5 60.5v1276q0 35 25.5 60.5t60.5 25.5q218 4 299 4q114 0 203 -22.5t146 -60.5t94 -93.5t52 -116.5t15 -133q0 -81 -26 -151.5t-70.5 -120.5
t-99 -84t-115.5 -50l381 -481q22 -28 22 -59zM389 1270v-533h211q131 0 228.5 75.5t97.5 197.5q0 121 -78.5 192.5t-257.5 71.5q-65 0 -201 -4zM475 1630l301 160q12 6 25 6q14 0 27.5 -9t19.5 -22l16 -36q4 -8 4 -23q0 -36 -32 -49l-312 -131q-12 -4 -20 -4q-36 0 -53 30
q-7 14 -7 27q0 34 31 51z" />
    <glyph glyph-name="racute" unicode="&#x155;" horiz-adv-x="696" 
d="M311 653v-585q0 -34 -24 -58t-58 -24t-58 24t-24 58v782q0 34 24 58t58 24t58 -24t24 -58v-37q84 125 232 125q34 0 84 -12q59 -18 59 -66q0 -6 -4 -26q-17 -58 -82 -58q-13 0 -41 4q-18 4 -55 4q-126 0 -193 -131zM315 1208l148 219q16 25 49 25q20 0 35 -12l28 -21
q23 -20 23 -47q0 -25 -14 -39l-164 -198q-22 -25 -53 -25q-18 0 -35 10q-27 18 -27 54q0 17 10 34z" />
    <glyph glyph-name="Rcommaaccent" unicode="&#x156;" horiz-adv-x="1284" 
d="M1202 66q0 -33 -22 -56.5t-58 -23.5q-48 0 -88 49l-411 538h-234v-501q0 -35 -25.5 -60.5t-60.5 -25.5q-37 0 -62.5 25.5t-25.5 60.5v1276q0 35 25.5 60.5t60.5 25.5q218 4 299 4q114 0 203 -22.5t146 -60.5t94 -93.5t52 -116.5t15 -133q0 -81 -26 -151.5t-70.5 -120.5
t-99 -84t-115.5 -50l381 -481q22 -28 22 -59zM389 1270v-533h211q131 0 228.5 75.5t97.5 197.5q0 121 -78.5 192.5t-257.5 71.5q-65 0 -201 -4zM561 -410q-31 0 -41 21q-6 12 -6 22q0 25 25 41q55 38 55 109q0 25 -10 45q-6 12 -6 22q0 17 11.5 30t28.5 16l56 12q6 2 16 2
q36 0 52 -33t16 -72q0 -79 -47.5 -132t-122.5 -79q-16 -4 -27 -4z" />
    <glyph glyph-name="rcommaaccent" unicode="&#x157;" horiz-adv-x="696" 
d="M311 653v-585q0 -34 -24 -58t-58 -24t-58 24t-24 58v782q0 34 24 58t58 24t58 -24t24 -58v-37q84 125 232 125q34 0 84 -12q59 -18 59 -66q0 -6 -4 -26q-17 -58 -82 -58q-13 0 -41 4q-18 4 -55 4q-126 0 -193 -131zM240 -410q-30 0 -41 21q-6 12 -6 22q0 26 24 41
q55 38 55 109q0 25 -10 45q-6 12 -6 22q0 17 12 30t29 16l55 12q6 2 17 2q36 0 51.5 -33t15.5 -72q0 -79 -47.5 -132t-122.5 -79q-16 -4 -26 -4z" />
    <glyph glyph-name="Rcaron" unicode="&#x158;" horiz-adv-x="1284" 
d="M1202 66q0 -33 -22 -56.5t-58 -23.5q-48 0 -88 49l-411 538h-234v-501q0 -35 -25.5 -60.5t-60.5 -25.5q-37 0 -62.5 25.5t-25.5 60.5v1276q0 35 25.5 60.5t60.5 25.5q218 4 299 4q114 0 203 -22.5t146 -60.5t94 -93.5t52 -116.5t15 -133q0 -81 -26 -151.5t-70.5 -120.5
t-99 -84t-115.5 -50l381 -481q22 -28 22 -59zM389 1270v-533h211q131 0 228.5 75.5t97.5 197.5q0 121 -78.5 192.5t-257.5 71.5q-65 0 -201 -4zM598 1651l242 141q13 8 32 8q34 0 50 -26q8 -13 8 -31q0 -35 -29 -51l-252 -150q-22 -14 -53 -14t-53 14l-256 150
q-29 16 -29 51q0 17 6 29q17 30 53 30q16 0 29 -8z" />
    <glyph glyph-name="rcaron" unicode="&#x159;" horiz-adv-x="696" 
d="M311 653v-585q0 -34 -24 -58t-58 -24t-58 24t-24 58v782q0 34 24 58t58 24t58 -24t24 -58v-37q84 125 232 125q34 0 84 -12q59 -18 59 -66q0 -6 -4 -26q-17 -58 -82 -58q-13 0 -41 4q-18 4 -55 4q-126 0 -193 -131zM397 1243l168 166q18 18 47 18q25 0 41 -16
q19 -16 19 -43q0 -24 -19 -43l-213 -199q-18 -18 -47 -18t-47 18l-209 199q-18 15 -18 43t20 45t43 17q28 0 47 -19z" />
    <glyph glyph-name="Sacute" unicode="&#x15a;" horiz-adv-x="1077" 
d="M516 -20q-203 0 -397 163q-25 22 -25 58q0 29 19 51q25 31 63 31q26 0 47 -15q88 -65 155.5 -95t139.5 -30q118 0 199.5 60t81.5 164q0 56 -24 100.5t-64.5 76t-93 58t-111 50.5t-116.5 49.5t-110.5 60t-93 76.5t-64.5 103.5t-24 137.5q0 161 117 268t315 107
q184 0 336 -96q33 -23 33 -66q0 -26 -14 -43q-28 -39 -68 -39q-17 0 -47 15q-108 65 -229 65q-119 0 -188.5 -57.5t-69.5 -153.5q0 -56 24 -101t64.5 -75.5t93 -56t110.5 -48.5t116 -48t110.5 -58.5t93 -76t64.5 -105.5t24 -141q0 -115 -62.5 -204.5t-168.5 -137t-236 -47.5
zM453 1630l301 160q12 6 24 6q14 0 27.5 -9t19.5 -22l17 -36q4 -8 4 -23q0 -36 -33 -49l-311 -131q-12 -4 -21 -4q-36 0 -53 30q-6 12 -6 27q0 34 31 51z" />
    <glyph glyph-name="sacute" unicode="&#x15b;" horiz-adv-x="839" 
d="M84 135q0 26 16 45q23 29 58 29q27 0 47 -14q107 -72 213 -72q69 0 116.5 33.5t47.5 93.5q0 37 -27.5 64t-71.5 44t-97 33t-106 38t-97 51.5t-71.5 81t-27.5 120.5q0 120 87 190t226 70q140 0 262 -70q33 -20 33 -57q0 -21 -12 -39q-20 -33 -62 -33q-21 0 -40 11
q-85 45 -172 45q-67 0 -107.5 -33.5t-40.5 -81.5q0 -39 27.5 -67.5t71.5 -46t97 -33.5t106 -37t97 -49.5t71.5 -77.5t27.5 -115q0 -71 -29.5 -125.5t-80.5 -87t-113.5 -49t-133.5 -16.5q-159 0 -288 98q-27 20 -27 57zM326 1208l147 219q16 25 49 25q20 0 35 -12l29 -21
q22 -19 22 -47q0 -25 -14 -39l-164 -198q-22 -25 -53 -25q-18 0 -35 10q-27 18 -27 54q0 16 11 34z" />
    <glyph glyph-name="Scircumflex" unicode="&#x15c;" horiz-adv-x="1077" 
d="M516 -20q-203 0 -397 163q-25 22 -25 58q0 29 19 51q25 31 63 31q26 0 47 -15q88 -65 155.5 -95t139.5 -30q118 0 199.5 60t81.5 164q0 56 -24 100.5t-64.5 76t-93 58t-111 50.5t-116.5 49.5t-110.5 60t-93 76.5t-64.5 103.5t-24 137.5q0 161 117 268t315 107
q184 0 336 -96q33 -23 33 -66q0 -26 -14 -43q-28 -39 -68 -39q-17 0 -47 15q-108 65 -229 65q-119 0 -188.5 -57.5t-69.5 -153.5q0 -56 24 -101t64.5 -75.5t93 -56t110.5 -48.5t116 -48t110.5 -58.5t93 -76t64.5 -105.5t24 -141q0 -115 -62.5 -204.5t-168.5 -137t-236 -47.5
zM766 1524l-248 137l-235 -133q-17 -10 -35 -10q-34 0 -51 26q-11 14 -11 33q0 34 31 51l250 148q22 14 51 14q31 0 51 -14l258 -150q29 -16 29 -49q0 -20 -8 -31q-17 -30 -53 -30q-16 0 -29 8z" />
    <glyph glyph-name="scircumflex" unicode="&#x15d;" horiz-adv-x="839" 
d="M84 135q0 26 16 45q23 29 58 29q27 0 47 -14q107 -72 213 -72q69 0 116.5 33.5t47.5 93.5q0 37 -27.5 64t-71.5 44t-97 33t-106 38t-97 51.5t-71.5 81t-27.5 120.5q0 120 87 190t226 70q140 0 262 -70q33 -20 33 -57q0 -21 -12 -39q-20 -33 -62 -33q-21 0 -40 11
q-85 45 -172 45q-67 0 -107.5 -33.5t-40.5 -81.5q0 -39 27.5 -67.5t71.5 -46t97 -33.5t106 -37t97 -49.5t71.5 -77.5t27.5 -115q0 -71 -29.5 -125.5t-80.5 -87t-113.5 -49t-133.5 -16.5q-159 0 -288 98q-27 20 -27 57zM410 1264l-166 -144q-19 -16 -43 -16q-25 0 -45 20
q-17 17 -17 41q0 28 19 47l209 193q18 18 47 18t47 -18l203 -193q20 -20 20 -47q0 -25 -18 -43q-20 -20 -48 -20q-24 0 -43 16z" />
    <glyph glyph-name="Scedilla" unicode="&#x15e;" horiz-adv-x="1077" 
d="M983 369q0 -167 -124.5 -273.5t-313.5 -115.5v-68q217 -11 217 -164q0 -75 -67.5 -121.5t-184.5 -46.5q-115 0 -201 53q-20 13 -20 37q0 18 8 29q16 25 41 25q10 0 24 -7q66 -34 111 -34q51 0 83 19.5t32 53.5q0 36 -23 58t-59 22q-21 0 -35 13t-14 32v103
q-176 19 -338 159q-25 22 -25 58q0 29 19 51q25 31 63 31q26 0 47 -15q88 -65 155.5 -95t139.5 -30q118 0 199.5 60t81.5 164q0 56 -24 100.5t-64.5 76t-93 58t-111 50.5t-116.5 49.5t-110.5 60t-93 76.5t-64.5 103.5t-24 137.5q0 161 117 268t315 107q184 0 336 -96
q33 -23 33 -66q0 -26 -14 -43q-28 -39 -68 -39q-17 0 -47 15q-108 65 -229 65q-119 0 -188.5 -57.5t-69.5 -153.5q0 -56 24 -101t64.5 -75.5t93 -56t110.5 -48.5t116 -48t110.5 -58.5t93 -76t64.5 -105.5t24 -141z" />
    <glyph glyph-name="scedilla" unicode="&#x15f;" horiz-adv-x="839" 
d="M84 135q0 26 16 45q23 29 58 29q27 0 47 -14q107 -72 213 -72q69 0 116.5 33.5t47.5 93.5q0 37 -27.5 64t-71.5 44t-97 33t-106 38t-97 51.5t-71.5 81t-27.5 120.5q0 120 87 190t226 70q140 0 262 -70q33 -20 33 -57q0 -21 -12 -39q-20 -33 -62 -33q-21 0 -40 11
q-85 45 -172 45q-67 0 -107.5 -33.5t-40.5 -81.5q0 -39 27.5 -67.5t71.5 -46t97 -33.5t106 -37t97 -49.5t71.5 -77.5t27.5 -115q0 -127 -90.5 -197.5t-227.5 -78.5v-70q103 -6 155 -48.5t52 -115.5q0 -75 -68 -121.5t-190 -46.5q-95 0 -172 43q-27 13 -27 45q0 11 5 21
q11 24 40 24q16 0 31 -6q57 -24 103 -24q52 0 83 20.5t31 60.5q0 32 -21.5 52t-60.5 20q-20 0 -34.5 14.5t-14.5 34.5v97q-129 11 -239 96q-27 20 -27 57z" />
    <glyph glyph-name="Scaron" unicode="&#x160;" horiz-adv-x="1077" 
d="M516 -20q-203 0 -397 163q-25 22 -25 58q0 29 19 51q25 31 63 31q26 0 47 -15q88 -65 155.5 -95t139.5 -30q118 0 199.5 60t81.5 164q0 56 -24 100.5t-64.5 76t-93 58t-111 50.5t-116.5 49.5t-110.5 60t-93 76.5t-64.5 103.5t-24 137.5q0 161 117 268t315 107
q184 0 336 -96q33 -23 33 -66q0 -26 -14 -43q-28 -39 -68 -39q-17 0 -47 15q-108 65 -229 65q-119 0 -188.5 -57.5t-69.5 -153.5q0 -56 24 -101t64.5 -75.5t93 -56t110.5 -48.5t116 -48t110.5 -58.5t93 -76t64.5 -105.5t24 -141q0 -115 -62.5 -204.5t-168.5 -137t-236 -47.5
zM535 1651l241 141q13 8 33 8q33 0 49 -26q8 -13 8 -31q0 -35 -28 -51l-252 -150q-22 -14 -54 -14q-31 0 -53 14l-256 150q-28 16 -28 51q0 17 6 29q17 30 53 30q16 0 29 -8z" />
    <glyph glyph-name="scaron" unicode="&#x161;" horiz-adv-x="839" 
d="M84 135q0 26 16 45q23 29 58 29q27 0 47 -14q107 -72 213 -72q69 0 116.5 33.5t47.5 93.5q0 37 -27.5 64t-71.5 44t-97 33t-106 38t-97 51.5t-71.5 81t-27.5 120.5q0 120 87 190t226 70q140 0 262 -70q33 -20 33 -57q0 -21 -12 -39q-20 -33 -62 -33q-21 0 -40 11
q-85 45 -172 45q-67 0 -107.5 -33.5t-40.5 -81.5q0 -39 27.5 -67.5t71.5 -46t97 -33.5t106 -37t97 -49.5t71.5 -77.5t27.5 -115q0 -71 -29.5 -125.5t-80.5 -87t-113.5 -49t-133.5 -16.5q-159 0 -288 98q-27 20 -27 57zM408 1243l167 166q18 18 48 18q25 0 41 -16
q18 -15 18 -43q0 -25 -18 -43l-213 -199q-18 -18 -48 -18q-29 0 -47 18l-209 199q-18 15 -18 43q0 27 21 45q20 17 43 17q28 0 47 -19z" />
    <glyph glyph-name="Tcedilla" unicode="&#x162;" horiz-adv-x="1218" 
d="M696 1270v-1198q0 -53 -45 -76v-84q217 -11 217 -164q0 -75 -67.5 -121.5t-184.5 -46.5q-114 0 -200 53q-21 14 -21 37q0 18 8 29q16 25 41 25q11 0 25 -7q66 -34 111 -34q51 0 82.5 19.5t31.5 53.5q0 36 -23 58t-59 22q-21 0 -35 13t-14 32v119q-41 23 -41 72v1198h-422
q-32 0 -56 24t-24 58t24 58t56 24h1018q32 0 56 -24t24 -58t-24 -58t-56 -24h-422z" />
    <glyph glyph-name="tcedilla" unicode="&#x163;" horiz-adv-x="704" 
d="M455 137q29 0 73.5 12.5t57.5 12.5q29 0 49 -18.5t20 -49.5q0 -40 -43 -65q-69 -42 -182 -45v-72q103 -6 155 -48.5t52 -115.5q0 -75 -68 -121.5t-190 -46.5q-95 0 -172 43q-27 13 -27 45q0 13 4 21q11 24 41 24q16 0 31 -6q57 -24 102 -24q52 0 83.5 20.5t31.5 60.5
q0 32 -21.5 52t-60.5 20q-20 0 -34.5 14.5t-14.5 34.5v105q-113 21 -164 111.5t-51 248.5v750q0 33 23.5 55.5t58.5 22.5t58.5 -22.5t23.5 -55.5v-178h260q32 0 55 -22.5t23 -53.5q0 -32 -23 -55t-55 -23h-260v-401q0 -230 164 -230z" />
    <glyph glyph-name="Tcaron" unicode="&#x164;" horiz-adv-x="1218" 
d="M696 1270v-1198q0 -35 -25.5 -60.5t-60.5 -25.5q-37 0 -62.5 25.5t-25.5 60.5v1198h-422q-32 0 -56 24t-24 58t24 58t56 24h1018q32 0 56 -24t24 -58t-24 -58t-56 -24h-422zM606 1651l242 141q13 8 33 8q33 0 49 -26q8 -13 8 -31q0 -35 -29 -51l-252 -150
q-22 -14 -53 -14t-53 14l-256 150q-29 16 -29 51q0 17 6 29q17 30 54 30q15 0 28 -8z" />
    <glyph glyph-name="tcaron" unicode="&#x165;" horiz-adv-x="704" 
d="M455 137q29 0 73.5 12.5t57.5 12.5q29 0 49 -18.5t20 -49.5q0 -40 -43 -65q-72 -45 -196 -45q-151 0 -220 92t-69 274v750q0 33 23.5 55.5t58.5 22.5t58.5 -22.5t23.5 -55.5v-178h260q32 0 55 -22.5t23 -53.5q0 -32 -23 -55t-55 -23h-260v-401q0 -230 164 -230zM500 1053
q-20 0 -35 12q-16 13 -16 37q0 26 20 49q57 68 57 186q0 19 -4 47q0 2 -1 6.5t-1 6.5q0 37 43 37h58q27 0 41 -16t16 -36q2 -8 2 -26q0 -95 -38.5 -168.5t-92.5 -116.5q-23 -18 -49 -18z" />
    <glyph glyph-name="Umacron" unicode="&#x16a;" horiz-adv-x="1538" 
d="M369 645q0 -235 109.5 -367.5t309.5 -132.5q180 0 280.5 124t100.5 364v727q0 34 26 59t62 25q35 0 60.5 -25t25.5 -59v-762q0 -159 -45 -280t-123.5 -193t-176 -107.5t-210.5 -35.5q-130 0 -238 40t-187.5 117t-123.5 198t-44 275v748q0 34 26 59t62 25q35 0 60.5 -25
t25.5 -59v-715zM532 1710h492q28 0 47 -19.5t19 -48.5q0 -28 -19 -46.5t-47 -18.5h-492q-28 0 -46.5 19.5t-18.5 48.5q0 28 18.5 46.5t46.5 18.5z" />
    <glyph glyph-name="umacron" unicode="&#x16b;" horiz-adv-x="1105" 
d="M793 270v584q0 33 23 55.5t58 22.5t58.5 -22.5t23.5 -55.5v-791q0 -32 -23.5 -54.5t-58.5 -22.5t-58 22t-23 55v68q-52 -64 -138 -107.5t-188 -43.5q-159 0 -249.5 98t-90.5 295v481q0 33 23.5 55.5t58.5 22.5t58.5 -22.5t23.5 -55.5v-444q0 -277 237 -277q76 0 148 39
t117 98zM342 1321h410q28 0 46.5 -19.5t18.5 -48.5q0 -28 -18.5 -46.5t-46.5 -18.5h-410q-28 0 -47 19t-19 48q0 28 19 47t47 19z" />
    <glyph glyph-name="Ubreve" unicode="&#x16c;" horiz-adv-x="1538" 
d="M369 645q0 -235 109.5 -367.5t309.5 -132.5q180 0 280.5 124t100.5 364v727q0 34 26 59t62 25q35 0 60.5 -25t25.5 -59v-762q0 -159 -45 -280t-123.5 -193t-176 -107.5t-210.5 -35.5q-130 0 -238 40t-187.5 117t-123.5 198t-44 275v748q0 34 26 59t62 25q35 0 60.5 -25
t25.5 -59v-715zM1063 1782q23 0 41 -15t18 -43q0 -17 -10 -30q-65 -76 -152.5 -122t-187.5 -46q-213 0 -348 164q-10 13 -10 30q0 28 22 47q18 15 39 15q23 0 43 -17q104 -96 254 -96q147 0 250 96q17 17 41 17z" />
    <glyph glyph-name="ubreve" unicode="&#x16d;" horiz-adv-x="1105" 
d="M793 270v584q0 33 23 55.5t58 22.5t58.5 -22.5t23.5 -55.5v-791q0 -32 -23.5 -54.5t-58.5 -22.5t-58 22t-23 55v68q-52 -64 -138 -107.5t-188 -43.5q-159 0 -249.5 98t-90.5 295v481q0 33 23.5 55.5t58.5 22.5t58.5 -22.5t23.5 -55.5v-444q0 -277 237 -277q76 0 148 39
t117 98zM795 1372q19 0 36 -14q17 -17 17 -39q0 -17 -14 -35q-124 -147 -287 -147q-166 0 -283 145q-12 15 -12 37q0 26 18 41q19 16 39 16q25 0 47 -22q84 -84 197 -84q108 0 197 82q23 20 45 20z" />
    <glyph glyph-name="Uring" unicode="&#x16e;" horiz-adv-x="1538" 
d="M369 645q0 -235 109.5 -367.5t309.5 -132.5q180 0 280.5 124t100.5 364v727q0 34 26 59t62 25q35 0 60.5 -25t25.5 -59v-762q0 -159 -45 -280t-123.5 -193t-176 -107.5t-210.5 -35.5q-130 0 -238 40t-187.5 117t-123.5 198t-44 275v748q0 34 26 59t62 25q35 0 60.5 -25
t25.5 -59v-715zM514 1622q0 98 71.5 147.5t182.5 49.5q114 0 186 -49.5t72 -147.5t-73 -151.5t-185 -53.5q-110 0 -182 54t-72 151zM637 1622q0 -55 36.5 -84t96.5 -29q58 0 95.5 29t37.5 84q0 53 -36.5 78.5t-96.5 25.5q-61 0 -97 -25.5t-36 -78.5z" />
    <glyph glyph-name="uring" unicode="&#x16f;" horiz-adv-x="1105" 
d="M793 270v584q0 33 23 55.5t58 22.5t58.5 -22.5t23.5 -55.5v-791q0 -32 -23.5 -54.5t-58.5 -22.5t-58 22t-23 55v68q-52 -64 -138 -107.5t-188 -43.5q-159 0 -249.5 98t-90.5 295v481q0 33 23.5 55.5t58.5 22.5t58.5 -22.5t23.5 -55.5v-444q0 -277 237 -277q76 0 148 39
t117 98zM545 1030q-99 0 -166.5 65.5t-67.5 159.5q0 95 67.5 161.5t166.5 66.5q100 0 168.5 -66.5t68.5 -161.5q0 -94 -68 -159.5t-169 -65.5zM547 1391q-55 0 -92 -39t-37 -95q0 -57 37 -96t92 -39t92 39t37 96q0 56 -37 95t-92 39z" />
    <glyph glyph-name="Uhungarumlaut" unicode="&#x170;" horiz-adv-x="1538" 
d="M369 645q0 -235 109.5 -367.5t309.5 -132.5q180 0 280.5 124t100.5 364v727q0 34 26 59t62 25q35 0 60.5 -25t25.5 -59v-762q0 -159 -45 -280t-123.5 -193t-176 -107.5t-210.5 -35.5q-130 0 -238 40t-187.5 117t-123.5 198t-44 275v748q0 34 26 59t62 25q35 0 60.5 -25
t25.5 -59v-715zM872 1608l236 178q15 12 37 12q26 0 45 -16l35 -35q14 -11 14 -27q0 -21 -20 -34l-277 -154q-20 -10 -37 -10q-25 0 -41 16q-12 12 -12 31q0 22 20 39zM504 1608l184 172q20 20 51 20q19 0 35 -8l43 -25q19 -9 19 -28q0 -18 -15 -27l-243 -176
q-21 -14 -41 -14q-21 0 -37 16q-15 15 -15 33t19 37z" />
    <glyph glyph-name="uhungarumlaut" unicode="&#x171;" horiz-adv-x="1105" 
d="M793 270v584q0 33 23 55.5t58 22.5t58.5 -22.5t23.5 -55.5v-791q0 -32 -23.5 -54.5t-58.5 -22.5t-58 22t-23 55v68q-52 -64 -138 -107.5t-188 -43.5q-159 0 -249.5 98t-90.5 295v481q0 33 23.5 55.5t58.5 22.5t58.5 -22.5t23.5 -55.5v-444q0 -277 237 -277q76 0 148 39
t117 98zM643 1204l164 215q14 23 45 23q22 0 37 -12l26 -19q21 -18 21 -45q0 -22 -12 -37l-179 -196q-20 -23 -49 -23q-21 0 -39 12q-24 18 -24 49q0 16 10 33zM324 1206l145 226q15 24 47 24q16 0 33 -10l24 -19q23 -16 23 -47q0 -22 -10 -34l-162 -211q-16 -25 -47 -25
q-22 0 -37 12q-27 20 -27 52q0 14 11 32z" />
    <glyph glyph-name="Uogonek" unicode="&#x172;" horiz-adv-x="1538" 
d="M369 645q0 -235 109.5 -367.5t309.5 -132.5q180 0 280.5 124t100.5 364v727q0 34 26 59t62 25q35 0 60.5 -25t25.5 -59v-762q0 -154 -42 -272.5t-115.5 -191t-165.5 -110t-201 -42.5q-54 -22 -88.5 -63.5t-34.5 -86.5q0 -40 22 -65.5t47.5 -34t53.5 -8.5q24 0 45 6
q16 4 25 4q42 0 55 -43q2 -6 2 -19q0 -37 -45 -59q-51 -23 -119 -23q-65 0 -118.5 17t-92.5 61t-39 111q0 68 43 121.5t115 87.5q-228 29 -361.5 188.5t-133.5 435.5v748q0 34 26 59t62 25q35 0 60.5 -25t25.5 -59v-715z" />
    <glyph glyph-name="uogonek" unicode="&#x173;" horiz-adv-x="1105" 
d="M793 270v584q0 33 23 55.5t58 22.5t58.5 -22.5t23.5 -55.5v-791q0 -32 -23.5 -54.5t-58.5 -22.5q-20 0 -40 10q-67 -15 -113.5 -62.5t-46.5 -101.5q0 -40 22 -65.5t47.5 -34t53.5 -8.5q24 0 45 6q16 4 24 4q43 0 56 -43q2 -6 2 -19q0 -37 -45 -59q-51 -23 -119 -23
q-65 0 -118.5 17t-92.5 61t-39 111q0 97 84 162.5t207 85.5q-8 13 -8 36v68q-52 -64 -138 -107.5t-188 -43.5q-159 0 -249.5 98t-90.5 295v481q0 33 23.5 55.5t58.5 22.5t58.5 -22.5t23.5 -55.5v-444q0 -277 237 -277q76 0 148 39t117 98z" />
    <glyph glyph-name="Ydieresis" unicode="&#x178;" horiz-adv-x="1196" 
d="M57 1360q0 35 24.5 59.5t63.5 24.5q27 0 46 -14.5t40 -49.5l369 -602l371 602q39 64 90 64q37 0 57.5 -21.5t20.5 -52.5q0 -21 -15 -47l-444 -709v-542q0 -35 -25.5 -60.5t-60.5 -25.5q-37 0 -62.5 25.5t-25.5 60.5v542l-434 697q-15 24 -15 49zM248 1665q0 42 32.5 67
t79.5 25q42 0 74.5 -25.5t32.5 -66.5q0 -45 -32 -71.5t-75 -26.5q-48 0 -80 26t-32 72zM723 1665q0 41 33.5 66.5t81.5 25.5q42 0 73 -25t31 -67q0 -45 -31 -71.5t-73 -26.5q-48 0 -81.5 26.5t-33.5 71.5z" />
    <glyph glyph-name="Zacute" unicode="&#x179;" horiz-adv-x="1280" 
d="M1118 0h-999q-31 0 -50.5 16.5t-19.5 44.5q0 18 6.5 35.5t13 27t21.5 30.5l848 1116h-756q-32 0 -56 24t-24 58t24 58t56 24h940q32 0 51 -17.5t19 -48.5q0 -33 -43 -88l-852 -1116h821q32 0 56 -24t24 -58t-24 -58t-56 -24zM547 1630l301 160q12 6 24 6q14 0 28 -9
t20 -22l16 -36q4 -8 4 -23q0 -36 -33 -49l-311 -131q-12 -4 -21 -4q-36 0 -53 30q-6 12 -6 27q0 34 31 51z" />
    <glyph glyph-name="zacute" unicode="&#x17a;" horiz-adv-x="933" 
d="M152 0q-34 0 -58 21.5t-24 56.5t26 61l537 629h-459q-32 0 -55 23t-23 55q0 31 23 53.5t55 22.5h606q34 0 57 -21t23 -59q0 -28 -24 -60l-539 -628h489q32 0 55 -22.5t23 -53.5q0 -32 -23 -55t-55 -23h-634zM399 1208l148 219q16 25 49 25q20 0 35 -12l28 -21
q23 -20 23 -47q0 -25 -14 -39l-164 -198q-22 -25 -53 -25q-18 0 -35 10q-27 18 -27 54q0 17 10 34z" />
    <glyph glyph-name="Zdotaccent" unicode="&#x17b;" horiz-adv-x="1280" 
d="M1118 0h-999q-31 0 -50.5 16.5t-19.5 44.5q0 18 6.5 35.5t13 27t21.5 30.5l848 1116h-756q-32 0 -56 24t-24 58t24 58t56 24h940q32 0 51 -17.5t19 -48.5q0 -33 -43 -88l-852 -1116h821q32 0 56 -24t24 -58t-24 -58t-56 -24zM512 1673q0 48 34.5 76.5t82.5 28.5
q45 0 77.5 -28.5t32.5 -76.5q0 -51 -32 -80.5t-78 -29.5q-49 0 -83 29t-34 81z" />
    <glyph glyph-name="zdotaccent" unicode="&#x17c;" horiz-adv-x="933" 
d="M152 0q-34 0 -58 21.5t-24 56.5t26 61l537 629h-459q-32 0 -55 23t-23 55q0 31 23 53.5t55 22.5h606q34 0 57 -21t23 -59q0 -28 -24 -60l-539 -628h489q32 0 55 -22.5t23 -53.5q0 -32 -23 -55t-55 -23h-634zM360 1268q0 43 31.5 70.5t75.5 27.5q40 0 70 -27.5t30 -70.5
q0 -49 -29.5 -78t-70.5 -29q-45 0 -76 29t-31 78z" />
    <glyph glyph-name="Zcaron" unicode="&#x17d;" horiz-adv-x="1280" 
d="M1118 0h-999q-31 0 -50.5 16.5t-19.5 44.5q0 18 6.5 35.5t13 27t21.5 30.5l848 1116h-756q-32 0 -56 24t-24 58t24 58t56 24h940q32 0 51 -17.5t19 -48.5q0 -33 -43 -88l-852 -1116h821q32 0 56 -24t24 -58t-24 -58t-56 -24zM639 1651l242 141q13 8 32 8q34 0 50 -26
q8 -13 8 -31q0 -35 -29 -51l-252 -150q-22 -14 -53 -14t-53 14l-256 150q-29 16 -29 51q0 17 6 29q17 30 53 30q16 0 29 -8z" />
    <glyph glyph-name="zcaron" unicode="&#x17e;" horiz-adv-x="933" 
d="M152 0q-34 0 -58 21.5t-24 56.5t26 61l537 629h-459q-32 0 -55 23t-23 55q0 31 23 53.5t55 22.5h606q34 0 57 -21t23 -59q0 -28 -24 -60l-539 -628h489q32 0 55 -22.5t23 -53.5q0 -32 -23 -55t-55 -23h-634zM481 1243l168 166q18 18 47 18q25 0 41 -16q19 -16 19 -43
q0 -24 -19 -43l-213 -199q-18 -18 -47 -18t-47 18l-209 199q-18 15 -18 43t20 45t43 17q28 0 47 -19z" />
    <glyph glyph-name="longs" unicode="&#x17f;" horiz-adv-x="581" 
d="M618 1282q-42 18 -100 18q-186 0 -186 -247v-990q0 -32 -23.5 -54.5t-58.5 -22.5t-58.5 22.5t-23.5 54.5v1008q0 190 84 286.5t240 96.5q114 0 196 -47q45 -27 45 -66q0 -29 -19 -49t-52 -20q-17 0 -44 10z" />
    <glyph glyph-name="uni018F" unicode="&#x18f;" horiz-adv-x="1568" 
d="M283 1274q0 39 34 63q177 117 431 117q159 0 292.5 -52t227.5 -146.5t146 -232t52 -302.5q0 -162 -50.5 -299.5t-141.5 -235t-224.5 -152t-293.5 -54.5q-202 0 -358 91.5t-242.5 261.5t-87.5 394q0 34 26 60t60 26h1124q-26 222 -178.5 349.5t-390.5 127.5
q-167 0 -299 -76q-22 -14 -52 -14q-36 0 -61 31q-14 20 -14 43zM1284 649h-1032q6 -140 66.5 -253.5t174 -183t261.5 -69.5q227 0 367.5 137.5t162.5 368.5z" />
    <glyph glyph-name="florin" unicode="&#x192;" horiz-adv-x="1198" 
d="M328 922h241l27 149q38 200 117 291.5t229 91.5q123 0 211 -55q39 -23 39 -62q0 -17 -10 -34q-20 -35 -58 -35q-24 0 -47 10q-55 22 -125 22q-82 0 -124.5 -56.5t-67.5 -190.5l-25 -131h226q30 0 49.5 -21.5t19.5 -54.5q0 -35 -19.5 -56.5t-49.5 -21.5h-252l-148 -836
q-32 -178 -108 -268t-213 -90q-106 0 -170 37q-41 21 -41 70q0 19 8 32q20 33 55 33q18 0 51 -10q32 -8 58 -8q85 0 130.5 55.5t65.5 165.5l146 819h-215q-30 0 -50 21.5t-20 56.5q0 33 20 54.5t50 21.5z" />
    <glyph glyph-name="uni01DD" unicode="&#x1dd;" horiz-adv-x="1054" 
d="M246 389q4 -124 75.5 -190t196.5 -66q120 0 199 72t88 184h-559zM494 788q-128 0 -226 -55q-21 -12 -45 -12q-36 0 -55 31q-10 17 -10 32q0 40 39 66q131 92 309 92q222 0 347.5 -130t125.5 -351q0 -135 -54.5 -243.5t-162.5 -173t-252 -64.5q-187 0 -310.5 116
t-123.5 305q0 36 2 54q2 25 25 46t49 21h643q-6 117 -87.5 191.5t-213.5 74.5z" />
    <glyph glyph-name="Scommaaccent" unicode="&#x218;" horiz-adv-x="1077" 
d="M516 -20q-203 0 -397 163q-25 22 -25 58q0 29 19 51q25 31 63 31q26 0 47 -15q88 -65 155.5 -95t139.5 -30q118 0 199.5 60t81.5 164q0 56 -24 100.5t-64.5 76t-93 58t-111 50.5t-116.5 49.5t-110.5 60t-93 76.5t-64.5 103.5t-24 137.5q0 161 117 268t315 107
q184 0 336 -96q33 -23 33 -66q0 -26 -14 -43q-28 -39 -68 -39q-17 0 -47 15q-108 65 -229 65q-119 0 -188.5 -57.5t-69.5 -153.5q0 -56 24 -101t64.5 -75.5t93 -56t110.5 -48.5t116 -48t110.5 -58.5t93 -76t64.5 -105.5t24 -141q0 -115 -62.5 -204.5t-168.5 -137t-236 -47.5
zM446 -410q-30 0 -40 21q-7 14 -7 22q0 25 25 41q55 38 55 109q0 25 -10 45q-6 12 -6 22q0 17 12 30t29 16l55 12q6 2 16 2q36 0 52 -33t16 -72q0 -79 -47.5 -132t-122.5 -79q-16 -4 -27 -4z" />
    <glyph glyph-name="scommaaccent" unicode="&#x219;" horiz-adv-x="839" 
d="M84 135q0 26 16 45q23 29 58 29q27 0 47 -14q107 -72 213 -72q69 0 116.5 33.5t47.5 93.5q0 37 -27.5 64t-71.5 44t-97 33t-106 38t-97 51.5t-71.5 81t-27.5 120.5q0 120 87 190t226 70q140 0 262 -70q33 -20 33 -57q0 -21 -12 -39q-20 -33 -62 -33q-21 0 -40 11
q-85 45 -172 45q-67 0 -107.5 -33.5t-40.5 -81.5q0 -39 27.5 -67.5t71.5 -46t97 -33.5t106 -37t97 -49.5t71.5 -77.5t27.5 -115q0 -71 -29.5 -125.5t-80.5 -87t-113.5 -49t-133.5 -16.5q-159 0 -288 98q-27 20 -27 57zM332 -410q-30 0 -41 21q-6 12 -6 22q0 26 24 41
q56 39 56 109q0 23 -11 45q-6 12 -6 22q0 17 12 30t29 16l55 12q6 2 17 2q36 0 51.5 -33t15.5 -72q0 -79 -47.5 -132t-122.5 -79q-16 -4 -26 -4z" />
    <glyph glyph-name="Tcommaaccent" unicode="&#x21a;" horiz-adv-x="1218" 
d="M696 1270v-1198q0 -35 -25.5 -60.5t-60.5 -25.5q-37 0 -62.5 25.5t-25.5 60.5v1198h-422q-32 0 -56 24t-24 58t24 58t56 24h1018q32 0 56 -24t24 -58t-24 -58t-56 -24h-422zM520 -410q-30 0 -41 21q-6 12 -6 22q0 25 25 41q55 38 55 109q0 25 -10 45q-6 12 -6 22
q0 17 12 30t29 16l55 12q6 2 16 2q36 0 52 -33t16 -72q0 -79 -47.5 -132t-122.5 -79q-16 -4 -27 -4z" />
    <glyph glyph-name="tcommaaccent" unicode="&#x21b;" horiz-adv-x="704" 
d="M455 137q29 0 73.5 12.5t57.5 12.5q29 0 49 -18.5t20 -49.5q0 -40 -43 -65q-72 -45 -196 -45q-151 0 -220 92t-69 274v750q0 33 23.5 55.5t58.5 22.5t58.5 -22.5t23.5 -55.5v-178h260q32 0 55 -22.5t23 -53.5q0 -32 -23 -55t-55 -23h-260v-401q0 -230 164 -230zM289 -410
q-31 0 -41 21q-6 12 -6 22q0 26 24 41q56 39 56 109q0 23 -11 45q-6 12 -6 22q0 17 12 30t29 16l55 12q6 2 17 2q36 0 51.5 -33t15.5 -72q0 -79 -47.5 -132t-122.5 -79q-16 -4 -26 -4z" />
    <glyph glyph-name="uni0237" unicode="&#x237;" horiz-adv-x="579" 
d="M236 -55v909q0 33 23 55.5t58 22.5t58.5 -22.5t23.5 -55.5v-922q0 -358 -288 -358q-82 0 -144 23q-53 19 -53 71q0 32 21 51t55 19q23 0 35 -4q24 -6 49 -6q162 0 162 217z" />
    <glyph glyph-name="uni0259" unicode="&#x259;" horiz-adv-x="1054" 
d="M246 389q4 -124 75.5 -190t196.5 -66q120 0 199 72t88 184h-559zM494 788q-128 0 -226 -55q-21 -12 -45 -12q-36 0 -55 31q-10 17 -10 32q0 40 39 66q131 92 309 92q222 0 347.5 -130t125.5 -351q0 -135 -54.5 -243.5t-162.5 -173t-252 -64.5q-187 0 -310.5 116
t-123.5 305q0 36 2 54q2 25 25 46t49 21h643q-6 117 -87.5 191.5t-213.5 74.5z" />
    <glyph glyph-name="afii57929" unicode="&#x2bc;" horiz-adv-x="452" 
d="M162 913q-22 0 -37 15q-19 19 -19 39t19 39q57 66 57 163q0 41 -14 76q-8 24 -8 33q0 25 33 45l45 27q12 6 24 6q13 0 26 -8t19 -19q29 -56 29 -125q0 -177 -131 -276q-19 -15 -43 -15z" />
    <glyph glyph-name="circumflex" unicode="&#x2c6;" horiz-adv-x="827" 
d="M414 1264l-166 -144q-19 -16 -43 -16q-25 0 -45 20q-17 17 -17 41q0 28 19 47l209 193q18 18 47 18t47 -18l203 -193q20 -20 20 -47q0 -25 -18 -43q-20 -20 -47 -20q-24 0 -43 16z" />
    <glyph glyph-name="caron" unicode="&#x2c7;" horiz-adv-x="827" 
d="M416 1243l168 166q18 18 47 18q25 0 41 -16q18 -15 18 -43q0 -25 -18 -43l-213 -199q-18 -18 -47 -18t-47 18l-209 199q-19 16 -19 43t21 45q20 17 43 17q28 0 47 -19z" />
    <glyph glyph-name="breve" unicode="&#x2d8;" horiz-adv-x="849" 
d="M674 1372q20 0 37 -14q16 -16 16 -39q0 -17 -14 -35q-124 -147 -287 -147q-166 0 -283 145q-12 15 -12 37q0 25 19 41t38 16q26 0 48 -22q84 -84 196 -84q108 0 197 82q23 20 45 20z" />
    <glyph glyph-name="dotaccent" unicode="&#x2d9;" horiz-adv-x="452" 
d="M123 1268q0 43 31 70.5t75 27.5q40 0 70.5 -27.5t30.5 -70.5q0 -49 -30 -78t-71 -29q-45 0 -75.5 29t-30.5 78z" />
    <glyph glyph-name="ring" unicode="&#x2da;" horiz-adv-x="716" 
d="M356 1030q-99 0 -166 65.5t-67 159.5q0 95 67 161.5t166 66.5q100 0 169 -66.5t69 -161.5q0 -94 -68.5 -159.5t-169.5 -65.5zM358 1391q-55 0 -92 -39t-37 -95q0 -57 37 -96t92 -39t92 39t37 96q0 56 -37 95t-92 39z" />
    <glyph glyph-name="ogonek" unicode="&#x2db;" horiz-adv-x="671" 
d="M530 0h-30q-85 0 -149 -52t-64 -116q0 -40 22 -65.5t47.5 -34t53.5 -8.5q24 0 45 6q16 4 24 4q43 0 56 -43q2 -6 2 -19q0 -37 -45 -59q-51 -23 -119 -23q-65 0 -118.5 17t-92.5 61t-39 111q0 77 57.5 137t142 89.5t177.5 29.5h30v-35z" />
    <glyph glyph-name="tilde" unicode="&#x2dc;" horiz-adv-x="905" 
d="M774 1257q0 -27 -16 -40q-107 -93 -191 -93q-47 0 -122 44t-121 44q-9 0 -17.5 -2t-21 -8.5t-18 -9.5t-23 -14.5t-21.5 -14.5q-21 -12 -41 -12q-21 0 -39 18q-10 13 -10 29q0 27 27 51q95 80 178 80q49 0 126.5 -43t117.5 -43q11 0 21 2t23 9.5t17.5 10.5t22 16t20.5 15
q16 13 35 13q22 0 43 -21q10 -10 10 -31z" />
    <glyph glyph-name="hungarumlaut" unicode="&#x2dd;" horiz-adv-x="917" 
d="M475 1204l164 215q14 23 45 23q22 0 37 -12l27 -19q20 -17 20 -45q0 -22 -12 -37l-178 -196q-20 -23 -50 -23q-21 0 -39 12q-24 18 -24 49q0 16 10 33zM156 1206l145 226q15 24 47 24q16 0 33 -10l25 -19q22 -16 22 -47q0 -22 -10 -34l-162 -211q-16 -25 -47 -25
q-22 0 -37 12q-27 20 -27 52q0 14 11 32z" />
    <glyph glyph-name="gravecomb" unicode="&#x300;" horiz-adv-x="0" 
d="M-633 1423l146 -213q12 -15 12 -36q0 -32 -27 -52q-13 -10 -35 -10q-35 0 -57 25l-162 192q-14 17 -14 41q0 28 22 47l27 21q15 12 37 12q31 0 51 -27z" />
    <glyph glyph-name="acutecomb" unicode="&#x301;" horiz-adv-x="0" 
d="M-623 1208l148 219q16 25 49 25q20 0 35 -12l29 -21q22 -19 22 -47q0 -25 -14 -39l-164 -198q-22 -25 -53 -25q-18 0 -35 10q-27 18 -27 54q0 17 10 34z" />
    <glyph glyph-name="uni0394" unicode="&#x394;" horiz-adv-x="1425" 
d="M82 117l545 1276q25 59 73 59q59 0 84 -59l559 -1276q9 -23 9 -33q0 -34 -24.5 -59t-59.5 -25h-1110q-35 0 -59.5 25t-24.5 59q0 13 8 33zM1135 164l-435 991l-417 -991h852z" />
    <glyph glyph-name="uni0394" unicode="&#x2206;" horiz-adv-x="1425" 
d="M82 117l545 1276q25 59 73 59q59 0 84 -59l559 -1276q9 -23 9 -33q0 -34 -24.5 -59t-59.5 -25h-1110q-35 0 -59.5 25t-24.5 59q0 13 8 33zM1135 164l-435 991l-417 -991h852z" />
    <glyph glyph-name="uni03A9" unicode="&#x3a9;" horiz-adv-x="1671" 
d="M299 727q0 -172 96.5 -324.5t257.5 -220.5q72 -31 72 -94q0 -39 -23 -63.5t-61 -24.5h-422q-32 0 -56 24t-24 58t24 58t56 24h266q-97 32 -180 114t-136.5 209t-53.5 271q0 153 56 284t153 220.5t229.5 140.5t282.5 51q204 0 367.5 -86.5t258 -246t94.5 -363.5
q0 -113 -31.5 -214.5t-84 -176t-118.5 -127t-138 -76.5h266q32 0 56 -24t24 -58t-24 -58t-56 -24h-424q-37 0 -59.5 25t-22.5 65q0 61 72 92q164 69 260 217.5t96 329.5q0 153 -65.5 280t-189 204t-281.5 77q-160 0 -284 -77t-188.5 -204.5t-64.5 -281.5z" />
    <glyph glyph-name="uni03A9" unicode="&#x2126;" horiz-adv-x="1671" 
d="M299 727q0 -172 96.5 -324.5t257.5 -220.5q72 -31 72 -94q0 -39 -23 -63.5t-61 -24.5h-422q-32 0 -56 24t-24 58t24 58t56 24h266q-97 32 -180 114t-136.5 209t-53.5 271q0 153 56 284t153 220.5t229.5 140.5t282.5 51q204 0 367.5 -86.5t258 -246t94.5 -363.5
q0 -113 -31.5 -214.5t-84 -176t-118.5 -127t-138 -76.5h266q32 0 56 -24t24 -58t-24 -58t-56 -24h-424q-37 0 -59.5 25t-22.5 65q0 61 72 92q164 69 260 217.5t96 329.5q0 153 -65.5 280t-189 204t-281.5 77q-160 0 -284 -77t-188.5 -204.5t-64.5 -281.5z" />
    <glyph glyph-name="pi" unicode="&#x3c0;" horiz-adv-x="1275" 
d="M825 246v522h-393v-125q0 -151 -22 -271t-55 -190t-74.5 -116.5t-77 -63t-66.5 -16.5q-42 0 -65 21t-23 56q0 56 60 82q35 16 62 46t50 82.5t35 138t12 200.5v156h-121q-30 0 -50.5 22.5t-20.5 55.5q0 32 21 54t50 22h955q30 0 51 -22t21 -54q0 -33 -21 -55.5t-51 -22.5
h-113v-449q0 -95 25.5 -138.5t83.5 -43.5q19 0 50.5 5t41.5 5q24 0 45.5 -16.5t21.5 -48.5t-18 -53t-51.5 -29.5t-59.5 -11t-63 -2.5q-116 0 -178 64.5t-62 195.5z" />
    <glyph glyph-name="afii10023" unicode="&#x401;" horiz-adv-x="1177" 
d="M389 164h576q32 0 55.5 -24t23.5 -58t-23.5 -58t-55.5 -24h-664q-35 0 -60.5 25.5t-25.5 60.5v1262q0 35 25.5 60.5t60.5 25.5h643q32 0 56 -24t24 -58t-24 -58t-56 -24h-555v-463h494q32 0 56 -24t24 -58t-24 -58t-56 -24h-494v-479zM285 1665q0 42 32.5 67t79.5 25
q42 0 74.5 -25.5t32.5 -66.5q0 -45 -32 -71.5t-75 -26.5q-48 0 -80 26t-32 72zM760 1665q0 41 33.5 66.5t80.5 25.5q42 0 73.5 -25t31.5 -67q0 -45 -31.5 -71.5t-73.5 -26.5q-48 0 -81 26.5t-33 71.5z" />
    <glyph glyph-name="afii10051" unicode="&#x402;" horiz-adv-x="1560" 
d="M1118 1270h-422v-506q154 102 334 102q428 0 428 -448q0 -222 -95 -330t-261 -108q-84 0 -168 30q-23 8 -38 27t-15 43q0 15 6 33q20 49 74 49q10 0 30 -4q58 -15 90 -15q95 0 149 66t54 205q0 150 -72.5 219t-214.5 69q-51 0 -95.5 -8t-85.5 -26t-61.5 -29t-58.5 -35
v-532q0 -35 -25.5 -60.5t-60.5 -25.5q-37 0 -62.5 25.5t-25.5 60.5v1198h-422q-32 0 -56 24t-24 58t24 58t56 24h1018q32 0 56 -24t24 -58t-24 -58t-56 -24z" />
    <glyph glyph-name="afii10052" unicode="&#x403;" horiz-adv-x="1034" 
d="M934 1270h-545v-1198q0 -35 -25.5 -60.5t-60.5 -25.5q-37 0 -62.5 25.5t-25.5 60.5v1276q0 35 25.5 60.5t60.5 25.5h633q32 0 56 -24t24 -58t-24 -58t-56 -24zM578 1630l301 160q12 6 24 6q14 0 27.5 -9t19.5 -22l17 -36q4 -8 4 -23q0 -36 -33 -49l-311 -131
q-12 -4 -21 -4q-36 0 -53 30q-6 12 -6 27q0 34 31 51z" />
    <glyph glyph-name="afii10053" unicode="&#x404;" horiz-adv-x="1361" 
d="M1266 1288q0 -22 -15 -43q-24 -37 -63 -37q-24 0 -43 11q-139 71 -295 71q-236 0 -387.5 -128.5t-179.5 -348.5h626q32 0 56 -24t24 -58t-24 -58t-56 -24h-630q23 -238 184 -372t397 -134q180 0 314 82q23 13 45 13q40 0 67 -37q12 -18 12 -43q0 -44 -30 -62
q-92 -62 -193.5 -89t-228.5 -27q-166 0 -304 52t-235 147t-151 233t-54 305q0 214 90 381.5t254 261.5t375 94q215 0 396 -94q49 -25 49 -72z" />
    <glyph glyph-name="afii10054" unicode="&#x405;" horiz-adv-x="1077" 
d="M516 -20q-203 0 -397 163q-25 22 -25 58q0 29 19 51q25 31 63 31q26 0 47 -15q88 -65 155.5 -95t139.5 -30q118 0 199.5 60t81.5 164q0 56 -24 100.5t-64.5 76t-93 58t-111 50.5t-116.5 49.5t-110.5 60t-93 76.5t-64.5 103.5t-24 137.5q0 161 117 268t315 107
q184 0 336 -96q33 -23 33 -66q0 -26 -14 -43q-28 -39 -68 -39q-17 0 -47 15q-108 65 -229 65q-119 0 -188.5 -57.5t-69.5 -153.5q0 -56 24 -101t64.5 -75.5t93 -56t110.5 -48.5t116 -48t110.5 -58.5t93 -76t64.5 -105.5t24 -141q0 -115 -62.5 -204.5t-168.5 -137t-236 -47.5
z" />
    <glyph glyph-name="afii10055" unicode="&#x406;" horiz-adv-x="686" 
d="M256 1360q0 34 26 59t62 25q35 0 60.5 -25t25.5 -59v-1288q0 -35 -25.5 -60.5t-60.5 -25.5q-37 0 -62.5 25.5t-25.5 60.5v1288z" />
    <glyph glyph-name="afii10056" unicode="&#x407;" horiz-adv-x="688" 
d="M186 1567q-42 0 -70 26t-28 72q0 42 28.5 67t69.5 25q39 0 67 -25.5t28 -66.5q0 -45 -28 -71.5t-67 -26.5zM506 1567q-42 0 -70 26t-28 72q0 42 28.5 67t69.5 25q38 0 66 -25.5t28 -66.5q0 -45 -27.5 -71.5t-66.5 -26.5zM256 1360q0 34 26 59t62 25q35 0 60.5 -25
t25.5 -59v-1288q0 -35 -25.5 -60.5t-60.5 -25.5q-37 0 -62.5 25.5t-25.5 60.5v1288z" />
    <glyph glyph-name="afii10057" unicode="&#x408;" horiz-adv-x="755" 
d="M131 158q51 -15 74 -15q88 0 125 55.5t37 155.5v1006q0 34 26 59t62 25q35 0 60.5 -25t25.5 -59v-1034q0 -346 -314 -346q-78 0 -159 34q-20 9 -31.5 28.5t-11.5 41.5q0 18 6 33q21 47 69 47q16 0 31 -6z" />
    <glyph glyph-name="afii10058" unicode="&#x409;" horiz-adv-x="2099" 
d="M1276 735v-569q165 -6 172 -6q178 0 271 77t93 228q0 137 -92.5 210t-265.5 73q-61 0 -178 -13zM397 1147l15 201q3 37 29 61.5t63 24.5h686q35 0 60.5 -25.5t25.5 -60.5v-447q130 10 190 10q264 0 397.5 -117t133.5 -325q0 -226 -150.5 -349.5t-419.5 -123.5
q-99 0 -239 4q-36 0 -61 25t-25 61v1184h-520l-25 -271q-28 -299 -69.5 -501t-99 -312.5t-122 -155t-149.5 -44.5q-31 0 -45 2q-35 5 -57.5 27.5t-22.5 56.5v12q4 36 28.5 56t59.5 20h12h8q21 0 42 10.5t46 40t48 76t47.5 123.5t44.5 177.5t38.5 244t30.5 315.5z" />
    <glyph glyph-name="afii10059" unicode="&#x40a;" horiz-adv-x="2154" 
d="M1157 698h-768v-626q0 -35 -25.5 -60.5t-60.5 -25.5q-37 0 -62.5 25.5t-25.5 60.5v1288q0 34 26 59t62 25q35 0 60.5 -25t25.5 -59v-498h768v498q0 34 26 59t62 25q35 0 60.5 -25t25.5 -59v-490q143 11 191 11q263 0 396.5 -113.5t133.5 -314.5q0 -216 -150.5 -336.5
t-418.5 -120.5q-51 0 -134 2t-120 2q-35 0 -53.5 22t-18.5 54v622zM1331 705v-539q165 -6 172 -6q178 0 271.5 73.5t93.5 217.5q0 128 -93 197t-266 69q-70 0 -178 -12z" />
    <glyph glyph-name="afii10060" unicode="&#x40b;" horiz-adv-x="1560" 
d="M696 604v-532q0 -35 -25.5 -60.5t-60.5 -25.5q-37 0 -62.5 25.5t-25.5 60.5v1198h-422q-32 0 -56 24t-24 58t24 58t56 24h1018q32 0 56 -24t24 -58t-24 -58t-56 -24h-422v-506q144 102 344 102q88 0 161 -25.5t132 -78t92 -143t33 -211.5v-336q0 -35 -25.5 -60.5
t-60.5 -25.5q-37 0 -62.5 25.5t-25.5 60.5v290q0 340 -291 340q-147 0 -297 -98z" />
    <glyph glyph-name="afii10061" unicode="&#x40c;" horiz-adv-x="1300" 
d="M1044 33l-565 651q-22 25 -22 61q0 39 24 66l537 588q39 45 80 45q33 0 54.5 -20.5t21.5 -49.5q0 -36 -31 -67l-518 -547l555 -627q30 -33 30 -72q0 -32 -23 -53.5t-57 -21.5q-45 0 -86 47zM215 1360q0 34 26 59t62 25q35 0 60.5 -25t25.5 -59v-1288q0 -35 -25.5 -60.5
t-60.5 -25.5q-37 0 -62.5 25.5t-25.5 60.5v1288zM639 1630l301 160q12 6 25 6q14 0 27.5 -9t19.5 -22l16 -36q4 -8 4 -23q0 -36 -33 -49l-311 -131q-12 -4 -20 -4q-37 0 -54 30q-6 12 -6 27q0 34 31 51z" />
    <glyph glyph-name="afii10062" unicode="&#x40e;" horiz-adv-x="1335" 
d="M63 1364q0 33 22 56.5t60 23.5q52 0 91 -64l503 -845l369 841q30 68 82 68q38 0 60 -21.5t22 -52.5q0 -23 -8 -39l-451 -1003q-76 -170 -158.5 -249t-197.5 -79q-60 0 -109 16q-24 7 -44.5 29t-20.5 53q0 16 10 39q21 43 67 43q21 0 33 -6q30 -12 62 -12q107 0 176 145
l24 53l-577 955q-15 21 -15 49zM981 1780q7 0 23 -4q49 -20 49 -64q0 -18 -9 -39q-29 -71 -132 -119.5t-228 -48.5q-139 0 -239 45.5t-128 122.5q-6 18 -6 35q0 56 45 68q10 4 29 4q28 0 48 -19t50 -63q53 -70 201 -70q150 0 209 86q47 66 88 66z" />
    <glyph glyph-name="afii10145" unicode="&#x40f;" horiz-adv-x="1536" 
d="M848 0v-238q0 -32 -24 -55.5t-58 -23.5t-58 23.5t-24 55.5v238h-383q-35 0 -60.5 25.5t-25.5 60.5v1274q0 34 26 59t62 25q35 0 60.5 -25t25.5 -59v-1196h758v1196q0 34 26 59t62 25q35 0 60.5 -25t25.5 -59v-1274q0 -35 -25.5 -60.5t-60.5 -25.5h-387z" />
    <glyph glyph-name="afii10017" unicode="&#x410;" horiz-adv-x="1402" 
d="M1190 43l-166 391h-653l-164 -391q-23 -57 -78 -57q-38 0 -60 23.5t-22 56.5q0 12 8 36l549 1272q31 70 101 70q69 0 98 -70l547 -1265q6 -18 6 -35q0 -36 -23 -62t-61 -26q-59 0 -82 57zM956 598l-258 612l-258 -612h516z" />
    <glyph glyph-name="afii10018" unicode="&#x411;" horiz-adv-x="1253" 
d="M389 1270v-412q108 12 219 12q239 0 370.5 -112.5t131.5 -308.5q0 -221 -145 -339t-406 -118q-48 0 -258 6q-37 1 -61.5 27t-24.5 61v1262q0 35 25.5 60.5t60.5 25.5h645q32 0 56 -24t24 -58t-24 -58t-56 -24h-557zM389 694v-530q126 -8 197 -8q174 0 262 73.5t88 206.5
q0 124 -85.5 197.5t-252.5 73.5q-86 0 -209 -13z" />
    <glyph glyph-name="afii10019" unicode="&#x412;" horiz-adv-x="1263" 
d="M608 1440q124 0 215.5 -27t144 -76.5t77 -111.5t24.5 -140q0 -128 -67.5 -211.5t-178.5 -121.5q138 -24 217.5 -111t79.5 -231q0 -106 -39 -187t-110 -130.5t-164 -74t-207 -24.5q-123 0 -299 4q-35 1 -60.5 27.5t-25.5 60.5v1260q0 35 25.5 61.5t60.5 26.5q264 6 307 6z
M389 653v-487q94 -8 221 -8q161 0 248.5 66t87.5 196q0 113 -84.5 173t-240.5 60h-232zM389 1270v-463h229q119 0 198 63.5t79 176.5q0 112 -74 170.5t-217 58.5q-62 0 -215 -6z" />
    <glyph glyph-name="afii10020" unicode="&#x413;" horiz-adv-x="1034" 
d="M934 1270h-545v-1198q0 -35 -25.5 -60.5t-60.5 -25.5q-37 0 -62.5 25.5t-25.5 60.5v1276q0 35 25.5 60.5t60.5 25.5h633q32 0 56 -24t24 -58t-24 -58t-56 -24z" />
    <glyph glyph-name="afii10021" unicode="&#x414;" horiz-adv-x="1533" 
d="M1309 0h-1114v-186q0 -32 -24 -56t-58 -24t-58 24t-24 56v264q0 35 25.5 60.5t60.5 25.5h67q26 33 58 103.5t69.5 187t67.5 299t41 393.5l10 201q1 37 27 61.5t63 24.5h672q35 0 60.5 -25.5t25.5 -60.5v-1184h108q35 0 61 -25.5t26 -60.5v-264q0 -32 -24 -56t-58 -24
t-58 24t-24 56v186zM377 164h727v1106h-502l-18 -256q-16 -227 -57.5 -421.5t-80 -292t-69.5 -136.5z" />
    <glyph glyph-name="afii10022" unicode="&#x415;" horiz-adv-x="1177" 
d="M389 164h576q32 0 55.5 -24t23.5 -58t-23.5 -58t-55.5 -24h-664q-35 0 -60.5 25.5t-25.5 60.5v1262q0 35 25.5 60.5t60.5 25.5h643q32 0 56 -24t24 -58t-24 -58t-56 -24h-555v-463h494q32 0 56 -24t24 -58t-24 -58t-56 -24h-494v-479z" />
    <glyph glyph-name="afii10024" unicode="&#x416;" horiz-adv-x="1849" 
d="M1769 59q0 -31 -20.5 -52t-52.5 -21q-29 0 -48 13t-49 50l-512 649q-16 22 -16 50t16 47l496 600q40 49 82 49q33 0 54.5 -21t21.5 -51q0 -28 -21 -55l-481 -567l508 -631q22 -27 22 -60zM838 1360q0 34 26 59t62 25q35 0 60.5 -25t25.5 -59v-1288q0 -35 -25.5 -60.5
t-60.5 -25.5q-37 0 -62.5 25.5t-25.5 60.5v1288zM274 1386l490 -591q16 -19 16 -47t-16 -50l-512 -649q-26 -33 -45.5 -48t-48.5 -15q-36 0 -57 20.5t-21 50.5q0 32 22 60l510 631l-477 563q-24 27 -24 59q0 31 21 52.5t54 21.5q26 0 43.5 -12.5t44.5 -45.5z" />
    <glyph glyph-name="afii10025" unicode="&#x417;" horiz-adv-x="1153" 
d="M147 1305q92 76 183.5 112.5t208.5 36.5q189 0 302 -100.5t113 -280.5q0 -96 -53 -186.5t-153 -143.5q126 -27 194 -120.5t68 -221.5t-68.5 -225.5t-178.5 -146.5t-243 -49q-225 0 -418 163q-28 25 -28 66q0 25 16 47q25 31 64 31q28 0 51 -17q173 -127 305 -127
q144 0 235 72.5t91 202.5q0 107 -74.5 170t-206.5 63h-86q-33 0 -56.5 24.5t-23.5 59.5q0 33 22.5 56.5t53.5 23.5h78q94 0 165.5 69t71.5 173q0 113 -72.5 173t-187.5 60q-82 0 -145 -26t-133 -78q-25 -19 -56 -19q-33 0 -55 25q-18 21 -18 47q0 35 34 66z" />
    <glyph glyph-name="afii10026" unicode="&#x418;" horiz-adv-x="1628" 
d="M1413 1352v-1280q0 -35 -25.5 -60.5t-60.5 -25.5q-37 0 -62.5 25.5t-25.5 60.5v1073l-833 -1096q-48 -63 -103 -63q-42 0 -65 25.5t-23 68.5v1280q0 34 26 59t62 25q35 0 60.5 -25t25.5 -59v-1073l834 1095q25 32 46.5 47t51.5 15q44 0 68 -25t24 -67z" />
    <glyph glyph-name="afii10027" unicode="&#x419;" horiz-adv-x="1628" 
d="M1413 1352v-1280q0 -35 -25.5 -60.5t-60.5 -25.5q-37 0 -62.5 25.5t-25.5 60.5v1073l-833 -1096q-48 -63 -103 -63q-42 0 -65 25.5t-23 68.5v1280q0 34 26 59t62 25q35 0 60.5 -25t25.5 -59v-1073l834 1095q25 32 46.5 47t51.5 15q44 0 68 -25t24 -67zM1124 1780
q7 0 23 -4q49 -20 49 -64q0 -20 -8 -39q-29 -71 -132.5 -119.5t-228.5 -48.5q-139 0 -238.5 45.5t-127.5 122.5q-6 18 -6 35q0 56 45 68q10 4 28 4q28 0 49 -19.5t50 -62.5q53 -70 200 -70q150 0 209 86q47 66 88 66z" />
    <glyph glyph-name="afii10028" unicode="&#x41a;" horiz-adv-x="1300" 
d="M1044 33l-565 651q-22 25 -22 61q0 39 24 66l537 588q39 45 80 45q33 0 54.5 -20.5t21.5 -49.5q0 -36 -31 -67l-518 -547l555 -627q30 -33 30 -72q0 -32 -23 -53.5t-57 -21.5q-45 0 -86 47zM215 1360q0 34 26 59t62 25q35 0 60.5 -25t25.5 -59v-1288q0 -35 -25.5 -60.5
t-60.5 -25.5q-37 0 -62.5 25.5t-25.5 60.5v1288z" />
    <glyph glyph-name="afii10029" unicode="&#x41b;" horiz-adv-x="1490" 
d="M1276 70q0 -34 -25.5 -59t-60.5 -25q-36 0 -62 25t-26 59v1200h-520l-25 -271q-28 -299 -69.5 -501t-99 -312.5t-122 -155t-149.5 -44.5q-31 0 -45 2q-35 5 -57.5 27.5t-22.5 56.5v12q4 36 28.5 56t59.5 20h12h8q21 0 42 10.5t46 40t48 76t47.5 123.5t44.5 177.5
t38.5 244t30.5 315.5l15 203q3 35 29 59.5t61 24.5h690q34 0 59 -25t25 -59v-1280z" />
    <glyph glyph-name="afii10030" unicode="&#x41c;" horiz-adv-x="1826" 
d="M1438 1161l-430 -606q-41 -55 -93 -55q-51 0 -92 55l-434 594v-1077q0 -35 -25.5 -60.5t-60.5 -25.5q-37 0 -62.5 25.5t-25.5 60.5v1261q0 49 28 80t72 31q65 0 113 -66l502 -680l481 686q39 60 100 60q47 0 74 -29t27 -69v-1274q0 -35 -25.5 -60.5t-60.5 -25.5
q-37 0 -62.5 25.5t-25.5 60.5v1089z" />
    <glyph glyph-name="afii10031" unicode="&#x41d;" horiz-adv-x="1566" 
d="M1178 1360q0 34 26 59t62 25q35 0 60.5 -25t25.5 -59v-1288q0 -35 -25.5 -60.5t-60.5 -25.5q-37 0 -62.5 25.5t-25.5 60.5v577h-789v-577q0 -35 -25.5 -60.5t-60.5 -25.5q-37 0 -62.5 25.5t-25.5 60.5v1288q0 34 26 59t62 25q35 0 60.5 -25t25.5 -59v-547h789v547z" />
    <glyph glyph-name="afii10032" unicode="&#x41e;" horiz-adv-x="1667" 
d="M834 -20q-207 0 -373.5 92.5t-262.5 261.5t-96 383q0 206 93.5 374.5t261.5 265.5t377 97q154 0 289 -54.5t232.5 -150t153.5 -233.5t56 -299q0 -157 -56 -294.5t-153 -234.5t-232.5 -152.5t-289.5 -55.5zM834 1290q-154 0 -279 -73t-196.5 -204.5t-71.5 -295.5
q0 -160 72.5 -292t198 -207t276.5 -75q161 0 286 76t192.5 206.5t67.5 291.5q0 248 -157 410.5t-389 162.5z" />
    <glyph glyph-name="afii10033" unicode="&#x41f;" horiz-adv-x="1556" 
d="M301 1434h954q35 0 60.5 -25.5t25.5 -60.5v-1276q0 -35 -25.5 -60.5t-60.5 -25.5q-37 0 -62.5 25.5t-25.5 60.5v1198h-778v-1198q0 -35 -25.5 -60.5t-60.5 -25.5q-37 0 -62.5 25.5t-25.5 60.5v1276q0 35 25.5 60.5t60.5 25.5z" />
    <glyph glyph-name="afii10034" unicode="&#x420;" horiz-adv-x="1222" 
d="M301 1434q188 4 289 4q119 0 212 -25t152 -67t97 -100.5t53.5 -120.5t15.5 -132q0 -89 -32 -169t-94 -143.5t-162.5 -100.5t-227.5 -37q-119 0 -215 8v-479q0 -35 -25.5 -60.5t-60.5 -25.5q-37 0 -62.5 25.5t-25.5 60.5v1276q0 35 25.5 60.5t60.5 25.5zM389 1270v-553
q117 -10 209 -10q158 0 248 76.5t90 211.5q0 132 -82 205.5t-248 73.5q-81 0 -217 -4z" />
    <glyph glyph-name="afii10035" unicode="&#x421;" horiz-adv-x="1323" 
d="M1159 1212q-23 0 -49 13q-121 65 -291 65q-234 0 -383 -159.5t-149 -413.5q0 -256 155 -415t404 -159q164 0 297 80q24 15 51 15q38 0 61 -29q15 -18 15 -41q0 -43 -39 -70q-79 -56 -184 -87t-218 -31q-213 0 -378 90.5t-257 258.5t-92 388q0 207 84 373t248 265t383 99
q220 0 377 -96q43 -27 43 -70q0 -21 -12 -39q-22 -37 -66 -37z" />
    <glyph glyph-name="afii10036" unicode="&#x422;" horiz-adv-x="1218" 
d="M696 1270v-1198q0 -35 -25.5 -60.5t-60.5 -25.5q-37 0 -62.5 25.5t-25.5 60.5v1198h-422q-32 0 -56 24t-24 58t24 58t56 24h1018q32 0 56 -24t24 -58t-24 -58t-56 -24h-422z" />
    <glyph glyph-name="afii10037" unicode="&#x423;" horiz-adv-x="1335" 
d="M63 1364q0 33 22 56.5t60 23.5q52 0 91 -64l503 -845l369 841q30 68 82 68q38 0 60 -21.5t22 -52.5q0 -23 -8 -39l-451 -1003q-76 -170 -158.5 -249t-197.5 -79q-60 0 -109 16q-24 7 -44.5 29t-20.5 53q0 16 10 39q21 43 67 43q21 0 33 -6q30 -12 62 -12q107 0 176 145
l24 53l-577 955q-15 21 -15 49z" />
    <glyph glyph-name="afii10038" unicode="&#x424;" horiz-adv-x="1708" 
d="M938 1303q314 -2 501 -152t187 -414q0 -176 -88 -305t-242 -194.5t-356 -65.5v-104q0 -34 -26.5 -59t-61.5 -25q-36 0 -62 25t-26 59v104q-310 0 -496 149t-186 416q0 266 185 415t497 151v63q0 34 26 59t62 25q35 0 60.5 -25t25.5 -59v-63zM940 332q236 0 369 103.5
t133 301.5q0 190 -132 297t-370 107v-809zM764 332v809q-233 0 -365.5 -107.5t-132.5 -296.5q0 -196 133 -300.5t365 -104.5z" />
    <glyph glyph-name="afii10039" unicode="&#x425;" horiz-adv-x="1296" 
d="M104 1362q0 34 23 58t61 24q26 0 44 -14t42 -48l379 -522l373 522q23 34 44.5 48t49.5 14q35 0 57.5 -22.5t22.5 -55.5q0 -26 -18 -53l-420 -584l442 -614q15 -18 15 -45q0 -33 -22.5 -58.5t-57.5 -25.5q-47 0 -84 51l-408 559l-403 -559q-38 -51 -86 -51q-36 0 -58 24
t-22 58q0 29 18 53l441 608l-416 580q-17 23 -17 53z" />
    <glyph glyph-name="afii10040" unicode="&#x426;" horiz-adv-x="1587" 
d="M1526 78v-264q0 -32 -24 -56t-58 -24t-58 24t-24 56v186h-1061q-35 0 -60.5 25.5t-25.5 60.5v1274q0 34 26 59t62 25q35 0 60.5 -25t25.5 -59v-1196h768v1196q0 34 26 59t62 25q35 0 60.5 -25t25.5 -59v-1196h109q35 0 60.5 -25.5t25.5 -60.5z" />
    <glyph glyph-name="afii10041" unicode="&#x427;" horiz-adv-x="1331" 
d="M307 1020q0 -177 81 -258.5t220 -81.5q173 0 334 108v572q0 34 26 59t62 25q35 0 60.5 -25t25.5 -59v-1288q0 -35 -25.5 -60.5t-60.5 -25.5q-37 0 -62.5 25.5t-25.5 60.5v555q-64 -46 -164 -78.5t-215 -32.5q-89 0 -163.5 25t-136 77.5t-96 143t-34.5 211.5v387
q0 34 26 59t62 25q35 0 60.5 -25t25.5 -59v-340z" />
    <glyph glyph-name="afii10042" unicode="&#x428;" horiz-adv-x="2037" 
d="M1649 1360q0 34 26 59t62 25q35 0 60.5 -25t25.5 -59v-1274q0 -35 -25.5 -60.5t-60.5 -25.5h-1436q-35 0 -60.5 25.5t-25.5 60.5v1274q0 34 26 59t62 25q35 0 60.5 -25t25.5 -59v-1196h543v1196q0 34 26 59t62 25q35 0 60.5 -25t25.5 -59v-1196h543v1196z" />
    <glyph glyph-name="afii10043" unicode="&#x429;" horiz-adv-x="2078" 
d="M2017 78v-264q0 -32 -24 -56t-58 -24t-58 24t-24 56v186h-1552q-35 0 -60.5 25.5t-25.5 60.5v1274q0 34 26 59t62 25q35 0 60.5 -25t25.5 -59v-1196h543v1196q0 34 26 59t62 25q35 0 60.5 -25t25.5 -59v-1196h543v1196q0 34 26 59t62 25q35 0 60.5 -25t25.5 -59v-1196
h108q35 0 60.5 -25.5t25.5 -60.5z" />
    <glyph glyph-name="afii10044" unicode="&#x42a;" horiz-adv-x="1370" 
d="M1268 469q0 -225 -152 -349t-428 -124q-102 0 -250 4q-36 0 -61 25t-25 61v1184h-262q-32 0 -56 24t-24 58t24 58t56 24h350q35 0 60.5 -25.5t25.5 -60.5v-447q130 10 201 10q271 0 406 -116.5t135 -325.5zM526 735v-569q165 -6 183 -6q180 0 277 76t97 229
q0 138 -96.5 210.5t-271.5 72.5q-72 0 -189 -13z" />
    <glyph glyph-name="afii10045" unicode="&#x42b;" horiz-adv-x="1730" 
d="M1341 1360q0 34 26 59t63 25q35 0 60.5 -25t25.5 -59v-1288q0 -35 -25.5 -60.5t-60.5 -25.5q-37 0 -63 25.5t-26 60.5v1288zM389 735v-569q165 -6 172 -6q178 0 271.5 77t93.5 228q0 137 -93 210t-266 73q-61 0 -178 -13zM541 -4q-100 0 -240 4q-36 0 -61 25t-25 61v1274
q0 34 26 59t62 25q35 0 60.5 -25t25.5 -59v-459q130 10 191 10q263 0 396.5 -117t133.5 -325q0 -225 -150.5 -349t-418.5 -124z" />
    <glyph glyph-name="afii10046" unicode="&#x42c;" horiz-adv-x="1232" 
d="M389 735v-569q165 -6 182 -6q181 0 278 76t97 229q0 138 -96.5 210.5t-271.5 72.5q-72 0 -189 -13zM551 -4q-102 0 -250 4q-36 0 -61 25t-25 61v1274q0 34 26 59t62 25q35 0 60.5 -25t25.5 -59v-459q130 10 201 10q271 0 405.5 -116.5t134.5 -325.5q0 -226 -151.5 -349.5
t-427.5 -123.5z" />
    <glyph glyph-name="afii10047" unicode="&#x42d;" horiz-adv-x="1361" 
d="M61 150q0 24 13 43q23 36 65 36q27 0 45 -10q162 -76 336 -76q230 0 384 136t177 370h-630q-32 0 -56 24t-24 58t24 58t56 24h628q-28 223 -183 350t-396 127q-122 0 -295 -78q-16 -8 -37 -8q-47 0 -68 37q-10 15 -10 39q0 22 11 40.5t28 27.5q197 106 412 106
q322 0 520.5 -200.5t198.5 -532.5q0 -162 -52.5 -299.5t-147 -235t-232.5 -152t-304 -54.5q-246 0 -424 98q-39 24 -39 72z" />
    <glyph glyph-name="afii10048" unicode="&#x42e;" horiz-adv-x="2207" 
d="M696 649h-307v-577q0 -35 -25.5 -60.5t-60.5 -25.5q-37 0 -62.5 25.5t-25.5 60.5v1288q0 34 26 59t62 25q35 0 60.5 -25t25.5 -59v-547h309q15 138 72.5 256t147 203t213 133.5t264.5 48.5q206 0 367.5 -92.5t252 -261t90.5 -383.5q0 -211 -90 -379t-252.5 -263
t-367.5 -95q-284 0 -480.5 186t-218.5 483zM1399 1290q-226 0 -373 -161.5t-147 -411.5q0 -245 149 -409.5t371 -164.5q161 0 281 76.5t180.5 205.5t60.5 292q0 251 -145.5 412t-376.5 161z" />
    <glyph glyph-name="afii10049" unicode="&#x42f;" horiz-adv-x="1245" 
d="M694 1440q34 0 121 -2t129 -2q37 -1 61.5 -27t24.5 -61v-1276q0 -35 -25.5 -60.5t-60.5 -25.5q-37 0 -62.5 25.5t-25.5 60.5v460h-268l-346 -495q-33 -51 -86 -51q-35 0 -55.5 21t-20.5 52q0 30 18 54l320 450q-121 48 -202 153t-81 249q0 99 33.5 183.5t100 150.5
t175.5 103.5t250 37.5zM856 696v574q-141 6 -194 6q-162 0 -252.5 -84.5t-90.5 -216.5q0 -109 74 -186t174 -93h289z" />
    <glyph glyph-name="afii10065" unicode="&#x430;" horiz-adv-x="942" 
d="M82 270q0 137 97 215t251 78q149 0 229 -59q0 57 -4 97t-17 79t-35 62.5t-60.5 38t-91.5 14.5q-92 0 -185 -37q-15 -6 -30 -6q-46 0 -64 41q-6 15 -6 28q0 22 11 40.5t30 25.5q133 55 254 55q190 0 272 -94.5t82 -282.5v-508q0 -30 -22.5 -50.5t-55.5 -20.5t-55.5 20.5
t-22.5 50.5v62q-105 -133 -294 -133q-128 0 -205.5 76t-77.5 208zM659 252v117q-85 61 -206 61q-81 0 -139 -38.5t-58 -112.5q0 -67 44 -106.5t122 -39.5q81 0 136.5 33t100.5 86z" />
    <glyph glyph-name="afii10066" unicode="&#x431;" horiz-adv-x="1124" 
d="M1042 453q0 -129 -59 -236.5t-168 -172t-246 -64.5q-225 0 -356 154t-131 419q0 599 342 743q73 32 150 47t134.5 26t96.5 36q43 29 76 29q32 0 55 -29q18 -21 18 -49q0 -38 -28 -62q-43 -39 -98 -60t-102.5 -27t-117 -22.5t-129.5 -43.5q-211 -96 -231 -445
q46 96 147.5 155.5t218.5 59.5q197 0 312.5 -125t115.5 -333zM256 522q0 -177 85.5 -283t223.5 -106q133 0 218 90t85 221q0 139 -78 226.5t-217 87.5q-123 0 -208 -69.5t-109 -166.5z" />
    <glyph glyph-name="afii10067" unicode="&#x432;" horiz-adv-x="1011" 
d="M879 692q0 -82 -51 -141t-134 -72q215 -42 215 -219q0 -268 -424 -268q-20 0 -260 6q-33 2 -55.5 25.5t-22.5 56.5v762q0 33 22.5 56.5t55.5 25.5q222 6 256 6q398 0 398 -238zM311 414v-283q147 -6 189 -6q114 0 174.5 37.5t60.5 109.5q0 142 -227 142h-197zM311 516
h207q83 0 135 38.5t52 104.5q0 71 -57.5 104.5t-153.5 33.5q-60 0 -183 -6v-275z" />
    <glyph glyph-name="afii10068" unicode="&#x433;" horiz-adv-x="741" 
d="M311 768v-705q0 -32 -23.5 -54.5t-58.5 -22.5t-58.5 22.5t-23.5 54.5v781q0 32 23 55t55 23h428q32 0 55 -22.5t23 -53.5q0 -32 -23 -55t-55 -23h-342z" />
    <glyph glyph-name="afii10069" unicode="&#x434;" horiz-adv-x="1093" 
d="M174 0v-147q0 -32 -22.5 -55t-53.5 -23q-32 0 -55 23t-23 55v223q0 32 23 55t55 23h37q49 63 89.5 204t51.5 320l11 166q1 32 25.5 55t56.5 23h473q32 0 55 -23t23 -55v-690h75q32 0 55 -23t23 -55v-223q0 -32 -22.5 -55t-53.5 -23q-32 0 -54.5 23t-22.5 55v147h-746z
M756 154v614h-312l-10 -154q-14 -163 -51 -287t-74 -173h447z" />
    <glyph glyph-name="afii10070" unicode="&#x435;" horiz-adv-x="1075" 
d="M819 543q-6 115 -76.5 180t-189.5 65q-123 0 -201 -68t-92 -177h559zM989 520q0 -31 -2 -45q-1 -25 -22.5 -45t-46.5 -20h-648q10 -129 97.5 -203t224.5 -74q131 0 225 55q23 13 45 13q32 0 56 -27q12 -15 12 -37q0 -39 -25 -55q-143 -102 -325 -102q-224 0 -359 131.5
t-135 349.5q0 135 54.5 243t164 173t256.5 65q182 0 305 -117.5t123 -304.5z" />
    <glyph glyph-name="afii10072" unicode="&#x436;" horiz-adv-x="1333" 
d="M1106 31l-275 383q-20 30 -20 63q0 34 20 64l246 346q30 45 76 45q38 0 61 -23t23 -55q0 -30 -16 -49l-248 -328l272 -360q19 -25 19 -54q0 -32 -21.5 -54.5t-56.5 -22.5q-50 0 -80 45zM496 414l-271 -383q-30 -45 -78 -45q-36 0 -56.5 23t-20.5 54q0 30 16 52l268 362
l-245 328q-17 24 -17 47q0 33 22.5 56.5t61.5 23.5q46 0 76 -45l244 -346q20 -26 20 -64q0 -37 -20 -63zM745 854v-791q0 -33 -23 -55t-58 -22t-58.5 22.5t-23.5 54.5v791q0 33 23.5 55.5t58.5 22.5t58 -22.5t23 -55.5z" />
    <glyph glyph-name="afii10073" unicode="&#x437;" horiz-adv-x="917" 
d="M438 942q166 0 256 -66t90 -182q0 -73 -39 -130.5t-122 -88.5q93 -11 142.5 -73t49.5 -146q0 -127 -109 -201.5t-282 -74.5q-194 0 -318 83q-34 24 -34 64q0 19 14 43q20 33 61 33q20 0 43 -13q109 -63 209 -63q106 0 174 42t68 110q0 57 -47.5 87.5t-132.5 30.5h-86
q-29 0 -49.5 20t-20.5 48q0 26 20.5 45.5t49.5 19.5h76q69 0 114 38t45 94q0 62 -53 97.5t-143 35.5q-105 0 -211 -50q-16 -8 -39 -8q-41 0 -62 35q-8 13 -8 33q0 40 43 65q123 72 301 72z" />
    <glyph glyph-name="afii10074" unicode="&#x438;" 
d="M1008 63q0 -32 -23.5 -54.5t-58.5 -22.5t-58.5 22.5t-23.5 54.5v609l-498 -613q-32 -39 -57.5 -56t-59.5 -17q-36 0 -59 24.5t-23 57.5v786q0 33 23.5 55.5t58.5 22.5t58.5 -22.5t23.5 -55.5v-610l498 612q23 27 35 39.5t34.5 24.5t47.5 12q36 0 59 -25t23 -59v-785z" />
    <glyph glyph-name="afii10075" unicode="&#x439;" 
d="M1008 63q0 -32 -23.5 -54.5t-58.5 -22.5t-58.5 22.5t-23.5 54.5v609l-498 -613q-32 -39 -57.5 -56t-59.5 -17q-36 0 -59 24.5t-23 57.5v786q0 33 23.5 55.5t58.5 22.5t58.5 -22.5t23.5 -55.5v-610l498 612q23 27 35 39.5t34.5 24.5t47.5 12q36 0 59 -25t23 -59v-785z
M727 1327q21 66 80 66q33 0 54.5 -19.5t21.5 -52.5q0 -7 -4 -27q-18 -77 -97 -132.5t-192 -55.5q-124 0 -203.5 55t-95.5 133q-2 8 -2 25q0 35 21 54.5t55 19.5q32 0 50 -16t29 -50q29 -96 146 -96q108 0 137 96z" />
    <glyph glyph-name="afii10076" unicode="&#x43a;" horiz-adv-x="987" 
d="M741 27l-340 385q-20 26 -20 61q0 34 20 57l310 359q37 43 75 43t60 -22.5t22 -53.5t-20 -51l-297 -324l328 -356q24 -27 24 -62q0 -31 -22 -54t-60 -23q-45 0 -80 41zM311 854v-791q0 -32 -23.5 -54.5t-58.5 -22.5t-58.5 22.5t-23.5 54.5v791q0 33 23.5 55.5t58.5 22.5
t58.5 -22.5t23.5 -55.5z" />
    <glyph glyph-name="afii10077" unicode="&#x43b;" horiz-adv-x="1075" 
d="M928 844v-781q0 -32 -23.5 -54.5t-58.5 -22.5t-58.5 22.5t-23.5 54.5v695h-324l-10 -156q-9 -134 -31 -240.5t-51.5 -176t-67.5 -115t-77 -65t-82 -19.5q-36 0 -59 20t-23 55q0 32 15.5 51t49.5 33q46 19 77.5 64t55 150.5t33.5 275.5l13 209q1 32 25.5 55t56.5 23h485
q32 0 55 -23t23 -55z" />
    <glyph glyph-name="afii10078" unicode="&#x43c;" horiz-adv-x="1280" 
d="M311 657v-594q0 -32 -23.5 -54.5t-58.5 -22.5t-58.5 22.5t-23.5 54.5v791q0 32 23 55t57 23q30 0 53.5 -18t59.5 -62l311 -387l297 391q29 39 52.5 57.5t52.5 18.5q34 0 57 -23t23 -55v-791q0 -32 -23.5 -54.5t-58.5 -22.5t-58.5 22.5t-23.5 54.5v594l-260 -329
q-23 -33 -64 -33q-38 0 -63 31z" />
    <glyph glyph-name="afii10079" unicode="&#x43d;" horiz-adv-x="1134" 
d="M987 854v-791q0 -32 -23.5 -54.5t-58.5 -22.5t-58.5 22.5t-23.5 54.5v326h-512v-326q0 -32 -23.5 -54.5t-58.5 -22.5t-58.5 22.5t-23.5 54.5v791q0 33 23.5 55.5t58.5 22.5t58.5 -22.5t23.5 -55.5v-311h512v311q0 33 23.5 55.5t58.5 22.5t58.5 -22.5t23.5 -55.5z" />
    <glyph glyph-name="afii10080" unicode="&#x43e;" 
d="M86 461q0 209 136.5 345t355.5 136t355 -136t136 -345t-136 -345t-355 -136t-355.5 136t-136.5 345zM260 461q0 -144 89.5 -236t228.5 -92t228 90.5t89 237.5q0 144 -89 235.5t-228 91.5q-137 0 -227.5 -91t-90.5 -236z" />
    <glyph glyph-name="afii10081" unicode="&#x43f;" horiz-adv-x="1124" 
d="M977 844v-781q0 -32 -23.5 -54.5t-58.5 -22.5t-58.5 22.5t-23.5 54.5v705h-502v-705q0 -32 -23.5 -54.5t-58.5 -22.5t-58.5 22.5t-23.5 54.5v781q0 32 23 55t55 23h674q32 0 55 -23t23 -55z" />
    <glyph glyph-name="afii10082" unicode="&#x440;" horiz-adv-x="1138" 
d="M311 43v-375q0 -33 -23.5 -55.5t-58.5 -22.5t-58.5 22.5t-23.5 55.5v1186q0 33 23.5 55.5t58.5 22.5t58.5 -22.5t23.5 -55.5v-41q48 57 134 93t180 36q194 0 310 -130t116 -337q0 -214 -133 -354.5t-347 -140.5q-163 0 -260 63zM311 662v-457q107 -72 246 -72
q146 0 233 94t87 242q0 143 -79.5 231t-219.5 88q-79 0 -151 -35t-116 -91z" />
    <glyph glyph-name="afii10083" unicode="&#x441;" horiz-adv-x="976" 
d="M778 735q-100 53 -203 53q-128 0 -221.5 -92.5t-93.5 -234.5q0 -148 95.5 -238t236.5 -90q112 0 196 64q33 26 64 26q27 0 47 -20q23 -20 23 -51q0 -34 -23 -54q-73 -65 -149.5 -91.5t-169.5 -26.5q-221 0 -357.5 132t-136.5 349q0 133 60 243t167.5 174t239.5 64
q172 0 299 -72q43 -22 43 -69q0 -22 -10 -37q-21 -37 -68 -37q-23 0 -39 8z" />
    <glyph glyph-name="afii10084" unicode="&#x442;" horiz-adv-x="901" 
d="M532 63q0 -33 -23 -55t-58 -22t-58.5 22.5t-23.5 54.5v695h-260q-33 0 -55.5 23.5t-22.5 58.5t22.5 58.5t55.5 23.5h684q32 0 54.5 -23.5t22.5 -58.5t-22.5 -58.5t-54.5 -23.5h-261v-695z" />
    <glyph glyph-name="afii10085" unicode="&#x443;" horiz-adv-x="980" 
d="M469 336q8 -17 55 -139q14 51 43 141l195 530q8 27 29 45.5t51 18.5q42 0 66 -23t24 -57q0 -15 -8 -39l-326 -813q-66 -164 -122.5 -254t-108.5 -123t-121 -33q-42 0 -76 7.5t-61 30t-27 59.5q0 31 17 48t48 17q10 0 35.5 -5t44.5 -5q58 0 104.5 49.5t92.5 159.5l20 49
l-387 807q-8 16 -8 39q0 35 25 60.5t65 25.5q25 0 46.5 -14t31.5 -37z" />
    <glyph glyph-name="afii10086" unicode="&#x444;" horiz-adv-x="1380" 
d="M772 -20v-312q0 -33 -23.5 -55.5t-58.5 -22.5t-58.5 22.5t-23.5 55.5v312h-22q-232 0 -366 135t-134 346q0 127 57 235t172.5 177t268.5 69h24v414q0 33 23.5 55.5t58.5 22.5t58.5 -22.5t23.5 -55.5v-414h27q225 0 360 -136.5t135 -344.5q0 -103 -32 -190.5t-93.5 -152.5
t-156 -101.5t-213.5 -36.5h-27zM592 133h16v655h-26q-152 0 -237 -93.5t-85 -233.5q0 -148 85.5 -238t246.5 -90zM772 788v-655h16q162 0 247 89t85 239q0 135 -85.5 231t-235.5 96h-27z" />
    <glyph glyph-name="afii10087" unicode="&#x445;" horiz-adv-x="968" 
d="M264 887l225 -314l228 314q34 45 74 45q36 0 56.5 -21t20.5 -51q0 -25 -14 -45l-250 -338l266 -362q17 -24 17 -52q0 -32 -21.5 -54.5t-60.5 -22.5q-41 0 -74 45l-248 342l-252 -342q-33 -45 -75 -45q-35 0 -54.5 20.5t-19.5 50.5q0 27 16 49l269 363l-244 338
q-14 20 -14 47q0 31 21.5 54.5t59.5 23.5q41 0 74 -45z" />
    <glyph glyph-name="afii10088" unicode="&#x446;" horiz-adv-x="1150" 
d="M1120 -147q0 -32 -22.5 -55t-53.5 -23q-32 0 -54.5 23t-22.5 55v147h-742q-32 0 -55 23t-23 55v776q0 33 23.5 55.5t58.5 22.5t58.5 -22.5t23.5 -55.5v-700h492v700q0 33 23.5 55.5t58.5 22.5t58.5 -22.5t23.5 -55.5v-700h75q32 0 55 -23t23 -55v-223z" />
    <glyph glyph-name="afii10089" unicode="&#x447;" horiz-adv-x="987" 
d="M676 502v352q0 33 23.5 55.5t58.5 22.5t58.5 -22.5t23.5 -55.5v-791q0 -32 -23.5 -54.5t-58.5 -22.5t-58.5 22.5t-23.5 54.5v295q-105 -67 -256 -67q-166 0 -247 87t-81 265v211q0 33 24.5 55.5t63.5 22.5q38 0 62 -22.5t24 -55.5v-192q0 -108 52 -163t147 -55
q64 0 120.5 17t90.5 41z" />
    <glyph glyph-name="afii10090" unicode="&#x448;" horiz-adv-x="1462" 
d="M1315 854v-776q0 -32 -23 -55t-55 -23h-1012q-32 0 -55 23t-23 55v776q0 33 23.5 55.5t58.5 22.5t58.5 -22.5t23.5 -55.5v-700h338v700q0 33 23.5 55.5t58.5 22.5t58.5 -22.5t23.5 -55.5v-700h338v700q0 33 23.5 55.5t58.5 22.5t58.5 -22.5t23.5 -55.5z" />
    <glyph glyph-name="afii10091" unicode="&#x449;" horiz-adv-x="1499" 
d="M1468 -147q0 -32 -22 -55t-53 -23q-32 0 -55 23t-23 55v147h-1090q-32 0 -55 23t-23 55v776q0 33 23.5 55.5t58.5 22.5t58.5 -22.5t23.5 -55.5v-700h338v700q0 33 23.5 55.5t58.5 22.5t58.5 -22.5t23.5 -55.5v-700h338v700q0 33 23.5 55.5t58.5 22.5t58.5 -22.5
t23.5 -55.5v-700h76q32 0 54.5 -23t22.5 -55v-223z" />
    <glyph glyph-name="afii10092" unicode="&#x44a;" horiz-adv-x="1042" 
d="M586 0h-234q-32 0 -55 23t-23 55v690h-186q-32 0 -55 23t-23 55q0 31 23 53.5t55 22.5h272q32 0 55 -23t23 -55v-199h168q82 0 146 -17.5t105 -46.5t67 -70.5t36.5 -86t10.5 -96.5q0 -64 -20 -120t-62.5 -104t-120 -76t-182.5 -28zM438 154h135q118 0 171 42t53 126
q0 85 -53 127.5t-169 42.5h-137v-338z" />
    <glyph glyph-name="afii10093" unicode="&#x44b;" horiz-adv-x="1314" 
d="M311 645h152q82 0 146 -17.5t104.5 -46.5t66.5 -70.5t36.5 -86t10.5 -96.5q0 -64 -20 -120t-62.5 -104t-119.5 -76t-181 -28h-219q-32 0 -55 23t-23 55v776q0 33 23.5 55.5t58.5 22.5t58.5 -22.5t23.5 -55.5v-209zM1167 854v-791q0 -32 -23.5 -54.5t-58.5 -22.5t-58 22
t-23 55v791q0 33 23 55.5t58 22.5t58.5 -22.5t23.5 -55.5zM311 154h119q119 0 171 41.5t52 126.5t-52.5 127.5t-168.5 42.5h-121v-338z" />
    <glyph glyph-name="afii10094" unicode="&#x44c;" horiz-adv-x="915" 
d="M311 645h168q82 0 146 -17.5t105 -46.5t67 -70.5t36.5 -86t10.5 -96.5q0 -64 -20 -120t-62.5 -104t-120 -76t-182.5 -28h-234q-32 0 -55 23t-23 55v776q0 33 23.5 55.5t58.5 22.5t58.5 -22.5t23.5 -55.5v-209zM311 154h135q118 0 171 42t53 126q0 85 -52.5 127.5
t-168.5 42.5h-138v-338z" />
    <glyph glyph-name="afii10095" unicode="&#x44d;" horiz-adv-x="978" 
d="M137 197q25 0 56 -17q89 -47 221 -47q128 0 210 70.5t99 197.5h-385q-29 0 -49.5 20t-20.5 48q0 27 20.5 46.5t49.5 19.5h383q-20 124 -105.5 188.5t-214.5 64.5q-126 0 -225 -61q-22 -14 -49 -14q-37 0 -57 28q-15 21 -15 43q0 39 33 62q69 46 151.5 71t159.5 25
q220 0 356 -131.5t136 -349.5q0 -133 -60 -243t-167.5 -174t-239.5 -64q-209 0 -326 79q-32 22 -32 62q0 28 16 47q23 29 55 29z" />
    <glyph glyph-name="afii10096" unicode="&#x44e;" horiz-adv-x="1556" 
d="M322 389v-321q0 -34 -25 -58t-61 -24q-38 0 -63.5 24t-25.5 58v782q0 34 25.5 58t63.5 24q36 0 61 -24t25 -58v-297h200q28 173 153.5 281t311.5 108q214 0 347.5 -136t133.5 -345t-134.5 -345t-346.5 -136q-192 0 -318.5 113t-148.5 296h-198zM700 461q0 -144 82 -231
t211 -87t210 87.5t81 230.5q0 142 -80 229.5t-211 87.5q-130 0 -211.5 -87.5t-81.5 -229.5z" />
    <glyph glyph-name="afii10097" unicode="&#x44f;" horiz-adv-x="948" 
d="M123 117l176 231q-79 19 -139 89.5t-60 176.5q0 62 22 115t68 97.5t128.5 70t193.5 25.5h209q32 0 55 -23t23 -55v-781q0 -32 -23.5 -54.5t-58.5 -22.5t-58.5 22.5t-23.5 54.5v244h-178l-203 -276q-31 -45 -72 -45q-37 0 -59.5 20.5t-22.5 50.5q0 27 23 60zM635 461v307
h-150q-109 0 -160 -44t-51 -114q0 -67 53 -108t119 -41h189z" />
    <glyph glyph-name="afii10071" unicode="&#x451;" horiz-adv-x="1075" 
d="M819 543q-6 115 -76.5 180t-189.5 65q-123 0 -201 -68t-92 -177h559zM989 520q0 -31 -2 -45q-1 -25 -22.5 -45t-46.5 -20h-648q10 -129 97.5 -203t224.5 -74q131 0 225 55q23 13 45 13q32 0 56 -27q12 -15 12 -37q0 -39 -25 -55q-143 -102 -325 -102q-224 0 -359 131.5
t-135 349.5q0 135 54.5 243t164 173t256.5 65q182 0 305 -117.5t123 -304.5zM344 1147q-41 0 -68.5 27t-27.5 75q0 42 27.5 68t68.5 26q35 0 62.5 -26.5t27.5 -67.5q0 -47 -27 -74.5t-63 -27.5zM762 1147q-42 0 -70 27t-28 75q0 42 28.5 68t69.5 26q35 0 62.5 -26.5
t27.5 -67.5q0 -47 -27 -74.5t-63 -27.5z" />
    <glyph glyph-name="afii10099" unicode="&#x452;" horiz-adv-x="1216" 
d="M436 63q0 -32 -23.5 -54.5t-58.5 -22.5t-58.5 22.5t-23.5 54.5v879h-188q-34 0 -53 20t-19 48q0 25 18.5 45t53.5 20h188v281q0 33 23.5 55.5t58.5 22.5t58.5 -22.5t23.5 -55.5v-281h291q30 0 51 -19t21 -46q0 -26 -18 -47t-54 -21h-291v-311q53 54 134.5 88.5
t166.5 34.5q383 0 383 -404q0 -474 -317 -733q-15 -12 -37 -12q-30 0 -49 22q-12 15 -12 33q0 25 26 51q223 223 223 598q0 291 -258 291q-75 0 -145.5 -32.5t-114.5 -84.5v-420z" />
    <glyph glyph-name="afii10100" unicode="&#x453;" horiz-adv-x="741" 
d="M311 768v-705q0 -32 -23.5 -54.5t-58.5 -22.5t-58.5 22.5t-23.5 54.5v781q0 32 23 55t55 23h428q32 0 55 -22.5t23 -53.5q0 -32 -23 -55t-55 -23h-342zM395 1208l148 219q16 25 49 25q20 0 35 -12l28 -21q23 -20 23 -47q0 -25 -14 -39l-164 -198q-22 -25 -54 -25
q-17 0 -34 10q-27 18 -27 54q0 17 10 34z" />
    <glyph glyph-name="afii10101" unicode="&#x454;" horiz-adv-x="978" 
d="M256 535h381q28 0 48 -20t20 -46q0 -27 -19.5 -47.5t-48.5 -20.5h-383q17 -127 99 -197.5t210 -70.5q130 0 219 47q30 15 52 15q39 0 59 -33q12 -18 12 -41q0 -39 -26 -58q-68 -49 -145 -66t-181 -17q-132 0 -239.5 64t-167.5 174t-60 243q0 218 136 349.5t356 131.5
q74 0 155.5 -23.5t143.5 -64.5q43 -30 43 -70q0 -16 -13 -36q-20 -33 -59 -33q-21 0 -49 14q-100 59 -224 59q-129 0 -214 -64.5t-105 -188.5z" />
    <glyph glyph-name="afii10102" unicode="&#x455;" horiz-adv-x="839" 
d="M84 135q0 26 16 45q23 29 58 29q27 0 47 -14q107 -72 213 -72q69 0 116.5 33.5t47.5 93.5q0 37 -27.5 64t-71.5 44t-97 33t-106 38t-97 51.5t-71.5 81t-27.5 120.5q0 120 87 190t226 70q140 0 262 -70q33 -20 33 -57q0 -21 -12 -39q-20 -33 -62 -33q-21 0 -40 11
q-85 45 -172 45q-67 0 -107.5 -33.5t-40.5 -81.5q0 -39 27.5 -67.5t71.5 -46t97 -33.5t106 -37t97 -49.5t71.5 -77.5t27.5 -115q0 -71 -29.5 -125.5t-80.5 -87t-113.5 -49t-133.5 -16.5q-159 0 -288 98q-27 20 -27 57z" />
    <glyph glyph-name="afii10103" unicode="&#x456;" horiz-adv-x="548" 
d="M356 854v-791q0 -32 -23.5 -54.5t-58.5 -22.5t-58 22t-23 55v791q0 33 23 55.5t58 22.5t58.5 -22.5t23.5 -55.5zM172 1268q0 43 31.5 70.5t75.5 27.5q40 0 70 -27.5t30 -70.5q0 -49 -29.5 -78t-70.5 -29q-45 0 -76 29t-31 78z" />
    <glyph glyph-name="afii10104" unicode="&#x457;" horiz-adv-x="600" 
d="M72 1245q0 38 26 62t64 24q32 0 57 -24.5t25 -61.5q0 -40 -25 -65t-57 -25q-38 0 -64 25t-26 65zM358 1245q0 37 26 61.5t62 24.5q33 0 57.5 -24.5t24.5 -61.5q0 -40 -24 -65t-58 -25q-36 0 -62 25t-26 65zM381 854v-791q0 -32 -23.5 -54.5t-58.5 -22.5t-58.5 22.5
t-23.5 54.5v791q0 33 23.5 55.5t58.5 22.5t58.5 -22.5t23.5 -55.5z" />
    <glyph glyph-name="afii10105" unicode="&#x458;" horiz-adv-x="579" 
d="M236 -55v909q0 33 23 55.5t58 22.5t58.5 -22.5t23.5 -55.5v-922q0 -358 -288 -358q-82 0 -144 23q-53 19 -53 71q0 32 21 51t55 19q23 0 35 -4q24 -6 49 -6q162 0 162 217zM213 1268q0 43 31 70.5t75 27.5q40 0 70.5 -27.5t30.5 -70.5q0 -49 -30 -78t-71 -29
q-45 0 -75.5 29t-30.5 78z" />
    <glyph glyph-name="afii10106" unicode="&#x459;" horiz-adv-x="1505" 
d="M928 154h108q118 0 171 42t53 126q0 85 -53 127.5t-169 42.5h-110v-338zM270 635l13 209q1 32 25.5 55t56.5 23h485q32 0 55 -23t23 -55v-199h141q82 0 146 -17.5t105 -46.5t67 -70.5t36.5 -86t10.5 -96.5q0 -64 -20 -120t-62.5 -104t-120 -76t-182.5 -28h-207
q-32 0 -55 23t-23 55v680h-324l-10 -156q-9 -134 -31 -240.5t-51.5 -176t-67.5 -115t-77 -65t-82 -19.5q-36 0 -59 20t-23 55q0 32 15.5 51t49.5 33q46 19 77.5 64t55 150.5t33.5 275.5z" />
    <glyph glyph-name="afii10107" unicode="&#x45a;" horiz-adv-x="1564" 
d="M311 410v-347q0 -32 -23.5 -54.5t-58.5 -22.5t-58.5 22.5t-23.5 54.5v791q0 33 23.5 55.5t58.5 22.5t58.5 -22.5t23.5 -55.5v-291h512v291q0 33 23.5 55.5t58.5 22.5t58.5 -22.5t23.5 -55.5v-229h141q102 0 175.5 -24.5t113.5 -68.5t58 -97t18 -118q0 -64 -20 -118.5
t-62.5 -100.5t-119.5 -72t-181 -26h-209q-32 0 -55 23t-23 55v332h-512zM987 154h109q121 0 172 37t51 120q0 84 -51.5 122t-169.5 38h-111v-317z" />
    <glyph glyph-name="afii10108" unicode="&#x45b;" horiz-adv-x="1216" 
d="M272 942h-188q-34 0 -53 20t-19 48q0 25 18.5 45t53.5 20h188v281q0 33 23.5 55.5t58.5 22.5t58.5 -22.5t23.5 -55.5v-281h291q30 0 51 -19t21 -46q0 -26 -18 -47t-54 -21h-291v-311q53 54 134.5 88.5t166.5 34.5q383 0 383 -410v-281q0 -32 -23.5 -54.5t-58.5 -22.5
t-58.5 22.5t-23.5 54.5v259q0 138 -66 208t-194 70q-75 0 -145.5 -32.5t-114.5 -84.5v-420q0 -32 -23.5 -54.5t-58.5 -22.5t-58.5 22.5t-23.5 54.5v879z" />
    </font>
</defs>
</svg>
