<?xml version="1.0" standalone="no"?>
<!DOCTYPE svg PUBLIC "-//W3C//DTD SVG 1.1//EN" "http://www.w3.org/Graphics/SVG/1.1/DTD/svg11.dtd" >
<svg xmlns="http://www.w3.org/2000/svg" xmlns:xlink="http://www.w3.org/1999/xlink" version="1.1">
<metadata>
Created by FontForge 20170731 at Wed Mar 15 10:31:52 2023
 By Aleksey,,,
Copyright (c) 2015 ParaType, Inc., ParaType Ltd. All rights reserved.
</metadata>
<defs>
<font id="CirceRounded-Light" horiz-adv-x="1331" >
  <font-face 
    font-family="Circe Rounded Light"
    font-weight="350"
    font-stretch="normal"
    units-per-em="2048"
    panose-1="2 15 4 2 2 2 3 2 2 3"
    ascent="1583"
    descent="-465"
    x-height="922"
    cap-height="1434"
    bbox="-1059 -655 3004 1866"
    underline-thickness="102"
    underline-position="-307"
    unicode-range="U+0020-FB02"
  />
<missing-glyph horiz-adv-x="481" 
 />
    <glyph glyph-name="uniF350.var.accented" unicode="&#xf350;`" horiz-adv-x="1153" 
d="M999 25l-147 317h-555l-147 -317q-13 -33 -52 -33q-22 0 -36.5 14.5t-14.5 34.5q0 11 6 20l457 967q25 51 68 51q23 0 38 -11.5t29 -39.5l455 -960q6 -12 6 -23q0 -22 -15.5 -37.5t-39.5 -15.5q-39 0 -52 33zM803 446l-230 494l-229 -494h459zM782 1522l6 -9
q15 -12 15 -32q0 -19 -12 -31l-207 -219q-10 -10 -27 -10q-16 0 -31 12q-12 12 -12 29q0 13 10 26l193 230q11 14 35 14q20 0 30 -10z" />
    <glyph glyph-name="uniF355.var.accented" unicode="&#xf355;`" horiz-adv-x="985" 
d="M295 106h516q22 0 36.5 -15t14.5 -38t-14.5 -38t-36.5 -15h-569q-25 0 -42.5 17t-17.5 42v957q0 25 17.5 42t42.5 17h553q22 0 36.5 -15t14.5 -38t-14.5 -38t-36.5 -15h-500v-371h450q22 0 37 -15t15 -38t-15 -38t-37 -15h-450v-386zM705 1522l6 -9q14 -11 14 -32
q0 -19 -12 -31l-207 -219q-10 -10 -27 -10q-15 0 -30 12q-13 13 -13 29q0 13 10 26l193 230q11 14 35 14q21 0 31 -10z" />
    <glyph glyph-name="uniF358.var.accented" unicode="&#xf358;`" 
d="M1149 1020v-973q0 -23 -16 -39t-39 -16q-25 0 -41.5 16t-16.5 39v850l-731 -868q-30 -37 -67 -37q-27 0 -41.5 15.5t-14.5 41.5v977q0 22 16.5 37.5t41.5 15.5q23 0 39 -15.5t16 -37.5v-848l727 862q34 39 68 39q27 0 43 -17t16 -42zM856 1522l6 -9q15 -12 15 -32
q0 -18 -13 -31l-207 -219q-10 -10 -26 -10t-31 12q-12 12 -12 29q0 13 10 26l193 230q11 14 34 14q21 0 31 -10z" />
    <glyph glyph-name="uniF35E.var.accented" unicode="&#xf35e;`" 
d="M666 -16q-164 0 -295.5 69.5t-207 196.5t-75.5 287q0 115 43.5 217.5t119 176t183.5 116.5t232 43q163 0 295 -70t207 -197t75 -286q0 -156 -75 -283t-207 -198.5t-295 -71.5zM666 983q-196 0 -327.5 -126.5t-131.5 -319.5q0 -190 132.5 -318.5t326.5 -128.5
q202 0 330 127t128 320q0 192 -131.5 319t-326.5 127zM860 1522l6 -9q15 -12 15 -32q0 -18 -13 -31l-206 -219q-10 -10 -27 -10q-16 0 -31 12q-12 12 -12 29q0 13 10 26l193 230q11 14 34 14q21 0 31 -10z" />
    <glyph glyph-name="uniF363.var.accented" unicode="&#xf363;`" horiz-adv-x="1079" 
d="M59 1022q0 22 17.5 39.5t42.5 17.5q32 0 55 -35l424 -659l317 657q19 37 54 37q22 0 36.5 -14.5t14.5 -34.5q0 -12 -6 -24l-371 -758q-63 -132 -127 -194t-151 -62q-54 0 -95 20q-30 17 -30 45q0 7 4 23q12 29 47 29q6 0 26 -5q21 -8 52 -8q26 0 48.5 11t41.5 34
t30.5 41.5t28.5 50.5l23 39l-471 719q-11 18 -11 31zM741 1522l7 -9q14 -11 14 -32q0 -19 -12 -31l-207 -219q-10 -10 -27 -10q-16 0 -31 12q-12 12 -12 29q0 13 10 26l193 230q11 14 35 14q20 0 30 -10z" />
    <glyph glyph-name="uniF36B.var.accented" unicode="&#xf36b;`" horiz-adv-x="1396" 
d="M438 -4q-82 0 -196 4q-25 0 -42.5 17t-17.5 42v967q0 22 16.5 37.5t41.5 15.5q23 0 39 -15.5t16 -37.5v-358q102 6 168 6q216 0 324 -86t108 -242q0 -166 -121.5 -258t-335.5 -92zM295 561v-455q98 -4 156 -4q159 0 242 61.5t83 180.5q0 108 -81.5 165.5t-237.5 57.5
q-67 0 -162 -6zM1102 1026q0 22 16.5 37.5t40.5 15.5q23 0 39 -15.5t16 -37.5v-979q0 -23 -16 -39t-39 -16q-25 0 -41 16t-16 39v979zM877 1522l6 -9q14 -11 14 -32q0 -19 -12 -31l-207 -219q-10 -10 -27 -10q-15 0 -30 12q-13 13 -13 29q0 13 10 26l193 230q11 14 35 14
q21 0 31 -10z" />
    <glyph glyph-name="uniF36D.var.accented" unicode="&#xf36d;`" horiz-adv-x="1122" 
d="M61 119q0 16 9 31q14 22 41 22q19 0 32 -8q138 -72 310 -72q199 0 325.5 109.5t141.5 294.5h-553q-22 0 -37 15t-15 38t15 38t37 15h551q-19 180 -144.5 280.5t-329.5 100.5q-89 0 -152 -12.5t-122 -46.5q-18 -11 -35 -11q-25 0 -41 25q-8 11 -8 27q0 28 20 41
q137 84 343 84q263 0 424 -149.5t161 -399.5q0 -246 -162.5 -400.5t-431.5 -154.5q-206 0 -356 90q-23 13 -23 43zM659 1522l7 -9q14 -11 14 -32q0 -19 -12 -31l-207 -219q-10 -10 -27 -10q-16 0 -31 12q-12 12 -12 29q0 13 10 26l193 230q11 14 35 14q20 0 30 -10z" />
    <glyph glyph-name="uniF36E.var.accented" unicode="&#xf36e;`" horiz-adv-x="1773" 
d="M573 496h-278v-449q0 -23 -16 -39t-39 -16q-25 0 -41.5 16t-16.5 39v979q0 22 16.5 37.5t41.5 15.5q23 0 39 -15.5t16 -37.5v-424h280q21 213 170.5 350.5t378.5 137.5q251 0 406.5 -153.5t155.5 -397.5q0 -241 -156 -397t-406 -156q-152 0 -274.5 64t-195 180t-81.5 266
zM1126 983q-192 0 -314 -125t-122 -319t122 -320.5t314 -126.5q198 0 319.5 126.5t121.5 320.5q0 195 -123 319.5t-318 124.5zM1001 1522l7 -9q14 -11 14 -32q0 -19 -12 -31l-207 -219q-10 -10 -27 -10q-16 0 -31 12q-12 12 -12 29q0 13 10 26l193 230q11 14 35 14
q20 0 30 -10z" />
    <glyph glyph-name="uniF36F.var.accented" unicode="&#xf36f;`" horiz-adv-x="1036" 
d="M565 1081q32 0 230 -6q25 0 42 -17t17 -42v-969q0 -23 -16 -39t-39 -16q-25 0 -41.5 16t-16.5 39v354h-262l-291 -372q-29 -37 -55 -37q-24 0 -37.5 14t-13.5 35q0 22 14 39l266 340q-101 37 -169 116.5t-68 188.5q0 155 112.5 255.5t327.5 100.5zM741 508v461
q-135 6 -188 6q-151 0 -230 -69t-79 -175q0 -84 67 -147t156 -76h274zM717 1522l6 -9q14 -11 14 -32q0 -19 -12 -31l-207 -219q-10 -10 -26 -10t-31 12q-12 12 -12 29q0 13 10 26l192 230q11 14 35 14q21 0 31 -10z" />
    <glyph glyph-name="uniF371.var.accented" unicode="&#xf371;`" horiz-adv-x="985" 
d="M307 1286q-28 0 -47.5 19t-19.5 49q0 27 19.5 45t47.5 18q24 0 44 -18t20 -45q0 -29 -19.5 -48.5t-44.5 -19.5zM709 1286q-28 0 -48 19t-20 49q0 27 20 45t48 18q25 0 44 -18t19 -45q0 -30 -18.5 -49t-44.5 -19zM295 106h516q22 0 36.5 -15t14.5 -38t-14.5 -38t-36.5 -15
h-569q-25 0 -42.5 17t-17.5 42v957q0 25 17.5 42t42.5 17h553q22 0 36.5 -15t14.5 -38t-14.5 -38t-36.5 -15h-500v-371h450q22 0 37 -15t15 -38t-15 -38t-37 -15h-450v-386zM416 1219q-17 0 -29 12q-14 11 -14 26q0 19 14 33l188 223q17 21 39 21q19 0 33 -14q17 -17 17 -35
q0 -24 -25 -49l-195 -205q-12 -12 -28 -12z" />
    <glyph glyph-name="afii10017.var.accented" unicode="&#x410;`" horiz-adv-x="1404" 
d="M1044 487h-688l-200 -467q-13 -30 -47 -30q-23 0 -38.5 15.5t-15.5 37.5q0 8 4 20l586 1338q18 41 57 41q42 0 60 -41l584 -1335q4 -12 4 -21q0 -22 -17 -38.5t-39 -16.5q-36 0 -49 30zM700 1286l-299 -692h598zM993 1737l2 -6q4 -6 4 -21q0 -29 -24 -41l-305 -143
q-8 -4 -15 -4q-19 0 -32 22q-5 5 -5 17q0 20 17 30l297 164q9 6 22 6q29 0 39 -24z" />
    <glyph glyph-name="afii10022.var.accented" unicode="&#x415;`" horiz-adv-x="1177" 
d="M340 106h649q22 0 36.5 -15.5t14.5 -39.5q0 -22 -14.5 -36.5t-36.5 -14.5h-702q-25 0 -42.5 17t-17.5 42v1315q0 25 17.5 42.5t42.5 17.5h682q22 0 36.5 -15.5t14.5 -40.5q0 -22 -14.5 -36.5t-36.5 -14.5h-629v-547h567q22 0 36.5 -15.5t14.5 -39.5q0 -22 -14.5 -36.5
t-36.5 -14.5h-567v-568zM885 1737l2 -6q4 -6 4 -21q0 -28 -25 -41l-305 -143q-8 -4 -14 -4q-20 0 -33 22q-4 4 -4 17q0 20 16 30l297 164q9 6 23 6q29 0 39 -24z" />
    <glyph glyph-name="afii10026.var.accented" unicode="&#x418;`" horiz-adv-x="1632" 
d="M1405 45q0 -23 -16 -39t-41 -16q-23 0 -39.5 16t-16.5 39v1200l-944 -1218q-28 -37 -67 -37q-26 0 -40 17t-14 42v1335q0 22 17 38t43 16q22 0 37.5 -16t15.5 -38v-1200l932 1202q13 16 22 25.5t24.5 18t31.5 8.5q26 0 40.5 -16.5t14.5 -43.5v-1333zM1069 1737l2 -6
q4 -6 4 -21q0 -29 -24 -41l-306 -143q-8 -4 -14 -4q-20 0 -33 22q-4 4 -4 17q0 20 17 30l297 164q9 6 22 6q29 0 39 -24z" />
    <glyph glyph-name="afii10032.var.accented" unicode="&#x41e;`" horiz-adv-x="1658" 
d="M111 717q0 206 92.5 374t257 264.5t368.5 96.5q151 0 284 -55t228.5 -151.5t151 -233.5t55.5 -295q0 -156 -55.5 -292.5t-151 -233.5t-228.5 -153t-284 -56t-284 55t-228.5 151.5t-150.5 233.5t-55 295zM229 717q0 -176 79 -320.5t216.5 -226.5t304.5 -82q172 0 310 82.5
t214.5 226.5t76.5 320q0 178 -79.5 322.5t-217 225.5t-304.5 81q-126 0 -237 -48t-191 -130.5t-126 -200t-46 -250.5zM1090 1737l2 -6q4 -6 4 -21q0 -28 -25 -41l-305 -143q-8 -4 -14 -4q-20 0 -33 22q-4 4 -4 17q0 20 16 30l297 164q9 6 23 6q29 0 39 -24z" />
    <glyph glyph-name="afii10037.var.accented" unicode="&#x423;`" horiz-adv-x="1323" 
d="M164 1409l575 -954l420 948q16 35 47 35q24 0 40 -15t16 -37q0 -10 -7 -24l-467 -1038q-77 -173 -153 -253.5t-178 -80.5q-70 0 -115 22q-29 14 -29 49q0 5 4 21q12 31 43 31q15 0 23 -4q38 -15 72 -15q64 0 112 51.5t90 139.5l27 57l-614 1014q-9 12 -9 28q0 21 15 37.5
t39 16.5q33 0 49 -29zM961 1737l2 -6q4 -6 4 -21q0 -28 -25 -41l-305 -143q-8 -4 -14 -4q-20 0 -33 22q-4 4 -4 17q0 20 16 30l297 164q9 6 23 6q29 0 39 -24z" />
    <glyph glyph-name="afii10045.var.accented" unicode="&#x42b;`" horiz-adv-x="1697" 
d="M1470 1384v-1339q0 -23 -16 -39t-39 -16q-25 0 -41 16t-16 39v1339q0 22 16.5 38t42.5 16q22 0 37.5 -16t15.5 -38zM340 760v-651q7 0 81 -3.5t122 -3.5q208 0 318 89t110 260q0 155 -107 238t-313 83q-108 0 -211 -12zM227 59v1325q0 22 17 38t41 16q23 0 39 -16t16 -38
v-516q161 11 217 11q265 0 399 -112t134 -314q0 -220 -148.5 -338.5t-411.5 -118.5q-99 0 -243 4q-25 0 -42.5 17t-17.5 42zM1081 1737l2 -6q4 -6 4 -21q0 -29 -24 -41l-305 -143q-8 -4 -15 -4q-19 0 -32 22q-4 4 -4 17q0 20 16 30l297 164q9 6 22 6q29 0 39 -24z" />
    <glyph glyph-name="afii10047.var.accented" unicode="&#x42d;`" horiz-adv-x="1376" 
d="M440 678q-22 0 -36.5 15.5t-14.5 39.5q0 22 14.5 36.5t36.5 14.5h711q-20 261 -188.5 411.5t-438.5 150.5q-206 0 -344 -91q-11 -8 -26 -8q-21 0 -41 23q-7 10 -7 24q0 28 17 39q81 57 194 88t232 31q324 0 520.5 -198t196.5 -531q0 -212 -88 -380t-253.5 -264.5
t-381.5 -96.5q-251 0 -437 120q-20 13 -20 41q0 14 10 31q16 23 43 23q15 0 27 -9q163 -100 375 -100q261 0 428.5 163t181.5 427h-711zM844 1737l2 -6q4 -6 4 -21q0 -28 -25 -41l-305 -143q-8 -4 -14 -4q-20 0 -33 22q-4 4 -4 17q0 20 16 30l297 164q9 6 23 6q29 0 39 -24z
" />
    <glyph glyph-name="afii10048.var.accented" unicode="&#x42e;`" horiz-adv-x="2203" 
d="M340 678v-633q0 -23 -16 -39t-39 -16q-25 0 -41.5 16t-16.5 39v1339q0 22 17 38t43 16q22 0 37.5 -16t15.5 -38v-600h365q11 142 66.5 265t144.5 212t213 140t266 51q201 0 360.5 -94t248.5 -262t89 -379q0 -209 -88.5 -376.5t-248.5 -263t-361 -95.5q-189 0 -344.5 88.5
t-247.5 247.5t-101 360h-362zM821 717q0 -132 43.5 -249t119.5 -200.5t183.5 -131.5t229.5 -48q172 0 304.5 83t202.5 225.5t70 320.5q0 179 -73 322.5t-205 225t-299 81.5q-165 0 -296.5 -81.5t-205.5 -225t-74 -322.5zM1397 1737l2 -6q4 -6 4 -21q0 -28 -25 -41l-305 -143
q-8 -4 -14 -4q-20 0 -33 22q-4 4 -4 17q0 20 16 30l297 164q9 6 23 6q29 0 39 -24z" />
    <glyph glyph-name="afii10049.var.accented" unicode="&#x42f;`" horiz-adv-x="1243" 
d="M1016 1374v-1329q0 -23 -16 -39t-39 -16q-25 0 -41.5 16t-16.5 39v516h-319l-398 -545q-20 -26 -53 -26q-21 0 -34 14.5t-13 34.5q0 16 8 27l379 512q-130 43 -220.5 150t-90.5 253q0 97 33 179t97.5 145.5t168.5 99t237 35.5q18 0 258 -6q25 0 42.5 -17.5t17.5 -42.5z
M903 668v659q-171 6 -225 6q-192 0 -294.5 -97.5t-102.5 -248.5q0 -122 86.5 -211.5t201.5 -107.5h334zM993 1737l2 -6q4 -6 4 -21q0 -29 -24 -41l-305 -143q-8 -4 -15 -4q-19 0 -32 22q-5 5 -5 17q0 20 17 30l297 164q9 6 22 6q29 0 39 -24z" />
    <glyph glyph-name="afii10023.var.accented" unicode="&#x401;`" horiz-adv-x="1177" 
d="M299 1647q0 29 18 47t45 18q24 0 42 -18.5t18 -46.5q0 -32 -18 -52t-42 -20q-27 0 -45 19.5t-18 52.5zM834 1647q0 28 18.5 46.5t44.5 18.5q24 0 42.5 -18.5t18.5 -46.5q0 -32 -18 -52t-43 -20q-26 0 -44.5 19.5t-18.5 52.5zM526 1522q-8 0 -14 6t-6 16q0 14 8 19
l207 192q17 17 37 17q10 0 20 -7q15 -9 15 -28t-15 -31l-229 -176q-11 -8 -23 -8zM340 106h649q22 0 36.5 -15.5t14.5 -39.5q0 -22 -14.5 -36.5t-36.5 -14.5h-702q-25 0 -42.5 17t-17.5 42v1315q0 25 17.5 42.5t42.5 17.5h682q22 0 36.5 -15.5t14.5 -40.5q0 -22 -14.5 -36.5
t-36.5 -14.5h-629v-547h567q22 0 36.5 -15.5t14.5 -39.5q0 -22 -14.5 -36.5t-36.5 -14.5h-567v-568z" />
    <glyph glyph-name="afii10065.var.accented" unicode="&#x430;`" horiz-adv-x="940" 
d="M90 262q0 134 98 210.5t252 76.5q152 0 250 -70q0 48 -1 79t-4.5 69.5t-10.5 62.5t-18.5 51t-29.5 43t-42.5 30t-58.5 20t-76 6q-114 0 -205 -45q-14 -7 -25 -7q-28 0 -43 27q-6 12 -6 23q0 25 25 39q123 63 260 63q185 0 263.5 -93t78.5 -276v-528q0 -22 -15 -36.5
t-39 -14.5q-22 0 -37.5 14.5t-15.5 36.5v98q-112 -153 -315 -153q-128 0 -206.5 74.5t-78.5 199.5zM690 233v154q-103 74 -239 74q-101 0 -174.5 -49.5t-73.5 -143.5q0 -84 58 -132t147 -48q56 0 102 12.5t79.5 35.5t55.5 45t45 52zM659 1438l9 -6q18 -15 18 -37
q0 -14 -10 -27l-184 -227q-12 -15 -33 -15q-15 0 -27 9q-14 11 -14 30q0 14 6 23l172 242q12 18 35 18q15 0 28 -10z" />
    <glyph glyph-name="afii10070.var.accented" unicode="&#x435;`" horiz-adv-x="1077" 
d="M872 526q-3 146 -88.5 230t-230.5 84q-149 0 -239.5 -87t-104.5 -227h663zM981 524q0 -31 -2 -45q0 -15 -14 -28t-29 -13h-721q6 -165 108 -260.5t269 -95.5q138 0 250 80q13 10 28 10q24 0 41 -20q11 -15 11 -29q0 -18 -15 -33q-65 -51 -151 -79.5t-170 -28.5
q-219 0 -354.5 131t-135.5 348q0 136 52.5 243t160 171.5t254.5 64.5q181 0 299.5 -115t118.5 -301zM725 1438l8 -6q19 -16 19 -37q0 -12 -11 -27l-184 -227q-12 -15 -33 -15q-14 0 -26 9q-15 12 -15 30q0 14 6 23l173 242q12 18 34 18q16 0 29 -10z" />
    <glyph glyph-name="afii10074.var.accented" unicode="&#x438;`" horiz-adv-x="1150" 
d="M989 43q0 -22 -15.5 -36.5t-39.5 -14.5q-22 0 -36.5 14.5t-14.5 36.5v719l-586 -725q-19 -24 -35 -34.5t-41 -10.5q-29 0 -44 16.5t-15 42.5v823q0 22 15.5 37t39.5 15q22 0 36.5 -15t14.5 -37v-720l586 725q37 47 78 47q26 0 41.5 -15t15.5 -41v-827zM737 1438l8 -6
q19 -16 19 -37q0 -14 -10 -27l-185 -227q-12 -15 -32 -15q-15 0 -27 9q-14 11 -14 30q0 14 6 23l172 242q12 18 35 18q15 0 28 -10z" />
    <glyph glyph-name="afii10080.var.accented" unicode="&#x43e;`" horiz-adv-x="1159" 
d="M96 461q0 208 135 343.5t349 135.5t348.5 -135t134.5 -344t-134.5 -344t-348.5 -135t-349 135.5t-135 343.5zM209 461q0 -166 105 -272.5t266 -106.5q163 0 266.5 106t103.5 273q0 166 -103.5 272.5t-266.5 106.5q-161 0 -266 -106.5t-105 -272.5zM748 1438l8 -6
q18 -15 18 -37q0 -14 -10 -27l-184 -227q-12 -15 -33 -15q-15 0 -27 9q-14 11 -14 30q0 14 6 23l172 242q12 18 35 18q16 0 29 -10z" />
    <glyph glyph-name="afii10085.var.accented" unicode="&#x443;`" horiz-adv-x="972" 
d="M461 270l65 -143q6 21 14.5 45t20 54.5t17.5 47.5l235 613q5 16 19.5 27.5t33.5 11.5q26 0 41 -15t15 -39q0 -12 -7 -26l-342 -846q-67 -164 -123 -253.5t-106.5 -123t-116.5 -33.5q-69 0 -125 29q-26 13 -26 41q0 11 6 23q12 24 43 24q8 0 20 -4q40 -14 68 -14
q70 0 125.5 61t114.5 201l20 49l-416 842q-6 15 -6 28q0 23 16 39.5t44 16.5q33 0 51 -37zM684 1438l8 -6q19 -16 19 -37q0 -12 -11 -27l-184 -227q-12 -15 -33 -15q-14 0 -26 9q-15 12 -15 30q0 13 7 23l172 242q12 18 34 18q16 0 29 -10z" />
    <glyph glyph-name="afii10093.var.accented" unicode="&#x44b;`" horiz-adv-x="1271" 
d="M268 612h160q365 0 365 -303q0 -64 -19 -117t-61 -97.5t-117.5 -69.5t-179.5 -25h-201q-22 0 -37.5 15.5t-15.5 37.5v821q0 22 15.5 37t39.5 15q22 0 36.5 -15t14.5 -37v-262zM268 100h140q147 0 209.5 52t62.5 155q0 101 -63.5 153t-206.5 52h-142v-412zM1110 874v-831
q0 -22 -15 -36.5t-38 -14.5t-38 14.5t-15 36.5v831q0 22 15.5 37t39.5 15q22 0 36.5 -15t14.5 -37zM780 1438l8 -6q19 -16 19 -37q0 -14 -10 -27l-185 -227q-12 -15 -32 -15q-15 0 -27 9q-14 11 -14 30q0 14 6 23l172 242q12 18 35 18q15 0 28 -10z" />
    <glyph glyph-name="afii10095.var.accented" unicode="&#x44d;`" horiz-adv-x="991" 
d="M137 152q14 0 29 -9q104 -61 260 -61q149 0 248.5 94t109.5 250h-444q-19 0 -31 13t-12 34q0 17 12 29t31 12h442q-15 155 -116.5 240.5t-257.5 85.5q-154 0 -263 -80q-13 -10 -28 -10q-24 0 -41 20q-8 11 -8 27q0 26 14 37q65 54 151.5 80t172.5 26q216 0 351.5 -130.5
t135.5 -348.5q0 -132 -59.5 -242t-165 -173.5t-234.5 -63.5q-109 0 -187.5 16.5t-146.5 64.5q-16 13 -16 37q0 18 10 31q15 21 43 21zM602 1438l8 -6q19 -16 19 -37q0 -12 -11 -27l-184 -227q-12 -15 -33 -15q-14 0 -26 9q-15 12 -15 30q0 13 7 23l172 242q12 18 34 18
q16 0 29 -10z" />
    <glyph glyph-name="afii10096.var.accented" unicode="&#x44e;`" horiz-adv-x="1536" 
d="M274 418v-373q0 -22 -16 -37.5t-39 -15.5q-24 0 -40.5 15.5t-16.5 37.5v827q0 22 16.5 38t42.5 16q22 0 37.5 -16t15.5 -38v-348h234q21 185 146 300.5t315 115.5q208 0 338.5 -135t130.5 -344q0 -208 -131.5 -343.5t-337.5 -135.5q-195 0 -322 122t-141 314h-232z
M625 461q0 -166 97.5 -269.5t250.5 -103.5q154 0 250 103.5t96 269.5q0 165 -95.5 269t-250.5 104q-154 0 -251 -103.5t-97 -269.5zM940 1438l8 -6q19 -16 19 -37q0 -12 -11 -27l-184 -227q-12 -15 -33 -15q-14 0 -26 9q-15 12 -15 30q0 13 7 23l172 242q12 18 34 18
q16 0 29 -10z" />
    <glyph glyph-name="afii10097.var.accented" unicode="&#x44f;`" horiz-adv-x="954" 
d="M119 74l233 295q-89 15 -155 85.5t-66 176.5q0 60 20 110t63.5 92t121 65.5t182.5 23.5h221q22 0 38 -16t16 -38v-825q0 -22 -15.5 -36.5t-40.5 -14.5q-22 0 -36.5 14.5t-14.5 36.5v301h-229l-242 -315q-27 -37 -57 -37q-23 0 -36 14t-13 33q0 23 10 35zM686 444v377
h-186q-132 0 -194 -53t-62 -139q0 -82 63 -133.5t135 -51.5h244zM725 1438l8 -6q19 -16 19 -37q0 -12 -11 -27l-184 -227q-12 -15 -33 -15q-14 0 -26 9q-15 12 -15 30q0 14 6 23l173 242q12 18 34 18q16 0 29 -10z" />
    <glyph glyph-name="afii10071.var.accented" unicode="&#x451;`" horiz-adv-x="1077" 
d="M238 1257q0 26 17 42t42 16q23 0 39 -16.5t16 -41.5q0 -28 -16 -44.5t-39 -16.5q-26 0 -42.5 16.5t-16.5 44.5zM737 1257q0 25 18 41.5t42 16.5q23 0 39 -16.5t16 -41.5q0 -28 -16 -44.5t-39 -16.5q-25 0 -42.5 16.5t-17.5 44.5zM442 1171l179 250q14 17 32 17
q16 0 27 -8q18 -12 18 -33q0 -14 -10 -27l-192 -235q-10 -13 -23 -13t-24 8q-13 6 -13 25q0 10 6 16zM872 526q-3 146 -88.5 230t-230.5 84q-149 0 -239.5 -87t-104.5 -227h663zM981 524q0 -31 -2 -45q0 -15 -14 -28t-29 -13h-721q6 -165 108 -260.5t269 -95.5q138 0 250 80
q13 10 28 10q24 0 41 -20q11 -15 11 -29q0 -18 -15 -33q-65 -51 -151 -79.5t-170 -28.5q-219 0 -354.5 131t-135.5 348q0 136 52.5 243t160 171.5t254.5 64.5q181 0 299.5 -115t118.5 -301z" />
    <glyph glyph-name="fi" unicode="fi" horiz-adv-x="995" 
d="M297 43q0 -22 -15.5 -36.5t-39.5 -14.5q-22 0 -37 14.5t-15 36.5v1014q0 197 96.5 296t266.5 99q121 0 213 -57q16 -10 16 -33q0 -16 -8 -27q-14 -20 -39 -20q-14 0 -26 6q-76 31 -140 31q-272 0 -272 -314v-116h494q22 0 37.5 -16t15.5 -38v-825q0 -22 -15.5 -36.5
t-40.5 -14.5q-22 0 -36.5 14.5t-14.5 36.5v778h-440v-778z" />
    <glyph glyph-name="fl" unicode="fl" horiz-adv-x="1132" 
d="M1077 119q20 0 35 -21q8 -16 8 -22q0 -27 -20 -37q-85 -51 -180 -51q-102 0 -150.5 61.5t-48.5 188.5v1052q-85 62 -184 62q-120 0 -180 -72.5t-60 -226.5v-131h199q19 0 33 -15t14 -37q0 -20 -14 -34.5t-33 -14.5h-199v-778q0 -22 -15.5 -36.5t-39.5 -14.5
q-22 0 -37 14.5t-15 36.5v1028q0 190 81.5 285.5t236.5 95.5q77 0 142.5 -25t148.5 -86q28 -21 28 -57v-989q0 -107 30.5 -157t100.5 -50q39 0 91 23q20 8 28 8z" />
    <glyph glyph-name=".notdef" horiz-adv-x="481" 
 />
    <glyph glyph-name=".null" horiz-adv-x="0" 
 />
    <glyph glyph-name="nonmarkingreturn" horiz-adv-x="682" 
 />
    <glyph glyph-name="space" unicode=" " horiz-adv-x="481" 
 />
    <glyph glyph-name="exclam" unicode="!" horiz-adv-x="632" 
d="M373 1384v-933q0 -23 -16.5 -39.5t-39.5 -16.5q-25 0 -41 16.5t-16 39.5v933q0 22 16.5 38t42.5 16q22 0 38 -16t16 -38zM238 72q0 29 23 51t58 22q31 0 53.5 -22.5t22.5 -50.5q0 -33 -22 -57.5t-54 -24.5q-36 0 -58.5 24.5t-22.5 57.5z" />
    <glyph glyph-name="quotedbl" unicode="&#x22;" horiz-adv-x="821" 
d="M573 1008h-16q-19 0 -32 13t-13 32v336q0 19 13 32t32 13h16q19 0 32 -13t13 -32v-336q0 -19 -13 -32t-32 -13zM264 1008h-16q-19 0 -32 13t-13 32v336q0 19 13 32t32 13h16q19 0 32 -13t13 -32v-336q0 -19 -13 -32t-32 -13z" />
    <glyph glyph-name="numbersign" unicode="#" horiz-adv-x="1409" 
d="M905 424l-149 -401q-10 -29 -41 -29q-11 0 -17 2q-30 13 -30 43q0 10 2 14l137 371h-430l-150 -401q-5 -12 -16 -20.5t-23 -8.5q-6 0 -18 4q-29 10 -29 41q0 10 2 14l138 371h-154q-19 0 -32 14t-13 35q0 19 13 32t32 13h188l148 397h-336q-19 0 -32 14t-13 36
q0 19 13 32t32 13h371l151 401q5 12 16 20.5t23 8.5q7 0 19 -4q28 -9 28 -41q0 -11 -2 -15l-139 -370h430l152 403q10 27 41 27q10 0 16 -2q29 -10 29 -39q0 -11 -2 -15l-140 -374h162q19 0 32 -14t13 -35q0 -19 -13 -32.5t-32 -13.5h-197l-145 -397h342q19 0 32 -14t13 -35
q0 -19 -13 -32t-32 -13h-377zM412 518h430l147 397h-430z" />
    <glyph glyph-name="dollar" unicode="$" horiz-adv-x="1161" 
d="M139 195q0 21 15 36q17 17 36 17q22 0 41 -19q64 -67 157 -104t183 -37q140 0 236 71t96 197q0 65 -25.5 116t-68 86t-98.5 63t-117.5 52t-122.5 49t-117 58t-98.5 74t-68 102t-25.5 138q0 143 100 242t273 114v117q0 22 15.5 36.5t39.5 14.5q22 0 36.5 -14.5t14.5 -36.5
v-117q180 -15 297 -109q23 -19 23 -47q0 -13 -11 -28q-15 -21 -41 -21q-20 0 -35 12q-115 89 -282 89q-145 0 -228 -68.5t-83 -183.5q0 -64 25.5 -114t68 -83.5t98.5 -60.5t117.5 -50t122.5 -47.5t117 -57.5t98.5 -75t68 -105t25.5 -143q0 -154 -106.5 -254t-274.5 -118
v-140q0 -22 -15.5 -36.5t-39.5 -14.5q-22 0 -36.5 14.5t-14.5 36.5v138q-116 8 -222.5 54.5t-162.5 121.5q-11 15 -11 35z" />
    <glyph glyph-name="percent" unicode="%" horiz-adv-x="1740" 
d="M342 2l-2 4q-16 10 -16 29q0 8 8 20l1022 1368q10 13 28 13q15 0 27 -9q14 -8 14 -28q0 -12 -6 -21l-1022 -1368q-14 -14 -30 -14q-14 0 -23 6zM457 776q-152 0 -252.5 93.5t-100.5 240.5q0 146 100.5 239t252.5 93t252 -93t100 -239q0 -147 -100 -240.5t-252 -93.5z
M457 1354q-103 0 -177.5 -68.5t-74.5 -175.5q0 -109 75 -177.5t177 -68.5q105 0 178.5 68.5t73.5 177.5q0 107 -74.5 175.5t-177.5 68.5zM1284 -8q-152 0 -252 93.5t-100 240.5q0 146 100 238.5t252 92.5t252 -92.5t100 -238.5q0 -147 -100 -240.5t-252 -93.5zM1284 569
q-103 0 -177.5 -68t-74.5 -175q0 -109 75 -177.5t177 -68.5q105 0 178.5 68.5t73.5 177.5q0 107 -74.5 175t-177.5 68z" />
    <glyph glyph-name="ampersand" unicode="&#x26;" horiz-adv-x="1484" 
d="M1137 295l178 -223q10 -13 10 -33q0 -26 -18 -41q-13 -10 -33 -10q-26 0 -43 20l-168 211q-166 -237 -457 -237q-193 0 -319.5 114.5t-126.5 292.5q0 86 30.5 163.5t86 141.5t111.5 110.5t128 94.5q-92 22 -150.5 95t-58.5 173q0 122 87.5 203.5t209.5 81.5t209.5 -81.5
t87.5 -203.5q0 -103 -68.5 -181t-166.5 -89l405 -516q124 211 133 491q2 21 18 35.5t40 14.5q20 0 34.5 -15.5t14.5 -34.5q-8 -160 -52.5 -310t-121.5 -267zM997 303l-413 535q-67 -49 -115.5 -92t-95 -97t-70.5 -114.5t-24 -124.5q0 -141 97 -231.5t232 -90.5
q246 0 389 215zM408 1167q0 -80 57.5 -137t138.5 -57q82 0 139.5 57t57.5 137q0 81 -58.5 139t-138.5 58q-82 0 -139 -57t-57 -140z" />
    <glyph glyph-name="quotesingle" unicode="'" horiz-adv-x="512" 
d="M264 1008h-16q-19 0 -32 13t-13 32v336q0 19 13 32t32 13h16q19 0 32 -13t13 -32v-336q0 -19 -13 -32t-32 -13z" />
    <glyph glyph-name="parenleft" unicode="(" horiz-adv-x="561" 
d="M528 1249q-183 -181 -261.5 -371.5t-78.5 -416.5q0 -224 83 -426.5t253 -362.5q15 -12 15 -32q0 -17 -13 -33q-15 -15 -32 -15q-16 0 -29 13q-383 350 -383 856q0 489 385 854q13 10 27 10q18 0 34 -16q13 -13 13 -29q0 -18 -13 -31z" />
    <glyph glyph-name="parenright" unicode=")" horiz-adv-x="561" 
d="M479 461q0 -506 -383 -856q-13 -13 -28 -13q-19 0 -35 19q-10 12 -10 29q0 21 14 32q170 160 253 362.5t83 426.5q0 226 -78.5 416.5t-261.5 371.5q-13 13 -13 29q0 20 15 35q12 12 31 12q15 0 28 -10q385 -365 385 -854z" />
    <glyph glyph-name="asterisk" unicode="*" horiz-adv-x="942" 
d="M477 1290q-33 0 -56.5 23.5t-23.5 54.5q0 35 23 59.5t57 24.5q33 0 56.5 -24.5t23.5 -59.5q0 -31 -24 -54.5t-56 -23.5zM475 770q-35 0 -59.5 23t-24.5 57q0 33 24.5 58.5t59.5 25.5q30 0 53 -25.5t23 -58.5t-22.5 -56.5t-53.5 -23.5zM692 1155q-35 0 -59.5 23t-24.5 55
q0 35 24.5 59.5t59.5 24.5q33 0 56.5 -24.5t23.5 -59.5q0 -32 -24 -55t-56 -23zM692 905q-35 0 -59.5 23t-24.5 57q0 33 24.5 57.5t59.5 24.5q32 0 56 -25t24 -57q0 -33 -23.5 -56.5t-56.5 -23.5zM254 905q-36 0 -60 23t-24 57q0 33 24 57.5t60 24.5q31 0 54.5 -25t23.5 -57
q0 -33 -23.5 -56.5t-54.5 -23.5zM254 1155q-36 0 -60 22.5t-24 55.5q0 36 24 60t60 24q31 0 54.5 -24.5t23.5 -59.5q0 -32 -23.5 -55t-54.5 -23z" />
    <glyph glyph-name="plus" unicode="+" horiz-adv-x="1204" 
d="M551 690h-361q-19 0 -32 14t-13 35q0 19 13 32t32 13h361v363q0 19 13 32t32 13h10q19 0 32 -13t13 -32v-363h363q19 0 32 -14t13 -35q0 -19 -13 -32t-32 -13h-363v-366q0 -19 -13 -32t-32 -13h-10q-19 0 -32 13t-13 32v366z" />
    <glyph glyph-name="comma" unicode="," horiz-adv-x="401" 
d="M199 20q-10 -20 -37 -20q-24 0 -41 19.5t-17 48.5q0 33 22.5 54t61.5 21q51 0 86 -48t35 -128q0 -92 -47.5 -159.5t-124.5 -98.5q-4 -2 -12 -2q-19 0 -29 19q-4 8 -4 14q0 15 17 22q41 21 72 60t38 92q0 5 1 14.5t1 14.5q0 51 -22 77z" />
    <glyph glyph-name="hyphen" unicode="-" horiz-adv-x="817" 
d="M598 506h-379q-19 0 -32 13t-13 32v10q0 19 13 32t32 13h379q19 0 32 -13t13 -32v-10q0 -19 -13 -32t-32 -13z" />
    <glyph glyph-name="period" unicode="." horiz-adv-x="376" 
d="M266 78q0 -33 -21 -57.5t-52 -24.5q-36 0 -59 24.5t-23 57.5q0 29 23.5 51.5t58.5 22.5q31 0 52 -22.5t21 -51.5z" />
    <glyph glyph-name="slash" unicode="/" horiz-adv-x="665" 
d="M-8 -410h-4q-29 14 -29 41q0 5 4 17l658 1763q11 29 38 29q7 0 19 -4q29 -10 29 -41q0 -11 -2 -15l-658 -1765q-5 -12 -16 -20.5t-23 -8.5q-4 0 -16 4z" />
    <glyph glyph-name="zero" unicode="0" horiz-adv-x="1171" 
d="M590 -16q-155 0 -259.5 96t-151 257t-46.5 380q0 163 26.5 294t80 230.5t141.5 154t205 54.5t205 -54.5t141.5 -154t79.5 -230.5t26 -294q0 -164 -25.5 -295t-78.5 -230.5t-140 -153.5t-204 -54zM586 1350q-340 0 -340 -633q0 -147 19.5 -261t60.5 -198.5t107.5 -129
t156.5 -44.5q91 0 156.5 44t104.5 129t57 198t18 262q0 633 -340 633z" />
    <glyph glyph-name="one" unicode="1" horiz-adv-x="743" 
d="M367 43v1247l-195 -155q-18 -11 -33 -11q-23 0 -39 19q-12 15 -12 33q0 21 18 36l265 211q35 29 63 29q39 0 39 -41v-1368q0 -22 -15 -36.5t-38 -14.5t-38 14.5t-15 36.5z" />
    <glyph glyph-name="two" unicode="2" horiz-adv-x="1069" 
d="M229 100h668q19 0 33 -14.5t14 -34.5q0 -21 -14 -36t-33 -15h-764q-26 0 -41.5 12t-15.5 35q0 6 0.5 11t3 10.5t4 8t6.5 8.5t7 8l9.5 9.5l10.5 10.5q57 57 86 86.5t91 94t98.5 106t92.5 108.5t90.5 116.5t75.5 114.5t63.5 118t38 111t15.5 109q0 111 -71.5 188.5
t-202.5 77.5q-94 0 -168 -46.5t-107 -149.5q-14 -47 -53 -47q-2 0 -6 1t-6 1q-41 7 -41 51q0 12 2 18q34 126 145 202.5t240 76.5q95 0 170 -31t120 -82.5t68 -112.5t23 -126q0 -82 -31 -176t-76 -176.5t-113 -174.5t-124 -157t-128 -139t-105 -105.5t-75 -69.5z" />
    <glyph glyph-name="three" unicode="3" horiz-adv-x="1075" 
d="M125 1245q50 94 150 150.5t221 56.5q175 0 276.5 -96t101.5 -264q0 -115 -59.5 -209.5t-167.5 -139.5q131 -23 207 -123t76 -229q0 -186 -122.5 -297.5t-313.5 -111.5q-128 0 -238 57t-170 160q-8 16 -8 28q0 31 24 43q12 6 25 6q32 0 49 -30q99 -158 318 -158
q148 0 235.5 86.5t87.5 220.5q0 126 -88 205.5t-223 79.5h-72q-22 0 -36.5 15t-14.5 38t14.5 38t36.5 15h60q105 0 186.5 84.5t81.5 206.5q0 128 -74 198.5t-201 70.5q-103 0 -167 -35.5t-107 -108.5q-16 -28 -47 -28q-15 0 -23 4q-24 9 -24 43q0 12 6 24z" />
    <glyph glyph-name="four" unicode="4" horiz-adv-x="1095" 
d="M975 379h-160v-328q0 -22 -15 -36.5t-38 -14.5t-38 14.5t-15 36.5v328h-631q-45 0 -45 39q0 17 28 63l588 922q21 31 51 31q22 0 37 -15t15 -35q0 -13 -9 -28l-557 -871h523v385q0 22 15 37t38 15t38 -15t15 -37v-385h160q22 0 36.5 -15t14.5 -38t-14.5 -38t-36.5 -15z
" />
    <glyph glyph-name="five" unicode="5" horiz-adv-x="1044" 
d="M141 254q24 0 39 -21q68 -78 142 -111.5t163 -33.5q141 0 235.5 99.5t94.5 252.5q0 148 -106 245t-277 97q-82 0 -160 -20q-2 0 -5 -1t-5 -1q-17 0 -28 11t-11 30v6l72 567q3 26 22.5 43t44.5 17h512q22 0 37 -15.5t15 -38.5t-15 -38t-37 -15h-479l-61 -467q67 19 141 19
q199 0 326 -119.5t127 -315.5q0 -140 -62 -247t-162.5 -161t-220.5 -54q-119 0 -216.5 41t-174.5 145q-10 13 -10 29q0 29 22 45q18 12 37 12z" />
    <glyph glyph-name="six" unicode="6" horiz-adv-x="1132" 
d="M797 1358q-98 -31 -187.5 -90.5t-167.5 -146.5t-133.5 -210t-75.5 -266q46 103 142 168.5t231 65.5q185 0 300.5 -123.5t115.5 -319.5q0 -98 -36 -183.5t-95 -144.5t-136 -92.5t-159 -33.5q-116 0 -209.5 42.5t-153 115.5t-91 167t-31.5 201q0 146 38 281.5t101.5 240
t147 189.5t175 140t185.5 83q16 4 28 4q32 0 43 -25q5 -15 5 -18q0 -35 -37 -45zM573 778q-72 0 -134 -24.5t-104.5 -65.5t-70.5 -86.5t-41 -93.5q0 -83 23.5 -157.5t68 -133.5t116.5 -94t163 -35q131 0 223 100.5t92 239.5q0 152 -88 251t-248 99z" />
    <glyph glyph-name="seven" unicode="7" horiz-adv-x="974" 
d="M885 1337l-523 -1312q-15 -33 -53 -33q-23 0 -38 15.5t-15 37.5q0 9 4 21l506 1261h-645q-22 0 -36.5 15t-14.5 38t14.5 38.5t36.5 15.5h745q18 0 28.5 -8.5t10.5 -22.5q0 -11 -20 -66z" />
    <glyph glyph-name="eight" unicode="8" horiz-adv-x="1210" 
d="M573 791h64q102 0 184 80.5t82 195.5q0 128 -89.5 203.5t-211.5 75.5t-208.5 -76.5t-86.5 -202.5q0 -115 82 -195.5t184 -80.5zM635 684h-53q-133 0 -228.5 -84.5t-95.5 -210.5q0 -130 100.5 -215.5t245.5 -85.5q151 0 249.5 82.5t98.5 218.5q0 135 -91.5 215t-225.5 80z
M195 1079q0 165 118 269t291 104t292.5 -104t119.5 -269q0 -108 -67 -203t-181 -137q129 -21 213 -120t84 -240q0 -122 -65 -214t-168 -137.5t-226 -45.5t-226.5 45.5t-169 135.5t-65.5 208q0 130 80 231t211 135q-103 32 -172 130t-69 212z" />
    <glyph glyph-name="nine" unicode="9" horiz-adv-x="1110" 
d="M332 80q241 59 386 239t171 463q-43 -99 -138 -159t-227 -60q-188 0 -307 126.5t-119 311.5q0 97 38.5 183t101.5 143.5t142.5 91t160.5 33.5q116 0 207.5 -41.5t148 -115t86 -168.5t29.5 -207q0 -189 -50.5 -352.5t-140 -282t-210 -196.5t-261.5 -107q-2 0 -5 -1t-5 -1
q-16 0 -30 11.5t-17 28.5v9q0 42 39 51zM551 664q94 0 170.5 40t118.5 96t59 120q0 84 -21 158.5t-62.5 135.5t-111 96.5t-159.5 35.5q-133 0 -233.5 -99.5t-100.5 -236.5q0 -92 37.5 -169t116.5 -127t186 -50z" />
    <glyph glyph-name="colon" unicode=":" horiz-adv-x="659" 
d="M408 866q0 -33 -21 -57.5t-53 -24.5q-36 0 -59 24.5t-23 57.5q0 29 23.5 51.5t58.5 22.5q31 0 52.5 -22.5t21.5 -51.5zM408 78q0 -33 -21 -57.5t-53 -24.5q-36 0 -59 24.5t-23 57.5q0 29 23.5 51.5t58.5 22.5q31 0 52.5 -22.5t21.5 -51.5z" />
    <glyph glyph-name="semicolon" unicode=";" horiz-adv-x="655" 
d="M414 866q0 -33 -21 -57.5t-53 -24.5q-36 0 -59 24.5t-23 57.5q0 29 23.5 51.5t58.5 22.5q31 0 52.5 -22.5t21.5 -51.5zM336 20q-10 -20 -37 -20q-24 0 -40.5 19.5t-16.5 48.5q0 33 22.5 54t61.5 21q51 0 85.5 -48t34.5 -128q0 -92 -47.5 -159.5t-124.5 -98.5
q-4 -2 -12 -2q-20 0 -29 19q-4 8 -4 14q0 15 17 22q41 21 72 60t38 92q0 5 1 14.5t1 14.5q0 51 -22 77z" />
    <glyph glyph-name="less" unicode="&#x3c;" horiz-adv-x="1173" 
d="M930 219l-783 490q-16 10 -16 34q0 21 19 31l782 486q9 6 22 6q28 0 43 -27q7 -14 7 -22q0 -30 -23 -43l-702 -433l702 -438q20 -13 20 -39q0 -18 -8 -31q-16 -22 -41 -22q-10 0 -22 8z" />
    <glyph glyph-name="equal" unicode="=" horiz-adv-x="1204" 
d="M1014 866h-824q-19 0 -32 14t-13 35q0 19 13 32.5t32 13.5h824q19 0 32 -14t13 -36q0 -19 -13 -32t-32 -13zM1014 514h-824q-19 0 -32 14t-13 35q0 19 13 32t32 13h824q19 0 32 -14t13 -35q0 -19 -13 -32t-32 -13z" />
    <glyph glyph-name="greater" unicode="&#x3e;" horiz-adv-x="1173" 
d="M1042 743v-4q0 -20 -16 -30l-782 -490q-9 -6 -23 -6q-28 0 -43 27q-8 12 -8 24q0 26 23 39l702 438l-702 433q-21 14 -21 38q0 18 8 31q13 23 39 23q14 0 23 -6l782 -486q18 -9 18 -31z" />
    <glyph glyph-name="question" unicode="?" horiz-adv-x="933" 
d="M440 455q0 -66 -45 -66q-24 0 -36.5 16.5t-14.5 32t-2 39.5q0 61 22 112t57.5 86.5t78 67.5t85.5 64.5t78.5 69t57.5 89t22 115.5q0 113 -84 189t-213 76q-170 0 -286 -132q-11 -14 -35 -14q-21 0 -35 14q-12 12 -12 31q0 21 14 39q60 76 156.5 122t206.5 46
q185 0 293 -100.5t108 -247.5q0 -77 -23 -140t-59.5 -105.5t-81 -79t-89 -69t-81 -66t-59.5 -80.5t-23 -103v-6zM317 72q0 29 22.5 51t57.5 22q31 0 53.5 -22.5t22.5 -50.5q0 -33 -22 -57.5t-54 -24.5q-36 0 -58 24t-22 58z" />
    <glyph glyph-name="at" unicode="@" horiz-adv-x="2076" 
d="M145 461q0 184 69 348.5t188.5 284.5t290.5 190t366 70q185 0 346.5 -59.5t277 -164t182 -255t66.5 -324.5q0 -83 -18 -162.5t-56.5 -150t-92.5 -123.5t-131.5 -84t-168.5 -31h-69q-25 0 -42.5 17t-17.5 42v60q-55 -60 -138.5 -98.5t-172.5 -38.5q-208 0 -333.5 130.5
t-125.5 348.5q0 202 146 340.5t364 138.5q190 0 330 -80q37 -18 37 -63v-697h45q105 0 184.5 62.5t119.5 163.5t40 223q0 149 -57.5 279.5t-158.5 224t-245 147t-311 53.5q-172 0 -323 -60t-258.5 -164.5t-169.5 -251.5t-62 -316q0 -165 62 -311.5t169.5 -252.5t259 -167.5
t322.5 -61.5q91 0 164 13q6 2 18 2q46 0 49 -43v-5q0 -41 -47 -51q-79 -16 -184 -16q-195 0 -365.5 69t-290.5 188t-189 284t-69 352zM1335 223v549q-119 68 -262 68q-169 0 -282 -111t-113 -272q0 -173 99 -274t263 -101q86 0 167.5 42.5t127.5 98.5z" />
    <glyph glyph-name="A" unicode="A" horiz-adv-x="1404" 
d="M1044 487h-688l-200 -467q-13 -30 -47 -30q-23 0 -38.5 15.5t-15.5 37.5q0 8 4 20l586 1338q18 41 57 41q42 0 60 -41l584 -1335q4 -12 4 -21q0 -22 -17 -38.5t-39 -16.5q-36 0 -49 30zM700 1286l-299 -692h598z" />
    <glyph glyph-name="B" unicode="B" horiz-adv-x="1263" 
d="M1057 1085q0 -135 -78.5 -221t-200.5 -116q158 -21 246 -110t88 -237q0 -105 -38.5 -184.5t-108 -127.5t-160.5 -71.5t-203 -23.5q-180 0 -315 6q-25 0 -42.5 18t-17.5 43v1311q0 25 17.5 42.5t42.5 19.5q264 6 317 6q124 0 214 -27t141 -76.5t74.5 -111.5t23.5 -140z
M340 682v-573q256 -9 266 -9q188 0 290.5 77.5t102.5 230.5q0 132 -100.5 203t-286.5 71h-272zM340 782h278q138 0 232 76.5t94 204.5q0 270 -344 270q-89 0 -260 -6v-545z" />
    <glyph glyph-name="C" unicode="C" horiz-adv-x="1329" 
d="M1155 1260q-137 86 -340 86q-171 0 -305 -81.5t-207.5 -224.5t-73.5 -323q0 -281 169.5 -455t439.5 -174q194 0 344 105q17 10 30 10q21 0 39 -21q11 -15 11 -28q0 -24 -19 -39q-77 -60 -189 -96.5t-225 -36.5q-158 0 -291.5 52.5t-227.5 147.5t-146.5 232.5t-52.5 302.5
q0 154 49.5 288.5t139 233.5t222 156t291.5 57q245 0 395 -106q23 -16 23 -43q0 -11 -8 -27q-16 -25 -43 -25q-7 0 -25 9z" />
    <glyph glyph-name="D" unicode="D" horiz-adv-x="1509" 
d="M287 1434q306 6 307 6q167 0 303 -37.5t228.5 -102.5t155 -155t90.5 -191.5t28 -216.5q0 -124 -32.5 -234.5t-99.5 -203.5t-163.5 -160.5t-231 -105t-294.5 -37.5q-73 0 -291 4q-25 0 -42.5 17t-17.5 42v1315q0 25 17.5 42.5t42.5 17.5zM340 1327v-1221q234 -4 242 -4
q169 0 303 48.5t219.5 135t130.5 201t45 250.5q0 127 -41.5 233.5t-124 188.5t-216.5 128t-308 46q-47 0 -88.5 -1t-86.5 -2.5z" />
    <glyph glyph-name="E" unicode="E" horiz-adv-x="1177" 
d="M340 106h649q22 0 36.5 -15.5t14.5 -39.5q0 -22 -14.5 -36.5t-36.5 -14.5h-702q-25 0 -42.5 17t-17.5 42v1315q0 25 17.5 42.5t42.5 17.5h682q22 0 36.5 -15.5t14.5 -40.5q0 -22 -14.5 -36.5t-36.5 -14.5h-629v-547h567q22 0 36.5 -15.5t14.5 -39.5q0 -22 -14.5 -36.5
t-36.5 -14.5h-567v-568z" />
    <glyph glyph-name="F" unicode="F" horiz-adv-x="1110" 
d="M340 631v-586q0 -23 -16 -39t-39 -16q-25 0 -41.5 16t-16.5 39v1329q0 25 17.5 42.5t42.5 17.5h690q22 0 36.5 -15.5t14.5 -40.5q0 -22 -14.5 -36.5t-36.5 -14.5h-637v-590h575q22 0 37 -15.5t15 -39.5q0 -22 -15 -36.5t-37 -14.5h-575z" />
    <glyph glyph-name="G" unicode="G" horiz-adv-x="1488" 
d="M229 717q0 -284 164.5 -456.5t431.5 -172.5q118 0 238 41.5t188 108.5v350h-368q-22 0 -37 15.5t-15 39.5q0 22 15 36.5t37 14.5h415q25 0 42.5 -17t17.5 -42v-426q0 -32 -25 -53q-95 -82 -237.5 -128t-274.5 -46q-322 0 -516 200.5t-194 534.5q0 206 85.5 372.5
t245.5 264.5t365 98q243 0 403 -106q25 -18 25 -46q0 -6 -10 -26q-16 -25 -41 -25q-9 0 -25 8q-136 89 -340 89q-173 0 -308 -80.5t-208.5 -223.5t-73.5 -325z" />
    <glyph glyph-name="H" unicode="H" horiz-adv-x="1574" 
d="M1348 1384v-1339q0 -23 -16.5 -39t-39.5 -16q-25 0 -41 16t-16 39v633h-895v-633q0 -23 -16 -39t-41 -16q-23 0 -39.5 16t-16.5 39v1339q0 22 17 38t43 16q22 0 37.5 -16t15.5 -38v-600h895v600q0 22 16.5 38t42.5 16q22 0 38 -16t16 -38z" />
    <glyph glyph-name="I" unicode="I" horiz-adv-x="665" 
d="M389 1384v-1339q0 -23 -16 -39t-39 -16q-25 0 -41.5 16t-16.5 39v1339q0 22 17 38t43 16q22 0 37.5 -16t15.5 -38z" />
    <glyph glyph-name="J" unicode="J" horiz-adv-x="733" 
d="M393 332v1052q0 22 17 38t41 16q23 0 39 -16t16 -38v-1069q0 -161 -67 -247t-220 -86q-94 0 -158 38q-26 15 -26 48q0 14 4 22q13 29 43 29q10 0 22 -6q60 -25 101 -25q56 0 94 18t58 53t28 76.5t8 96.5z" />
    <glyph glyph-name="K" unicode="K" horiz-adv-x="1284" 
d="M1087 14l-638 691q-17 20 -17 43t17 43l614 624q23 23 49 23q20 0 32.5 -14t12.5 -33q0 -23 -18 -41l-598 -594l628 -676q15 -18 15 -39t-14 -36t-35 -15q-24 0 -48 24zM340 1384v-1339q0 -23 -16 -39t-39 -16q-25 0 -41.5 16t-16.5 39v1339q0 22 17 38t43 16
q22 0 37.5 -16t15.5 -38z" />
    <glyph glyph-name="L" unicode="L" horiz-adv-x="1130" 
d="M340 106h704q22 0 37 -15.5t15 -39.5q0 -22 -15 -36.5t-37 -14.5h-757q-25 0 -42.5 17t-17.5 42v1325q0 22 17 38t43 16q22 0 37.5 -16t15.5 -38v-1278z" />
    <glyph glyph-name="M" unicode="M" horiz-adv-x="1810" 
d="M340 1225v-1180q0 -23 -16 -39t-39 -16q-25 0 -41.5 16t-16.5 39v1333q0 24 16.5 42t39.5 18q7 0 13.5 -1t13 -5t10.5 -6.5t10.5 -10t9 -10t10.5 -13t10 -12.5l560 -733l532 729q44 62 80 62q21 0 36 -15.5t15 -40.5v-1337q0 -23 -16 -39t-41 -16q-23 0 -39.5 16
t-16.5 39v1180l-518 -699q-15 -18 -37 -18q-19 0 -32 16z" />
    <glyph glyph-name="N" unicode="N" horiz-adv-x="1632" 
d="M1298 197v1189q0 22 16 37t40 15q22 0 36.5 -15t14.5 -37v-1343q0 -53 -49 -53q-34 0 -62 37l-960 1210v-1196q0 -22 -15.5 -36.5t-39.5 -14.5q-22 0 -37 14.5t-15 36.5v1345q0 23 15.5 37.5t38.5 14.5q32 0 63 -39z" />
    <glyph glyph-name="O" unicode="O" horiz-adv-x="1658" 
d="M111 717q0 206 92.5 374t257 264.5t368.5 96.5q151 0 284 -55t228.5 -151.5t151 -233.5t55.5 -295q0 -156 -55.5 -292.5t-151 -233.5t-228.5 -153t-284 -56t-284 55t-228.5 151.5t-150.5 233.5t-55 295zM229 717q0 -176 79 -320.5t216.5 -226.5t304.5 -82q172 0 310 82.5
t214.5 226.5t76.5 320q0 178 -79.5 322.5t-217 225.5t-304.5 81q-126 0 -237 -48t-191 -130.5t-126 -200t-46 -250.5z" />
    <glyph glyph-name="P" unicode="P" horiz-adv-x="1198" 
d="M578 1438q115 0 205 -25t146 -65.5t92.5 -97.5t51 -116.5t14.5 -127.5q0 -86 -30.5 -163t-90 -139.5t-159.5 -99.5t-229 -37t-238 8v-530q0 -23 -16 -39t-41 -16q-23 0 -39.5 16t-16.5 39v1329q0 25 17.5 42.5t42.5 17.5q184 4 291 4zM340 1327v-643q133 -10 233 -10
q190 0 293 91t103 243q0 148 -93.5 235.5t-287.5 87.5q-112 0 -248 -4z" />
    <glyph glyph-name="Q" unicode="Q" horiz-adv-x="1658" 
d="M1333 -6l-94 110q-180 -122 -410 -122q-151 0 -284 55t-228.5 151.5t-150.5 233.5t-55 295q0 206 92.5 374t257 264.5t368.5 96.5q151 0 284 -55t228.5 -151.5t151 -233.5t55.5 -295q0 -164 -60.5 -305.5t-168.5 -241.5l94 -111q12 -12 12 -32q0 -25 -20 -39
q-16 -13 -33 -13q-23 0 -39 19zM1147 373l100 -119q87 87 135 206t48 257q0 178 -79.5 322.5t-217 225.5t-304.5 81q-126 0 -237 -48t-191 -130.5t-126 -200t-46 -250.5q0 -176 79 -320.5t216.5 -226.5t304.5 -82q189 0 338 100l-96 117q-10 13 -10 31q0 23 18 41
q15 12 33 12q22 0 35 -16z" />
    <glyph glyph-name="R" unicode="R" horiz-adv-x="1275" 
d="M1083 16l-465 586h-278v-557q0 -23 -16 -39t-41 -16q-23 0 -39.5 16t-16.5 39v1329q0 25 17.5 42.5t42.5 17.5q196 4 284 4q114 0 202 -22.5t144 -60t91.5 -91.5t50 -112.5t14.5 -127.5q0 -150 -96 -258.5t-244 -140.5l443 -549q12 -15 12 -33q0 -21 -15.5 -37t-39.5 -16
q-31 0 -50 26zM340 709h248q92 0 175 38.5t137 112t54 164.5q0 142 -91.5 224.5t-297.5 82.5q-89 0 -225 -4v-618z" />
    <glyph glyph-name="S" unicode="S" horiz-adv-x="1093" 
d="M106 180q0 24 15 39q17 17 39 17q17 0 33 -13q79 -61 167 -98t168 -37q90 0 166 29.5t125 91.5t49 147q0 65 -25.5 116t-68 86t-98.5 63t-117.5 52t-122.5 49t-117 58t-98.5 74t-68 102t-25.5 138q0 155 113 256.5t307 101.5t348 -104q20 -13 20 -41q0 -14 -10 -31
q-16 -23 -43 -23q-16 0 -31 9q-72 44 -135 64t-145 20q-140 0 -222.5 -68.5t-82.5 -183.5q0 -64 25.5 -114t68 -83.5t98.5 -60.5t117 -50t122.5 -47.5t117.5 -57.5t98.5 -75t68 -105t25.5 -143q0 -168 -131 -272t-326 -104q-106 0 -216 45.5t-193 117.5q-15 12 -15 35z" />
    <glyph glyph-name="T" unicode="T" horiz-adv-x="1214" 
d="M664 45q0 -23 -16.5 -39t-41.5 -16q-23 0 -39 16t-16 39v1282h-479q-22 0 -37 15.5t-15 39.5q0 22 15 37t37 15h1071q22 0 36.5 -15.5t14.5 -40.5q0 -22 -14.5 -36.5t-36.5 -14.5h-479v-1282z" />
    <glyph glyph-name="U" unicode="U" horiz-adv-x="1538" 
d="M1219 625v759q0 22 16.5 38t40.5 16q23 0 39 -16t16 -38v-784q0 -159 -43.5 -280t-120 -193t-172 -107.5t-207.5 -35.5q-126 0 -231.5 40t-184 117t-122 198t-43.5 275v770q0 22 16.5 38t42.5 16q22 0 37.5 -16t15.5 -38v-749q0 -258 127 -401.5t342 -143.5
q197 0 314 134.5t117 400.5z" />
    <glyph glyph-name="V" unicode="V" horiz-adv-x="1329" 
d="M145 1407l529 -1247l514 1247q14 31 47 31q23 0 38 -16t15 -38q0 -8 -4 -20l-561 -1346q-15 -34 -51 -34q-39 0 -54 34l-573 1344q-4 8 -4 22q0 23 16 38.5t43 15.5q14 0 27.5 -9t17.5 -22z" />
    <glyph glyph-name="W" unicode="W" horiz-adv-x="1947" 
d="M1456 195l344 1187q14 56 60 56q20 0 35.5 -12.5t15.5 -34.5q0 -13 -2 -19l-389 -1327q-16 -55 -62 -55t-61 43l-418 1216l-412 -1218q-5 -16 -20.5 -28.5t-38.5 -12.5q-48 0 -64 55l-405 1319q-2 4 -2 14q0 24 17 42t44 18q48 0 66 -62l354 -1179l400 1189q15 52 63 52
q46 0 63 -52z" />
    <glyph glyph-name="X" unicode="X" horiz-adv-x="1320" 
d="M217 1407l445 -592l442 592q23 31 51 31q25 0 40 -16t15 -38q0 -17 -10 -30l-467 -625l490 -655q10 -13 10 -29q0 -23 -16 -39t-41 -16q-30 0 -50 30l-467 623l-466 -620q-25 -33 -52 -33q-25 0 -39 15t-14 36t10 33l490 655l-465 627q-10 13 -10 28q0 21 15 37.5
t36 16.5q29 0 53 -31z" />
    <glyph glyph-name="Y" unicode="Y" horiz-adv-x="1175" 
d="M166 1405l422 -672l424 672q22 33 53 33q22 0 36.5 -14.5t14.5 -34.5q0 -14 -10 -31l-467 -731v-582q0 -23 -16 -39t-41 -16q-23 0 -39.5 16t-16.5 39v582l-458 725q-9 15 -9 30q0 22 16 39t40 17q31 0 51 -33z" />
    <glyph glyph-name="Z" unicode="Z" horiz-adv-x="1275" 
d="M104 0q-20 0 -31.5 11t-11.5 30q0 8 2.5 16t5.5 12l10.5 14t10.5 15l924 1229h-852q-22 0 -36.5 15.5t-14.5 39.5q0 22 14.5 37t36.5 15h979q18 0 30.5 -11t12.5 -28q0 -4 -0.5 -8t-2.5 -8.5t-3.5 -7.5t-5 -8.5t-5.5 -8t-7 -9.5t-7 -10l-928 -1229h918q22 0 36.5 -15.5
t14.5 -39.5q0 -22 -14.5 -36.5t-36.5 -14.5h-1039z" />
    <glyph glyph-name="bracketleft" unicode="[" horiz-adv-x="606" 
d="M549 -410h-381q-19 0 -32 13t-13 32v1651q0 19 13 32t32 13h381q19 0 32 -13t13 -32v-10q0 -19 -13 -32t-32 -13h-320v-1540h320q19 0 32 -13t13 -32v-11q0 -19 -13 -32t-32 -13z" />
    <glyph glyph-name="backslash" unicode="\" horiz-adv-x="663" 
d="M-12 1436l2 2q6 2 14 2q31 0 41 -29l657 -1763q3 -6 3 -15q0 -31 -31 -43q-12 -4 -17 -4q-12 0 -23 8.5t-16 20.5l-657 1765q-2 4 -2 15q0 31 29 41z" />
    <glyph glyph-name="bracketright" unicode="]" horiz-adv-x="606" 
d="M57 1331h381q19 0 32 -13t13 -32v-1651q0 -19 -13 -32t-32 -13h-381q-19 0 -32 13t-13 32v11q0 19 13 32t32 13h320v1540h-320q-19 0 -32 13t-13 32v10q0 19 13 32t32 13z" />
    <glyph glyph-name="asciicircum" unicode="^" horiz-adv-x="983" 
d="M494 1337l-289 -432q-13 -20 -39 -20q-14 0 -31 10q-18 12 -18 37q0 18 8 29l315 462q17 27 56 27q34 0 51 -27l311 -462q8 -11 8 -27q0 -26 -24 -41q-11 -8 -25 -8q-24 0 -37 20z" />
    <glyph glyph-name="underscore" unicode="_" horiz-adv-x="587" 
d="M543 -410h-498q-19 0 -32 13t-13 32v17q0 19 13 32t32 13h498q19 0 32 -13t13 -32v-17q0 -19 -13 -32t-32 -13z" />
    <glyph glyph-name="grave" unicode="`" horiz-adv-x="550" 
d="M395 1135l-2 -2q-18 -9 -24 -9q-19 0 -33 17l-184 225q-11 15 -11 27q0 21 19 37l10 6q13 10 29 10q21 0 34 -19l173 -237q6 -9 6 -23q0 -21 -17 -32z" />
    <glyph glyph-name="a" unicode="a" horiz-adv-x="940" 
d="M90 262q0 134 98 210.5t252 76.5q152 0 250 -70q0 48 -1 79t-4.5 69.5t-10.5 62.5t-18.5 51t-29.5 43t-42.5 30t-58.5 20t-76 6q-114 0 -205 -45q-14 -7 -25 -7q-28 0 -43 27q-6 12 -6 23q0 25 25 39q123 63 260 63q185 0 263.5 -93t78.5 -276v-528q0 -22 -15 -36.5
t-39 -14.5q-22 0 -37.5 14.5t-15.5 36.5v98q-112 -153 -315 -153q-128 0 -206.5 74.5t-78.5 199.5zM690 233v154q-103 74 -239 74q-101 0 -174.5 -49.5t-73.5 -143.5q0 -84 58 -132t147 -48q56 0 102 12.5t79.5 35.5t55.5 45t45 52z" />
    <glyph glyph-name="b" unicode="b" horiz-adv-x="1126" 
d="M268 809q56 57 144 94t178 37q202 0 320 -129t118 -336q0 -226 -138 -359.5t-364 -133.5q-197 0 -333 88q-13 7 -22 23t-9 30v1259q0 22 15.5 37t39.5 15q22 0 36.5 -15t14.5 -37v-573zM268 698v-536q114 -80 264 -80q165 0 274 104t109 279q0 173 -94 274t-254 101
q-90 0 -173 -43.5t-126 -98.5z" />
    <glyph glyph-name="c" unicode="c" horiz-adv-x="991" 
d="M817 776q-97 64 -246 64t-255.5 -108.5t-106.5 -270.5q0 -171 109 -275t274 -104q138 0 250 94q17 17 37 17q16 0 34 -15q15 -12 15 -33q0 -19 -15 -34q-132 -129 -329 -129q-216 0 -352 131.5t-136 347.5q0 132 59.5 242t165 173.5t234.5 63.5q204 0 330 -86
q18 -14 18 -39q0 -16 -12 -31q-18 -18 -41 -18q-16 0 -33 10z" />
    <glyph glyph-name="d" unicode="d" horiz-adv-x="1132" 
d="M971 1382v-1339q0 -22 -15 -36.5t-38 -14.5t-38.5 14.5t-15.5 36.5v88q-58 -66 -140 -106.5t-177 -40.5q-204 0 -327.5 129t-123.5 344q0 212 142.5 347.5t359.5 135.5q155 0 266 -80v522q0 22 16 37t40 15q22 0 36.5 -15t14.5 -37zM864 229v527q-125 84 -264 84
q-165 0 -278 -106t-113 -273q0 -175 98.5 -276t259.5 -101q86 0 167 43t130 102z" />
    <glyph glyph-name="e" unicode="e" horiz-adv-x="1077" 
d="M872 526q-3 146 -88.5 230t-230.5 84q-149 0 -239.5 -87t-104.5 -227h663zM981 524q0 -31 -2 -45q0 -15 -14 -28t-29 -13h-721q6 -165 108 -260.5t269 -95.5q138 0 250 80q13 10 28 10q24 0 41 -20q11 -15 11 -29q0 -18 -15 -33q-65 -51 -151 -79.5t-170 -28.5
q-219 0 -354.5 131t-135.5 348q0 136 52.5 243t160 171.5t254.5 64.5q181 0 299.5 -115t118.5 -301z" />
    <glyph glyph-name="f" unicode="f" horiz-adv-x="694" 
d="M297 821v-778q0 -22 -15 -36.5t-38 -14.5t-38.5 14.5t-15.5 36.5v1028q0 190 81.5 285.5t236.5 95.5q121 0 213 -57q16 -10 16 -33q0 -16 -8 -27q-14 -20 -39 -20q-14 0 -26 6q-74 31 -140 31q-227 0 -227 -299v-131h305q19 0 33 -15t14 -37q0 -20 -14 -34.5t-33 -14.5
h-305z" />
    <glyph glyph-name="g" unicode="g" horiz-adv-x="1011" 
d="M403 156q58 4 86 4q208 0 334.5 -76.5t126.5 -218.5q0 -139 -127 -215t-334 -76q-209 0 -334.5 74.5t-125.5 216.5q0 106 75 177t207 99q-30 37 -30 88q0 56 34 93q-90 38 -141 115.5t-51 176.5q0 140 100.5 233t263.5 93q131 0 234 -70l203 54q2 0 5.5 1t4.5 1
q16 0 29.5 -10.5t17.5 -28.5q0 -2 1 -5t1 -5q0 -17 -10.5 -30t-26.5 -18l-149 -36q55 -80 55 -179q0 -140 -101.5 -232.5t-263.5 -92.5q-53 0 -92 8q-18 -26 -18 -68q0 -44 26 -73zM137 -135q0 -90 95.5 -142.5t256.5 -52.5q162 0 257.5 52.5t95.5 142.5q0 91 -96 144.5
t-257 53.5t-256.5 -53t-95.5 -145zM231 614q0 -98 71.5 -163.5t184.5 -65.5q114 0 185 65.5t71 163.5q0 97 -73 163.5t-183 66.5q-111 0 -183.5 -66t-72.5 -164z" />
    <glyph glyph-name="h" unicode="h" horiz-adv-x="1146" 
d="M268 696v-653q0 -22 -15 -36.5t-38 -14.5t-38 14.5t-15 36.5v1339q0 22 15.5 37t39.5 15q22 0 36.5 -15t14.5 -37v-585q55 61 147 101t185 40q191 0 288 -100.5t97 -313.5v-481q0 -22 -15.5 -36.5t-39.5 -14.5q-22 0 -36.5 14.5t-14.5 36.5v465q0 330 -304 330
q-90 0 -175 -41.5t-132 -100.5z" />
    <glyph glyph-name="i" unicode="i" horiz-adv-x="532" 
d="M319 874v-831q0 -22 -15 -36.5t-38 -14.5t-38 14.5t-15 36.5v831q0 22 15.5 37t39.5 15q22 0 36.5 -15t14.5 -37zM340 1280q0 -34 -21 -55t-49 -21q-32 0 -53.5 21t-21.5 55q0 30 21.5 49t53.5 19q28 0 49 -19t21 -49z" />
    <glyph glyph-name="j" unicode="j" horiz-adv-x="557" 
d="M244 -59v933q0 22 15 37t38 15t38 -15t15 -37v-942q0 -358 -289 -358q-85 0 -161 39q-23 10 -23 39q0 10 6 22q16 25 41 25q15 0 23 -4q51 -21 92 -21q205 0 205 267zM369 1280q0 -34 -21 -55t-49 -21q-32 0 -54 21t-22 55q0 30 22 49t54 19q28 0 49 -19t21 -49z" />
    <glyph glyph-name="k" unicode="k" horiz-adv-x="952" 
d="M760 27l-395 415q-15 18 -15 39q0 24 15 39l360 375q27 31 55 31q21 0 33 -12.5t12 -30.5q0 -22 -18 -43l-348 -351l391 -407q16 -16 16 -41q0 -21 -12.5 -35t-34.5 -14q-24 0 -59 35zM268 1382v-1339q0 -22 -15 -36.5t-38 -14.5t-38 14.5t-15 36.5v1339q0 22 15.5 37
t39.5 15q22 0 36.5 -15t14.5 -37z" />
    <glyph glyph-name="l" unicode="l" horiz-adv-x="575" 
d="M516 119q20 0 35 -21q8 -16 8 -24q0 -26 -20 -37q-79 -49 -179 -49q-102 0 -150 61.5t-48 188.5v1144q0 22 15.5 37t39.5 15q22 0 36.5 -15t14.5 -37v-1087q0 -107 30.5 -157t100.5 -50q38 0 90 23q20 8 27 8z" />
    <glyph glyph-name="m" unicode="m" horiz-adv-x="1667" 
d="M268 793q53 65 140 105t180 40q107 0 182 -45t100 -125q51 77 142.5 123.5t193.5 46.5q299 0 299 -334v-561q0 -22 -15.5 -36.5t-39.5 -14.5q-22 0 -36.5 14.5t-14.5 36.5v532q0 263 -234 263q-93 0 -166.5 -42.5t-115.5 -111.5q4 -16 4 -66v-575q0 -22 -15.5 -36.5
t-40.5 -14.5q-22 0 -36.5 14.5t-14.5 36.5v580q0 98 -60.5 156.5t-170.5 58.5q-89 0 -164 -42.5t-117 -103.5v-649q0 -22 -15.5 -36.5t-39.5 -14.5q-22 0 -36.5 14.5t-14.5 36.5v831q0 22 15.5 37t39.5 15q22 0 36.5 -15t14.5 -37v-81z" />
    <glyph glyph-name="n" unicode="n" horiz-adv-x="1146" 
d="M268 696v-653q0 -22 -15 -36.5t-38 -14.5t-38 14.5t-15 36.5v831q0 22 15.5 37t39.5 15q22 0 36.5 -15t14.5 -37v-81q55 62 146 103.5t186 41.5q191 0 288 -99.5t97 -312.5v-483q0 -22 -15.5 -36.5t-39.5 -14.5q-22 0 -36.5 14.5t-14.5 36.5v463q0 169 -75 250.5
t-229 81.5q-91 0 -174.5 -41.5t-132.5 -100.5z" />
    <glyph glyph-name="o" unicode="o" horiz-adv-x="1159" 
d="M96 461q0 208 135 343.5t349 135.5t348.5 -135t134.5 -344t-134.5 -344t-348.5 -135t-349 135.5t-135 343.5zM209 461q0 -166 105 -272.5t266 -106.5q163 0 266.5 106t103.5 273q0 166 -103.5 272.5t-266.5 106.5q-161 0 -266 -106.5t-105 -272.5z" />
    <glyph glyph-name="p" unicode="p" horiz-adv-x="1134" 
d="M268 59v-417q0 -22 -15 -37t-38 -15t-38 15t-15 37v1232q0 22 15.5 37t39.5 15q22 0 36.5 -15t14.5 -37v-75q53 62 146 101.5t192 39.5q197 0 313.5 -129t116.5 -336q0 -214 -130.5 -353.5t-342.5 -139.5q-189 0 -295 77zM268 696v-530q128 -84 287 -84
q166 0 267.5 108.5t101.5 278.5q0 168 -91.5 269.5t-254.5 101.5q-93 0 -178 -42t-132 -102z" />
    <glyph glyph-name="q" unicode="q" horiz-adv-x="1136" 
d="M973 805v-1163q0 -22 -15 -37t-38 -15t-38.5 15t-15.5 37v458q-56 -53 -137.5 -85.5t-163.5 -32.5q-214 0 -341.5 130.5t-127.5 348.5q0 202 146 340.5t364 138.5q185 0 336 -82q12 -8 21.5 -23t9.5 -30zM866 217v555q-119 68 -262 68q-169 0 -282 -111t-113 -272
q0 -169 101 -272t268 -103q84 0 165.5 41t122.5 94z" />
    <glyph glyph-name="r" unicode="r" horiz-adv-x="671" 
d="M268 688v-645q0 -22 -15 -36.5t-38 -14.5t-38 14.5t-15 36.5v831q0 22 15.5 37t39.5 15q22 0 36.5 -15t14.5 -37v-75q91 139 248 139q61 0 107 -16q32 -11 32 -48q0 -10 -6 -22q-15 -31 -47 -31q-14 0 -29 6q-32 11 -79 11q-82 0 -134 -41t-92 -109z" />
    <glyph glyph-name="s" unicode="s" horiz-adv-x="831" 
d="M98 117q0 20 15 35q14 14 32 14q16 0 37 -14q102 -76 232 -76q86 0 146.5 43t60.5 123q0 47 -28 80t-73 52.5t-99.5 36.5t-109 38t-99.5 49.5t-73 78.5t-28 119q0 110 82 177t215 67q155 0 262 -72q16 -10 16 -34q0 -21 -10 -31q-16 -19 -37 -19q-15 0 -33 11
q-85 51 -196 51q-84 0 -135.5 -43t-51.5 -105q0 -43 22 -76t58 -52t81.5 -37t93.5 -31t93.5 -35t81.5 -48t58 -70.5t22 -102.5q0 -129 -95 -196.5t-237 -67.5q-83 0 -160 27.5t-128 74.5q-15 15 -15 33z" />
    <glyph glyph-name="t" unicode="t" horiz-adv-x="700" 
d="M594 125q21 0 41 -23q8 -12 8 -22q0 -28 -22 -41q-90 -51 -191 -51q-151 0 -220 90.5t-69 271.5v776q0 22 16 37t40 15q22 0 36.5 -15t14.5 -37v-204h323q19 0 33 -15t14 -37q0 -20 -14 -34.5t-33 -14.5h-323v-454q0 -139 49.5 -209t157.5 -70q50 0 110 29q20 8 29 8z
" />
    <glyph glyph-name="u" unicode="u" horiz-adv-x="1114" 
d="M844 242v632q0 22 15 37t38 15t38 -15t15 -37v-831q0 -22 -15.5 -36.5t-39.5 -14.5q-22 0 -36.5 14.5t-14.5 36.5v102q-56 -69 -150.5 -116t-199.5 -47q-171 0 -262 100t-91 305v487q0 22 16 37t40 15q22 0 36.5 -15t14.5 -37v-464q0 -164 68.5 -246t215.5 -82
q91 0 177 48t135 112z" />
    <glyph glyph-name="v" unicode="v" horiz-adv-x="956" 
d="M403 342q47 -101 84 -203q50 137 82 209l240 541q16 37 49 37q24 0 38.5 -14.5t14.5 -34.5q0 -14 -6 -23l-370 -834q-6 -14 -20.5 -23t-31.5 -9q-38 0 -51 32l-381 824q-6 12 -6 24q0 24 15 41t42 17q37 0 52 -37z" />
    <glyph glyph-name="w" unicode="w" horiz-adv-x="1406" 
d="M1081 289l183 596q13 41 51 41q24 0 37.5 -15.5t13.5 -36.5q0 -10 -2 -16l-266 -825q-15 -45 -58 -45q-21 0 -33.5 9.5t-21.5 33.5l-242 626q-35 97 -41 117q-20 -72 -40 -123l-234 -618q-16 -45 -57 -45q-39 0 -54 45l-274 819q-2 6 -2 18q0 23 15 39.5t40 16.5
q39 0 51 -41l197 -609q6 -19 18.5 -64.5t20.5 -70.5q25 82 45 135l221 609q14 41 58 41q45 0 59 -41l225 -606q9 -26 25.5 -75t21.5 -65q7 29 22.5 81t20.5 69z" />
    <glyph glyph-name="x" unicode="x" horiz-adv-x="972" 
d="M219 893l270 -352l275 352q26 33 53 33q23 0 36 -14t13 -33q0 -18 -10 -31l-291 -373l307 -397q13 -16 13 -35q0 -22 -12.5 -36.5t-36.5 -14.5q-28 0 -58 37l-293 379l-292 -379q-29 -37 -60 -37q-20 0 -32.5 14t-12.5 33q0 18 12 33l312 399l-287 375q-10 13 -10 28
q0 21 14 36.5t35 15.5q29 0 55 -33z" />
    <glyph glyph-name="y" unicode="y" horiz-adv-x="972" 
d="M461 270l65 -143q6 21 14.5 45t20 54.5t17.5 47.5l235 613q5 16 19.5 27.5t33.5 11.5q26 0 41 -15t15 -39q0 -12 -7 -26l-342 -846q-67 -164 -123 -253.5t-106.5 -123t-116.5 -33.5q-69 0 -125 29q-26 13 -26 41q0 11 6 23q12 24 43 24q8 0 20 -4q40 -14 68 -14
q70 0 125.5 61t114.5 201l20 49l-416 842q-6 15 -6 28q0 23 16 39.5t44 16.5q33 0 51 -37z" />
    <glyph glyph-name="z" unicode="z" horiz-adv-x="958" 
d="M115 0q-41 0 -41 39q0 24 30 57l615 725h-557q-21 0 -35 15t-14 38q0 19 14.5 33.5t34.5 14.5h680q43 0 43 -35q0 -23 -33 -62l-616 -725h581q19 0 33 -15t14 -36q0 -20 -14 -34.5t-33 -14.5h-702z" />
    <glyph glyph-name="braceleft" unicode="{" horiz-adv-x="641" 
d="M559 -309q18 0 29.5 -13t11.5 -36q0 -22 -14 -37t-33 -15h-78q-124 0 -187 62.5t-63 197.5v363q0 92 -39.5 139.5t-99.5 57.5q-45 9 -45 51q0 41 45 53q58 12 98.5 65t40.5 154v330q0 134 57 201t193 67h78q19 0 33 -15t14 -36q0 -20 -14 -34.5t-33 -14.5h-53
q-91 0 -129.5 -47t-38.5 -154v-334q0 -99 -42 -161.5t-112 -71.5q70 -8 112 -65t42 -169v-340q0 -104 44.5 -151t135.5 -47h47z" />
    <glyph glyph-name="bar" unicode="|" horiz-adv-x="659" 
d="M383 1382v-1339q0 -22 -15 -36.5t-38 -14.5t-38.5 14.5t-15.5 36.5v1339q0 22 16 37t40 15q22 0 36.5 -15t14.5 -37z" />
    <glyph glyph-name="braceright" unicode="}" horiz-adv-x="641" 
d="M416 733q0 -101 40.5 -154t98.5 -65q45 -12 45 -51q0 -44 -45 -53q-60 -10 -99.5 -57.5t-39.5 -139.5v-363q0 -135 -63 -197.5t-187 -62.5h-76q-20 0 -34.5 15t-14.5 37q0 23 12 36t31 13h45q91 0 135.5 47t44.5 151v340q0 112 42 169t112 65q-70 9 -112 71.5t-42 161.5
v334q0 107 -38.5 154t-129.5 47h-51q-21 0 -35 15t-14 38q0 19 14.5 33t34.5 14h76q136 0 193 -67t57 -201v-330z" />
    <glyph glyph-name="asciitilde" unicode="~" horiz-adv-x="1206" 
d="M850 616q-55 0 -120.5 23.5t-116.5 51.5t-115 51.5t-115 23.5q-98 0 -188 -78q-12 -12 -31 -12t-33 14q-12 12 -12 29t12 29q65 66 123.5 89t124.5 23q56 0 122 -23.5t117.5 -51t116 -51t117.5 -23.5q83 0 160 65q10 10 26 10q21 0 37 -16q10 -10 10 -25q0 -18 -14 -32
q-114 -97 -221 -97z" />
    <glyph glyph-name="uni00A0" unicode="&#xa0;" horiz-adv-x="481" 
 />
    <glyph glyph-name="exclamdown" unicode="&#xa1;" horiz-adv-x="632" 
d="M264 -449v934q0 23 16 39.5t39 16.5q25 0 41.5 -16.5t16.5 -39.5v-934q0 -22 -17 -37.5t-43 -15.5q-22 0 -37.5 15.5t-15.5 37.5zM399 864q0 -29 -23 -51t-59 -22q-31 0 -53 22t-22 51q0 33 21.5 57.5t53.5 24.5q36 0 59 -24.5t23 -57.5z" />
    <glyph glyph-name="cent" unicode="&#xa2;" horiz-adv-x="1175" 
d="M944 764q-19 0 -37 12q-97 64 -245 64q-149 0 -256 -108.5t-107 -270.5q0 -171 109 -275t274 -104q138 0 250 94q17 17 37 17q17 0 35 -15q14 -11 14 -33q0 -20 -14 -34q-114 -114 -293 -127v-179q0 -22 -15.5 -36.5t-40.5 -14.5q-22 0 -36.5 14.5t-14.5 36.5v181
q-188 22 -303 150t-115 325q0 191 118.5 326.5t299.5 150.5v172q0 22 15.5 36.5t39.5 14.5q22 0 37 -14.5t15 -36.5v-172q154 -9 264 -84q20 -13 20 -39q0 -18 -12 -33q-15 -18 -39 -18z" />
    <glyph glyph-name="sterling" unicode="&#xa3;" horiz-adv-x="1175" 
d="M1106 121q0 -21 -16 -37q-116 -94 -250 -94q-79 0 -233.5 54t-233.5 54q-97 0 -199 -82q-17 -10 -33 -10q-22 0 -41 19q-10 10 -10 30q0 26 14 37q65 57 138 86q94 127 94 314q0 34 -8 88h-119q-19 0 -31 13t-12 34q0 17 12 29t31 12h96q-8 24 -41 100.5t-48 139.5
t-15 145q0 78 30 149.5t83.5 126.5t135 88t177.5 33q102 0 196 -31.5t158 -85.5q16 -13 16 -37q0 -20 -14 -34q-16 -19 -41 -19q-20 0 -35 12q-115 88 -280 88q-136 0 -222 -89.5t-86 -213.5q0 -77 17.5 -138.5t47.5 -127t42 -106.5h334q17 0 29 -12t12 -31
q0 -20 -11.5 -32.5t-29.5 -12.5h-316q5 -58 5 -72q0 -155 -80 -303q58 0 125.5 -17t119 -37.5t115.5 -37.5t115 -17q100 0 182 66q13 10 29 10q24 0 41 -20q10 -13 10 -31z" />
    <glyph glyph-name="currency" unicode="&#xa4;" horiz-adv-x="1185" 
d="M68 250l163 168q-96 129 -96 293t96 293l-151 153q-12 12 -12 31q0 21 16 37q11 14 31 14q21 0 32 -14l152 -152q124 103 295 103t295 -103l164 162q12 12 28 12q21 0 37 -16q12 -12 12 -31t-12 -31l-164 -165q99 -129 99 -293q0 -166 -99 -295l156 -156q14 -14 14 -31
q0 -18 -16 -34q-13 -13 -31 -13q-20 0 -35 15l-151 151q-123 -102 -297 -102q-172 0 -295 102l-166 -164q-12 -12 -29 -12q-20 0 -36 16q-13 13 -13 31t13 31zM952 711q0 156 -98 263t-260 107t-260 -107t-98 -263q0 -100 42 -183.5t125 -135.5t191 -52q164 0 261 108
t97 263z" />
    <glyph glyph-name="yen" unicode="&#xa5;" horiz-adv-x="1175" 
d="M174 373h356v252h-356q-19 0 -31 13t-12 34q0 17 12 29t31 12h303l-391 639q-10 17 -10 32q0 22 16.5 38t40.5 16q31 0 51 -33l406 -672l407 672q18 33 52 33q22 0 36.5 -15.5t14.5 -36.5q0 -17 -8 -28l-396 -645h308q17 0 28.5 -12.5t11.5 -32.5q0 -19 -11.5 -31
t-28.5 -12h-361v-252h361q17 0 28.5 -12.5t11.5 -32.5q0 -19 -11.5 -31t-28.5 -12h-361v-240q0 -23 -16 -39t-41 -16q-23 0 -39.5 16t-16.5 39v240h-356q-19 0 -31 13t-12 34q0 17 12 29t31 12z" />
    <glyph glyph-name="brokenbar" unicode="&#xa6;" horiz-adv-x="659" 
d="M383 1389v-443q0 -19 -13 -32t-32 -13h-16q-19 0 -32.5 13t-13.5 32v443q0 19 13.5 32t32.5 13h16q19 0 32 -13t13 -32zM276 45v442q0 19 13.5 32t32.5 13h16q19 0 32 -13t13 -32v-442q0 -19 -13 -32t-32 -13h-16q-19 0 -32.5 13t-13.5 32z" />
    <glyph glyph-name="section" unicode="&#xa7;" horiz-adv-x="1073" 
d="M340 -244q69 -65 168 -65q86 0 146.5 59t60.5 144q0 160 -215 245q-159 12 -257 115.5t-98 255.5q0 135 80 234t213 128q-82 39 -136 110t-54 167q0 124 85.5 204.5t227.5 80.5q151 0 244 -93q10 -10 10 -28q0 -26 -16 -37q-17 -14 -37 -14q-18 0 -35 14q-60 57 -166 57
q-86 0 -146.5 -59t-60.5 -144q0 -159 213 -249q161 -9 261 -113t100 -258q0 -135 -80 -233.5t-215 -126.5q81 -41 134.5 -111.5t53.5 -163.5q0 -124 -85.5 -204.5t-227.5 -80.5q-155 0 -246 105q-10 13 -10 29q0 24 18 36q14 11 33 11q22 0 37 -15zM252 510
q0 -116 83.5 -196.5t201.5 -80.5q121 0 202.5 79t81.5 198q0 118 -82.5 198t-201.5 80q-120 0 -202.5 -79.5t-82.5 -198.5z" />
    <glyph glyph-name="dieresis" unicode="&#xa8;" horiz-adv-x="804" 
d="M193 1194q-30 0 -50 20t-20 52q0 30 20 48.5t50 18.5q25 0 44 -19t19 -48q0 -31 -19.5 -51.5t-43.5 -20.5zM618 1194q-30 0 -49.5 20t-19.5 52q0 30 19.5 48.5t49.5 18.5q25 0 44.5 -19t19.5 -48q0 -31 -19.5 -51.5t-44.5 -20.5z" />
    <glyph glyph-name="copyright" unicode="&#xa9;" horiz-adv-x="2084" 
d="M158 453q0 243 114.5 445.5t318 320.5t451.5 118q186 0 351 -69.5t282 -187.5t184.5 -281.5t67.5 -345.5t-67.5 -345.5t-184.5 -282t-282 -188t-351 -69.5t-351 69.5t-281.5 188t-184 282t-67.5 345.5zM252 453q0 -162 60 -307.5t164 -252t251.5 -169t314.5 -62.5
q223 0 405 106.5t284 287.5t102 397q0 161 -60 307t-164 252t-252 168.5t-315 62.5t-314.5 -62.5t-251.5 -168.5t-164 -251.5t-60 -307.5zM1403 145q0 -20 -14 -34q-132 -129 -330 -129q-216 0 -352 131.5t-136 347.5q0 132 59.5 242t165 173.5t234.5 63.5q204 0 330 -86
q18 -14 18 -39q0 -16 -12 -31q-18 -18 -41 -18q-16 0 -33 10q-97 64 -245 64q-149 0 -256 -108.5t-107 -270.5q0 -171 109 -275t274 -104q138 0 250 94q17 17 37 17q17 0 35 -15q14 -11 14 -33z" />
    <glyph glyph-name="ordfeminine" unicode="&#xaa;" horiz-adv-x="837" 
d="M592 1073q0 97 -49.5 145t-141.5 48q-87 0 -149 -37q-9 -6 -21 -6q-20 0 -34 20q-4 4 -4 17q0 22 16 32q93 56 209 56q123 0 195.5 -65t72.5 -187v-357q0 -19 -14 -32t-35 -13q-19 0 -32 13t-13 32v62q-89 -113 -254 -113q-102 0 -164.5 58.5t-62.5 142.5q0 99 68 154
t186 55q135 0 227 -56v31zM393 1028q-77 0 -129.5 -35t-52.5 -96q0 -57 47.5 -93t120.5 -36q121 0 213 92v119q-38 21 -94.5 35t-104.5 14z" />
    <glyph glyph-name="guillemotleft" unicode="&#xab;" horiz-adv-x="1011" 
d="M866 111l-4 -5q-10 -10 -28 -10q-21 0 -33 15l-309 366q-15 19 -15 35t15 35l313 364q13 13 31 13t34 -13q15 -12 15 -32q0 -18 -11 -29l-290 -338l286 -336q11 -11 11 -31q0 -22 -15 -34zM489 111l-4 -5q-10 -10 -28 -10q-21 0 -33 15l-309 366q-15 19 -15 35t15 35
l313 364q13 13 31 13q19 0 35 -13q14 -11 14 -32q0 -19 -10 -29l-291 -338l287 -336q10 -10 10 -31q0 -22 -15 -34z" />
    <glyph glyph-name="logicalnot" unicode="&#xac;" horiz-adv-x="1204" 
d="M977 690h-799q-19 0 -32 14t-13 35q0 19 13 32t32 13h848q19 0 32 -13t13 -32v-272q0 -19 -14 -32t-35 -13q-19 0 -32 13t-13 32v223z" />
    <glyph glyph-name="uni00AD" unicode="&#xad;" horiz-adv-x="817" 
d="M598 506h-379q-19 0 -32 13t-13 32v10q0 19 13 32t32 13h379q19 0 32 -13t13 -32v-10q0 -19 -13 -32t-32 -13z" />
    <glyph glyph-name="registered" unicode="&#xae;" horiz-adv-x="1191" 
d="M1079 1018q0 -204 -138.5 -343.5t-342.5 -139.5q-208 0 -345.5 139t-137.5 344q0 132 62 242.5t173 175.5t248 65t247.5 -65t172 -175.5t61.5 -242.5zM993 1018q0 167 -112 282t-283 115q-169 0 -283 -115.5t-114 -281.5q0 -165 115 -281t282 -116q169 0 282 115.5
t113 281.5zM492 965v-191q0 -15 -11 -26t-28 -11q-15 0 -26 11t-11 26v492q0 19 13 32t32 13h125q112 0 161.5 -47t49.5 -123q0 -58 -37 -103.5t-98 -58.5l135 -182q6 -9 6 -19q0 -20 -19 -33q-9 -6 -22 -6q-18 0 -27 15l-151 211h-92zM588 1022q53 0 93 33.5t40 85.5
q0 53 -36.5 82.5t-106.5 29.5h-86v-231h96z" />
    <glyph glyph-name="macron" unicode="&#xaf;" horiz-adv-x="761" 
d="M598 1237h-432q-19 0 -31 13t-12 34q0 17 12 29t31 12h432q18 0 29.5 -12.5t11.5 -32.5q0 -19 -12 -31t-29 -12z" />
    <glyph glyph-name="degree" unicode="&#xb0;" horiz-adv-x="815" 
d="M406 870q-122 0 -208.5 85.5t-86.5 209.5q0 125 86.5 212t208.5 87q125 0 212 -85t87 -210t-87.5 -212t-211.5 -87zM408 1370q-83 0 -143 -60t-60 -143t60 -142.5t143 -59.5t142.5 59.5t59.5 142.5t-59.5 143t-142.5 60z" />
    <glyph glyph-name="plusminus" unicode="&#xb1;" horiz-adv-x="1204" 
d="M651 616q0 -20 -14.5 -34.5t-36.5 -14.5q-20 0 -34.5 14.5t-14.5 34.5v236h-361q-19 0 -32 14t-13 35q0 19 13 32t32 13h361v361q0 19 15 33t38 14q19 0 33 -14t14 -33v-361h363q19 0 32 -14t13 -35q0 -19 -13 -32t-32 -13h-363v-236zM190 449h824q19 0 32 -14t13 -36
q0 -19 -13 -32t-32 -13h-824q-19 0 -32 14t-13 35q0 19 13 32.5t32 13.5z" />
    <glyph glyph-name="twosuperior" unicode="&#xb2;" horiz-adv-x="675" 
d="M578 717h-478q-18 0 -29.5 10.5t-11.5 30.5q0 25 35 47q167 117 233 177q150 134 150 239q0 60 -39.5 99.5t-111.5 39.5q-119 0 -158 -88q-16 -39 -45 -39q-2 0 -6 1t-6 1q-14 3 -23.5 14.5t-9.5 26.5q0 6 4 18q24 73 92.5 110.5t157.5 37.5q120 0 183 -60t63 -153
q0 -203 -383 -430h383q15 0 26.5 -12.5t11.5 -30.5q0 -15 -11.5 -27t-26.5 -12z" />
    <glyph glyph-name="threesuperior" unicode="&#xb3;" horiz-adv-x="688" 
d="M422 1090q82 -9 129 -59t47 -116q0 -94 -78.5 -151t-195.5 -57q-177 0 -256 114q-5 10 -5 17q0 22 17 30q12 6 22 6q20 0 31 -14q63 -74 180 -74q84 0 134.5 39t50.5 99q0 54 -46.5 88.5t-121.5 34.5h-41q-14 0 -23.5 10t-9.5 28q0 12 9.5 21.5t21.5 9.5h35
q60 0 102.5 37.5t42.5 93.5t-42 86.5t-114 30.5q-62 0 -100 -15t-66 -49q-8 -14 -26 -14q-14 0 -25 8q-14 7 -14 27q0 9 6 18q74 105 244 105q109 0 173 -48t64 -132q0 -59 -38.5 -106.5t-106.5 -67.5z" />
    <glyph glyph-name="acute" unicode="&#xb4;" horiz-adv-x="548" 
d="M381 1438l8 -6q19 -16 19 -37q0 -12 -11 -27l-184 -227q-12 -15 -33 -15q-14 0 -26 9q-15 12 -15 30q0 14 6 23l172 242q12 18 35 18q16 0 29 -10z" />
    <glyph glyph-name="mu" unicode="&#xb5;" horiz-adv-x="1103" 
d="M850 242v632q0 22 15 37t38 15t38 -15t15 -37v-831q0 -22 -15.5 -36.5t-39.5 -14.5q-22 0 -36.5 14.5t-14.5 36.5v102q-56 -69 -150.5 -116t-199.5 -47q-159 0 -246 84v-424q0 -22 -15.5 -37t-39.5 -15q-22 0 -37 15t-15 37v1232q0 22 16 37t40 15q22 0 36.5 -15
t14.5 -37v-464q0 -164 69 -246t216 -82q91 0 176.5 48t134.5 112z" />
    <glyph glyph-name="mu" unicode="&#x3bc;" horiz-adv-x="1103" 
d="M850 242v632q0 22 15 37t38 15t38 -15t15 -37v-831q0 -22 -15.5 -36.5t-39.5 -14.5q-22 0 -36.5 14.5t-14.5 36.5v102q-56 -69 -150.5 -116t-199.5 -47q-159 0 -246 84v-424q0 -22 -15.5 -37t-39.5 -15q-22 0 -37 15t-15 37v1232q0 22 16 37t40 15q22 0 36.5 -15
t14.5 -37v-464q0 -164 69 -246t216 -82q91 0 176.5 48t134.5 112z" />
    <glyph glyph-name="paragraph" unicode="&#xb6;" horiz-adv-x="894" 
d="M207 -299q64 -27 117 -27q61 0 102.5 20.5t62.5 60t29 83.5t8 105v596q-181 2 -301.5 122t-120.5 324q0 208 115 328.5t311 120.5h248q19 0 33 -15t14 -37q0 -20 -14 -34.5t-33 -14.5h-145v-1392q0 -179 -71 -273t-230 -94q-94 0 -172 47q-23 15 -23 41q0 15 4 21
q15 24 39 24q15 0 27 -6z" />
    <glyph glyph-name="periodcentered" unicode="&#xb7;" horiz-adv-x="481" 
d="M317 608q0 -33 -21 -57.5t-52 -24.5q-36 0 -59 24.5t-23 57.5q0 29 23.5 51.5t58.5 22.5q31 0 52 -22.5t21 -51.5z" />
    <glyph glyph-name="cedilla" unicode="&#xb8;" horiz-adv-x="675" 
d="M553 -258q0 -71 -63 -114.5t-173 -43.5q-86 0 -167 45q-15 6 -15 25q0 12 4 18q10 17 29 17q6 0 14 -4q64 -31 121 -31q63 0 103 25.5t40 68.5q0 83 -106 94q-21 3 -34 17t-13 35v118h57v-114q102 -3 152.5 -44t50.5 -112z" />
    <glyph glyph-name="onesuperior" unicode="&#xb9;" horiz-adv-x="477" 
d="M63 1266l-2 4q-4 6 -4 18q0 19 17 33l147 100q32 23 58 23q16 0 24 -11.5t8 -25.5v-645q0 -19 -14 -32t-35 -13q-19 0 -32 13t-13 32v563l-104 -70q-9 -6 -21 -6q-19 0 -29 17z" />
    <glyph glyph-name="ordmasculine" unicode="&#xba;" horiz-adv-x="937" 
d="M469 682q-152 0 -252 93.5t-100 240.5q0 146 100 239t252 93t252 -93t100 -239q0 -147 -100 -240.5t-252 -93.5zM469 1260q-103 0 -177.5 -68.5t-74.5 -175.5q0 -109 75 -177.5t177 -68.5q105 0 178.5 68.5t73.5 177.5q0 107 -74.5 175.5t-177.5 68.5z" />
    <glyph glyph-name="guillemotright" unicode="&#xbb;" horiz-adv-x="1011" 
d="M586 911l313 -364q14 -14 14 -37t-14 -37l-307 -362q-12 -15 -33 -15q-20 0 -35 15q-16 13 -16 34q0 19 12 31l287 336l-291 338q-10 13 -10 29q0 21 18 36q15 11 29 11q18 0 33 -15zM205 911l313 -364q14 -14 14 -37t-14 -37l-307 -362q-12 -15 -33 -15q-20 0 -35 15
q-16 13 -16 34q0 19 12 31l287 336l-291 338q-10 13 -10 29q0 21 18 36q15 11 29 11q18 0 33 -15z" />
    <glyph glyph-name="onequarter" unicode="&#xbc;" horiz-adv-x="1366" 
d="M92 1266l-2 4q-4 6 -4 18q0 20 16 33l148 100q32 23 57 23q16 0 24.5 -11.5t8.5 -25.5v-645q0 -19 -14 -32t-35 -13q-19 0 -32 13t-13 32v563l-105 -70q-9 -6 -20 -6q-19 0 -29 17zM125 2l-2 4q-17 10 -17 29q0 7 9 20l1022 1368q10 13 28 13q15 0 27 -9q14 -8 14 -28
q0 -12 -6 -21l-1022 -1368q-14 -14 -31 -14q-13 0 -22 6zM1112 0h-4q-19 0 -31 12t-12 31v135h-332q-40 0 -55 25q-6 9 -6 22q0 18 14 39l348 455q9 12 25 12q11 0 24 -10t13 -27q0 -11 -6 -20l-324 -420h299v166q0 18 13 29.5t34 11.5q17 0 29 -12t12 -29v-166h92
q14 0 24.5 -11t10.5 -28q0 -15 -10.5 -26t-24.5 -11h-92v-135q0 -19 -12 -31t-29 -12z" />
    <glyph glyph-name="onehalf" unicode="&#xbd;" horiz-adv-x="1388" 
d="M135 1266l-2 4q-4 6 -4 18q0 20 16 33l148 100q32 23 57 23q16 0 24.5 -11.5t8.5 -25.5v-645q0 -19 -14 -32t-35 -13q-19 0 -32 13t-13 32v563l-105 -70q-9 -6 -20 -6q-19 0 -29 17zM104 2l-2 4q-16 10 -16 29q0 8 8 20l1022 1368q10 13 29 13q14 0 26 -9q15 -9 15 -28
q0 -12 -6 -21l-1022 -1368q-14 -14 -31 -14q-14 0 -23 6zM1264 0h-478q-18 0 -29.5 10.5t-11.5 30.5q0 25 35 47q167 117 233 177q149 135 150 239q0 60 -39.5 99.5t-111.5 39.5q-119 0 -158 -88q-16 -39 -45 -39q-2 0 -6 1t-6 1q-14 3 -23.5 14.5t-9.5 26.5q0 7 4 19
q24 73 92.5 110t157.5 37q120 0 183 -60t63 -153q0 -203 -383 -430h383q15 0 27 -12.5t12 -30.5q0 -15 -12 -27t-27 -12z" />
    <glyph glyph-name="threequarters" unicode="&#xbe;" horiz-adv-x="1452" 
d="M250 2l-2 4q-17 10 -17 29q0 7 9 20l1022 1368q10 13 28 13q15 0 27 -9q14 -8 14 -28q0 -12 -6 -21l-1022 -1368q-14 -14 -31 -14q-13 0 -22 6zM1198 0h-4q-19 0 -31 12t-12 31v135h-332q-40 0 -55 25q-6 9 -6 22q0 18 14 39l348 455q9 12 25 12q11 0 24 -10t13 -27
q0 -11 -6 -20l-324 -420h299v166q0 18 13 29.5t34 11.5q17 0 29 -12t12 -29v-166h92q14 0 24.5 -11t10.5 -28q0 -15 -10.5 -26t-24.5 -11h-92v-135q0 -19 -12 -31t-29 -12zM410 1090q82 -9 129 -59t47 -116q0 -94 -79 -151t-196 -57q-177 0 -256 114q-4 8 -4 17q0 22 17 30
q12 6 22 6q20 0 31 -14q63 -74 180 -74q84 0 134 39t50 99q0 54 -46.5 88.5t-121.5 34.5h-41q-14 0 -23 10t-9 28q0 12 9 21.5t21 9.5h35q60 0 103 37.5t43 93.5t-42 86.5t-114 30.5q-62 0 -100 -15t-66 -49q-8 -14 -27 -14q-13 0 -24 8q-14 7 -14 27q0 9 6 18
q74 105 243 105q110 0 174 -48t64 -132q0 -59 -38.5 -106.5t-106.5 -67.5z" />
    <glyph glyph-name="questiondown" unicode="&#xbf;" horiz-adv-x="933" 
d="M502 481q0 66 45 66q24 0 36.5 -16.5t14.5 -32t2 -39.5q0 -61 -22 -112t-57.5 -86.5t-78 -67.5t-85.5 -64.5t-78.5 -69t-57.5 -89t-22 -115.5q0 -113 84 -189t213 -76q171 0 286 131q12 15 35 15q20 0 35 -15q12 -12 12 -30q0 -21 -14 -39q-60 -76 -156.5 -122
t-206.5 -46q-185 0 -293 100.5t-108 247.5q0 77 23 140t59.5 105.5t81 79t89 69t81 66t59.5 80.5t23 103v6zM625 864q0 -29 -22.5 -51t-57.5 -22q-31 0 -53.5 22.5t-22.5 50.5q0 33 22 57.5t54 24.5q36 0 58 -24t22 -58z" />
    <glyph glyph-name="Agrave" unicode="&#xc0;" horiz-adv-x="1404" 
d="M1044 487h-688l-200 -467q-13 -30 -47 -30q-23 0 -38.5 15.5t-15.5 37.5q0 8 4 20l586 1338q18 41 57 41q42 0 60 -41l584 -1335q4 -12 4 -21q0 -22 -17 -38.5t-39 -16.5q-36 0 -49 30zM700 1286l-299 -692h598zM797 1556q0 -6 -4 -14q-13 -20 -33 -20q-9 0 -17 4
l-311 145q-22 13 -22 39q0 16 8 27q12 24 41 24q13 0 22 -6l295 -164q21 -11 21 -35z" />
    <glyph glyph-name="Aacute" unicode="&#xc1;" horiz-adv-x="1404" 
d="M1044 487h-688l-200 -467q-13 -30 -47 -30q-23 0 -38.5 15.5t-15.5 37.5q0 8 4 20l586 1338q18 41 57 41q42 0 60 -41l584 -1335q4 -12 4 -21q0 -22 -17 -38.5t-39 -16.5q-36 0 -49 30zM700 1286l-299 -692h598zM993 1737l2 -6q4 -6 4 -21q0 -29 -24 -41l-305 -143
q-8 -4 -15 -4q-19 0 -32 22q-5 5 -5 17q0 20 17 30l297 164q9 6 22 6q29 0 39 -24z" />
    <glyph glyph-name="Acircumflex" unicode="&#xc2;" horiz-adv-x="1404" 
d="M1044 487h-688l-200 -467q-13 -30 -47 -30q-23 0 -38.5 15.5t-15.5 37.5q0 8 4 20l586 1338q18 41 57 41q42 0 60 -41l584 -1335q4 -12 4 -21q0 -22 -17 -38.5t-39 -16.5q-36 0 -49 30zM700 1286l-299 -692h598zM700 1675l-280 -153q-12 -4 -17 -4q-23 0 -32 20
q-4 6 -4 21q0 20 16 30l279 160q15 10 38 10q26 0 41 -10l281 -160q16 -10 16 -30q0 -11 -6 -23q-12 -18 -33 -18q-8 0 -16 4z" />
    <glyph glyph-name="Atilde" unicode="&#xc3;" horiz-adv-x="1404" 
d="M1044 487h-688l-200 -467q-13 -30 -47 -30q-23 0 -38.5 15.5t-15.5 37.5q0 8 4 20l586 1338q18 41 57 41q42 0 60 -41l584 -1335q4 -12 4 -21q0 -22 -17 -38.5t-39 -16.5q-36 0 -49 30zM700 1286l-299 -692h598zM856 1536q-56 0 -161.5 45t-164.5 45q-54 0 -112 -37
q-12 -8 -23 -8q-14 0 -30 16q-9 9 -9 23q0 16 13 29q82 71 174 71q63 0 164 -45t155 -45q72 0 127 43q13 13 29 13q13 0 26 -13q13 -10 13 -26q0 -15 -8 -23q-49 -51 -94 -69.5t-99 -18.5z" />
    <glyph glyph-name="Adieresis" unicode="&#xc4;" horiz-adv-x="1404" 
d="M1044 487h-688l-200 -467q-13 -30 -47 -30q-23 0 -38.5 15.5t-15.5 37.5q0 8 4 20l586 1338q18 41 57 41q42 0 60 -41l584 -1335q4 -12 4 -21q0 -22 -17 -38.5t-39 -16.5q-36 0 -49 30zM700 1286l-299 -692h598zM541 1647q0 -32 -22 -51t-52 -19q-34 0 -56 18.5t-22 51.5
q0 30 22.5 47.5t55.5 17.5q30 0 52 -18t22 -47zM1018 1647q0 -32 -21.5 -51t-50.5 -19q-34 0 -57 19t-23 51q0 30 23 47.5t57 17.5q29 0 50.5 -18t21.5 -47z" />
    <glyph glyph-name="Aring" unicode="&#xc5;" horiz-adv-x="1404" 
d="M356 487l-200 -467q-13 -30 -47 -30q-23 0 -38.5 15.5t-15.5 37.5q0 8 4 20l588 1362q-78 11 -126 58.5t-48 124.5q0 89 63.5 134.5t163.5 45.5q103 0 167.5 -45.5t64.5 -134.5q0 -75 -48 -122.5t-126 -60.5l588 -1359q4 -8 4 -23q0 -22 -16.5 -37.5t-43.5 -15.5
q-32 0 -45 30l-201 467h-688zM700 1290l-299 -696h596zM555 1608q0 -59 40.5 -91t106.5 -32q65 0 106.5 32t41.5 91q0 58 -41 87t-107 29q-67 0 -107 -28.5t-40 -87.5z" />
    <glyph glyph-name="AE" unicode="&#xc6;" horiz-adv-x="1961" 
d="M1774 0h-703q-25 0 -42 17t-17 42v441h-541l-342 -484q-16 -26 -53 -26q-21 0 -36 15t-15 36q0 16 10 29l958 1337q17 27 51 27h709q22 0 36.5 -15.5t14.5 -40.5q0 -22 -14.5 -36.5t-36.5 -14.5h-629v-547h568q22 0 36.5 -15.5t14.5 -39.5q0 -22 -14.5 -36.5t-36.5 -14.5
h-568v-568h650q22 0 36.5 -15.5t14.5 -39.5q0 -22 -14.5 -36.5t-36.5 -14.5zM1012 1264l-465 -658h465v658z" />
    <glyph glyph-name="Ccedilla" unicode="&#xc7;" horiz-adv-x="1329" 
d="M1036 -258q0 -70 -63 -114t-170 -44q-104 0 -182 45q-15 9 -15 29q0 12 4 18q10 17 29 17q6 0 18 -4q72 -35 123 -35q63 0 103.5 25.5t40.5 68.5q0 83 -107 94q-47 7 -47 52v90q-297 19 -478 217.5t-181 515.5q0 154 49.5 288.5t139 233.5t222 156t291.5 57
q245 0 395 -106q23 -16 23 -43q0 -11 -8 -27q-16 -25 -43 -25q-7 0 -25 9q-137 86 -340 86q-171 0 -305 -81.5t-207.5 -224.5t-73.5 -323q0 -281 169.5 -455t439.5 -174q194 0 344 105q17 10 30 10q21 0 39 -21q11 -15 11 -28q0 -24 -19 -39q-77 -60 -189 -96.5t-225 -36.5
h-2v-84q209 -6 209 -156z" />
    <glyph glyph-name="Egrave" unicode="&#xc8;" horiz-adv-x="1177" 
d="M340 106h649q22 0 36.5 -15.5t14.5 -39.5q0 -22 -14.5 -36.5t-36.5 -14.5h-702q-25 0 -42.5 17t-17.5 42v1315q0 25 17.5 42.5t42.5 17.5h682q22 0 36.5 -15.5t14.5 -40.5q0 -22 -14.5 -36.5t-36.5 -14.5h-629v-547h567q22 0 36.5 -15.5t14.5 -39.5q0 -22 -14.5 -36.5
t-36.5 -14.5h-567v-568zM756 1556q0 -6 -4 -14q-13 -20 -33 -20q-9 0 -17 4l-311 145q-22 13 -22 39q0 16 8 27q12 24 41 24q13 0 22 -6l295 -164q21 -11 21 -35z" />
    <glyph glyph-name="Eacute" unicode="&#xc9;" horiz-adv-x="1177" 
d="M340 106h649q22 0 36.5 -15.5t14.5 -39.5q0 -22 -14.5 -36.5t-36.5 -14.5h-702q-25 0 -42.5 17t-17.5 42v1315q0 25 17.5 42.5t42.5 17.5h682q22 0 36.5 -15.5t14.5 -40.5q0 -22 -14.5 -36.5t-36.5 -14.5h-629v-547h567q22 0 36.5 -15.5t14.5 -39.5q0 -22 -14.5 -36.5
t-36.5 -14.5h-567v-568zM872 1737l2 -6q5 -7 5 -21q0 -28 -25 -41l-305 -143q-8 -4 -14 -4q-20 0 -33 22q-4 4 -4 17q0 20 16 30l297 164q9 6 23 6q28 0 38 -24z" />
    <glyph glyph-name="Ecircumflex" unicode="&#xca;" horiz-adv-x="1177" 
d="M340 106h649q22 0 36.5 -15.5t14.5 -39.5q0 -22 -14.5 -36.5t-36.5 -14.5h-702q-25 0 -42.5 17t-17.5 42v1315q0 25 17.5 42.5t42.5 17.5h682q22 0 36.5 -15.5t14.5 -40.5q0 -22 -14.5 -36.5t-36.5 -14.5h-629v-547h567q22 0 36.5 -15.5t14.5 -39.5q0 -22 -14.5 -36.5
t-36.5 -14.5h-567v-568zM625 1675l-281 -153q-12 -4 -16 -4q-24 0 -33 20q-4 6 -4 21q0 20 16 30l279 160q15 10 39 10q26 0 41 -10l280 -160q17 -10 17 -30q0 -9 -7 -23q-12 -18 -32 -18q-9 0 -17 4z" />
    <glyph glyph-name="Edieresis" unicode="&#xcb;" horiz-adv-x="1177" 
d="M340 106h649q22 0 36.5 -15.5t14.5 -39.5q0 -22 -14.5 -36.5t-36.5 -14.5h-702q-25 0 -42.5 17t-17.5 42v1315q0 25 17.5 42.5t42.5 17.5h682q22 0 36.5 -15.5t14.5 -40.5q0 -22 -14.5 -36.5t-36.5 -14.5h-629v-547h567q22 0 36.5 -15.5t14.5 -39.5q0 -22 -14.5 -36.5
t-36.5 -14.5h-567v-568zM467 1647q0 -32 -22 -51t-52 -19q-34 0 -56 18.5t-22 51.5q0 30 22.5 47.5t55.5 17.5q30 0 52 -18t22 -47zM944 1647q0 -32 -21.5 -51t-50.5 -19q-34 0 -56.5 18.5t-22.5 51.5q0 30 23 47.5t56 17.5q29 0 50.5 -18t21.5 -47z" />
    <glyph glyph-name="Igrave" unicode="&#xcc;" horiz-adv-x="665" 
d="M389 1384v-1339q0 -23 -16 -39t-39 -16q-25 0 -41.5 16t-16.5 39v1339q0 22 17 38t43 16q22 0 37.5 -16t15.5 -38zM403 1556q0 -6 -4 -14q-13 -20 -32 -20q-9 0 -17 4l-311 145q-23 13 -23 39q0 15 9 27q12 24 41 24q13 0 22 -6l295 -164q20 -10 20 -35z" />
    <glyph glyph-name="Iacute" unicode="&#xcd;" horiz-adv-x="665" 
d="M389 1384v-1339q0 -23 -16 -39t-39 -16q-25 0 -41.5 16t-16.5 39v1339q0 22 17 38t43 16q22 0 37.5 -16t15.5 -38zM641 1737l2 -6q4 -6 4 -21q0 -29 -24 -41l-306 -143q-8 -4 -14 -4q-20 0 -33 22q-4 4 -4 17q0 20 17 30l297 164q9 6 22 6q29 0 39 -24z" />
    <glyph glyph-name="Icircumflex" unicode="&#xce;" horiz-adv-x="665" 
d="M389 1384v-1339q0 -23 -16 -39t-39 -16q-25 0 -41.5 16t-16.5 39v1339q0 22 17 38t43 16q22 0 37.5 -16t15.5 -38zM332 1675l-281 -153q-12 -4 -16 -4q-24 0 -33 20q-4 6 -4 21q0 20 16 30l279 160q15 10 39 10q26 0 41 -10l280 -160q17 -10 17 -30q0 -11 -6 -23
q-12 -18 -33 -18q-9 0 -17 4z" />
    <glyph glyph-name="Idieresis" unicode="&#xcf;" horiz-adv-x="665" 
d="M389 1384v-1339q0 -23 -16 -39t-39 -16q-25 0 -41.5 16t-16.5 39v1339q0 22 17 38t43 16q22 0 37.5 -16t15.5 -38zM170 1647q0 -32 -22 -51t-52 -19q-34 0 -56 18.5t-22 51.5q0 30 22.5 47.5t55.5 17.5q30 0 52 -18t22 -47zM647 1647q0 -32 -21.5 -51t-50.5 -19
q-34 0 -56.5 18.5t-22.5 51.5q0 30 23 47.5t56 17.5q29 0 50.5 -18t21.5 -47z" />
    <glyph glyph-name="Eth" unicode="&#xd0;" horiz-adv-x="1552" 
d="M621 -4q-73 0 -291 4q-25 0 -42.5 17t-17.5 42v621h-200q-21 0 -35.5 15t-14.5 38q0 19 15 33t35 14h200v594q0 25 17.5 42.5t42.5 17.5q306 6 307 6q167 0 303 -37.5t228.5 -102.5t155 -155t90.5 -191.5t28 -216.5q0 -124 -32.5 -234.5t-99.5 -203.5t-163.5 -160.5
t-231 -105t-294.5 -37.5zM383 680v-574q234 -4 242 -4q169 0 303 48.5t219.5 135t130.5 201t45 250.5q0 127 -41.5 233.5t-124 188.5t-216.5 128t-308 46q-47 0 -88.5 -1t-86.5 -2.5l-75 -2.5v-547h358q19 0 33 -15t14 -36q0 -20 -14 -34.5t-33 -14.5h-358z" />
    <glyph glyph-name="Ntilde" unicode="&#xd1;" horiz-adv-x="1632" 
d="M1298 197v1189q0 22 16 37t40 15q22 0 36.5 -15t14.5 -37v-1343q0 -53 -49 -53q-34 0 -62 37l-960 1210v-1196q0 -22 -15.5 -36.5t-39.5 -14.5q-22 0 -37 14.5t-15 36.5v1345q0 23 15.5 37.5t38.5 14.5q32 0 63 -39zM981 1536q-56 0 -161.5 45t-164.5 45q-54 0 -112 -37
q-12 -8 -23 -8q-15 0 -31 16q-8 8 -8 23q0 16 13 29q82 71 174 71q63 0 164 -45t155 -45q72 0 127 43q13 13 29 13q13 0 26 -13q13 -10 13 -26q0 -15 -8 -23q-49 -51 -94 -69.5t-99 -18.5z" />
    <glyph glyph-name="Ograve" unicode="&#xd2;" horiz-adv-x="1658" 
d="M111 717q0 206 92.5 374t257 264.5t368.5 96.5q151 0 284 -55t228.5 -151.5t151 -233.5t55.5 -295q0 -156 -55.5 -292.5t-151 -233.5t-228.5 -153t-284 -56t-284 55t-228.5 151.5t-150.5 233.5t-55 295zM229 717q0 -176 79 -320.5t216.5 -226.5t304.5 -82q172 0 310 82.5
t214.5 226.5t76.5 320q0 178 -79.5 322.5t-217 225.5t-304.5 81q-126 0 -237 -48t-191 -130.5t-126 -200t-46 -250.5zM1001 1556q0 -6 -4 -14q-13 -20 -32 -20q-9 0 -17 4l-311 145q-23 13 -23 39q0 15 9 27q12 24 41 24q13 0 22 -6l295 -164q20 -10 20 -35z" />
    <glyph glyph-name="Oacute" unicode="&#xd3;" horiz-adv-x="1658" 
d="M111 717q0 206 92.5 374t257 264.5t368.5 96.5q151 0 284 -55t228.5 -151.5t151 -233.5t55.5 -295q0 -156 -55.5 -292.5t-151 -233.5t-228.5 -153t-284 -56t-284 55t-228.5 151.5t-150.5 233.5t-55 295zM229 717q0 -176 79 -320.5t216.5 -226.5t304.5 -82q172 0 310 82.5
t214.5 226.5t76.5 320q0 178 -79.5 322.5t-217 225.5t-304.5 81q-126 0 -237 -48t-191 -130.5t-126 -200t-46 -250.5zM1090 1737l2 -6q4 -6 4 -21q0 -28 -25 -41l-305 -143q-8 -4 -14 -4q-20 0 -33 22q-4 4 -4 17q0 20 16 30l297 164q9 6 23 6q29 0 39 -24z" />
    <glyph glyph-name="Ocircumflex" unicode="&#xd4;" horiz-adv-x="1658" 
d="M111 717q0 206 92.5 374t257 264.5t368.5 96.5q151 0 284 -55t228.5 -151.5t151 -233.5t55.5 -295q0 -156 -55.5 -292.5t-151 -233.5t-228.5 -153t-284 -56t-284 55t-228.5 151.5t-150.5 233.5t-55 295zM229 717q0 -176 79 -320.5t216.5 -226.5t304.5 -82q172 0 310 82.5
t214.5 226.5t76.5 320q0 178 -79.5 322.5t-217 225.5t-304.5 81q-126 0 -237 -48t-191 -130.5t-126 -200t-46 -250.5zM836 1675l-281 -153q-12 -4 -16 -4q-24 0 -33 20q-4 6 -4 21q0 20 16 30l279 160q15 10 39 10q26 0 41 -10l280 -160q17 -10 17 -30q0 -9 -7 -23
q-12 -18 -32 -18q-9 0 -17 4z" />
    <glyph glyph-name="Otilde" unicode="&#xd5;" horiz-adv-x="1658" 
d="M111 717q0 206 92.5 374t257 264.5t368.5 96.5q151 0 284 -55t228.5 -151.5t151 -233.5t55.5 -295q0 -156 -55.5 -292.5t-151 -233.5t-228.5 -153t-284 -56t-284 55t-228.5 151.5t-150.5 233.5t-55 295zM229 717q0 -176 79 -320.5t216.5 -226.5t304.5 -82q172 0 310 82.5
t214.5 226.5t76.5 320q0 178 -79.5 322.5t-217 225.5t-304.5 81q-126 0 -237 -48t-191 -130.5t-126 -200t-46 -250.5zM985 1536q-56 0 -161.5 45t-164.5 45q-54 0 -112 -37q-12 -8 -23 -8q-14 0 -30 16q-9 9 -9 23q0 16 13 29q82 71 174 71q63 0 164 -45t155 -45
q72 0 127 43q13 13 29 13q14 0 27 -13q12 -9 12 -26q0 -15 -8 -23q-49 -51 -94 -69.5t-99 -18.5z" />
    <glyph glyph-name="Odieresis" unicode="&#xd6;" horiz-adv-x="1658" 
d="M111 717q0 206 92.5 374t257 264.5t368.5 96.5q151 0 284 -55t228.5 -151.5t151 -233.5t55.5 -295q0 -156 -55.5 -292.5t-151 -233.5t-228.5 -153t-284 -56t-284 55t-228.5 151.5t-150.5 233.5t-55 295zM229 717q0 -176 79 -320.5t216.5 -226.5t304.5 -82q172 0 310 82.5
t214.5 226.5t76.5 320q0 178 -79.5 322.5t-217 225.5t-304.5 81q-126 0 -237 -48t-191 -130.5t-126 -200t-46 -250.5zM668 1647q0 -32 -22 -51t-52 -19q-34 0 -56 18.5t-22 51.5q0 30 22.5 47.5t55.5 17.5q30 0 52 -18t22 -47zM1145 1647q0 -32 -21.5 -51t-50.5 -19
q-34 0 -57 19t-23 51q0 30 23 47.5t57 17.5q29 0 50.5 -18t21.5 -47z" />
    <glyph glyph-name="multiply" unicode="&#xd7;" horiz-adv-x="1120" 
d="M494 737l-256 256q-15 15 -15 33t17 35q14 14 32 14q22 0 33 -14l254 -258l258 258q14 14 31 14q19 0 35 -16q12 -12 12 -33q0 -18 -12 -33l-256 -256l260 -260q12 -12 12 -28q0 -21 -16 -37q-13 -13 -31 -13t-31 13l-262 258l-260 -258q-13 -13 -29 -13q-20 0 -37 17
q-12 12 -12 30q0 19 12 31z" />
    <glyph glyph-name="Oslash" unicode="&#xd8;" horiz-adv-x="1658" 
d="M199 178l69 66q-157 196 -157 473q0 206 92.5 374t257 264.5t368.5 96.5q141 0 266.5 -47.5t221.5 -136.5l67 65q13 13 29 13q18 0 35 -17q12 -12 12 -31q0 -17 -12 -26l-70 -68q170 -204 170 -487q0 -156 -55.5 -292.5t-151 -233.5t-228.5 -153t-284 -56
q-298 0 -501 194l-66 -63q-13 -13 -29 -13q-17 0 -34 17q-13 13 -13 30q0 18 13 31zM412 258q81 -81 188.5 -125.5t228.5 -44.5q172 0 310 82.5t214.5 226.5t76.5 320q0 229 -136 405zM1235 1188q-79 75 -184 116.5t-222 41.5q-126 0 -237 -48t-191 -130.5t-126 -200
t-46 -250.5q0 -225 123 -389z" />
    <glyph glyph-name="Ugrave" unicode="&#xd9;" horiz-adv-x="1538" 
d="M1219 625v759q0 22 16.5 38t40.5 16q23 0 39 -16t16 -38v-784q0 -159 -43.5 -280t-120 -193t-172 -107.5t-207.5 -35.5q-126 0 -231.5 40t-184 117t-122 198t-43.5 275v770q0 22 16.5 38t42.5 16q22 0 37.5 -16t15.5 -38v-749q0 -258 127 -401.5t342 -143.5
q197 0 314 134.5t117 400.5zM913 1556q0 -6 -4 -14q-13 -20 -32 -20q-9 0 -17 4l-311 145q-23 13 -23 39q0 15 9 27q12 24 40 24q14 0 23 -6l295 -164q20 -10 20 -35z" />
    <glyph glyph-name="Uacute" unicode="&#xda;" horiz-adv-x="1538" 
d="M1219 625v759q0 22 16.5 38t40.5 16q23 0 39 -16t16 -38v-784q0 -159 -43.5 -280t-120 -193t-172 -107.5t-207.5 -35.5q-126 0 -231.5 40t-184 117t-122 198t-43.5 275v770q0 22 16.5 38t42.5 16q22 0 37.5 -16t15.5 -38v-749q0 -258 127 -401.5t342 -143.5
q197 0 314 134.5t117 400.5zM1022 1737l2 -6q4 -6 4 -21q0 -29 -24 -41l-306 -143q-8 -4 -14 -4q-20 0 -33 22q-4 4 -4 17q0 20 17 30l297 164q9 6 22 6q29 0 39 -24z" />
    <glyph glyph-name="Ucircumflex" unicode="&#xdb;" horiz-adv-x="1538" 
d="M1219 625v759q0 22 16.5 38t40.5 16q23 0 39 -16t16 -38v-784q0 -159 -43.5 -280t-120 -193t-172 -107.5t-207.5 -35.5q-126 0 -231.5 40t-184 117t-122 198t-43.5 275v770q0 22 16.5 38t42.5 16q22 0 37.5 -16t15.5 -38v-749q0 -258 127 -401.5t342 -143.5
q197 0 314 134.5t117 400.5zM766 1675l-281 -153q-12 -4 -16 -4q-24 0 -33 20q-4 6 -4 21q0 20 17 30l278 160q15 10 39 10q26 0 41 -10l280 -160q17 -10 17 -30q0 -11 -6 -23q-12 -18 -33 -18q-8 0 -16 4z" />
    <glyph glyph-name="Udieresis" unicode="&#xdc;" horiz-adv-x="1538" 
d="M1219 625v759q0 22 16.5 38t40.5 16q23 0 39 -16t16 -38v-784q0 -159 -43.5 -280t-120 -193t-172 -107.5t-207.5 -35.5q-126 0 -231.5 40t-184 117t-122 198t-43.5 275v770q0 22 16.5 38t42.5 16q22 0 37.5 -16t15.5 -38v-749q0 -258 127 -401.5t342 -143.5
q197 0 314 134.5t117 400.5zM600 1647q0 -32 -22 -51t-52 -19q-33 0 -55 18.5t-22 51.5q0 30 22 47.5t55 17.5q30 0 52 -18t22 -47zM1077 1647q0 -32 -21 -51t-50 -19q-34 0 -57 19t-23 51q0 30 23 47.5t57 17.5q29 0 50 -17.5t21 -47.5z" />
    <glyph glyph-name="Yacute" unicode="&#xdd;" horiz-adv-x="1175" 
d="M166 1405l422 -672l424 672q22 33 53 33q22 0 36.5 -14.5t14.5 -34.5q0 -14 -10 -31l-467 -731v-582q0 -23 -16 -39t-41 -16q-23 0 -39.5 16t-16.5 39v582l-458 725q-9 15 -9 30q0 22 16 39t40 17q31 0 51 -33zM850 1737l2 -6q4 -6 4 -21q0 -28 -25 -41l-305 -143
q-8 -4 -14 -4q-20 0 -33 22q-4 4 -4 17q0 20 17 30l296 164q9 6 23 6q29 0 39 -24z" />
    <glyph glyph-name="Thorn" unicode="&#xde;" horiz-adv-x="1198" 
d="M578 1219q115 0 205 -25t146 -66t92.5 -98t51 -116.5t14.5 -127.5q0 -86 -30.5 -163t-90 -139.5t-159.5 -99t-229 -36.5t-238 8v-311q0 -23 -16 -39t-41 -16q-23 0 -39.5 16t-16.5 39v1339q0 22 17 38t43 16q22 0 37.5 -16t15.5 -38v-170q35 0 124.5 2.5t113.5 2.5z
M340 1106v-641q133 -10 233 -10q190 0 293 90.5t103 242.5q0 148 -96 236t-293 88q-158 0 -240 -6z" />
    <glyph glyph-name="germandbls" unicode="&#xdf;" horiz-adv-x="1110" 
d="M412 139q0 18 12 33q12 12 31 12q18 0 30 -12q98 -90 195 -90q89 0 154 61.5t65 161.5q0 50 -22.5 96t-58.5 82t-79 69t-86.5 64.5t-79.5 62t-58.5 67.5t-22.5 75q0 39 22 78.5t53 74t62.5 68.5t53.5 73.5t22 78.5q0 68 -56.5 113t-132.5 45q-121 0 -178 -77t-57 -243
v-989q0 -22 -15.5 -36.5t-40.5 -14.5q-22 0 -36.5 14.5t-14.5 36.5v1010q0 399 354 399q123 0 206 -68.5t83 -171.5q0 -54 -23.5 -105t-57.5 -88.5t-67.5 -70t-57 -63t-23.5 -54.5q0 -28 23.5 -57t61 -56t82.5 -56.5t90 -66t82.5 -77t61 -96.5t23.5 -119q0 -139 -88 -230
t-219 -91q-151 0 -281 124q-12 12 -12 33z" />
    <glyph glyph-name="agrave" unicode="&#xe0;" horiz-adv-x="940" 
d="M90 262q0 134 98 210.5t252 76.5q152 0 250 -70q0 48 -1 79t-4.5 69.5t-10.5 62.5t-18.5 51t-29.5 43t-42.5 30t-58.5 20t-76 6q-114 0 -205 -45q-14 -7 -25 -7q-28 0 -43 27q-6 12 -6 23q0 25 25 39q123 63 260 63q185 0 263.5 -93t78.5 -276v-528q0 -22 -15 -36.5
t-39 -14.5q-22 0 -37.5 14.5t-15.5 36.5v98q-112 -153 -315 -153q-128 0 -206.5 74.5t-78.5 199.5zM690 233v154q-103 74 -239 74q-101 0 -174.5 -49.5t-73.5 -143.5q0 -84 58 -132t147 -48q56 0 102 12.5t79.5 35.5t55.5 45t45 52zM555 1135l-2 -2q-18 -9 -25 -9
q-18 0 -32 17l-185 225q-10 13 -10 27q0 22 18 37l11 6q13 10 28 10q22 0 35 -19l172 -237q6 -9 6 -23q0 -21 -16 -32z" />
    <glyph glyph-name="aacute" unicode="&#xe1;" horiz-adv-x="940" 
d="M90 262q0 134 98 210.5t252 76.5q152 0 250 -70q0 48 -1 79t-4.5 69.5t-10.5 62.5t-18.5 51t-29.5 43t-42.5 30t-58.5 20t-76 6q-114 0 -205 -45q-14 -7 -25 -7q-28 0 -43 27q-6 12 -6 23q0 25 25 39q123 63 260 63q185 0 263.5 -93t78.5 -276v-528q0 -22 -15 -36.5
t-39 -14.5q-22 0 -37.5 14.5t-15.5 36.5v98q-112 -153 -315 -153q-128 0 -206.5 74.5t-78.5 199.5zM690 233v154q-103 74 -239 74q-101 0 -174.5 -49.5t-73.5 -143.5q0 -84 58 -132t147 -48q56 0 102 12.5t79.5 35.5t55.5 45t45 52zM618 1438l9 -6q18 -15 18 -37
q0 -14 -10 -27l-184 -227q-12 -15 -33 -15q-15 0 -27 9q-14 11 -14 30q0 14 6 23l172 242q12 18 35 18q15 0 28 -10z" />
    <glyph glyph-name="acircumflex" unicode="&#xe2;" horiz-adv-x="940" 
d="M90 262q0 134 98 210.5t252 76.5q152 0 250 -70q0 48 -1 79t-4.5 69.5t-10.5 62.5t-18.5 51t-29.5 43t-42.5 30t-58.5 20t-76 6q-114 0 -205 -45q-14 -7 -25 -7q-28 0 -43 27q-6 12 -6 23q0 25 25 39q123 63 260 63q185 0 263.5 -93t78.5 -276v-528q0 -22 -15 -36.5
t-39 -14.5q-22 0 -37.5 14.5t-15.5 36.5v98q-112 -153 -315 -153q-128 0 -206.5 74.5t-78.5 199.5zM690 233v154q-103 74 -239 74q-101 0 -174.5 -49.5t-73.5 -143.5q0 -84 58 -132t147 -48q56 0 102 12.5t79.5 35.5t55.5 45t45 52zM221 1200l217 215q12 15 35 15
q20 0 35 -15l211 -215q10 -13 10 -26q0 -19 -14 -33q-15 -11 -27 -11q-18 0 -31 13l-186 186l-190 -186q-13 -10 -27 -10q-19 0 -33 14q-12 12 -12 27q0 17 12 26z" />
    <glyph glyph-name="atilde" unicode="&#xe3;" horiz-adv-x="940" 
d="M90 262q0 134 98 210.5t252 76.5q152 0 250 -70q0 48 -1 79t-4.5 69.5t-10.5 62.5t-18.5 51t-29.5 43t-42.5 30t-58.5 20t-76 6q-114 0 -205 -45q-14 -7 -25 -7q-28 0 -43 27q-6 12 -6 23q0 25 25 39q123 63 260 63q185 0 263.5 -93t78.5 -276v-528q0 -22 -15 -36.5
t-39 -14.5q-22 0 -37.5 14.5t-15.5 36.5v98q-112 -153 -315 -153q-128 0 -206.5 74.5t-78.5 199.5zM690 233v154q-103 74 -239 74q-101 0 -174.5 -49.5t-73.5 -143.5q0 -84 58 -132t147 -48q56 0 102 12.5t79.5 35.5t55.5 45t45 52zM578 1149q-37 0 -75.5 23.5t-77.5 47
t-77 23.5q-50 0 -123 -51q-9 -6 -20 -6q-18 0 -31 16q-8 12 -8 21q0 14 10 24q99 84 184 84q40 0 79.5 -23.5t76.5 -47t72 -23.5q59 0 127 57q9 9 20 9q17 0 29 -15q10 -10 10 -22q0 -13 -10 -23q-101 -94 -186 -94z" />
    <glyph glyph-name="adieresis" unicode="&#xe4;" horiz-adv-x="940" 
d="M90 262q0 134 98 210.5t252 76.5q152 0 250 -70q0 48 -1 79t-4.5 69.5t-10.5 62.5t-18.5 51t-29.5 43t-42.5 30t-58.5 20t-76 6q-114 0 -205 -45q-14 -7 -25 -7q-28 0 -43 27q-6 12 -6 23q0 25 25 39q123 63 260 63q185 0 263.5 -93t78.5 -276v-528q0 -22 -15 -36.5
t-39 -14.5q-22 0 -37.5 14.5t-15.5 36.5v98q-112 -153 -315 -153q-128 0 -206.5 74.5t-78.5 199.5zM690 233v154q-103 74 -239 74q-101 0 -174.5 -49.5t-73.5 -143.5q0 -84 58 -132t147 -48q56 0 102 12.5t79.5 35.5t55.5 45t45 52zM252 1194q-30 0 -50 20t-20 52
q0 30 20 48.5t50 18.5q25 0 44 -19t19 -48q0 -31 -19.5 -51.5t-43.5 -20.5zM678 1194q-30 0 -50 20t-20 52q0 30 20 48.5t50 18.5q25 0 44 -19t19 -48q0 -31 -19.5 -51.5t-43.5 -20.5z" />
    <glyph glyph-name="aring" unicode="&#xe5;" horiz-adv-x="940" 
d="M90 262q0 134 98 210.5t252 76.5q152 0 250 -70q0 48 -1 79t-4.5 69.5t-10.5 62.5t-18.5 51t-29.5 43t-42.5 30t-58.5 20t-76 6q-114 0 -205 -45q-14 -7 -25 -7q-28 0 -43 27q-6 12 -6 23q0 25 25 39q123 63 260 63q185 0 263.5 -93t78.5 -276v-528q0 -22 -15 -36.5
t-39 -14.5q-22 0 -37.5 14.5t-15.5 36.5v98q-112 -153 -315 -153q-128 0 -206.5 74.5t-78.5 199.5zM690 233v154q-103 74 -239 74q-101 0 -174.5 -49.5t-73.5 -143.5q0 -84 58 -132t147 -48q56 0 102 12.5t79.5 35.5t55.5 45t45 52zM461 1047q-91 0 -153 61t-62 149
t62.5 150.5t152.5 62.5q92 0 155.5 -62.5t63.5 -150.5t-63.5 -149t-155.5 -61zM463 1407q-61 0 -103.5 -44t-42.5 -106t42.5 -104.5t103.5 -42.5t103 42.5t42 104.5t-42 106t-103 44z" />
    <glyph glyph-name="ae" unicode="&#xe6;" horiz-adv-x="1613" 
d="M797 526h618q-3 146 -88.5 230t-230.5 84q-104 0 -182.5 -45t-122.5 -125q6 -46 6 -99v-45zM690 233v201q-138 27 -239 27t-174.5 -49.5t-73.5 -143.5q0 -84 58 -132t147 -48q56 0 102 12.5t79.5 35.5t55.5 45t45 52zM449 840q-114 0 -205 -45q-14 -7 -23 -7
q-28 0 -43 27q-6 9 -6 23q0 29 23 39q123 63 260 63q223 0 299 -145q126 145 352 145q181 0 299.5 -115t118.5 -301q0 -8 -1 -23t-1 -22q0 -15 -14 -28t-29 -13h-682v-182q48 -84 134 -129t204 -45q137 0 249 80q13 10 29 10q24 0 41 -20q10 -13 10 -29q0 -19 -14 -33
q-64 -51 -151 -79.5t-171 -28.5q-247 0 -385 163q-78 -81 -162.5 -119t-187.5 -38q-141 0 -222 74t-81 200q0 134 98 210.5t252 76.5q53 0 131.5 -9t118.5 -18q2 18 2 51q0 135 -56 201t-187 66z" />
    <glyph glyph-name="ccedilla" unicode="&#xe7;" horiz-adv-x="991" 
d="M786 -258q0 -71 -62.5 -114.5t-172.5 -43.5q-87 0 -168 45q-14 6 -14 25q0 12 4 18q10 17 28 17q7 0 15 -4q64 -31 121 -31q63 0 103 25.5t40 68.5q0 83 -107 94q-21 3 -34 17t-13 35v90q-192 17 -311 146.5t-119 330.5q0 132 59.5 242t165 173.5t234.5 63.5
q204 0 330 -86q18 -14 18 -39q0 -16 -12 -31q-18 -18 -41 -18q-16 0 -33 10q-97 64 -246 64t-255.5 -108.5t-106.5 -270.5q0 -171 109 -275t274 -104q138 0 250 94q17 17 37 17q16 0 34 -15q15 -12 15 -33q0 -19 -15 -34q-132 -129 -329 -129v-84q102 -3 152 -44t50 -112z
" />
    <glyph glyph-name="egrave" unicode="&#xe8;" horiz-adv-x="1077" 
d="M872 526q-3 146 -88.5 230t-230.5 84q-149 0 -239.5 -87t-104.5 -227h663zM981 524q0 -31 -2 -45q0 -15 -14 -28t-29 -13h-721q6 -165 108 -260.5t269 -95.5q138 0 250 80q13 10 28 10q24 0 41 -20q11 -15 11 -29q0 -18 -15 -33q-65 -51 -151 -79.5t-170 -28.5
q-219 0 -354.5 131t-135.5 348q0 136 52.5 243t160 171.5t254.5 64.5q181 0 299.5 -115t118.5 -301zM621 1135l-3 -2q-18 -9 -24 -9q-19 0 -33 17l-184 225q-10 13 -10 27q0 22 18 37l10 6q13 10 29 10q22 0 35 -19l172 -237q6 -9 6 -23q0 -21 -16 -32z" />
    <glyph glyph-name="eacute" unicode="&#xe9;" horiz-adv-x="1077" 
d="M872 526q-3 146 -88.5 230t-230.5 84q-149 0 -239.5 -87t-104.5 -227h663zM981 524q0 -31 -2 -45q0 -15 -14 -28t-29 -13h-721q6 -165 108 -260.5t269 -95.5q138 0 250 80q13 10 28 10q24 0 41 -20q11 -15 11 -29q0 -18 -15 -33q-65 -51 -151 -79.5t-170 -28.5
q-219 0 -354.5 131t-135.5 348q0 136 52.5 243t160 171.5t254.5 64.5q181 0 299.5 -115t118.5 -301zM741 1438l9 -6q18 -15 18 -37q0 -14 -10 -27l-185 -227q-12 -15 -32 -15q-15 0 -27 9q-14 11 -14 30q0 14 6 23l172 242q12 18 35 18q15 0 28 -10z" />
    <glyph glyph-name="ecircumflex" unicode="&#xea;" horiz-adv-x="1077" 
d="M872 526q-3 146 -88.5 230t-230.5 84q-149 0 -239.5 -87t-104.5 -227h663zM981 524q0 -31 -2 -45q0 -15 -14 -28t-29 -13h-721q6 -165 108 -260.5t269 -95.5q138 0 250 80q13 10 28 10q24 0 41 -20q11 -15 11 -29q0 -18 -15 -33q-65 -51 -151 -79.5t-170 -28.5
q-219 0 -354.5 131t-135.5 348q0 136 52.5 243t160 171.5t254.5 64.5q181 0 299.5 -115t118.5 -301zM309 1200l217 215q12 15 35 15q20 0 35 -15l211 -215q10 -13 10 -26q0 -19 -14 -33q-15 -11 -27 -11q-18 0 -31 13l-186 186l-190 -186q-13 -10 -27 -10q-19 0 -33 14
q-12 12 -12 27q0 17 12 26z" />
    <glyph glyph-name="edieresis" unicode="&#xeb;" horiz-adv-x="1077" 
d="M872 526q-3 146 -88.5 230t-230.5 84q-149 0 -239.5 -87t-104.5 -227h663zM981 524q0 -31 -2 -45q0 -15 -14 -28t-29 -13h-721q6 -165 108 -260.5t269 -95.5q138 0 250 80q13 10 28 10q24 0 41 -20q11 -15 11 -29q0 -18 -15 -33q-65 -51 -151 -79.5t-170 -28.5
q-219 0 -354.5 131t-135.5 348q0 136 52.5 243t160 171.5t254.5 64.5q181 0 299.5 -115t118.5 -301zM334 1194q-30 0 -50 20t-20 52q0 30 20 48.5t50 18.5q25 0 44 -19t19 -48q0 -31 -19.5 -51.5t-43.5 -20.5zM760 1194q-30 0 -50 20t-20 52q0 30 20 48.5t50 18.5
q25 0 44 -19t19 -48q0 -31 -19.5 -51.5t-43.5 -20.5z" />
    <glyph glyph-name="igrave" unicode="&#xec;" horiz-adv-x="532" 
d="M319 874v-831q0 -22 -15 -36.5t-38 -14.5t-38 14.5t-15 36.5v831q0 22 15.5 37t39.5 15q22 0 36.5 -15t14.5 -37zM301 1135l-2 -2q-18 -9 -25 -9q-18 0 -32 17l-185 225q-10 13 -10 27q0 21 19 37l10 6q13 10 28 10q22 0 35 -19l172 -237q6 -9 6 -23q0 -21 -16 -32z" />
    <glyph glyph-name="iacute" unicode="&#xed;" horiz-adv-x="532" 
d="M319 874v-831q0 -22 -15 -36.5t-38 -14.5t-38 14.5t-15 36.5v831q0 22 15.5 37t39.5 15q22 0 36.5 -15t14.5 -37zM440 1438l9 -6q18 -15 18 -37q0 -14 -10 -27l-185 -227q-12 -15 -32 -15q-15 0 -27 9q-14 11 -14 30q0 14 6 23l172 242q12 18 35 18q15 0 28 -10z" />
    <glyph glyph-name="icircumflex" unicode="&#xee;" horiz-adv-x="532" 
d="M319 874v-831q0 -22 -15 -36.5t-38 -14.5t-38 14.5t-15 36.5v831q0 22 15.5 37t39.5 15q22 0 36.5 -15t14.5 -37zM20 1200l218 215q12 15 34 15q20 0 35 -15l211 -215q10 -13 10 -26q0 -19 -14 -33q-15 -11 -27 -11q-17 0 -30 13l-187 186l-190 -186q-13 -10 -27 -10
q-19 0 -33 14q-12 12 -12 27q0 17 12 26z" />
    <glyph glyph-name="idieresis" unicode="&#xef;" horiz-adv-x="532" 
d="M319 874v-831q0 -22 -15 -36.5t-38 -14.5t-38 14.5t-15 36.5v831q0 22 15.5 37t39.5 15q22 0 36.5 -15t14.5 -37zM57 1194q-30 0 -49.5 20t-19.5 52q0 30 19.5 48.5t49.5 18.5q25 0 44.5 -19t19.5 -48q0 -31 -19.5 -51.5t-44.5 -20.5zM483 1194q-30 0 -49.5 20t-19.5 52
q0 30 19.5 48.5t49.5 18.5q25 0 44.5 -19t19.5 -48q0 -31 -19.5 -51.5t-44.5 -20.5z" />
    <glyph glyph-name="eth" unicode="&#xf0;" horiz-adv-x="1159" 
d="M96 461q0 208 135 343.5t349 135.5q113 0 203.5 -57t140.5 -158q-51 271 -248 481l-217 -104q-12 -6 -23 -6q-12 0 -24.5 8.5t-18.5 21.5q-4 12 -4 21q0 31 27 43l184 88q-88 74 -147 106q-21 10 -21 31q0 7 8 23q13 20 35 20q7 0 19 -4q88 -45 196 -133l172 84q9 6 21 6
q30 0 47 -31q6 -9 6 -20q0 -30 -27 -43l-141 -68q140 -145 217.5 -335.5t77.5 -385.5q0 -252 -132.5 -399t-350.5 -147q-214 0 -349 135.5t-135 343.5zM209 461q0 -166 105 -272.5t266 -106.5q165 0 267.5 119t102.5 319v17q-20 120 -120.5 211.5t-249.5 91.5
q-161 0 -266 -106.5t-105 -272.5z" />
    <glyph glyph-name="ntilde" unicode="&#xf1;" horiz-adv-x="1146" 
d="M268 696v-653q0 -22 -15 -36.5t-38 -14.5t-38 14.5t-15 36.5v831q0 22 15.5 37t39.5 15q22 0 36.5 -15t14.5 -37v-81q55 62 146 103.5t186 41.5q191 0 288 -99.5t97 -312.5v-483q0 -22 -15.5 -36.5t-39.5 -14.5q-22 0 -36.5 14.5t-14.5 36.5v463q0 169 -75 250.5
t-229 81.5q-91 0 -174.5 -41.5t-132.5 -100.5zM672 1149q-37 0 -75.5 23.5t-77.5 47t-77 23.5q-50 0 -123 -51q-9 -6 -20 -6q-18 0 -31 16q-8 12 -8 21q0 14 10 24q99 84 185 84q40 0 79.5 -23.5t76 -47t71.5 -23.5q59 0 127 57q9 9 20 9q17 0 29 -15q10 -10 10 -22
q0 -13 -10 -23q-101 -94 -186 -94z" />
    <glyph glyph-name="ograve" unicode="&#xf2;" horiz-adv-x="1159" 
d="M96 461q0 208 135 343.5t349 135.5t348.5 -135t134.5 -344t-134.5 -344t-348.5 -135t-349 135.5t-135 343.5zM209 461q0 -166 105 -272.5t266 -106.5q163 0 266.5 106t103.5 273q0 166 -103.5 272.5t-266.5 106.5q-161 0 -266 -106.5t-105 -272.5zM643 1135l-2 -2
q-18 -9 -25 -9q-18 0 -32 17l-185 225q-10 13 -10 27q0 21 19 37l10 6q13 10 28 10q22 0 35 -19l172 -237q6 -9 6 -23q0 -21 -16 -32z" />
    <glyph glyph-name="oacute" unicode="&#xf3;" horiz-adv-x="1159" 
d="M96 461q0 208 135 343.5t349 135.5t348.5 -135t134.5 -344t-134.5 -344t-348.5 -135t-349 135.5t-135 343.5zM209 461q0 -166 105 -272.5t266 -106.5q163 0 266.5 106t103.5 273q0 166 -103.5 272.5t-266.5 106.5q-161 0 -266 -106.5t-105 -272.5zM745 1438l9 -6
q18 -15 18 -37q0 -14 -10 -27l-184 -227q-12 -15 -33 -15q-15 0 -27 9q-14 11 -14 30q0 14 6 23l172 242q12 18 35 18q15 0 28 -10z" />
    <glyph glyph-name="ocircumflex" unicode="&#xf4;" horiz-adv-x="1159" 
d="M96 461q0 208 135 343.5t349 135.5t348.5 -135t134.5 -344t-134.5 -344t-348.5 -135t-349 135.5t-135 343.5zM209 461q0 -166 105 -272.5t266 -106.5q163 0 266.5 106t103.5 273q0 166 -103.5 272.5t-266.5 106.5q-161 0 -266 -106.5t-105 -272.5zM332 1200l217 215
q12 15 35 15q19 0 34 -15l211 -215q11 -15 11 -26q0 -18 -15 -33q-15 -11 -26 -11q-18 0 -31 13l-186 186l-191 -186q-13 -10 -26 -10q-19 0 -33 14q-13 13 -13 27q0 16 13 26z" />
    <glyph glyph-name="otilde" unicode="&#xf5;" horiz-adv-x="1159" 
d="M96 461q0 208 135 343.5t349 135.5t348.5 -135t134.5 -344t-134.5 -344t-348.5 -135t-349 135.5t-135 343.5zM209 461q0 -166 105 -272.5t266 -106.5q163 0 266.5 106t103.5 273q0 166 -103.5 272.5t-266.5 106.5q-161 0 -266 -106.5t-105 -272.5zM688 1149
q-30 0 -61 14.5t-53 32.5t-53 32.5t-62 14.5q-50 0 -123 -51q-9 -6 -21 -6q-17 0 -30 16q-9 14 -9 21q0 13 11 24q99 84 184 84q40 0 79.5 -23.5t76 -47t71.5 -23.5q59 0 127 57q9 9 21 9q16 0 28 -15q11 -11 11 -22q0 -12 -11 -23q-101 -94 -186 -94z" />
    <glyph glyph-name="odieresis" unicode="&#xf6;" horiz-adv-x="1159" 
d="M96 461q0 208 135 343.5t349 135.5t348.5 -135t134.5 -344t-134.5 -344t-348.5 -135t-349 135.5t-135 343.5zM209 461q0 -166 105 -272.5t266 -106.5q163 0 266.5 106t103.5 273q0 166 -103.5 272.5t-266.5 106.5q-161 0 -266 -106.5t-105 -272.5zM377 1194q-30 0 -50 20
t-20 52q0 30 20 48.5t50 18.5q25 0 44 -19t19 -48q0 -31 -19.5 -51.5t-43.5 -20.5zM803 1194q-30 0 -50 20t-20 52q0 30 20 48.5t50 18.5q25 0 44 -19t19 -48q0 -31 -19.5 -51.5t-43.5 -20.5z" />
    <glyph glyph-name="divide" unicode="&#xf7;" horiz-adv-x="1204" 
d="M674 1167q0 -29 -20 -51t-50 -22q-32 0 -52 22t-20 51q0 27 20 48.5t52 21.5q29 0 49.5 -22t20.5 -48zM674 309q0 -30 -20 -51.5t-50 -21.5q-33 0 -52.5 21.5t-19.5 51.5q0 26 20 47t52 21q30 0 50 -21t20 -47zM1014 690h-824q-19 0 -32 14t-13 35q0 19 13 32t32 13h824
q19 0 32 -14t13 -35q0 -19 -13 -32t-32 -13z" />
    <glyph glyph-name="oslash" unicode="&#xf8;" horiz-adv-x="1159" 
d="M133 72l74 71q-111 126 -111 318q0 208 135 343.5t349 135.5q191 0 325 -115l74 74q10 10 27 10q21 0 34 -16q13 -13 13 -29q0 -18 -15 -33l-71 -71q96 -126 96 -299q0 -209 -134.5 -344t-348.5 -135q-176 0 -308 98l-77 -76q-12 -12 -29 -12q-19 0 -35 16q-12 12 -12 31
t14 33zM827 750q-99 90 -247 90q-161 0 -266 -106.5t-105 -272.5q0 -144 76 -242zM350 156q96 -74 230 -74q163 0 266.5 106t103.5 273q0 127 -63 221z" />
    <glyph glyph-name="ugrave" unicode="&#xf9;" horiz-adv-x="1114" 
d="M844 242v632q0 22 15 37t38 15t38 -15t15 -37v-831q0 -22 -15.5 -36.5t-39.5 -14.5q-22 0 -36.5 14.5t-14.5 36.5v102q-56 -69 -150.5 -116t-199.5 -47q-171 0 -262 100t-91 305v487q0 22 16 37t40 15q22 0 36.5 -15t14.5 -37v-464q0 -164 68.5 -246t215.5 -82
q91 0 177 48t135 112zM616 1135l-2 -2q-18 -9 -24 -9q-19 0 -33 17l-184 225q-11 15 -11 27q0 21 19 37l10 6q13 10 29 10q22 0 35 -19l172 -237q6 -9 6 -23q0 -21 -17 -32z" />
    <glyph glyph-name="uacute" unicode="&#xfa;" horiz-adv-x="1114" 
d="M844 242v632q0 22 15 37t38 15t38 -15t15 -37v-831q0 -22 -15.5 -36.5t-39.5 -14.5q-22 0 -36.5 14.5t-14.5 36.5v102q-56 -69 -150.5 -116t-199.5 -47q-171 0 -262 100t-91 305v487q0 22 16 37t40 15q22 0 36.5 -15t14.5 -37v-464q0 -164 68.5 -246t215.5 -82
q91 0 177 48t135 112zM725 1438l8 -6q19 -16 19 -37q0 -12 -11 -27l-184 -227q-12 -15 -33 -15q-14 0 -26 9q-15 12 -15 30q0 14 6 23l173 242q12 18 34 18q16 0 29 -10z" />
    <glyph glyph-name="ucircumflex" unicode="&#xfb;" horiz-adv-x="1114" 
d="M844 242v632q0 22 15 37t38 15t38 -15t15 -37v-831q0 -22 -15.5 -36.5t-39.5 -14.5q-22 0 -36.5 14.5t-14.5 36.5v102q-56 -69 -150.5 -116t-199.5 -47q-171 0 -262 100t-91 305v487q0 22 16 37t40 15q22 0 36.5 -15t14.5 -37v-464q0 -164 68.5 -246t215.5 -82
q91 0 177 48t135 112zM301 1200l217 215q12 15 35 15q20 0 35 -15l211 -215q10 -13 10 -26q0 -19 -14 -33q-15 -11 -27 -11q-18 0 -31 13l-186 186l-191 -186q-13 -10 -26 -10q-19 0 -33 14q-12 12 -12 27q0 17 12 26z" />
    <glyph glyph-name="udieresis" unicode="&#xfc;" horiz-adv-x="1114" 
d="M844 242v632q0 22 15 37t38 15t38 -15t15 -37v-831q0 -22 -15.5 -36.5t-39.5 -14.5q-22 0 -36.5 14.5t-14.5 36.5v102q-56 -69 -150.5 -116t-199.5 -47q-171 0 -262 100t-91 305v487q0 22 16 37t40 15q22 0 36.5 -15t14.5 -37v-464q0 -164 68.5 -246t215.5 -82
q91 0 177 48t135 112zM346 1194q-30 0 -50 20t-20 52q0 30 20 48.5t50 18.5q25 0 44.5 -19t19.5 -48q0 -31 -19.5 -51.5t-44.5 -20.5zM772 1194q-30 0 -50 20t-20 52q0 30 20 48.5t50 18.5q25 0 44.5 -19t19.5 -48q0 -31 -19.5 -51.5t-44.5 -20.5z" />
    <glyph glyph-name="yacute" unicode="&#xfd;" horiz-adv-x="972" 
d="M461 270l65 -143q6 21 14.5 45t20 54.5t17.5 47.5l235 613q5 16 19.5 27.5t33.5 11.5q26 0 41 -15t15 -39q0 -12 -7 -26l-342 -846q-67 -164 -123 -253.5t-106.5 -123t-116.5 -33.5q-69 0 -125 29q-26 13 -26 41q0 11 6 23q12 24 43 24q8 0 20 -4q40 -14 68 -14
q70 0 125.5 61t114.5 201l20 49l-416 842q-6 15 -6 28q0 23 16 39.5t44 16.5q33 0 51 -37zM645 1438l8 -6q19 -16 19 -37q0 -14 -10 -27l-185 -227q-12 -15 -33 -15q-14 0 -26 9q-15 12 -15 30q0 13 7 23l172 242q12 18 34 18q16 0 29 -10z" />
    <glyph glyph-name="thorn" unicode="&#xfe;" horiz-adv-x="1134" 
d="M268 59v-417q0 -22 -15 -37t-38 -15t-38 15t-15 37v1740q0 22 15.5 37t39.5 15q22 0 36.5 -15t14.5 -37v-577q57 60 148 97.5t190 37.5q197 0 313.5 -129t116.5 -336q0 -214 -130.5 -353.5t-342.5 -139.5q-189 0 -295 77zM268 696v-530q128 -84 287 -84
q166 0 267.5 108.5t101.5 278.5q0 168 -91.5 269.5t-254.5 101.5q-93 0 -178 -42t-132 -102z" />
    <glyph glyph-name="ydieresis" unicode="&#xff;" horiz-adv-x="972" 
d="M461 270l65 -143q6 21 14.5 45t20 54.5t17.5 47.5l235 613q5 16 19.5 27.5t33.5 11.5q26 0 41 -15t15 -39q0 -12 -7 -26l-342 -846q-67 -164 -123 -253.5t-106.5 -123t-116.5 -33.5q-69 0 -125 29q-26 13 -26 41q0 11 6 23q12 24 43 24q8 0 20 -4q40 -14 68 -14
q70 0 125.5 61t114.5 201l20 49l-416 842q-6 15 -6 28q0 23 16 39.5t44 16.5q33 0 51 -37zM279 1194q-30 0 -50 20t-20 52q0 30 20 48.5t50 18.5q25 0 44 -19t19 -48q0 -31 -19.5 -51.5t-43.5 -20.5zM705 1194q-30 0 -50 20t-20 52q0 30 20 48.5t50 18.5q25 0 44 -19t19 -48
q0 -31 -19.5 -51.5t-43.5 -20.5z" />
    <glyph glyph-name="Amacron" unicode="&#x100;" horiz-adv-x="1404" 
d="M1044 487h-688l-200 -467q-13 -30 -47 -30q-23 0 -38.5 15.5t-15.5 37.5q0 8 4 20l586 1338q18 41 57 41q42 0 60 -41l584 -1335q4 -12 4 -21q0 -22 -17 -38.5t-39 -16.5q-36 0 -49 30zM700 1286l-299 -692h598zM969 1593h-531q-19 0 -31 13t-12 34q0 17 12 29t31 12h531
q18 0 29.5 -12.5t11.5 -32.5q0 -19 -12 -31t-29 -12z" />
    <glyph glyph-name="amacron" unicode="&#x101;" horiz-adv-x="940" 
d="M90 262q0 134 98 210.5t252 76.5q152 0 250 -70q0 48 -1 79t-4.5 69.5t-10.5 62.5t-18.5 51t-29.5 43t-42.5 30t-58.5 20t-76 6q-114 0 -205 -45q-14 -7 -25 -7q-28 0 -43 27q-6 12 -6 23q0 25 25 39q123 63 260 63q185 0 263.5 -93t78.5 -276v-528q0 -22 -15 -36.5
t-39 -14.5q-22 0 -37.5 14.5t-15.5 36.5v98q-112 -153 -315 -153q-128 0 -206.5 74.5t-78.5 199.5zM690 233v154q-103 74 -239 74q-101 0 -174.5 -49.5t-73.5 -143.5q0 -84 58 -132t147 -48q56 0 102 12.5t79.5 35.5t55.5 45t45 52zM690 1237h-432q-19 0 -31 13t-12 34
q0 17 12 29t31 12h432q18 0 29.5 -12.5t11.5 -32.5q0 -19 -12 -31t-29 -12z" />
    <glyph glyph-name="Abreve" unicode="&#x102;" horiz-adv-x="1404" 
d="M1044 487h-688l-200 -467q-13 -30 -47 -30q-23 0 -38.5 15.5t-15.5 37.5q0 8 4 20l586 1338q18 41 57 41q42 0 60 -41l584 -1335q4 -12 4 -21q0 -22 -17 -38.5t-39 -16.5q-36 0 -49 30zM700 1286l-299 -692h598zM1030 1698q-55 -67 -140 -113.5t-181 -46.5
q-106 0 -193 48t-139 110q-6 9 -6 20q0 18 16 31q11 8 25 8q16 0 28 -12q111 -111 269 -111q155 0 264 113q10 10 24 10q19 0 29 -10q12 -9 12 -27q0 -8 -8 -20z" />
    <glyph glyph-name="abreve" unicode="&#x103;" horiz-adv-x="940" 
d="M90 262q0 134 98 210.5t252 76.5q152 0 250 -70q0 48 -1 79t-4.5 69.5t-10.5 62.5t-18.5 51t-29.5 43t-42.5 30t-58.5 20t-76 6q-114 0 -205 -45q-14 -7 -25 -7q-28 0 -43 27q-6 12 -6 23q0 25 25 39q123 63 260 63q185 0 263.5 -93t78.5 -276v-528q0 -22 -15 -36.5
t-39 -14.5q-22 0 -37.5 14.5t-15.5 36.5v98q-112 -153 -315 -153q-128 0 -206.5 74.5t-78.5 199.5zM690 233v154q-103 74 -239 74q-101 0 -174.5 -49.5t-73.5 -143.5q0 -84 58 -132t147 -48q56 0 102 12.5t79.5 35.5t55.5 45t45 52zM745 1329q-58 -75 -122 -115t-156 -40
q-170 0 -277 155q-4 8 -4 17q0 19 17 30q9 6 20 6q18 0 27 -12q99 -108 221 -108t219 108q12 12 25 12q11 0 22 -8q15 -9 15 -26q0 -12 -7 -19z" />
    <glyph glyph-name="Aogonek" unicode="&#x104;" horiz-adv-x="1404" 
d="M1044 487h-688l-200 -467q-13 -30 -47 -30q-23 0 -38.5 15.5t-15.5 37.5q0 8 4 20l586 1338q18 41 57 41q42 0 60 -41l584 -1335q4 -12 4 -21q0 -22 -17 -38.5t-39 -16.5q-15 0 -24 6q-88 -14 -149.5 -66t-61.5 -120q0 -37 15.5 -64.5t39.5 -41.5t47.5 -20t46.5 -6
q33 0 60 7q6 2 16 2q24 0 35 -25q4 -12 4 -16q0 -25 -20 -33q-57 -23 -119 -23q-41 0 -79.5 9.5t-74 30t-57 58.5t-21.5 89q0 98 86 164t205 82zM700 1286l-299 -692h598z" />
    <glyph glyph-name="aogonek" unicode="&#x105;" horiz-adv-x="940" 
d="M518 -190q0 -30 10.5 -54t26.5 -38.5t37 -23.5t39.5 -12.5t36.5 -3.5q32 0 59 7q6 2 16 2q26 0 35 -23q4 -12 4 -18q0 -25 -20 -33q-58 -23 -119 -23q-41 0 -79.5 9.5t-74 30t-56.5 58.5t-21 89q0 97 82 162t200 84q-4 12 -4 20v98q-112 -153 -315 -153
q-128 0 -206.5 74.5t-78.5 199.5q0 134 98 210.5t252 76.5q152 0 250 -70q0 48 -1 79t-4.5 69.5t-10.5 62.5t-18.5 51t-29.5 43t-42.5 30t-58.5 20t-76 6q-114 0 -205 -45q-14 -7 -25 -7q-28 0 -43 27q-6 12 -6 23q0 25 25 39q123 63 260 63q185 0 263.5 -93t78.5 -276v-528
q0 -22 -15 -36.5t-39 -14.5q-8 0 -20 4q-87 -16 -146 -67t-59 -119zM690 233v154q-103 74 -239 74q-101 0 -174.5 -49.5t-73.5 -143.5q0 -84 58 -132t147 -48q56 0 102 12.5t79.5 35.5t55.5 45t45 52z" />
    <glyph glyph-name="Cacute" unicode="&#x106;" horiz-adv-x="1329" 
d="M1155 1260q-137 86 -340 86q-171 0 -305 -81.5t-207.5 -224.5t-73.5 -323q0 -281 169.5 -455t439.5 -174q194 0 344 105q17 10 30 10q21 0 39 -21q11 -15 11 -28q0 -24 -19 -39q-77 -60 -189 -96.5t-225 -36.5q-158 0 -291.5 52.5t-227.5 147.5t-146.5 232.5t-52.5 302.5
q0 154 49.5 288.5t139 233.5t222 156t291.5 57q245 0 395 -106q23 -16 23 -43q0 -11 -8 -27q-16 -25 -43 -25q-7 0 -25 9zM1051 1737l2 -6q4 -6 4 -21q0 -28 -25 -41l-305 -143q-8 -4 -14 -4q-20 0 -33 22q-4 4 -4 17q0 20 16 30l297 164q9 6 23 6q29 0 39 -24z" />
    <glyph glyph-name="cacute" unicode="&#x107;" horiz-adv-x="991" 
d="M817 776q-97 64 -246 64t-255.5 -108.5t-106.5 -270.5q0 -171 109 -275t274 -104q138 0 250 94q17 17 37 17q16 0 34 -15q15 -12 15 -33q0 -19 -15 -34q-132 -129 -329 -129q-216 0 -352 131.5t-136 347.5q0 132 59.5 242t165 173.5t234.5 63.5q204 0 330 -86
q18 -14 18 -39q0 -16 -12 -31q-18 -18 -41 -18q-16 0 -33 10zM725 1438l8 -6q19 -16 19 -37q0 -12 -11 -27l-184 -227q-12 -15 -33 -15q-14 0 -26 9q-15 12 -15 30q0 14 6 23l173 242q12 18 34 18q16 0 29 -10z" />
    <glyph glyph-name="Ccircumflex" unicode="&#x108;" horiz-adv-x="1329" 
d="M1155 1260q-137 86 -340 86q-171 0 -305 -81.5t-207.5 -224.5t-73.5 -323q0 -281 169.5 -455t439.5 -174q194 0 344 105q17 10 30 10q21 0 39 -21q11 -15 11 -28q0 -24 -19 -39q-77 -60 -189 -96.5t-225 -36.5q-158 0 -291.5 52.5t-227.5 147.5t-146.5 232.5t-52.5 302.5
q0 154 49.5 288.5t139 233.5t222 156t291.5 57q245 0 395 -106q23 -16 23 -43q0 -11 -8 -27q-16 -25 -43 -25q-7 0 -25 9zM803 1675l-281 -153q-12 -4 -16 -4q-24 0 -33 20q-4 6 -4 21q0 20 16 30l279 160q15 10 39 10q26 0 41 -10l280 -160q17 -10 17 -30q0 -11 -6 -23
q-12 -18 -33 -18q-9 0 -17 4z" />
    <glyph glyph-name="ccircumflex" unicode="&#x109;" horiz-adv-x="991" 
d="M817 776q-97 64 -246 64t-255.5 -108.5t-106.5 -270.5q0 -171 109 -275t274 -104q138 0 250 94q17 17 37 17q16 0 34 -15q15 -12 15 -33q0 -19 -15 -34q-132 -129 -329 -129q-216 0 -352 131.5t-136 347.5q0 132 59.5 242t165 173.5t234.5 63.5q204 0 330 -86
q18 -14 18 -39q0 -16 -12 -31q-18 -18 -41 -18q-16 0 -33 10zM319 1200l218 215q12 15 34 15q20 0 35 -15l211 -215q10 -13 10 -26q0 -19 -14 -33q-15 -11 -27 -11q-17 0 -30 13l-187 186l-190 -186q-13 -10 -27 -10q-19 0 -33 14q-12 12 -12 27q0 17 12 26z" />
    <glyph glyph-name="Cdotaccent" unicode="&#x10a;" horiz-adv-x="1329" 
d="M1155 1260q-137 86 -340 86q-171 0 -305 -81.5t-207.5 -224.5t-73.5 -323q0 -281 169.5 -455t439.5 -174q194 0 344 105q17 10 30 10q21 0 39 -21q11 -15 11 -28q0 -24 -19 -39q-77 -60 -189 -96.5t-225 -36.5q-158 0 -291.5 52.5t-227.5 147.5t-146.5 232.5t-52.5 302.5
q0 154 49.5 288.5t139 233.5t222 156t291.5 57q245 0 395 -106q23 -16 23 -43q0 -11 -8 -27q-16 -25 -43 -25q-7 0 -25 9zM858 1651q0 -35 -23.5 -55.5t-54.5 -20.5q-34 0 -57 20.5t-23 55.5q0 33 23.5 53t56.5 20q31 0 54.5 -20.5t23.5 -52.5z" />
    <glyph glyph-name="cdotaccent" unicode="&#x10b;" horiz-adv-x="991" 
d="M817 776q-97 64 -246 64t-255.5 -108.5t-106.5 -270.5q0 -171 109 -275t274 -104q138 0 250 94q17 17 37 17q16 0 34 -15q15 -12 15 -33q0 -19 -15 -34q-132 -129 -329 -129q-216 0 -352 131.5t-136 347.5q0 132 59.5 242t165 173.5t234.5 63.5q204 0 330 -86
q18 -14 18 -39q0 -16 -12 -31q-18 -18 -41 -18q-16 0 -33 10zM647 1280q0 -34 -20.5 -55t-48.5 -21q-32 0 -54 21t-22 55q0 30 22 49t54 19q27 0 48 -19t21 -49z" />
    <glyph glyph-name="Ccaron" unicode="&#x10c;" horiz-adv-x="1329" 
d="M1155 1260q-137 86 -340 86q-171 0 -305 -81.5t-207.5 -224.5t-73.5 -323q0 -281 169.5 -455t439.5 -174q194 0 344 105q17 10 30 10q21 0 39 -21q11 -15 11 -28q0 -24 -19 -39q-77 -60 -189 -96.5t-225 -36.5q-158 0 -291.5 52.5t-227.5 147.5t-146.5 232.5t-52.5 302.5
q0 154 49.5 288.5t139 233.5t222 156t291.5 57q245 0 395 -106q23 -16 23 -43q0 -11 -8 -27q-16 -25 -43 -25q-7 0 -25 9zM1124 1700l-278 -162q-17 -10 -41 -10q-23 0 -43 10l-277 160q-18 9 -18 33q0 14 4 22q9 19 33 19q10 0 18 -5l285 -159l278 157q6 4 17 4
q24 0 35 -20q4 -6 4 -18q0 -21 -17 -31z" />
    <glyph glyph-name="ccaron" unicode="&#x10d;" horiz-adv-x="991" 
d="M817 776q-97 64 -246 64t-255.5 -108.5t-106.5 -270.5q0 -171 109 -275t274 -104q138 0 250 94q17 17 37 17q16 0 34 -15q15 -12 15 -33q0 -19 -15 -34q-132 -129 -329 -129q-216 0 -352 131.5t-136 347.5q0 132 59.5 242t165 173.5t234.5 63.5q204 0 330 -86
q18 -14 18 -39q0 -16 -12 -31q-18 -18 -41 -18q-16 0 -33 10zM825 1370l-217 -219q-14 -14 -35 -14q-20 0 -34 14l-215 217q-11 15 -11 25q0 18 17 32q15 11 26 11q16 0 29 -13l190 -198l191 198q13 13 27 13q17 0 30 -13t13 -26q0 -16 -11 -27z" />
    <glyph glyph-name="Dcaron" unicode="&#x10e;" horiz-adv-x="1509" 
d="M287 1434q306 6 307 6q167 0 303 -37.5t228.5 -102.5t155 -155t90.5 -191.5t28 -216.5q0 -124 -32.5 -234.5t-99.5 -203.5t-163.5 -160.5t-231 -105t-294.5 -37.5q-73 0 -291 4q-25 0 -42.5 17t-17.5 42v1315q0 25 17.5 42.5t42.5 17.5zM340 1327v-1221q234 -4 242 -4
q169 0 303 48.5t219.5 135t130.5 201t45 250.5q0 127 -41.5 233.5t-124 188.5t-216.5 128t-308 46q-47 0 -88.5 -1t-86.5 -2.5zM1008 1700l-279 -162q-17 -10 -41 -10q-23 0 -43 10l-276 160q-19 10 -19 33q0 14 4 22q10 19 33 19q11 0 19 -5l284 -159l279 157q6 4 16 4
q24 0 35 -20q4 -6 4 -18q0 -21 -16 -31z" />
    <glyph glyph-name="dcaron" unicode="&#x10f;" horiz-adv-x="1132" 
d="M971 1382v-1339q0 -22 -15 -36.5t-38 -14.5t-38.5 14.5t-15.5 36.5v88q-58 -66 -140 -106.5t-177 -40.5q-204 0 -327.5 129t-123.5 344q0 212 142.5 347.5t359.5 135.5q155 0 266 -80v522q0 22 16 37t40 15q22 0 36.5 -15t14.5 -37zM864 229v527q-125 84 -264 84
q-165 0 -278 -106t-113 -273q0 -175 98.5 -276t259.5 -101q86 0 167 43t130 102zM1128 1143q76 79 76 196q0 31 -6 52q-2 6 -2 14q0 37 39 49q4 2 12 2q14 0 28 -8.5t17 -20.5q13 -41 13 -75q0 -92 -37.5 -163t-96.5 -110q-8 -4 -16 -4q-21 0 -31 17q-8 11 -8 22q0 17 12 29
z" />
    <glyph glyph-name="Dcroat" unicode="&#x110;" horiz-adv-x="1552" 
d="M621 -4q-73 0 -291 4q-25 0 -42.5 17t-17.5 42v621h-200q-21 0 -35.5 15t-14.5 38q0 19 15 33t35 14h200v594q0 25 17.5 42.5t42.5 17.5q306 6 307 6q167 0 303 -37.5t228.5 -102.5t155 -155t90.5 -191.5t28 -216.5q0 -124 -32.5 -234.5t-99.5 -203.5t-163.5 -160.5
t-231 -105t-294.5 -37.5zM383 680v-574q234 -4 242 -4q169 0 303 48.5t219.5 135t130.5 201t45 250.5q0 127 -41.5 233.5t-124 188.5t-216.5 128t-308 46q-47 0 -88.5 -1t-86.5 -2.5l-75 -2.5v-547h358q19 0 33 -15t14 -36q0 -20 -14 -34.5t-33 -14.5h-358z" />
    <glyph glyph-name="dcroat" unicode="&#x111;" horiz-adv-x="1132" 
d="M96 457q0 212 142.5 347.5t359.5 135.5q155 0 266 -80v256h-321q-19 0 -31 13t-12 34q0 17 12 29t31 12h321v178q0 22 16 37t40 15q22 0 36.5 -15t14.5 -37v-178h170q18 0 29.5 -12.5t11.5 -32.5q0 -19 -12 -31t-29 -12h-170v-1073q0 -22 -15.5 -36.5t-40.5 -14.5
q-22 0 -36.5 14.5t-14.5 36.5v88q-58 -66 -140 -106.5t-177 -40.5q-204 0 -327.5 129t-123.5 344zM864 229v527q-125 84 -264 84q-165 0 -278 -106t-113 -273q0 -175 98.5 -276t259.5 -101q86 0 167 43t130 102z" />
    <glyph glyph-name="Emacron" unicode="&#x112;" horiz-adv-x="1177" 
d="M340 106h649q22 0 36.5 -15.5t14.5 -39.5q0 -22 -14.5 -36.5t-36.5 -14.5h-702q-25 0 -42.5 17t-17.5 42v1315q0 25 17.5 42.5t42.5 17.5h682q22 0 36.5 -15.5t14.5 -40.5q0 -22 -14.5 -36.5t-36.5 -14.5h-629v-547h567q22 0 36.5 -15.5t14.5 -39.5q0 -22 -14.5 -36.5
t-36.5 -14.5h-567v-568zM889 1593h-531q-19 0 -31 13t-12 34q0 17 12 29t31 12h531q18 0 29.5 -12.5t11.5 -32.5q0 -19 -12 -31t-29 -12z" />
    <glyph glyph-name="emacron" unicode="&#x113;" horiz-adv-x="1077" 
d="M872 526q-3 146 -88.5 230t-230.5 84q-149 0 -239.5 -87t-104.5 -227h663zM981 524q0 -31 -2 -45q0 -15 -14 -28t-29 -13h-721q6 -165 108 -260.5t269 -95.5q138 0 250 80q13 10 28 10q24 0 41 -20q11 -15 11 -29q0 -18 -15 -33q-65 -51 -151 -79.5t-170 -28.5
q-219 0 -354.5 131t-135.5 348q0 136 52.5 243t160 171.5t254.5 64.5q181 0 299.5 -115t118.5 -301zM760 1237h-432q-19 0 -31 13t-12 34q0 17 12 29t31 12h432q18 0 29.5 -12.5t11.5 -32.5q0 -19 -12 -31t-29 -12z" />
    <glyph glyph-name="Edotaccent" unicode="&#x116;" horiz-adv-x="1177" 
d="M340 106h649q22 0 36.5 -15.5t14.5 -39.5q0 -22 -14.5 -36.5t-36.5 -14.5h-702q-25 0 -42.5 17t-17.5 42v1315q0 25 17.5 42.5t42.5 17.5h682q22 0 36.5 -15.5t14.5 -40.5q0 -22 -14.5 -36.5t-36.5 -14.5h-629v-547h567q22 0 36.5 -15.5t14.5 -39.5q0 -22 -14.5 -36.5
t-36.5 -14.5h-567v-568zM709 1651q0 -35 -23.5 -55.5t-54.5 -20.5q-34 0 -57 20.5t-23 55.5q0 33 23.5 53t56.5 20q31 0 54.5 -20.5t23.5 -52.5z" />
    <glyph glyph-name="edotaccent" unicode="&#x117;" horiz-adv-x="1077" 
d="M872 526q-3 146 -88.5 230t-230.5 84q-149 0 -239.5 -87t-104.5 -227h663zM981 524q0 -31 -2 -45q0 -15 -14 -28t-29 -13h-721q6 -165 108 -260.5t269 -95.5q138 0 250 80q13 10 28 10q24 0 41 -20q11 -15 11 -29q0 -18 -15 -33q-65 -51 -151 -79.5t-170 -28.5
q-219 0 -354.5 131t-135.5 348q0 136 52.5 243t160 171.5t254.5 64.5q181 0 299.5 -115t118.5 -301zM614 1280q0 -34 -20.5 -55t-48.5 -21q-32 0 -54 21t-22 55q0 30 22 49t54 19q27 0 48 -19t21 -49z" />
    <glyph glyph-name="Eogonek" unicode="&#x118;" horiz-adv-x="1177" 
d="M741 -190q0 -30 10.5 -54t26.5 -38.5t37 -23.5t39.5 -12.5t36.5 -3.5q32 0 59 7q6 2 17 2q23 0 34 -25q5 -15 5 -16q0 -25 -21 -33q-57 -23 -119 -23q-41 0 -79.5 9.5t-74 30t-56.5 58.5t-21 89q0 78 54 135t142 88h-544q-25 0 -42.5 17t-17.5 42v1315q0 25 17.5 42.5
t42.5 17.5h682q22 0 36.5 -15.5t14.5 -40.5q0 -22 -14.5 -36.5t-36.5 -14.5h-629v-547h567q22 0 36.5 -15.5t14.5 -39.5q0 -22 -14.5 -36.5t-36.5 -14.5h-567v-568h649q22 0 36.5 -15.5t14.5 -39.5q0 -22 -14.5 -36.5t-36.5 -14.5q-98 -5 -173 -59.5t-75 -130.5z" />
    <glyph glyph-name="eogonek" unicode="&#x119;" horiz-adv-x="1077" 
d="M467 -190q0 -37 15.5 -64.5t39.5 -41.5t47.5 -20t46.5 -6q33 0 60 7q6 2 16 2q26 0 35 -23q4 -12 4 -18q0 -25 -20 -33q-57 -23 -119 -23q-41 0 -79.5 9.5t-74 30t-57 58.5t-21.5 89q0 134 160 209q-193 19 -308.5 147t-115.5 328q0 136 52.5 243t160 171.5t254.5 64.5
q181 0 299.5 -115t118.5 -301q0 -31 -2 -45q0 -15 -14 -28t-29 -13h-721q6 -165 108 -260.5t269 -95.5q138 0 250 80q13 10 28 10q24 0 41 -20q11 -15 11 -29q0 -18 -15 -33q-118 -92 -284 -106q-69 -24 -112.5 -70t-43.5 -104zM872 526q-3 146 -88.5 230t-230.5 84
q-149 0 -239.5 -87t-104.5 -227h663z" />
    <glyph glyph-name="Ecaron" unicode="&#x11a;" horiz-adv-x="1177" 
d="M340 106h649q22 0 36.5 -15.5t14.5 -39.5q0 -22 -14.5 -36.5t-36.5 -14.5h-702q-25 0 -42.5 17t-17.5 42v1315q0 25 17.5 42.5t42.5 17.5h682q22 0 36.5 -15.5t14.5 -40.5q0 -22 -14.5 -36.5t-36.5 -14.5h-629v-547h567q22 0 36.5 -15.5t14.5 -39.5q0 -22 -14.5 -36.5
t-36.5 -14.5h-567v-568zM961 1700l-279 -162q-17 -10 -41 -10q-23 0 -43 10l-276 160q-19 10 -19 33q0 14 4 22q9 19 33 19q10 0 18 -5l285 -159l279 157q6 4 16 4q24 0 35 -20q4 -6 4 -18q0 -21 -16 -31z" />
    <glyph glyph-name="ecaron" unicode="&#x11b;" horiz-adv-x="1077" 
d="M872 526q-3 146 -88.5 230t-230.5 84q-149 0 -239.5 -87t-104.5 -227h663zM981 524q0 -31 -2 -45q0 -15 -14 -28t-29 -13h-721q6 -165 108 -260.5t269 -95.5q138 0 250 80q13 10 28 10q24 0 41 -20q11 -15 11 -29q0 -18 -15 -33q-65 -51 -151 -79.5t-170 -28.5
q-219 0 -354.5 131t-135.5 348q0 136 52.5 243t160 171.5t254.5 64.5q181 0 299.5 -115t118.5 -301zM813 1370l-217 -219q-14 -14 -35 -14t-35 14l-215 217q-10 13 -10 25q0 19 16 32q15 11 27 11q16 0 29 -13l190 -198l191 198q13 13 26 13q18 0 31 -13q12 -12 12 -26
q0 -17 -10 -27z" />
    <glyph glyph-name="Gcircumflex" unicode="&#x11c;" horiz-adv-x="1488" 
d="M229 717q0 -284 164.5 -456.5t431.5 -172.5q118 0 238 41.5t188 108.5v350h-368q-22 0 -37 15.5t-15 39.5q0 22 15 36.5t37 14.5h415q25 0 42.5 -17t17.5 -42v-426q0 -32 -25 -53q-95 -82 -237.5 -128t-274.5 -46q-322 0 -516 200.5t-194 534.5q0 206 85.5 372.5
t245.5 264.5t365 98q243 0 403 -106q25 -18 25 -46q0 -6 -10 -26q-16 -25 -41 -25q-9 0 -25 8q-136 89 -340 89q-173 0 -308 -80.5t-208.5 -223.5t-73.5 -325zM803 1675l-281 -153q-12 -4 -16 -4q-24 0 -33 20q-4 6 -4 21q0 20 16 30l279 160q15 10 39 10q26 0 41 -10
l280 -160q17 -10 17 -30q0 -11 -6 -23q-12 -18 -33 -18q-9 0 -17 4z" />
    <glyph glyph-name="gcircumflex" unicode="&#x11d;" horiz-adv-x="1011" 
d="M403 156q58 4 86 4q208 0 334.5 -76.5t126.5 -218.5q0 -139 -127 -215t-334 -76q-209 0 -334.5 74.5t-125.5 216.5q0 106 75 177t207 99q-30 37 -30 88q0 56 34 93q-90 38 -141 115.5t-51 176.5q0 140 100.5 233t263.5 93q131 0 234 -70l203 54q2 0 5.5 1t4.5 1
q16 0 29.5 -10.5t17.5 -28.5q0 -2 1 -5t1 -5q0 -17 -10.5 -30t-26.5 -18l-149 -36q55 -80 55 -179q0 -140 -101.5 -232.5t-263.5 -92.5q-53 0 -92 8q-18 -26 -18 -68q0 -44 26 -73zM137 -135q0 -90 95.5 -142.5t256.5 -52.5q162 0 257.5 52.5t95.5 142.5q0 91 -96 144.5
t-257 53.5t-256.5 -53t-95.5 -145zM231 614q0 -98 71.5 -163.5t184.5 -65.5q114 0 185 65.5t71 163.5q0 97 -73 163.5t-183 66.5q-111 0 -183.5 -66t-72.5 -164zM248 1200l217 215q12 15 35 15q20 0 35 -15l210 -215q11 -15 11 -26q0 -18 -15 -33q-15 -11 -26 -11
q-18 0 -31 13l-186 186l-191 -186q-13 -10 -26 -10q-19 0 -33 14q-12 12 -12 27q0 17 12 26z" />
    <glyph glyph-name="Gbreve" unicode="&#x11e;" horiz-adv-x="1488" 
d="M229 717q0 -284 164.5 -456.5t431.5 -172.5q118 0 238 41.5t188 108.5v350h-368q-22 0 -37 15.5t-15 39.5q0 22 15 36.5t37 14.5h415q25 0 42.5 -17t17.5 -42v-426q0 -32 -25 -53q-95 -82 -237.5 -128t-274.5 -46q-322 0 -516 200.5t-194 534.5q0 206 85.5 372.5
t245.5 264.5t365 98q243 0 403 -106q25 -18 25 -46q0 -6 -10 -26q-16 -25 -41 -25q-9 0 -25 8q-136 89 -340 89q-173 0 -308 -80.5t-208.5 -223.5t-73.5 -325zM1147 1698q-55 -67 -140.5 -113.5t-181.5 -46.5q-106 0 -192.5 47.5t-138.5 110.5q-7 10 -7 20q0 17 17 31
q11 8 24 8q17 0 29 -12q111 -111 268 -111q156 0 265 113q10 10 24 10q19 0 29 -10q12 -9 12 -27q0 -8 -8 -20z" />
    <glyph glyph-name="gbreve" unicode="&#x11f;" horiz-adv-x="1011" 
d="M403 156q58 4 86 4q208 0 334.5 -76.5t126.5 -218.5q0 -139 -127 -215t-334 -76q-209 0 -334.5 74.5t-125.5 216.5q0 106 75 177t207 99q-30 37 -30 88q0 56 34 93q-90 38 -141 115.5t-51 176.5q0 140 100.5 233t263.5 93q131 0 234 -70l203 54q2 0 5.5 1t4.5 1
q16 0 29.5 -10.5t17.5 -28.5q0 -2 1 -5t1 -5q0 -17 -10.5 -30t-26.5 -18l-149 -36q55 -80 55 -179q0 -140 -101.5 -232.5t-263.5 -92.5q-53 0 -92 8q-18 -26 -18 -68q0 -44 26 -73zM137 -135q0 -90 95.5 -142.5t256.5 -52.5q162 0 257.5 52.5t95.5 142.5q0 91 -96 144.5
t-257 53.5t-256.5 -53t-95.5 -145zM231 614q0 -98 71.5 -163.5t184.5 -65.5q114 0 185 65.5t71 163.5q0 97 -73 163.5t-183 66.5q-111 0 -183.5 -66t-72.5 -164zM772 1329q-58 -75 -122 -115t-156 -40q-170 0 -277 155q-4 8 -4 17q0 19 16 30q9 6 21 6q17 0 26 -12
q99 -108 222 -108q122 0 219 108q12 12 24 12t23 -8q14 -8 14 -26q0 -13 -6 -19z" />
    <glyph glyph-name="Gdotaccent" unicode="&#x120;" horiz-adv-x="1488" 
d="M229 717q0 -284 164.5 -456.5t431.5 -172.5q118 0 238 41.5t188 108.5v350h-368q-22 0 -37 15.5t-15 39.5q0 22 15 36.5t37 14.5h415q25 0 42.5 -17t17.5 -42v-426q0 -32 -25 -53q-95 -82 -237.5 -128t-274.5 -46q-322 0 -516 200.5t-194 534.5q0 206 85.5 372.5
t245.5 264.5t365 98q243 0 403 -106q25 -18 25 -46q0 -6 -10 -26q-16 -25 -41 -25q-9 0 -25 8q-136 89 -340 89q-173 0 -308 -80.5t-208.5 -223.5t-73.5 -325zM866 1651q0 -35 -23.5 -55.5t-54.5 -20.5q-34 0 -56.5 20.5t-22.5 55.5q0 33 23 53t56 20q31 0 54.5 -20.5
t23.5 -52.5z" />
    <glyph glyph-name="gdotaccent" unicode="&#x121;" horiz-adv-x="1011" 
d="M403 156q58 4 86 4q208 0 334.5 -76.5t126.5 -218.5q0 -139 -127 -215t-334 -76q-209 0 -334.5 74.5t-125.5 216.5q0 106 75 177t207 99q-30 37 -30 88q0 56 34 93q-90 38 -141 115.5t-51 176.5q0 140 100.5 233t263.5 93q131 0 234 -70l203 54q2 0 5.5 1t4.5 1
q16 0 29.5 -10.5t17.5 -28.5q0 -2 1 -5t1 -5q0 -17 -10.5 -30t-26.5 -18l-149 -36q55 -80 55 -179q0 -140 -101.5 -232.5t-263.5 -92.5q-53 0 -92 8q-18 -26 -18 -68q0 -44 26 -73zM137 -135q0 -90 95.5 -142.5t256.5 -52.5q162 0 257.5 52.5t95.5 142.5q0 91 -96 144.5
t-257 53.5t-256.5 -53t-95.5 -145zM231 614q0 -98 71.5 -163.5t184.5 -65.5q114 0 185 65.5t71 163.5q0 97 -73 163.5t-183 66.5q-111 0 -183.5 -66t-72.5 -164zM565 1280q0 -34 -20.5 -55t-48.5 -21q-32 0 -54 21t-22 55q0 30 22 49t54 19q27 0 48 -19t21 -49z" />
    <glyph glyph-name="Gcommaaccent" unicode="&#x122;" horiz-adv-x="1488" 
d="M229 717q0 -284 164.5 -456.5t431.5 -172.5q118 0 238 41.5t188 108.5v350h-368q-22 0 -37 15.5t-15 39.5q0 22 15 36.5t37 14.5h415q25 0 42.5 -17t17.5 -42v-426q0 -32 -25 -53q-95 -82 -237.5 -128t-274.5 -46q-322 0 -516 200.5t-194 534.5q0 206 85.5 372.5
t245.5 264.5t365 98q243 0 403 -106q25 -18 25 -46q0 -6 -10 -26q-16 -25 -41 -25q-9 0 -25 8q-136 89 -340 89q-173 0 -308 -80.5t-208.5 -223.5t-73.5 -325zM725 -354q74 39 74 116q0 35 -23 68q-8 11 -8 25q0 19 14 30q15 11 31 11q37 0 64.5 -36.5t27.5 -88.5
q0 -74 -62 -129.5t-106 -55.5q-11 0 -20.5 9t-9.5 22q0 23 18 29z" />
    <glyph glyph-name="gcommaaccent" unicode="&#x123;" horiz-adv-x="1011" 
d="M403 156q58 4 86 4q208 0 334.5 -76.5t126.5 -218.5q0 -139 -127 -215t-334 -76q-209 0 -334.5 74.5t-125.5 216.5q0 106 75 177t207 99q-30 37 -30 88q0 56 34 93q-90 38 -141 115.5t-51 176.5q0 140 100.5 233t263.5 93q131 0 234 -70l203 54q2 0 5.5 1t4.5 1
q16 0 29.5 -10.5t17.5 -28.5q0 -2 1 -5t1 -5q0 -17 -10.5 -30t-26.5 -18l-149 -36q55 -80 55 -179q0 -140 -101.5 -232.5t-263.5 -92.5q-53 0 -92 8q-18 -26 -18 -68q0 -44 26 -73zM137 -135q0 -90 95.5 -142.5t256.5 -52.5q162 0 257.5 52.5t95.5 142.5q0 91 -96 144.5
t-257 53.5t-256.5 -53t-95.5 -145zM231 614q0 -98 71.5 -163.5t184.5 -65.5q114 0 185 65.5t71 163.5q0 97 -73 163.5t-183 66.5q-111 0 -183.5 -66t-72.5 -164zM578 1372q-74 -39 -74 -117q0 -36 22 -67q9 -12 9 -25q0 -18 -15 -30q-15 -11 -31 -11q-37 0 -64.5 36.5
t-27.5 88.5q0 74 62 129.5t106 55.5q11 0 21 -9t10 -22q0 -23 -18 -29z" />
    <glyph glyph-name="Hcircumflex" unicode="&#x124;" horiz-adv-x="1574" 
d="M1348 1384v-1339q0 -23 -16.5 -39t-39.5 -16q-25 0 -41 16t-16 39v633h-895v-633q0 -23 -16 -39t-41 -16q-23 0 -39.5 16t-16.5 39v1339q0 22 17 38t43 16q22 0 37.5 -16t15.5 -38v-600h895v600q0 22 16.5 38t42.5 16q22 0 38 -16t16 -38zM786 1675l-280 -153
q-12 -4 -17 -4q-23 0 -32 20q-4 6 -4 21q0 20 16 30l279 160q15 10 38 10q26 0 41 -10l281 -160q16 -10 16 -30q0 -11 -6 -23q-12 -18 -33 -18q-8 0 -16 4z" />
    <glyph glyph-name="hcircumflex" unicode="&#x125;" horiz-adv-x="1146" 
d="M268 696v-653q0 -22 -15 -36.5t-38 -14.5t-38 14.5t-15 36.5v1339q0 22 15.5 37t39.5 15q22 0 36.5 -15t14.5 -37v-585q55 61 147 101t185 40q191 0 288 -100.5t97 -313.5v-481q0 -22 -15.5 -36.5t-39.5 -14.5q-22 0 -36.5 14.5t-14.5 36.5v465q0 330 -304 330
q-90 0 -175 -41.5t-132 -100.5zM328 1675l-281 -153q-12 -4 -16 -4q-24 0 -33 20q-4 6 -4 21q0 20 16 30l279 160q15 10 39 10q26 0 41 -10l280 -160q17 -10 17 -30q0 -9 -7 -23q-12 -18 -32 -18q-9 0 -17 4z" />
    <glyph glyph-name="Hbar" unicode="&#x126;" horiz-adv-x="1595" 
d="M350 45q0 -23 -16 -39t-41 -16q-23 0 -39 16t-16 39v1022h-134q-21 0 -35 15t-14 38q0 19 14.5 33t34.5 14h134v217q0 22 16.5 38t42.5 16q22 0 37.5 -16t15.5 -38v-217h895v217q0 22 17 38t43 16q22 0 37.5 -16t15.5 -38v-217h135q19 0 33 -15t14 -36q0 -20 -14 -34.5
t-33 -14.5h-135v-1022q0 -23 -16.5 -39t-41.5 -16q-23 0 -39 16t-16 39v633h-895v-633zM1245 784v283h-895v-283h895z" />
    <glyph glyph-name="hbar" unicode="&#x127;" horiz-adv-x="1159" 
d="M299 43q0 -22 -15.5 -36.5t-39.5 -14.5q-22 0 -36.5 14.5t-14.5 36.5v1047h-211q-19 0 -33.5 15t-14.5 38q0 19 14.5 33t33.5 14h211v192q0 22 15.5 37t39.5 15q22 0 36.5 -15t14.5 -37v-192h307q19 0 33 -15t14 -36q0 -20 -14 -34.5t-33 -14.5h-307v-293q55 61 147 101
t185 40q191 0 288 -100.5t97 -313.5v-481q0 -22 -15.5 -36.5t-39.5 -14.5q-22 0 -37 14.5t-15 36.5v465q0 166 -75 248t-228 82q-90 0 -175 -41.5t-132 -100.5v-653z" />
    <glyph glyph-name="Imacron" unicode="&#x12a;" horiz-adv-x="665" 
d="M389 1384v-1339q0 -23 -16 -39t-39 -16q-25 0 -41.5 16t-16.5 39v1339q0 22 17 38t43 16q22 0 37.5 -16t15.5 -38zM602 1593h-530q-19 0 -31 13t-12 34q0 17 12 29t31 12h530q18 0 29.5 -12.5t11.5 -32.5q0 -19 -12 -31t-29 -12z" />
    <glyph glyph-name="imacron" unicode="&#x12b;" horiz-adv-x="532" 
d="M319 874v-831q0 -22 -15 -36.5t-38 -14.5t-38 14.5t-15 36.5v831q0 22 15.5 37t39.5 15q22 0 36.5 -15t14.5 -37zM483 1237h-432q-19 0 -31 13t-12 34q0 17 12 29t31 12h432q18 0 29.5 -12.5t11.5 -32.5q0 -19 -12 -31t-29 -12z" />
    <glyph glyph-name="Iogonek" unicode="&#x12e;" horiz-adv-x="665" 
d="M109 -190q0 -37 15.5 -64.5t39.5 -41.5t47.5 -20t46.5 -6q32 0 59 7q6 2 17 2q24 0 35 -25q4 -12 4 -16q0 -25 -21 -33q-58 -23 -119 -23q-41 0 -79.5 9.5t-74 30t-56.5 58.5t-21 89q0 96 81.5 160t197.5 83q-5 20 -5 25v1339q0 22 17 38t43 16q22 0 37.5 -16t15.5 -38
v-1339q0 -23 -16 -39t-39 -16q-13 0 -25 6q-84 -15 -142 -67t-58 -119z" />
    <glyph glyph-name="iogonek" unicode="&#x12f;" horiz-adv-x="532" 
d="M37 -190q0 -37 15.5 -64.5t39.5 -41.5t47.5 -20t46.5 -6q33 0 60 7q6 2 16 2q26 0 35 -23q4 -12 4 -18q0 -25 -20 -33q-58 -23 -119 -23q-41 0 -79.5 9.5t-74 30t-57 58.5t-21.5 89q0 97 84 162t203 84q-4 6 -4 20v831q0 22 15.5 37t39.5 15q22 0 36.5 -15t14.5 -37v-831
q0 -22 -15 -36.5t-38 -14.5q-10 0 -22 4q-86 -14 -146.5 -66t-60.5 -120zM340 1280q0 -34 -21 -55t-49 -21q-32 0 -53.5 21t-21.5 55q0 30 21.5 49t53.5 19q28 0 49 -19t21 -49z" />
    <glyph glyph-name="Idotaccent" unicode="&#x130;" horiz-adv-x="665" 
d="M389 1384v-1339q0 -23 -16 -39t-39 -16q-25 0 -41.5 16t-16.5 39v1339q0 22 17 38t43 16q22 0 37.5 -16t15.5 -38zM414 1651q0 -35 -23.5 -55.5t-54.5 -20.5q-34 0 -57 20.5t-23 55.5q0 33 23.5 53t56.5 20q31 0 54.5 -20.5t23.5 -52.5z" />
    <glyph glyph-name="dotlessi" unicode="&#x131;" horiz-adv-x="532" 
d="M319 874v-831q0 -22 -15 -36.5t-38 -14.5t-38 14.5t-15 36.5v831q0 22 15.5 37t39.5 15q22 0 36.5 -15t14.5 -37z" />
    <glyph glyph-name="Jcircumflex" unicode="&#x134;" horiz-adv-x="733" 
d="M393 332v1052q0 22 17 38t41 16q23 0 39 -16t16 -38v-1069q0 -161 -67 -247t-220 -86q-94 0 -158 38q-26 15 -26 48q0 14 4 22q13 29 43 29q10 0 22 -6q60 -25 101 -25q56 0 94 18t58 53t28 76.5t8 96.5zM434 1675l-280 -153q-12 -4 -17 -4q-24 0 -33 20q-4 6 -4 21
q0 20 17 30l278 160q15 10 39 10q26 0 41 -10l281 -160q16 -10 16 -30q0 -11 -6 -23q-12 -18 -33 -18q-8 0 -16 4z" />
    <glyph glyph-name="jcircumflex" unicode="&#x135;" horiz-adv-x="557" 
d="M244 -59v933q0 22 15 37t38 15t38 -15t15 -37v-942q0 -358 -289 -358q-85 0 -161 39q-23 10 -23 39q0 10 6 22q16 25 41 25q15 0 23 -4q51 -21 92 -21q205 0 205 267zM49 1200l217 215q12 15 35 15q20 0 35 -15l211 -215q10 -13 10 -26q0 -19 -14 -33q-15 -11 -27 -11
q-18 0 -31 13l-186 186l-190 -186q-13 -10 -27 -10q-19 0 -33 14q-12 12 -12 27q0 17 12 26z" />
    <glyph glyph-name="Kcommaaccent" unicode="&#x136;" horiz-adv-x="1284" 
d="M1087 14l-638 691q-17 20 -17 43t17 43l614 624q23 23 49 23q20 0 32.5 -14t12.5 -33q0 -23 -18 -41l-598 -594l628 -676q15 -18 15 -39t-14 -36t-35 -15q-24 0 -48 24zM340 1384v-1339q0 -23 -16 -39t-39 -16q-25 0 -41.5 16t-16.5 39v1339q0 22 17 38t43 16
q22 0 37.5 -16t15.5 -38zM545 -354q73 39 73 116q0 37 -22 68q-8 11 -8 25q0 19 14 30q15 11 31 11q37 0 64.5 -36.5t27.5 -88.5q0 -74 -62 -129.5t-106 -55.5q-11 0 -21 9t-10 22q0 23 19 29z" />
    <glyph glyph-name="kcommaaccent" unicode="&#x137;" horiz-adv-x="952" 
d="M760 27l-395 415q-15 18 -15 39q0 24 15 39l360 375q27 31 55 31q21 0 33 -12.5t12 -30.5q0 -22 -18 -43l-348 -351l391 -407q16 -16 16 -41q0 -21 -12.5 -35t-34.5 -14q-24 0 -59 35zM268 1382v-1339q0 -22 -15 -36.5t-38 -14.5t-38 14.5t-15 36.5v1339q0 22 15.5 37
t39.5 15q22 0 36.5 -15t14.5 -37zM377 -354q74 39 74 116q0 35 -23 68q-8 11 -8 25q0 19 14 30q15 11 31 11q37 0 64.5 -36.5t27.5 -88.5q0 -74 -62 -129.5t-106 -55.5q-11 0 -21 9t-10 22q0 23 19 29z" />
    <glyph glyph-name="Lacute" unicode="&#x139;" horiz-adv-x="1130" 
d="M340 106h704q22 0 37 -15.5t15 -39.5q0 -22 -15 -36.5t-37 -14.5h-757q-25 0 -42.5 17t-17.5 42v1325q0 22 17 38t43 16q22 0 37.5 -16t15.5 -38v-1278zM854 1737l2 -6q4 -6 4 -21q0 -29 -24 -41l-306 -143q-8 -4 -14 -4q-20 0 -33 22q-4 4 -4 17q0 20 17 30l297 164
q9 6 22 6q29 0 39 -24z" />
    <glyph glyph-name="lacute" unicode="&#x13a;" horiz-adv-x="575" 
d="M516 119q20 0 35 -21q8 -16 8 -24q0 -26 -20 -37q-79 -49 -179 -49q-102 0 -150 61.5t-48 188.5v1144q0 22 15.5 37t39.5 15q22 0 36.5 -15t14.5 -37v-1087q0 -107 30.5 -157t100.5 -50q38 0 90 23q20 8 27 8zM530 1737l2 -6q5 -7 5 -21q0 -28 -25 -41l-305 -143
q-8 -4 -14 -4q-20 0 -33 22q-4 4 -4 17q0 20 16 30l297 164q9 6 23 6q28 0 38 -24z" />
    <glyph glyph-name="Lcommaaccent" unicode="&#x13b;" horiz-adv-x="1130" 
d="M340 106h704q22 0 37 -15.5t15 -39.5q0 -22 -15 -36.5t-37 -14.5h-757q-25 0 -42.5 17t-17.5 42v1325q0 22 17 38t43 16q22 0 37.5 -16t15.5 -38v-1278zM549 -354q74 39 74 116q0 35 -23 68q-8 11 -8 25q0 19 14 30q15 11 31 11q37 0 64.5 -36.5t27.5 -88.5
q0 -74 -62 -129.5t-106 -55.5q-11 0 -21 9t-10 22q0 23 19 29z" />
    <glyph glyph-name="lcommaaccent" unicode="&#x13c;" horiz-adv-x="575" 
d="M516 119q20 0 35 -21q8 -16 8 -24q0 -26 -20 -37q-79 -49 -179 -49q-102 0 -150 61.5t-48 188.5v1144q0 22 15.5 37t39.5 15q22 0 36.5 -15t14.5 -37v-1087q0 -107 30.5 -157t100.5 -50q38 0 90 23q20 8 27 8zM242 -354q73 39 73 116q0 37 -22 68q-8 11 -8 25q0 19 14 30
q15 11 31 11q37 0 64.5 -36.5t27.5 -88.5q0 -74 -62 -129.5t-106 -55.5q-11 0 -21 9t-10 22q0 23 19 29z" />
    <glyph glyph-name="Lcaron" unicode="&#x13d;" horiz-adv-x="1130" 
d="M340 106h704q22 0 37 -15.5t15 -39.5q0 -22 -15 -36.5t-37 -14.5h-757q-25 0 -42.5 17t-17.5 42v1325q0 22 17 38t43 16q22 0 37.5 -16t15.5 -38v-1278zM676 1143q76 79 76 196q0 27 -7 52q-2 6 -2 14q0 37 39 49q4 2 13 2q14 0 28 -8.5t17 -20.5q12 -38 12 -75
q0 -92 -37 -163t-96 -110q-8 -4 -17 -4q-20 0 -30 17q-8 11 -8 22q0 17 12 29z" />
    <glyph glyph-name="lcaron" unicode="&#x13e;" horiz-adv-x="575" 
d="M516 119q20 0 35 -21q8 -16 8 -24q0 -26 -20 -37q-79 -49 -179 -49q-102 0 -150 61.5t-48 188.5v1144q0 22 15.5 37t39.5 15q22 0 36.5 -15t14.5 -37v-1087q0 -107 30.5 -157t100.5 -50q38 0 90 23q20 8 27 8zM434 1143q76 79 76 196q0 31 -6 52q-2 6 -2 14q0 37 39 49
q4 2 12 2q14 0 28 -8.5t17 -20.5q12 -38 12 -75q0 -92 -37 -163t-96 -110q-8 -4 -16 -4q-21 0 -31 17q-8 11 -8 22q0 17 12 29z" />
    <glyph glyph-name="Ldot" unicode="&#x13f;" horiz-adv-x="1130" 
d="M340 106h704q22 0 37 -15.5t15 -39.5q0 -22 -15 -36.5t-37 -14.5h-757q-25 0 -42.5 17t-17.5 42v1325q0 22 17 38t43 16q22 0 37.5 -16t15.5 -38v-1278zM930 766q0 -33 -21 -57.5t-53 -24.5q-36 0 -59 24.5t-23 57.5q0 29 23.5 51.5t58.5 22.5q31 0 52.5 -22.5
t21.5 -51.5z" />
    <glyph glyph-name="ldot" unicode="&#x140;" horiz-adv-x="620" 
d="M516 119q20 0 35 -21q8 -16 8 -24q0 -26 -20 -37q-79 -49 -179 -49q-102 0 -150 61.5t-48 188.5v1144q0 22 15.5 37t39.5 15q22 0 36.5 -15t14.5 -37v-1087q0 -107 30.5 -157t100.5 -50q38 0 90 23q20 8 27 8zM604 649q0 -34 -20.5 -55t-48.5 -21q-32 0 -54 21t-22 55
q0 30 22 49t54 19q27 0 48 -19t21 -49z" />
    <glyph glyph-name="Lslash" unicode="&#x141;" horiz-adv-x="1138" 
d="M1053 0h-758q-25 0 -42 17t-17 42v510l-109 -53q-9 -6 -21 -6t-24.5 9t-18.5 22q-6 9 -6 22q0 32 29 45l150 74v702q0 22 16.5 38t42.5 16q22 0 37.5 -16t15.5 -38v-645l297 150q9 6 21 6q31 0 45 -31q4 -12 4 -20q0 -33 -27 -45l-340 -172v-521h705q22 0 36.5 -15.5
t14.5 -39.5q0 -22 -14.5 -36.5t-36.5 -14.5z" />
    <glyph glyph-name="lslash" unicode="&#x142;" horiz-adv-x="620" 
d="M573 37q-79 -49 -178 -49q-102 0 -150 61.5t-48 188.5v333l-101 -49q-12 -4 -18 -4q-14 0 -27.5 8.5t-19.5 22.5q-4 12 -4 20q0 31 26 43l144 72v698q0 22 15.5 37t39.5 15q22 0 36.5 -15t14.5 -37v-645l189 97q12 4 18 4q33 0 45 -31q6 -9 6 -23q0 -28 -29 -41
l-229 -116v-332q0 -107 30.5 -157t100.5 -50q38 0 90 23q20 8 27 8q20 0 35 -21q8 -16 8 -24q0 -25 -21 -37z" />
    <glyph glyph-name="Nacute" unicode="&#x143;" horiz-adv-x="1632" 
d="M1298 197v1189q0 22 16 37t40 15q22 0 36.5 -15t14.5 -37v-1343q0 -53 -49 -53q-34 0 -62 37l-960 1210v-1196q0 -22 -15.5 -36.5t-39.5 -14.5q-22 0 -37 14.5t-15 36.5v1345q0 23 15.5 37.5t38.5 14.5q32 0 63 -39zM1106 1737l2 -6q4 -6 4 -21q0 -28 -25 -41l-305 -143
q-8 -4 -14 -4q-20 0 -33 22q-4 4 -4 17q0 20 17 30l296 164q9 6 23 6q29 0 39 -24z" />
    <glyph glyph-name="nacute" unicode="&#x144;" horiz-adv-x="1146" 
d="M268 696v-653q0 -22 -15 -36.5t-38 -14.5t-38 14.5t-15 36.5v831q0 22 15.5 37t39.5 15q22 0 36.5 -15t14.5 -37v-81q55 62 146 103.5t186 41.5q191 0 288 -99.5t97 -312.5v-483q0 -22 -15.5 -36.5t-39.5 -14.5q-22 0 -36.5 14.5t-14.5 36.5v463q0 169 -75 250.5
t-229 81.5q-91 0 -174.5 -41.5t-132.5 -100.5zM735 1438l8 -6q19 -16 19 -37q0 -14 -10 -27l-185 -227q-12 -15 -32 -15q-15 0 -27 9q-14 11 -14 30q0 14 6 23l172 242q12 18 35 18q15 0 28 -10z" />
    <glyph glyph-name="Ncommaaccent" unicode="&#x145;" horiz-adv-x="1632" 
d="M1298 197v1189q0 22 16 37t40 15q22 0 36.5 -15t14.5 -37v-1343q0 -53 -49 -53q-34 0 -62 37l-960 1210v-1196q0 -22 -15.5 -36.5t-39.5 -14.5q-22 0 -37 14.5t-15 36.5v1345q0 23 15.5 37.5t38.5 14.5q32 0 63 -39zM719 -354q74 39 74 116q0 35 -23 68q-8 11 -8 25
q0 19 14 30q15 11 31 11q37 0 64.5 -36.5t27.5 -88.5q0 -74 -62 -129.5t-106 -55.5q-11 0 -21 9t-10 22q0 23 19 29z" />
    <glyph glyph-name="ncommaaccent" unicode="&#x146;" horiz-adv-x="1146" 
d="M268 696v-653q0 -22 -15 -36.5t-38 -14.5t-38 14.5t-15 36.5v831q0 22 15.5 37t39.5 15q22 0 36.5 -15t14.5 -37v-81q55 62 146 103.5t186 41.5q191 0 288 -99.5t97 -312.5v-483q0 -22 -15.5 -36.5t-39.5 -14.5q-22 0 -36.5 14.5t-14.5 36.5v463q0 169 -75 250.5
t-229 81.5q-91 0 -174.5 -41.5t-132.5 -100.5zM475 -354q74 39 74 116q0 35 -23 68q-8 11 -8 25q0 19 14 30q15 11 31 11q37 0 64.5 -36.5t27.5 -88.5q0 -74 -62 -129.5t-106 -55.5q-11 0 -20.5 9t-9.5 22q0 23 18 29z" />
    <glyph glyph-name="Ncaron" unicode="&#x147;" horiz-adv-x="1632" 
d="M1298 197v1189q0 22 16 37t40 15q22 0 36.5 -15t14.5 -37v-1343q0 -53 -49 -53q-34 0 -62 37l-960 1210v-1196q0 -22 -15.5 -36.5t-39.5 -14.5q-22 0 -37 14.5t-15 36.5v1345q0 23 15.5 37.5t38.5 14.5q32 0 63 -39zM1135 1700l-279 -162q-17 -10 -41 -10q-23 0 -43 10
l-276 160q-19 10 -19 33q0 14 4 22q9 19 33 19q10 0 18 -5l285 -159l279 157q6 4 16 4q24 0 35 -20q4 -6 4 -18q0 -21 -16 -31z" />
    <glyph glyph-name="ncaron" unicode="&#x148;" horiz-adv-x="1146" 
d="M268 696v-653q0 -22 -15 -36.5t-38 -14.5t-38 14.5t-15 36.5v831q0 22 15.5 37t39.5 15q22 0 36.5 -15t14.5 -37v-81q55 62 146 103.5t186 41.5q191 0 288 -99.5t97 -312.5v-483q0 -22 -15.5 -36.5t-39.5 -14.5q-22 0 -36.5 14.5t-14.5 36.5v463q0 169 -75 250.5
t-229 81.5q-91 0 -174.5 -41.5t-132.5 -100.5zM813 1370l-217 -219q-14 -14 -35 -14t-35 14l-215 217q-10 13 -10 25q0 19 16 32q15 11 27 11q16 0 29 -13l190 -198l191 198q13 13 26 13q18 0 31 -13q12 -12 12 -26q0 -17 -10 -27z" />
    <glyph glyph-name="Omacron" unicode="&#x14c;" horiz-adv-x="1658" 
d="M111 717q0 206 92.5 374t257 264.5t368.5 96.5q151 0 284 -55t228.5 -151.5t151 -233.5t55.5 -295q0 -156 -55.5 -292.5t-151 -233.5t-228.5 -153t-284 -56t-284 55t-228.5 151.5t-150.5 233.5t-55 295zM229 717q0 -176 79 -320.5t216.5 -226.5t304.5 -82q172 0 310 82.5
t214.5 226.5t76.5 320q0 178 -79.5 322.5t-217 225.5t-304.5 81q-126 0 -237 -48t-191 -130.5t-126 -200t-46 -250.5zM1102 1593h-531q-19 0 -31 13t-12 34q0 17 12 29t31 12h531q18 0 29.5 -12.5t11.5 -32.5q0 -19 -12 -31t-29 -12z" />
    <glyph glyph-name="omacron" unicode="&#x14d;" horiz-adv-x="1159" 
d="M96 461q0 208 135 343.5t349 135.5t348.5 -135t134.5 -344t-134.5 -344t-348.5 -135t-349 135.5t-135 343.5zM209 461q0 -166 105 -272.5t266 -106.5q163 0 266.5 106t103.5 273q0 166 -103.5 272.5t-266.5 106.5q-161 0 -266 -106.5t-105 -272.5zM803 1237h-432
q-19 0 -31 13t-12 34q0 17 12 29t31 12h432q18 0 29.5 -12.5t11.5 -32.5q0 -19 -12 -31t-29 -12z" />
    <glyph glyph-name="Ohungarumlaut" unicode="&#x150;" horiz-adv-x="1658" 
d="M111 717q0 206 92.5 374t257 264.5t368.5 96.5q151 0 284 -55t228.5 -151.5t151 -233.5t55.5 -295q0 -156 -55.5 -292.5t-151 -233.5t-228.5 -153t-284 -56t-284 55t-228.5 151.5t-150.5 233.5t-55 295zM229 717q0 -176 79 -320.5t216.5 -226.5t304.5 -82q172 0 310 82.5
t214.5 226.5t76.5 320q0 178 -79.5 322.5t-217 225.5t-304.5 81q-126 0 -237 -48t-191 -130.5t-126 -200t-46 -250.5zM963 1577l272 186q12 9 27 9q28 0 41 -25q6 -12 6 -25q0 -22 -21 -34l-287 -166q-8 -4 -16 -4q-19 0 -31 18q-4 8 -4 14q0 17 13 27zM604 1575l248 192
q15 11 29 11q23 0 39 -19q10 -13 10 -26q0 -21 -17 -31l-270 -180q-12 -4 -16 -4q-18 0 -29 14q-6 9 -6 18q0 16 12 25z" />
    <glyph glyph-name="ohungarumlaut" unicode="&#x151;" horiz-adv-x="1159" 
d="M96 461q0 208 135 343.5t349 135.5t348.5 -135t134.5 -344t-134.5 -344t-348.5 -135t-349 135.5t-135 343.5zM209 461q0 -166 105 -272.5t266 -106.5q163 0 266.5 106t103.5 273q0 166 -103.5 272.5t-266.5 106.5q-161 0 -266 -106.5t-105 -272.5zM930 1430l4 -3
q16 -13 16 -34q0 -19 -10 -29l-188 -225q-15 -15 -31 -15q-11 0 -29 11q-14 11 -14 30q0 14 6 23l180 233q16 19 37 19q16 0 29 -10zM610 1440l4 -4q19 -13 19 -35q0 -16 -10 -29l-179 -231q-9 -15 -30 -15q-15 0 -27 9q-14 11 -14 30q0 14 6 23l168 242q12 18 37 18
q15 0 26 -8z" />
    <glyph glyph-name="OE" unicode="&#x152;" horiz-adv-x="2140" 
d="M1303 106h649q22 0 36.5 -15.5t14.5 -39.5q0 -22 -14.5 -36.5t-36.5 -14.5h-703q-25 0 -42 19t-17 49q-159 -86 -361 -86q-158 0 -291.5 52.5t-227.5 147.5t-146.5 232.5t-52.5 302.5q0 154 49.5 288.5t139 233.5t222 156t291.5 57q221 0 377 -86q0 30 17 49t42 19h682
q22 0 36.5 -15.5t14.5 -40.5q0 -22 -14.5 -36.5t-36.5 -14.5h-628v-547h567q22 0 36.5 -15.5t14.5 -39.5q0 -22 -14.5 -36.5t-36.5 -14.5h-567v-568zM1190 195v1040q-149 111 -375 111q-171 0 -305 -81.5t-207.5 -224.5t-73.5 -323q0 -281 169.5 -455t439.5 -174
q205 0 352 107z" />
    <glyph glyph-name="oe" unicode="&#x153;" horiz-adv-x="1730" 
d="M750 461q0 172 79 291q-105 88 -249 88q-162 0 -266.5 -106t-104.5 -273q0 -166 104 -272.5t267 -106.5q151 0 254 90q-84 120 -84 289zM1524 526q-3 146 -89 230t-229 84q-151 0 -241.5 -87t-102.5 -227h662zM1634 524q0 -31 -2 -45q-1 -17 -15 -29t-30 -12h-719
q6 -165 108 -260.5t269 -95.5q137 0 248 80q11 8 29 8q23 0 41 -18q10 -13 10 -29q0 -21 -14 -31q-66 -52 -153 -81t-169 -29q-204 0 -332 110q-128 -110 -325 -110q-214 0 -349 135.5t-135 343.5t135 343.5t349 135.5q188 0 319 -109q122 109 315 109q181 0 300.5 -115
t119.5 -301z" />
    <glyph glyph-name="Racute" unicode="&#x154;" horiz-adv-x="1275" 
d="M1083 16l-465 586h-278v-557q0 -23 -16 -39t-41 -16q-23 0 -39.5 16t-16.5 39v1329q0 25 17.5 42.5t42.5 17.5q196 4 284 4q114 0 202 -22.5t144 -60t91.5 -91.5t50 -112.5t14.5 -127.5q0 -150 -96 -258.5t-244 -140.5l443 -549q12 -15 12 -33q0 -21 -15.5 -37t-39.5 -16
q-31 0 -50 26zM340 709h248q92 0 175 38.5t137 112t54 164.5q0 142 -91.5 224.5t-297.5 82.5q-89 0 -225 -4v-618zM815 1737l2 -6q4 -6 4 -21q0 -29 -24 -41l-305 -143q-8 -4 -15 -4q-20 0 -33 22q-4 4 -4 17q0 20 17 30l297 164q9 6 22 6q29 0 39 -24z" />
    <glyph glyph-name="racute" unicode="&#x155;" horiz-adv-x="671" 
d="M268 688v-645q0 -22 -15 -36.5t-38 -14.5t-38 14.5t-15 36.5v831q0 22 15.5 37t39.5 15q22 0 36.5 -15t14.5 -37v-75q91 139 248 139q61 0 107 -16q32 -11 32 -48q0 -10 -6 -22q-15 -31 -47 -31q-14 0 -29 6q-32 11 -79 11q-82 0 -134 -41t-92 -109zM563 1438l8 -6
q19 -16 19 -37q0 -14 -10 -27l-185 -227q-12 -15 -33 -15q-14 0 -26 9q-14 11 -14 30q0 14 6 23l172 242q12 18 35 18q15 0 28 -10z" />
    <glyph glyph-name="Rcommaaccent" unicode="&#x156;" horiz-adv-x="1275" 
d="M1083 16l-465 586h-278v-557q0 -23 -16 -39t-41 -16q-23 0 -39.5 16t-16.5 39v1329q0 25 17.5 42.5t42.5 17.5q196 4 284 4q114 0 202 -22.5t144 -60t91.5 -91.5t50 -112.5t14.5 -127.5q0 -150 -96 -258.5t-244 -140.5l443 -549q12 -15 12 -33q0 -21 -15.5 -37t-39.5 -16
q-31 0 -50 26zM340 709h248q92 0 175 38.5t137 112t54 164.5q0 142 -91.5 224.5t-297.5 82.5q-89 0 -225 -4v-618zM539 -354q73 39 73 116q0 37 -22 68q-8 11 -8 25q0 19 14 30q15 11 31 11q37 0 64.5 -36.5t27.5 -88.5q0 -74 -62 -129.5t-106 -55.5q-11 0 -21 9t-10 22
q0 23 19 29z" />
    <glyph glyph-name="rcommaaccent" unicode="&#x157;" horiz-adv-x="671" 
d="M268 688v-645q0 -22 -15 -36.5t-38 -14.5t-38 14.5t-15 36.5v831q0 22 15.5 37t39.5 15q22 0 36.5 -15t14.5 -37v-75q91 139 248 139q61 0 107 -16q32 -11 32 -48q0 -10 -6 -22q-15 -31 -47 -31q-14 0 -29 6q-32 11 -79 11q-82 0 -134 -41t-92 -109zM219 -354
q74 39 74 116q0 35 -23 68q-8 11 -8 25q0 19 14 30q15 11 31 11q37 0 64.5 -36.5t27.5 -88.5q0 -74 -62 -129.5t-106 -55.5q-11 0 -20.5 9t-9.5 22q0 23 18 29z" />
    <glyph glyph-name="Rcaron" unicode="&#x158;" horiz-adv-x="1275" 
d="M1083 16l-465 586h-278v-557q0 -23 -16 -39t-41 -16q-23 0 -39.5 16t-16.5 39v1329q0 25 17.5 42.5t42.5 17.5q196 4 284 4q114 0 202 -22.5t144 -60t91.5 -91.5t50 -112.5t14.5 -127.5q0 -150 -96 -258.5t-244 -140.5l443 -549q12 -15 12 -33q0 -21 -15.5 -37t-39.5 -16
q-31 0 -50 26zM340 709h248q92 0 175 38.5t137 112t54 164.5q0 142 -91.5 224.5t-297.5 82.5q-89 0 -225 -4v-618zM895 1700l-279 -162q-17 -10 -41 -10q-23 0 -43 10l-276 160q-18 9 -18 33q0 14 4 22q10 19 32 19q12 0 19 -5l285 -159l278 157q6 4 16 4q24 0 35 -20
q4 -6 4 -18q0 -21 -16 -31z" />
    <glyph glyph-name="rcaron" unicode="&#x159;" horiz-adv-x="671" 
d="M268 688v-645q0 -22 -15 -36.5t-38 -14.5t-38 14.5t-15 36.5v831q0 22 15.5 37t39.5 15q22 0 36.5 -15t14.5 -37v-75q91 139 248 139q61 0 107 -16q32 -11 32 -48q0 -10 -6 -22q-15 -31 -47 -31q-14 0 -29 6q-32 11 -79 11q-82 0 -134 -41t-92 -109zM641 1370l-217 -219
q-14 -14 -35 -14t-35 14l-215 217q-10 13 -10 25q0 19 16 32q15 11 27 11q16 0 29 -13l190 -198l191 198q13 13 26 13q18 0 31 -13q12 -12 12 -26q0 -17 -10 -27z" />
    <glyph glyph-name="Sacute" unicode="&#x15a;" horiz-adv-x="1093" 
d="M106 180q0 24 15 39q17 17 39 17q17 0 33 -13q79 -61 167 -98t168 -37q90 0 166 29.5t125 91.5t49 147q0 65 -25.5 116t-68 86t-98.5 63t-117.5 52t-122.5 49t-117 58t-98.5 74t-68 102t-25.5 138q0 155 113 256.5t307 101.5t348 -104q20 -13 20 -41q0 -14 -10 -31
q-16 -23 -43 -23q-16 0 -31 9q-72 44 -135 64t-145 20q-140 0 -222.5 -68.5t-82.5 -183.5q0 -64 25.5 -114t68 -83.5t98.5 -60.5t117 -50t122.5 -47.5t117.5 -57.5t98.5 -75t68 -105t25.5 -143q0 -168 -131 -272t-326 -104q-106 0 -216 45.5t-193 117.5q-15 12 -15 35z
M821 1737l2 -6q4 -6 4 -21q0 -29 -24 -41l-305 -143q-8 -4 -15 -4q-19 0 -32 22q-5 5 -5 17q0 20 17 30l297 164q9 6 22 6q29 0 39 -24z" />
    <glyph glyph-name="sacute" unicode="&#x15b;" horiz-adv-x="831" 
d="M98 117q0 20 15 35q14 14 32 14q16 0 37 -14q102 -76 232 -76q86 0 146.5 43t60.5 123q0 47 -28 80t-73 52.5t-99.5 36.5t-109 38t-99.5 49.5t-73 78.5t-28 119q0 110 82 177t215 67q155 0 262 -72q16 -10 16 -34q0 -21 -10 -31q-16 -19 -37 -19q-15 0 -33 11
q-85 51 -196 51q-84 0 -135.5 -43t-51.5 -105q0 -43 22 -76t58 -52t81.5 -37t93.5 -31t93.5 -35t81.5 -48t58 -70.5t22 -102.5q0 -129 -95 -196.5t-237 -67.5q-83 0 -160 27.5t-128 74.5q-15 15 -15 33zM582 1438l8 -6q18 -15 18 -37q0 -14 -10 -27l-184 -227
q-12 -15 -33 -15q-15 0 -27 9q-14 11 -14 30q0 14 6 23l172 242q12 18 35 18q16 0 29 -10z" />
    <glyph glyph-name="Scircumflex" unicode="&#x15c;" horiz-adv-x="1093" 
d="M106 180q0 24 15 39q17 17 39 17q17 0 33 -13q79 -61 167 -98t168 -37q90 0 166 29.5t125 91.5t49 147q0 65 -25.5 116t-68 86t-98.5 63t-117.5 52t-122.5 49t-117 58t-98.5 74t-68 102t-25.5 138q0 155 113 256.5t307 101.5t348 -104q20 -13 20 -41q0 -14 -10 -31
q-16 -23 -43 -23q-16 0 -31 9q-72 44 -135 64t-145 20q-140 0 -222.5 -68.5t-82.5 -183.5q0 -64 25.5 -114t68 -83.5t98.5 -60.5t117 -50t122.5 -47.5t117.5 -57.5t98.5 -75t68 -105t25.5 -143q0 -168 -131 -272t-326 -104q-106 0 -216 45.5t-193 117.5q-15 12 -15 35z
M537 1675l-281 -153q-12 -4 -16 -4q-24 0 -33 20q-4 6 -4 21q0 20 16 30l279 160q15 10 39 10q26 0 41 -10l280 -160q16 -10 16 -30q0 -11 -6 -23q-12 -18 -32 -18q-9 0 -17 4z" />
    <glyph glyph-name="scircumflex" unicode="&#x15d;" horiz-adv-x="831" 
d="M98 117q0 20 15 35q14 14 32 14q16 0 37 -14q102 -76 232 -76q86 0 146.5 43t60.5 123q0 47 -28 80t-73 52.5t-99.5 36.5t-109 38t-99.5 49.5t-73 78.5t-28 119q0 110 82 177t215 67q155 0 262 -72q16 -10 16 -34q0 -21 -10 -31q-16 -19 -37 -19q-15 0 -33 11
q-85 51 -196 51q-84 0 -135.5 -43t-51.5 -105q0 -43 22 -76t58 -52t81.5 -37t93.5 -31t93.5 -35t81.5 -48t58 -70.5t22 -102.5q0 -129 -95 -196.5t-237 -67.5q-83 0 -160 27.5t-128 74.5q-15 15 -15 33zM168 1200l217 215q12 15 35 15q20 0 35 -15l211 -215q10 -13 10 -26
q0 -19 -14 -33q-15 -11 -27 -11q-18 0 -31 13l-186 186l-191 -186q-13 -10 -26 -10q-19 0 -33 14q-12 12 -12 27q0 17 12 26z" />
    <glyph glyph-name="Scedilla" unicode="&#x15e;" horiz-adv-x="1093" 
d="M739 -258q0 -70 -63 -114t-170 -44q-104 0 -182 45q-15 9 -15 29q0 12 4 18q10 17 29 17q6 0 18 -4q72 -35 123 -35q63 0 103.5 25.5t40.5 68.5q0 83 -107 94q-47 7 -47 52v92q-94 10 -187 53.5t-165 105.5q-15 12 -15 35q0 24 15 39q17 17 39 17q17 0 33 -13
q79 -61 167 -98t168 -37q90 0 166 29.5t125 91.5t49 147q0 65 -25.5 116t-68 86t-98.5 63t-117.5 52t-122.5 49t-117 58t-98.5 74t-68 102t-25.5 138q0 155 113 256.5t307 101.5t348 -104q20 -13 20 -41q0 -14 -10 -31q-16 -23 -43 -23q-16 0 -31 9q-72 44 -135 64t-145 20
q-140 0 -222.5 -68.5t-82.5 -183.5q0 -64 25.5 -114t68 -83.5t98.5 -60.5t117 -50t122.5 -47.5t117.5 -57.5t98.5 -75t68 -105t25.5 -143q0 -168 -131 -272t-326 -104v-84q209 -6 209 -156z" />
    <glyph glyph-name="scedilla" unicode="&#x15f;" horiz-adv-x="831" 
d="M604 -258q0 -71 -62.5 -114.5t-172.5 -43.5q-87 0 -168 45q-15 6 -15 25q0 12 4 18q10 17 29 17q6 0 14 -4q64 -31 121 -31q63 0 103.5 25.5t40.5 68.5q0 83 -107 94q-21 3 -34 17t-13 35v92q-146 16 -231 98q-15 15 -15 33q0 20 15 35q14 14 32 14q16 0 37 -14
q102 -76 232 -76q86 0 146.5 43t60.5 123q0 47 -28 80t-73 52.5t-99.5 36.5t-109 38t-99.5 49.5t-73 78.5t-28 119q0 110 82 177t215 67q155 0 262 -72q16 -10 16 -34q0 -21 -10 -31q-16 -19 -37 -19q-15 0 -33 11q-85 51 -196 51q-84 0 -135.5 -43t-51.5 -105q0 -43 22 -76
t58 -52t81.5 -37t93.5 -31t93.5 -35t81.5 -48t58 -70.5t22 -102.5q0 -129 -95 -196.5t-237 -67.5v-84q102 -3 152.5 -44t50.5 -112z" />
    <glyph glyph-name="Scaron" unicode="&#x160;" horiz-adv-x="1093" 
d="M106 180q0 24 15 39q17 17 39 17q17 0 33 -13q79 -61 167 -98t168 -37q90 0 166 29.5t125 91.5t49 147q0 65 -25.5 116t-68 86t-98.5 63t-117.5 52t-122.5 49t-117 58t-98.5 74t-68 102t-25.5 138q0 155 113 256.5t307 101.5t348 -104q20 -13 20 -41q0 -14 -10 -31
q-16 -23 -43 -23q-16 0 -31 9q-72 44 -135 64t-145 20q-140 0 -222.5 -68.5t-82.5 -183.5q0 -64 25.5 -114t68 -83.5t98.5 -60.5t117 -50t122.5 -47.5t117.5 -57.5t98.5 -75t68 -105t25.5 -143q0 -168 -131 -272t-326 -104q-106 0 -216 45.5t-193 117.5q-15 12 -15 35z
M868 1700l-278 -162q-17 -10 -41 -10q-23 0 -43 10l-277 160q-18 9 -18 33q0 14 4 22q9 19 33 19q10 0 18 -5l285 -159l278 157q6 4 17 4q24 0 35 -20q4 -6 4 -18q0 -21 -17 -31z" />
    <glyph glyph-name="scaron" unicode="&#x161;" horiz-adv-x="831" 
d="M98 117q0 20 15 35q14 14 32 14q16 0 37 -14q102 -76 232 -76q86 0 146.5 43t60.5 123q0 47 -28 80t-73 52.5t-99.5 36.5t-109 38t-99.5 49.5t-73 78.5t-28 119q0 110 82 177t215 67q155 0 262 -72q16 -10 16 -34q0 -21 -10 -31q-16 -19 -37 -19q-15 0 -33 11
q-85 51 -196 51q-84 0 -135.5 -43t-51.5 -105q0 -43 22 -76t58 -52t81.5 -37t93.5 -31t93.5 -35t81.5 -48t58 -70.5t22 -102.5q0 -129 -95 -196.5t-237 -67.5q-83 0 -160 27.5t-128 74.5q-15 15 -15 33zM659 1370l-217 -219q-14 -14 -34 -14q-21 0 -35 14l-215 217
q-11 15 -11 25q0 18 17 32q15 11 26 11q16 0 29 -13l191 -198l190 198q13 13 27 13q17 0 30 -13t13 -26q0 -16 -11 -27z" />
    <glyph glyph-name="Tcedilla" unicode="&#x162;" horiz-adv-x="1214" 
d="M842 -258q0 -70 -63.5 -114t-170.5 -44q-104 0 -182 45q-14 8 -14 29q0 12 4 18q10 17 28 17q7 0 19 -4q72 -35 123 -35q63 0 103 25.5t40 68.5q0 83 -106 94q-48 7 -48 52v106q-24 12 -24 45v1282h-479q-22 0 -37 15.5t-15 39.5q0 22 15 37t37 15h1071q22 0 36.5 -15.5
t14.5 -40.5q0 -22 -14.5 -36.5t-36.5 -14.5h-479v-1282q0 -35 -31 -49v-98q209 -6 209 -156z" />
    <glyph glyph-name="tcedilla" unicode="&#x163;" horiz-adv-x="700" 
d="M594 -258q0 -71 -63 -114.5t-173 -43.5q-87 0 -168 45q-14 6 -14 25q0 12 4 18q10 17 29 17q6 0 14 -4q64 -31 121 -31q63 0 103 25.5t40 68.5q0 83 -106 94q-21 3 -34 17t-13 35v106q-193 50 -193 350v776q0 22 16 37t40 15q22 0 36.5 -15t14.5 -37v-204h323
q19 0 33 -15t14 -37q0 -20 -14 -34.5t-33 -14.5h-323v-454q0 -139 49.5 -209t157.5 -70q50 0 110 29q20 8 29 8q21 0 41 -23q8 -12 8 -22q0 -28 -22 -41q-90 -51 -191 -51q-7 0 -20 1t-19 1v-92q102 -3 152.5 -44t50.5 -112z" />
    <glyph glyph-name="Tcaron" unicode="&#x164;" horiz-adv-x="1214" 
d="M664 45q0 -23 -16.5 -39t-41.5 -16q-23 0 -39 16t-16 39v1282h-479q-22 0 -37 15.5t-15 39.5q0 22 15 37t37 15h1071q22 0 36.5 -15.5t14.5 -40.5q0 -22 -14.5 -36.5t-36.5 -14.5h-479v-1282zM924 1700l-279 -162q-17 -10 -41 -10q-23 0 -43 10l-276 160q-19 10 -19 33
q0 14 4 22q10 19 33 19q11 0 19 -5l284 -159l279 157q6 4 16 4q24 0 35 -20q4 -6 4 -18q0 -21 -16 -31z" />
    <glyph glyph-name="tcaron" unicode="&#x165;" horiz-adv-x="700" 
d="M594 125q21 0 41 -23q8 -12 8 -22q0 -28 -22 -41q-90 -51 -191 -51q-151 0 -220 90.5t-69 271.5v776q0 22 16 37t40 15q22 0 36.5 -15t14.5 -37v-204h323q19 0 33 -15t14 -37q0 -20 -14 -34.5t-33 -14.5h-323v-454q0 -139 49.5 -209t157.5 -70q50 0 110 29q20 8 29 8z
M442 1143q76 79 76 196q0 31 -6 52q-2 6 -2 14q0 37 39 49q4 2 12 2q14 0 28 -8.5t17 -20.5q12 -38 12 -75q0 -92 -37 -163t-96 -110q-8 -4 -16 -4q-21 0 -31 17q-8 11 -8 22q0 17 12 29z" />
    <glyph glyph-name="Umacron" unicode="&#x16a;" horiz-adv-x="1538" 
d="M1219 625v759q0 22 16.5 38t40.5 16q23 0 39 -16t16 -38v-784q0 -159 -43.5 -280t-120 -193t-172 -107.5t-207.5 -35.5q-126 0 -231.5 40t-184 117t-122 198t-43.5 275v770q0 22 16.5 38t42.5 16q22 0 37.5 -16t15.5 -38v-749q0 -258 127 -401.5t342 -143.5
q197 0 314 134.5t117 400.5zM1040 1593h-530q-19 0 -31 13t-12 34q0 17 12 29t31 12h530q18 0 29.5 -12.5t11.5 -32.5q0 -19 -12 -31t-29 -12z" />
    <glyph glyph-name="umacron" unicode="&#x16b;" horiz-adv-x="1114" 
d="M844 242v632q0 22 15 37t38 15t38 -15t15 -37v-831q0 -22 -15.5 -36.5t-39.5 -14.5q-22 0 -36.5 14.5t-14.5 36.5v102q-56 -69 -150.5 -116t-199.5 -47q-171 0 -262 100t-91 305v487q0 22 16 37t40 15q22 0 36.5 -15t14.5 -37v-464q0 -164 68.5 -246t215.5 -82
q91 0 177 48t135 112zM770 1237h-432q-19 0 -31 13t-12 34q0 17 12 29t31 12h432q18 0 29.5 -12.5t11.5 -32.5q0 -19 -12 -31t-29 -12z" />
    <glyph glyph-name="Ubreve" unicode="&#x16c;" horiz-adv-x="1538" 
d="M1219 625v759q0 22 16.5 38t40.5 16q23 0 39 -16t16 -38v-784q0 -159 -43.5 -280t-120 -193t-172 -107.5t-207.5 -35.5q-126 0 -231.5 40t-184 117t-122 198t-43.5 275v770q0 22 16.5 38t42.5 16q22 0 37.5 -16t15.5 -38v-749q0 -258 127 -401.5t342 -143.5
q197 0 314 134.5t117 400.5zM1094 1698q-55 -67 -140.5 -113.5t-181.5 -46.5q-106 0 -193 48t-139 110q-6 9 -6 20q0 17 17 31q11 8 24 8q17 0 29 -12q111 -111 268 -111q155 0 264 113q10 10 25 10q19 0 29 -10q12 -9 12 -27q0 -8 -8 -20z" />
    <glyph glyph-name="ubreve" unicode="&#x16d;" horiz-adv-x="1114" 
d="M844 242v632q0 22 15 37t38 15t38 -15t15 -37v-831q0 -22 -15.5 -36.5t-39.5 -14.5q-22 0 -36.5 14.5t-14.5 36.5v102q-56 -69 -150.5 -116t-199.5 -47q-171 0 -262 100t-91 305v487q0 22 16 37t40 15q22 0 36.5 -15t14.5 -37v-464q0 -164 68.5 -246t215.5 -82
q91 0 177 48t135 112zM831 1329q-58 -75 -122 -115t-156 -40q-170 0 -277 155q-4 8 -4 17q0 19 17 30q9 6 20 6q18 0 27 -12q99 -108 221 -108t219 108q12 12 25 12q11 0 22 -8q15 -9 15 -26q0 -12 -7 -19z" />
    <glyph glyph-name="Uring" unicode="&#x16e;" horiz-adv-x="1538" 
d="M1219 625v759q0 22 16.5 38t40.5 16q23 0 39 -16t16 -38v-784q0 -159 -43.5 -280t-120 -193t-172 -107.5t-207.5 -35.5q-126 0 -231.5 40t-184 117t-122 198t-43.5 275v770q0 22 16.5 38t42.5 16q22 0 37.5 -16t15.5 -38v-749q0 -258 127 -401.5t342 -143.5
q197 0 314 134.5t117 400.5zM999 1608q0 -89 -65 -138t-166 -49q-98 0 -162.5 49t-64.5 138t63.5 134.5t163.5 45.5q103 0 167 -45t64 -135zM918 1608q0 58 -41 87t-107 29q-67 0 -107 -28.5t-40 -87.5t40.5 -91t106.5 -32q65 0 106.5 32t41.5 91z" />
    <glyph glyph-name="uring" unicode="&#x16f;" horiz-adv-x="1114" 
d="M844 242v632q0 22 15 37t38 15t38 -15t15 -37v-831q0 -22 -15.5 -36.5t-39.5 -14.5q-22 0 -36.5 14.5t-14.5 36.5v102q-56 -69 -150.5 -116t-199.5 -47q-171 0 -262 100t-91 305v487q0 22 16 37t40 15q22 0 36.5 -15t14.5 -37v-464q0 -164 68.5 -246t215.5 -82
q91 0 177 48t135 112zM551 1047q-91 0 -153 61t-62 149t62.5 150.5t152.5 62.5q92 0 155.5 -62.5t63.5 -150.5t-63.5 -149t-155.5 -61zM553 1407q-61 0 -103 -44t-42 -106t42 -104.5t103 -42.5t103 42.5t42 104.5t-42 106t-103 44z" />
    <glyph glyph-name="Uhungarumlaut" unicode="&#x170;" horiz-adv-x="1538" 
d="M1219 625v759q0 22 16.5 38t40.5 16q23 0 39 -16t16 -38v-784q0 -159 -43.5 -280t-120 -193t-172 -107.5t-207.5 -35.5q-126 0 -231.5 40t-184 117t-122 198t-43.5 275v770q0 22 16.5 38t42.5 16q22 0 37.5 -16t15.5 -38v-749q0 -258 127 -401.5t342 -143.5
q197 0 314 134.5t117 400.5zM874 1577l273 186q12 9 27 9q28 0 40 -25q7 -14 7 -25q0 -22 -21 -34l-287 -166q-8 -4 -16 -4q-19 0 -31 18q-4 8 -4 14q0 18 12 27zM516 1575l248 192q15 11 29 11q22 0 38 -19q11 -15 11 -26q0 -21 -17 -31l-270 -180q-12 -4 -16 -4
q-18 0 -29 14q-6 9 -6 18q0 16 12 25z" />
    <glyph glyph-name="uhungarumlaut" unicode="&#x171;" horiz-adv-x="1114" 
d="M844 242v632q0 22 15 37t38 15t38 -15t15 -37v-831q0 -22 -15.5 -36.5t-39.5 -14.5q-22 0 -36.5 14.5t-14.5 36.5v102q-56 -69 -150.5 -116t-199.5 -47q-171 0 -262 100t-91 305v487q0 22 16 37t40 15q22 0 36.5 -15t14.5 -37v-464q0 -164 68.5 -246t215.5 -82
q91 0 177 48t135 112zM903 1430l4 -3q17 -14 17 -34q0 -18 -11 -29l-188 -225q-15 -15 -31 -15q-10 0 -28 11q-15 12 -15 30q0 14 6 23l181 233q16 19 36 19q16 0 29 -10zM584 1440l4 -4q18 -12 18 -35q0 -16 -10 -29l-178 -231q-9 -15 -31 -15q-15 0 -27 9q-14 11 -14 30
q0 14 6 23l168 242q12 18 37 18q16 0 27 -8z" />
    <glyph glyph-name="Uogonek" unicode="&#x172;" horiz-adv-x="1538" 
d="M676 -190q0 -37 15.5 -64.5t39.5 -41.5t47.5 -20t46.5 -6q33 0 60 7q6 2 16 2q24 0 35 -25q4 -12 4 -16q0 -25 -20 -33q-58 -23 -119 -23q-41 0 -79.5 9.5t-74 30t-57 58.5t-21.5 89q0 69 43.5 123t116.5 86q-236 18 -379 179.5t-143 448.5v770q0 22 16.5 38t42.5 16
q22 0 37.5 -16t15.5 -38v-749q0 -258 127 -401.5t342 -143.5q197 0 314 134.5t117 400.5v759q0 22 16.5 38t40.5 16q23 0 39 -16t16 -38v-784q0 -150 -39 -267t-107.5 -189.5t-155.5 -111.5t-191 -46q-71 -23 -116.5 -70t-45.5 -106z" />
    <glyph glyph-name="uogonek" unicode="&#x173;" horiz-adv-x="1114" 
d="M668 -190q0 -37 15.5 -64.5t39.5 -41.5t47.5 -20t46.5 -6q33 0 60 7q6 2 16 2q26 0 35 -23q4 -12 4 -18q0 -25 -21 -33q-57 -23 -118 -23q-41 0 -79.5 9.5t-74 30t-57 58.5t-21.5 89q0 97 83.5 162t201.5 84q-2 6 -2 20v102q-56 -69 -150.5 -116t-199.5 -47
q-171 0 -262 100t-91 305v487q0 22 16 37t40 15q22 0 36.5 -15t14.5 -37v-464q0 -164 68.5 -246t215.5 -82q91 0 177 48t135 112v632q0 22 15 37t38 15t38 -15t15 -37v-831q0 -22 -15.5 -36.5t-39.5 -14.5q-9 0 -21 4q-87 -16 -146.5 -67t-59.5 -119z" />
    <glyph glyph-name="Ydieresis" unicode="&#x178;" horiz-adv-x="1175" 
d="M166 1405l422 -672l424 672q22 33 53 33q22 0 36.5 -14.5t14.5 -34.5q0 -14 -10 -31l-467 -731v-582q0 -23 -16 -39t-41 -16q-23 0 -39.5 16t-16.5 39v582l-458 725q-9 15 -9 30q0 22 16 39t40 17q31 0 51 -33zM424 1647q0 -32 -22 -51t-52 -19q-34 0 -56 18.5t-22 51.5
q0 30 22.5 47.5t55.5 17.5q30 0 52 -18t22 -47zM901 1647q0 -32 -21.5 -51t-50.5 -19q-34 0 -56.5 18.5t-22.5 51.5q0 30 23 47.5t56 17.5q29 0 50.5 -18t21.5 -47z" />
    <glyph glyph-name="Zacute" unicode="&#x179;" horiz-adv-x="1275" 
d="M104 0q-20 0 -31.5 11t-11.5 30q0 8 2.5 16t5.5 12l10.5 14t10.5 15l924 1229h-852q-22 0 -36.5 15.5t-14.5 39.5q0 22 14.5 37t36.5 15h979q18 0 30.5 -11t12.5 -28q0 -4 -0.5 -8t-2.5 -8.5t-3.5 -7.5t-5 -8.5t-5.5 -8t-7 -9.5t-7 -10l-928 -1229h918q22 0 36.5 -15.5
t14.5 -39.5q0 -22 -14.5 -36.5t-36.5 -14.5h-1039zM907 1737l2 -6q4 -6 4 -21q0 -29 -24 -41l-305 -143q-8 -4 -15 -4q-19 0 -32 22q-5 5 -5 17q0 20 17 30l297 164q9 6 22 6q29 0 39 -24z" />
    <glyph glyph-name="zacute" unicode="&#x17a;" horiz-adv-x="958" 
d="M115 0q-41 0 -41 39q0 24 30 57l615 725h-557q-21 0 -35 15t-14 38q0 19 14.5 33.5t34.5 14.5h680q43 0 43 -35q0 -23 -33 -62l-616 -725h581q19 0 33 -15t14 -36q0 -20 -14 -34.5t-33 -14.5h-702zM657 1438l9 -6q18 -15 18 -37q0 -14 -10 -27l-185 -227q-12 -15 -32 -15
q-15 0 -27 9q-14 11 -14 30q0 14 6 23l172 242q12 18 35 18q15 0 28 -10z" />
    <glyph glyph-name="Zdotaccent" unicode="&#x17b;" horiz-adv-x="1275" 
d="M104 0q-20 0 -31.5 11t-11.5 30q0 8 2.5 16t5.5 12l10.5 14t10.5 15l924 1229h-852q-22 0 -36.5 15.5t-14.5 39.5q0 22 14.5 37t36.5 15h979q18 0 30.5 -11t12.5 -28q0 -4 -0.5 -8t-2.5 -8.5t-3.5 -7.5t-5 -8.5t-5.5 -8t-7 -9.5t-7 -10l-928 -1229h918q22 0 36.5 -15.5
t14.5 -39.5q0 -22 -14.5 -36.5t-36.5 -14.5h-1039zM700 1651q0 -35 -23 -55.5t-54 -20.5q-34 0 -57 20.5t-23 55.5q0 33 23.5 53t56.5 20q31 0 54 -20.5t23 -52.5z" />
    <glyph glyph-name="zdotaccent" unicode="&#x17c;" horiz-adv-x="958" 
d="M115 0q-41 0 -41 39q0 24 30 57l615 725h-557q-21 0 -35 15t-14 38q0 19 14.5 33.5t34.5 14.5h680q43 0 43 -35q0 -23 -33 -62l-616 -725h581q19 0 33 -15t14 -36q0 -20 -14 -34.5t-33 -14.5h-702zM547 1280q0 -34 -21 -55t-49 -21q-32 0 -54 21t-22 55q0 30 22 49t54 19
q28 0 49 -19t21 -49z" />
    <glyph glyph-name="Zcaron" unicode="&#x17d;" horiz-adv-x="1275" 
d="M104 0q-20 0 -31.5 11t-11.5 30q0 8 2.5 16t5.5 12l10.5 14t10.5 15l924 1229h-852q-22 0 -36.5 15.5t-14.5 39.5q0 22 14.5 37t36.5 15h979q18 0 30.5 -11t12.5 -28q0 -4 -0.5 -8t-2.5 -8.5t-3.5 -7.5t-5 -8.5t-5.5 -8t-7 -9.5t-7 -10l-928 -1229h918q22 0 36.5 -15.5
t14.5 -39.5q0 -22 -14.5 -36.5t-36.5 -14.5h-1039zM952 1700l-278 -162q-17 -10 -41 -10q-23 0 -43 10l-277 160q-18 9 -18 33q0 14 4 22q9 19 33 19q10 0 18 -5l285 -159l278 157q6 4 17 4q24 0 35 -20q4 -6 4 -18q0 -21 -17 -31z" />
    <glyph glyph-name="zcaron" unicode="&#x17e;" horiz-adv-x="958" 
d="M115 0q-41 0 -41 39q0 24 30 57l615 725h-557q-21 0 -35 15t-14 38q0 19 14.5 33.5t34.5 14.5h680q43 0 43 -35q0 -23 -33 -62l-616 -725h581q19 0 33 -15t14 -36q0 -20 -14 -34.5t-33 -14.5h-702zM735 1370l-217 -219q-14 -14 -35 -14q-20 0 -34 14l-216 217
q-10 13 -10 25q0 18 17 32q15 11 26 11q16 0 29 -13l190 -198l191 198q13 13 26 13q18 0 31 -13q12 -12 12 -26q0 -17 -10 -27z" />
    <glyph glyph-name="longs" unicode="&#x17f;" horiz-adv-x="557" 
d="M508 1452q121 0 213 -57q16 -10 16 -33q0 -16 -8 -27q-14 -20 -39 -20q-14 0 -26 6q-76 31 -140 31q-227 0 -227 -299v-1010q0 -22 -15.5 -36.5t-39.5 -14.5q-22 0 -37 14.5t-15 36.5v1028q0 190 81.5 285.5t236.5 95.5z" />
    <glyph glyph-name="uni018F" unicode="&#x18f;" horiz-adv-x="1576" 
d="M330 1335q78 56 189 86.5t231 30.5q325 0 520.5 -198t195.5 -531q0 -213 -84 -380.5t-243.5 -264t-370.5 -96.5q-203 0 -358.5 94t-240.5 262.5t-87 386.5q0 23 18 41t41 18h1205q-19 260 -186 411t-435 151q-199 0 -334 -89q-17 -10 -35 -10q-23 0 -39 19q-8 11 -8 26
q0 29 21 43zM201 678q5 -164 73 -297t196 -213t294 -80q259 0 415.5 164t170.5 426h-1149z" />
    <glyph glyph-name="florin" unicode="&#x192;" horiz-adv-x="1222" 
d="M1206 1360q0 -16 -8 -27q-15 -24 -41 -24q-9 0 -29 8q-65 35 -141 35q-109 0 -169 -70t-89 -229l-24 -131h290q19 0 33 -15t14 -37q0 -20 -14 -34.5t-33 -14.5h-309l-158 -889q-33 -182 -106 -270t-219 -88q-86 0 -162 37q-25 14 -25 43q0 10 7 20q16 25 40 25
q13 0 25 -6q42 -19 92 -19q106 0 162 67t80 204l156 876h-271q-21 0 -35 15t-14 38q0 19 14.5 33.5t34.5 14.5h289l27 149q38 199 118 290t230 91q122 0 215 -55q20 -13 20 -37z" />
    <glyph glyph-name="uni01DD" unicode="&#x1dd;" horiz-adv-x="1064" 
d="M145 498h711q-3 147 -98.5 244.5t-255.5 97.5q-158 0 -262 -74q-15 -12 -35 -12t-33 16q-10 10 -10 27q0 24 16 37q66 53 153.5 79.5t176.5 26.5q217 0 342 -129.5t125 -349.5q0 -208 -121 -343.5t-334 -135.5q-188 0 -309 114t-121 301q0 36 2 54q2 19 17.5 33t35.5 14z
M201 410q0 -158 87 -243t240 -85q146 0 237.5 92.5t96.5 235.5h-661z" />
    <glyph glyph-name="Scommaaccent" unicode="&#x218;" horiz-adv-x="1093" 
d="M106 180q0 24 15 39q17 17 39 17q17 0 33 -13q79 -61 167 -98t168 -37q90 0 166 29.5t125 91.5t49 147q0 65 -25.5 116t-68 86t-98.5 63t-117.5 52t-122.5 49t-117 58t-98.5 74t-68 102t-25.5 138q0 155 113 256.5t307 101.5t348 -104q20 -13 20 -41q0 -14 -10 -31
q-16 -23 -43 -23q-16 0 -31 9q-72 44 -135 64t-145 20q-140 0 -222.5 -68.5t-82.5 -183.5q0 -64 25.5 -114t68 -83.5t98.5 -60.5t117 -50t122.5 -47.5t117.5 -57.5t98.5 -75t68 -105t25.5 -143q0 -168 -131 -272t-326 -104q-106 0 -216 45.5t-193 117.5q-15 12 -15 35z
M449 -354q73 39 73 116q0 37 -22 68q-8 11 -8 25q0 19 14 30q15 11 31 11q37 0 64.5 -36.5t27.5 -88.5q0 -74 -62 -129.5t-106 -55.5q-11 0 -21 9t-10 22q0 23 19 29z" />
    <glyph glyph-name="scommaaccent" unicode="&#x219;" horiz-adv-x="831" 
d="M98 117q0 20 15 35q14 14 32 14q16 0 37 -14q102 -76 232 -76q86 0 146.5 43t60.5 123q0 47 -28 80t-73 52.5t-99.5 36.5t-109 38t-99.5 49.5t-73 78.5t-28 119q0 110 82 177t215 67q155 0 262 -72q16 -10 16 -34q0 -21 -10 -31q-16 -19 -37 -19q-15 0 -33 11
q-85 51 -196 51q-84 0 -135.5 -43t-51.5 -105q0 -43 22 -76t58 -52t81.5 -37t93.5 -31t93.5 -35t81.5 -48t58 -70.5t22 -102.5q0 -129 -95 -196.5t-237 -67.5q-83 0 -160 27.5t-128 74.5q-15 15 -15 33zM328 -354q73 39 73 116q0 37 -22 68q-8 11 -8 25q0 19 14 30
q15 11 31 11q37 0 64.5 -36.5t27.5 -88.5q0 -74 -62 -129.5t-106 -55.5q-11 0 -21 9t-10 22q0 23 19 29z" />
    <glyph glyph-name="Tcommaaccent" unicode="&#x21a;" horiz-adv-x="1214" 
d="M664 45q0 -23 -16.5 -39t-41.5 -16q-23 0 -39 16t-16 39v1282h-479q-22 0 -37 15.5t-15 39.5q0 22 15 37t37 15h1071q22 0 36.5 -15.5t14.5 -40.5q0 -22 -14.5 -36.5t-36.5 -14.5h-479v-1282zM518 -354q74 39 74 116q0 35 -23 68q-8 11 -8 25q0 19 14 30q15 11 31 11
q37 0 64.5 -36.5t27.5 -88.5q0 -74 -62 -129.5t-106 -55.5q-11 0 -20.5 9t-9.5 22q0 23 18 29z" />
    <glyph glyph-name="tcommaaccent" unicode="&#x21b;" horiz-adv-x="700" 
d="M594 125q21 0 41 -23q8 -12 8 -22q0 -28 -22 -41q-90 -51 -191 -51q-151 0 -220 90.5t-69 271.5v776q0 22 16 37t40 15q22 0 36.5 -15t14.5 -37v-204h323q19 0 33 -15t14 -37q0 -20 -14 -34.5t-33 -14.5h-323v-454q0 -139 49.5 -209t157.5 -70q50 0 110 29q20 8 29 8z
M297 -354q74 39 74 116q0 35 -23 68q-8 11 -8 25q0 19 14 30q15 11 31 11q37 0 64.5 -36.5t27.5 -88.5q0 -74 -62 -129.5t-106 -55.5q-11 0 -20.5 9t-9.5 22q0 23 18 29z" />
    <glyph glyph-name="uni0237" unicode="&#x237;" horiz-adv-x="557" 
d="M244 -59v933q0 22 15 37t38 15t38 -15t15 -37v-942q0 -358 -289 -358q-85 0 -161 39q-23 10 -23 39q0 10 6 22q16 25 41 25q15 0 23 -4q51 -21 92 -21q205 0 205 267z" />
    <glyph glyph-name="uni0259" unicode="&#x259;" horiz-adv-x="1064" 
d="M145 498h711q-3 147 -98.5 244.5t-255.5 97.5q-158 0 -262 -74q-15 -12 -35 -12t-33 16q-10 10 -10 27q0 24 16 37q66 53 153.5 79.5t176.5 26.5q217 0 342 -129.5t125 -349.5q0 -208 -121 -343.5t-334 -135.5q-188 0 -309 114t-121 301q0 36 2 54q2 19 17.5 33t35.5 14z
M201 410q0 -158 87 -243t240 -85q146 0 237.5 92.5t96.5 235.5h-661z" />
    <glyph glyph-name="afii57929" unicode="&#x2bc;" horiz-adv-x="462" 
d="M129 1004q70 64 70 174q0 32 -17 75q-8 20 -8 27q0 24 25 43l10 8q9 6 22 6q28 0 37 -20q31 -57 31 -117q0 -170 -133 -258q-8 -4 -14 -4q-21 0 -31 16q-4 6 -4 21q0 17 12 29z" />
    <glyph glyph-name="circumflex" unicode="&#x2c6;" horiz-adv-x="784" 
d="M145 1200l217 215q12 15 35 15q20 0 35 -15l211 -215q10 -13 10 -26q0 -19 -14 -33q-15 -11 -27 -11q-17 0 -30 13l-187 186l-190 -186q-13 -10 -27 -10q-19 0 -33 14q-12 12 -12 27q0 17 12 26z" />
    <glyph glyph-name="caron" unicode="&#x2c7;" horiz-adv-x="784" 
d="M643 1370l-217 -219q-14 -14 -35 -14t-35 14l-215 217q-10 13 -10 25q0 19 16 32q15 11 27 11q16 0 29 -13l190 -198l191 198q13 13 26 13q18 0 31 -13q12 -12 12 -26q0 -17 -10 -27z" />
    <glyph glyph-name="breve" unicode="&#x2d8;" horiz-adv-x="817" 
d="M688 1329q-58 -75 -122 -115t-156 -40q-170 0 -277 155q-4 8 -4 17q0 19 16 30q9 6 21 6q18 0 27 -12q99 -108 221 -108t219 108q12 12 24 12t23 -8q14 -8 14 -26q0 -13 -6 -19z" />
    <glyph glyph-name="dotaccent" unicode="&#x2d9;" horiz-adv-x="391" 
d="M268 1280q0 -34 -20.5 -55t-48.5 -21q-32 0 -54 21t-22 55q0 30 22 49t54 19q27 0 48 -19t21 -49z" />
    <glyph glyph-name="ring" unicode="&#x2da;" horiz-adv-x="679" 
d="M338 1047q-91 0 -153 61t-62 149t62.5 150.5t152.5 62.5q92 0 155.5 -62.5t63.5 -150.5t-63.5 -149t-155.5 -61zM340 1407q-61 0 -103 -44t-42 -106t42 -104.5t103 -42.5t103 42.5t42 104.5t-42 106t-103 44z" />
    <glyph glyph-name="ogonek" unicode="&#x2db;" horiz-adv-x="626" 
d="M229 -190q0 -30 10.5 -54t26.5 -38.5t37 -23.5t39.5 -12.5t36.5 -3.5q32 0 59 7q6 2 17 2q25 0 34 -23q5 -15 5 -18q0 -25 -21 -33q-57 -23 -119 -23q-41 0 -79.5 9.5t-74 30t-56.5 58.5t-21 89q0 75 54.5 133.5t133.5 87.5t166 31q12 0 12 -17q0 -4 -3.5 -8t-8.5 -4
q-98 -5 -173 -59.5t-75 -130.5z" />
    <glyph glyph-name="tilde" unicode="&#x2dc;" horiz-adv-x="870" 
d="M547 1149q-37 0 -75.5 23.5t-77.5 47t-77 23.5q-49 0 -122 -51q-9 -6 -21 -6q-18 0 -31 16q-8 12 -8 21q0 14 10 24q99 84 185 84q40 0 79.5 -23.5t76 -47t71.5 -23.5q59 0 127 57q9 9 21 9q16 0 28 -15q10 -10 10 -22q0 -13 -10 -23q-101 -94 -186 -94z" />
    <glyph glyph-name="hungarumlaut" unicode="&#x2dd;" horiz-adv-x="860" 
d="M696 1430l4 -3q17 -14 17 -34q0 -19 -10 -29l-189 -225q-15 -15 -31 -15q-10 0 -28 11q-15 12 -15 30q0 13 7 23l180 233q16 19 37 19q15 0 28 -10zM377 1440l4 -4q18 -12 18 -35q0 -16 -10 -29l-178 -231q-9 -15 -31 -15q-14 0 -26 9q-15 12 -15 30q0 14 6 23l168 242
q12 18 37 18q16 0 27 -8z" />
    <glyph glyph-name="gravecomb" unicode="&#x300;" horiz-adv-x="0" 
d="M-504 1135l-2 -2q-18 -9 -24 -9q-19 0 -33 17l-185 225q-10 13 -10 27q0 21 19 37l10 6q13 10 29 10q21 0 34 -19l172 -237q7 -10 7 -23q0 -21 -17 -32z" />
    <glyph glyph-name="acutecomb" unicode="&#x301;" horiz-adv-x="0" 
d="M-387 1438l8 -6q19 -16 19 -37q0 -12 -11 -27l-184 -227q-12 -15 -33 -15q-14 0 -26 9q-15 12 -15 30q0 14 6 23l172 242q12 18 35 18q16 0 29 -10z" />
    <glyph glyph-name="uni0394" unicode="&#x394;" horiz-adv-x="1429" 
d="M662 1419q4 13 18 22t29 9q14 0 27.5 -9t17.5 -22l589 -1343q5 -10 5 -23q0 -22 -15.5 -37.5t-38.5 -15.5h-1159q-23 0 -38 15.5t-15 37.5q0 15 4 23zM705 1257l-488 -1151h989z" />
    <glyph glyph-name="uni0394" unicode="&#x2206;" horiz-adv-x="1429" 
d="M662 1419q4 13 18 22t29 9q14 0 27.5 -9t17.5 -22l589 -1343q5 -10 5 -23q0 -22 -15.5 -37.5t-38.5 -15.5h-1159q-23 0 -38 15.5t-15 37.5q0 15 4 23zM705 1257l-488 -1151h989z" />
    <glyph glyph-name="uni03A9" unicode="&#x3a9;" horiz-adv-x="1662" 
d="M238 723q0 -207 114.5 -375t302.5 -227q54 -17 54 -62q0 -27 -15.5 -43t-40.5 -16h-438q-22 0 -36.5 15.5t-14.5 39.5q0 22 14.5 36.5t36.5 14.5h315q-175 59 -293 234t-118 401q0 153 55 286t150 226t226.5 146t280.5 53q200 0 362.5 -90t256.5 -253.5t94 -367.5
q0 -231 -119 -403t-295 -232h316q22 0 36.5 -15.5t14.5 -39.5q0 -22 -14.5 -36.5t-36.5 -14.5h-438q-25 0 -40.5 16t-15.5 43q0 21 15 37.5t39 24.5q189 61 304 227t115 377q0 171 -75 312.5t-212 225t-307 83.5q-172 0 -308.5 -83.5t-210.5 -225.5t-74 -314z" />
    <glyph glyph-name="uni03A9" unicode="&#x2126;" horiz-adv-x="1662" 
d="M238 723q0 -207 114.5 -375t302.5 -227q54 -17 54 -62q0 -27 -15.5 -43t-40.5 -16h-438q-22 0 -36.5 15.5t-14.5 39.5q0 22 14.5 36.5t36.5 14.5h315q-175 59 -293 234t-118 401q0 153 55 286t150 226t226.5 146t280.5 53q200 0 362.5 -90t256.5 -253.5t94 -367.5
q0 -231 -119 -403t-295 -232h316q22 0 36.5 -15.5t14.5 -39.5q0 -22 -14.5 -36.5t-36.5 -14.5h-438q-25 0 -40.5 16t-15.5 43q0 21 15 37.5t39 24.5q189 61 304 227t115 377q0 171 -75 312.5t-212 225t-307 83.5q-172 0 -308.5 -83.5t-210.5 -225.5t-74 -314z" />
    <glyph glyph-name="pi" unicode="&#x3c0;" horiz-adv-x="1292" 
d="M59 41q0 48 56 61q58 14 97 67t62.5 171.5t24.5 304.5l2 176h-162q-21 0 -35 15t-14 38q0 19 14.5 33.5t34.5 14.5h1004q19 0 33 -15t14 -37q0 -20 -14 -34.5t-33 -14.5h-158v-555q0 -97 20.5 -137.5t77.5 -40.5q36 0 80 21q16 8 29 8q21 0 35 -23q6 -9 6 -22
q0 -24 -19 -35q-83 -49 -170 -49q-84 0 -124.5 53.5t-40.5 167.5v612h-473v-149q0 -186 -19.5 -316t-59 -206t-90.5 -112.5t-122 -45.5h-4q-21 0 -36.5 13t-15.5 36z" />
    <glyph glyph-name="afii10023" unicode="&#x401;" horiz-adv-x="1177" 
d="M340 106h649q22 0 36.5 -15.5t14.5 -39.5q0 -22 -14.5 -36.5t-36.5 -14.5h-702q-25 0 -42.5 17t-17.5 42v1315q0 25 17.5 42.5t42.5 17.5h682q22 0 36.5 -15.5t14.5 -40.5q0 -22 -14.5 -36.5t-36.5 -14.5h-629v-547h567q22 0 36.5 -15.5t14.5 -39.5q0 -22 -14.5 -36.5
t-36.5 -14.5h-567v-568zM469 1647q0 -32 -22 -51t-52 -19q-34 0 -56 18.5t-22 51.5q0 30 22.5 47.5t55.5 17.5q30 0 52 -18t22 -47zM946 1647q0 -32 -21.5 -51t-50.5 -19q-34 0 -56.5 18.5t-22.5 51.5q0 30 23 47.5t56 17.5q29 0 50.5 -18t21.5 -47z" />
    <glyph glyph-name="afii10051" unicode="&#x402;" horiz-adv-x="1556" 
d="M664 1327v-577q77 52 160 84t198 32q94 0 169 -23.5t133.5 -74.5t90 -139.5t31.5 -210.5q0 -113 -28 -199.5t-75.5 -136.5t-104.5 -75t-120 -25q-101 0 -178 41q-22 13 -22 40q0 15 6 27q17 27 43 27q12 0 24 -6q48 -23 115 -23q42 0 80.5 19t72 57t54 103t20.5 149
q0 179 -84.5 261.5t-249.5 82.5q-34 0 -65 -3t-62 -12.5t-49.5 -15t-48.5 -22t-38 -20t-40 -23.5l-32 -21v-598q0 -23 -16.5 -39t-41.5 -16q-23 0 -39 16t-16 39v1282h-479q-22 0 -37 15.5t-15 39.5q0 22 15 37t37 15h1071q22 0 36.5 -15.5t14.5 -40.5q0 -22 -14.5 -36.5
t-36.5 -14.5h-479z" />
    <glyph glyph-name="afii10052" unicode="&#x403;" horiz-adv-x="1030" 
d="M340 1327v-1282q0 -23 -16 -39t-39 -16q-25 0 -41.5 16t-16.5 39v1329q0 25 17.5 42.5t42.5 17.5h680q22 0 36.5 -15.5t14.5 -40.5q0 -22 -14.5 -36.5t-36.5 -14.5h-627zM926 1737l2 -6q4 -6 4 -21q0 -28 -25 -41l-305 -143q-8 -4 -14 -4q-20 0 -33 22q-4 4 -4 17
q0 20 16 30l297 164q9 6 23 6q29 0 39 -24z" />
    <glyph glyph-name="afii10053" unicode="&#x404;" horiz-adv-x="1376" 
d="M950 678h-710q14 -264 181.5 -427t428.5 -163q212 0 375 100q12 9 26 9q27 0 43 -23q11 -18 11 -31q0 -27 -21 -41q-186 -120 -436 -120q-216 0 -381.5 96.5t-253.5 264.5t-88 380q0 333 196.5 531t520.5 198q119 0 232 -31t194 -88q16 -11 16 -39q0 -15 -6 -24
q-20 -23 -41 -23q-16 0 -27 8q-138 91 -344 91q-270 0 -438 -150.5t-188 -411.5h710q22 0 36.5 -14.5t14.5 -36.5q0 -24 -14.5 -39.5t-36.5 -15.5z" />
    <glyph glyph-name="afii10054" unicode="&#x405;" horiz-adv-x="1093" 
d="M106 180q0 24 15 39q17 17 39 17q17 0 33 -13q79 -61 167 -98t168 -37q90 0 166 29.5t125 91.5t49 147q0 65 -25.5 116t-68 86t-98.5 63t-117.5 52t-122.5 49t-117 58t-98.5 74t-68 102t-25.5 138q0 155 113 256.5t307 101.5t348 -104q20 -13 20 -41q0 -14 -10 -31
q-16 -23 -43 -23q-16 0 -31 9q-72 44 -135 64t-145 20q-140 0 -222.5 -68.5t-82.5 -183.5q0 -64 25.5 -114t68 -83.5t98.5 -60.5t117 -50t122.5 -47.5t117.5 -57.5t98.5 -75t68 -105t25.5 -143q0 -168 -131 -272t-326 -104q-106 0 -216 45.5t-193 117.5q-15 12 -15 35z" />
    <glyph glyph-name="afii10055" unicode="&#x406;" horiz-adv-x="665" 
d="M389 1384v-1339q0 -23 -16 -39t-39 -16q-25 0 -41.5 16t-16.5 39v1339q0 22 17 38t43 16q22 0 37.5 -16t15.5 -38z" />
    <glyph glyph-name="afii10056" unicode="&#x407;" horiz-adv-x="667" 
d="M115 1647q0 29 20 47t49 18q27 0 47.5 -18.5t20.5 -46.5q0 -31 -20.5 -50.5t-47.5 -19.5q-29 0 -49 19.5t-20 50.5zM416 1647q0 29 20.5 47t50.5 18q26 0 46 -18.5t20 -46.5q0 -31 -20 -50.5t-46 -19.5q-30 0 -50.5 19.5t-20.5 50.5zM389 1384v-1339q0 -23 -16 -39
t-39 -16q-25 0 -41.5 16t-16.5 39v1339q0 22 17 38t43 16q22 0 37.5 -16t15.5 -38z" />
    <glyph glyph-name="afii10057" unicode="&#x408;" horiz-adv-x="733" 
d="M393 332v1052q0 22 17 38t41 16q23 0 39 -16t16 -38v-1069q0 -161 -67 -247t-220 -86q-94 0 -158 38q-26 15 -26 48q0 14 4 22q13 29 43 29q10 0 22 -6q60 -25 101 -25q56 0 94 18t58 53t28 76.5t8 96.5z" />
    <glyph glyph-name="afii10058" unicode="&#x409;" horiz-adv-x="2107" 
d="M1247 868q161 11 217 11q265 0 399 -112t134 -314q0 -221 -148 -339t-411 -118q-100 0 -244 4q-25 0 -42 17t-17 42v1268h-603l-24 -270q-15 -184 -37 -334.5t-47 -258.5t-55.5 -191t-61.5 -134.5t-67 -85t-69 -47t-71 -16.5h-4q-21 0 -38 13.5t-17 37.5q0 50 61 68
q237 72 304 1038l16 227q2 25 20 42.5t43 17.5h703q25 0 42 -17.5t17 -42.5v-506zM1247 760v-651q2 0 78.5 -3.5t124.5 -3.5q208 0 318 89t110 260q0 155 -108 238t-312 83q-110 0 -211 -12z" />
    <glyph glyph-name="afii10059" unicode="&#x40a;" horiz-adv-x="2187" 
d="M340 729v-684q0 -23 -16 -39t-39 -16q-25 0 -41.5 16t-16.5 39v1339q0 22 17 38t43 16q22 0 37.5 -16t15.5 -38v-548h874v548q0 22 17 38t43 16q22 0 37.5 -16t15.5 -38v-542q147 10 217 10q266 0 399.5 -108.5t133.5 -305.5q0 -215 -147.5 -328.5t-411.5 -113.5
q-48 0 -131.5 2t-118.5 2h-29q-9 0 -17 8t-8 17v704h-874zM1327 109q7 0 81 -3.5t122 -3.5q209 0 318.5 85t109.5 251q0 149 -107 228t-313 79q-108 0 -211 -12v-624z" />
    <glyph glyph-name="afii10060" unicode="&#x40b;" horiz-adv-x="1556" 
d="M664 45q0 -23 -16.5 -39t-41.5 -16q-23 0 -39 16t-16 39v1282h-479q-22 0 -37 15.5t-15 39.5q0 22 15 37t37 15h1071q22 0 36.5 -15.5t14.5 -40.5q0 -22 -14.5 -36.5t-36.5 -14.5h-479v-579q163 118 372 118q90 0 163 -26t129 -79.5t87 -143t31 -209.5v-363
q0 -23 -16 -39t-41 -16q-23 0 -39.5 16t-16.5 39v338q0 192 -84 284.5t-241 92.5q-57 0 -108 -10t-97.5 -31.5t-71.5 -35t-67 -40.5v-598z" />
    <glyph glyph-name="afii10061" unicode="&#x40c;" horiz-adv-x="1284" 
d="M1087 14l-638 691q-17 20 -17 43t17 43l614 624q23 23 49 23q20 0 32.5 -14t12.5 -33q0 -23 -18 -41l-598 -594l628 -676q15 -18 15 -39t-14 -36t-35 -15q-24 0 -48 24zM340 1384v-1339q0 -23 -16 -39t-39 -16q-25 0 -41.5 16t-16.5 39v1339q0 22 17 38t43 16
q22 0 37.5 -16t15.5 -38zM963 1737l2 -6q4 -6 4 -21q0 -28 -25 -41l-305 -143q-8 -4 -14 -4q-20 0 -33 22q-4 4 -4 17q0 20 16 30l297 164q9 6 23 6q29 0 39 -24z" />
    <glyph glyph-name="afii10062" unicode="&#x40e;" horiz-adv-x="1323" 
d="M164 1409l575 -954l420 948q16 35 47 35q24 0 40 -15t16 -37q0 -10 -7 -24l-467 -1038q-77 -173 -153 -253.5t-178 -80.5q-70 0 -115 22q-29 14 -29 49q0 5 4 21q12 31 43 31q15 0 23 -4q38 -15 72 -15q64 0 112 51.5t90 139.5l27 57l-614 1014q-9 12 -9 28q0 21 15 37.5
t39 16.5q33 0 49 -29zM389 1765q32 0 47 -30q37 -67 101 -101.5t143 -34.5t143 34.5t101 101.5q17 30 45 30q4 0 20 -4q12 -3 20.5 -15t8.5 -26q0 -6 -4 -14q-44 -92 -130 -140t-204 -48t-204 48t-130 140q-4 8 -4 16q0 12 9 24.5t22 16.5q6 2 16 2z" />
    <glyph glyph-name="afii10145" unicode="&#x40f;" horiz-adv-x="1548" 
d="M825 -270q0 -22 -15.5 -37t-39.5 -15q-22 0 -36.5 15t-14.5 37v270h-432q-25 0 -42.5 17t-17.5 42v1325q0 22 17 38t43 16q22 0 37.5 -16t15.5 -38v-1278h868v1278q0 22 17 38t43 16q22 0 37.5 -16t15.5 -38v-1325q0 -25 -17 -42t-42 -17h-437v-270z" />
    <glyph glyph-name="afii10017" unicode="&#x410;" horiz-adv-x="1404" 
d="M1044 487h-688l-200 -467q-13 -30 -47 -30q-23 0 -38.5 15.5t-15.5 37.5q0 8 4 20l586 1338q18 41 57 41q42 0 60 -41l584 -1335q4 -12 4 -21q0 -22 -17 -38.5t-39 -16.5q-36 0 -49 30zM700 1286l-299 -692h598z" />
    <glyph glyph-name="afii10018" unicode="&#x411;" horiz-adv-x="1249" 
d="M340 842q126 12 242 12q251 0 383.5 -110t132.5 -304q0 -218 -145 -332t-404 -114q-40 0 -262 6q-25 0 -42.5 17t-17.5 42v1315q0 25 17.5 42.5t42.5 17.5h680q22 0 36.5 -15.5t14.5 -40.5q0 -22 -14.5 -36.5t-36.5 -14.5h-627v-485zM340 735v-629q204 -6 225 -6
q207 0 313.5 86.5t106.5 247.5q0 147 -103 230.5t-304 83.5q-124 0 -238 -13z" />
    <glyph glyph-name="afii10019" unicode="&#x412;" horiz-adv-x="1263" 
d="M1057 1085q0 -135 -78.5 -221t-200.5 -116q158 -21 246 -110t88 -237q0 -105 -38.5 -184.5t-108 -127.5t-160.5 -71.5t-203 -23.5q-180 0 -315 6q-25 0 -42.5 18t-17.5 43v1311q0 25 17.5 42.5t42.5 19.5q264 6 317 6q124 0 214 -27t141 -76.5t74.5 -111.5t23.5 -140z
M340 682v-573q256 -9 266 -9q188 0 290.5 77.5t102.5 230.5q0 132 -100.5 203t-286.5 71h-272zM340 782h278q138 0 232 76.5t94 204.5q0 270 -344 270q-89 0 -260 -6v-545z" />
    <glyph glyph-name="afii10020" unicode="&#x413;" horiz-adv-x="1030" 
d="M340 1327v-1282q0 -23 -16 -39t-39 -16q-25 0 -41.5 16t-16.5 39v1329q0 25 17.5 42.5t42.5 17.5h680q22 0 36.5 -15.5t14.5 -40.5q0 -22 -14.5 -36.5t-36.5 -14.5h-627z" />
    <glyph glyph-name="afii10021" unicode="&#x414;" horiz-adv-x="1521" 
d="M141 0v-223q0 -22 -15 -36.5t-38 -14.5t-38 14.5t-15 36.5v270q0 25 17 42t42 17h94q27 35 59.5 107t72.5 194t72 317t44 423l13 227q0 25 18 42.5t43 17.5h688q25 0 42 -17.5t17 -42.5v-1268h136q25 0 42 -17t17 -42v-270q0 -22 -15.5 -36.5t-39.5 -14.5
q-22 0 -36.5 14.5t-14.5 36.5v223h-1205zM1145 106v1221h-586l-16 -262q-14 -208 -44 -387.5t-65.5 -292.5t-66 -181.5t-54.5 -97.5h832z" />
    <glyph glyph-name="afii10022" unicode="&#x415;" horiz-adv-x="1177" 
d="M340 106h649q22 0 36.5 -15.5t14.5 -39.5q0 -22 -14.5 -36.5t-36.5 -14.5h-702q-25 0 -42.5 17t-17.5 42v1315q0 25 17.5 42.5t42.5 17.5h682q22 0 36.5 -15.5t14.5 -40.5q0 -22 -14.5 -36.5t-36.5 -14.5h-629v-547h567q22 0 36.5 -15.5t14.5 -39.5q0 -22 -14.5 -36.5
t-36.5 -14.5h-567v-568z" />
    <glyph glyph-name="afii10024" unicode="&#x416;" horiz-adv-x="1843" 
d="M1653 20l-570 682q-16 19 -16 46q0 26 16 45l543 616q26 29 55 29q20 0 32.5 -14t12.5 -33q0 -20 -16 -39l-541 -602l572 -674q14 -14 14 -35t-14 -36t-35 -15q-27 0 -53 30zM977 1384v-1339q0 -23 -16 -39t-39 -16q-25 0 -41.5 16t-16.5 39v1339q0 22 17 38t43 16
q22 0 37.5 -16t15.5 -38zM186 18q-24 -28 -49 -28q-21 0 -35 14t-14 35t14 35l572 674l-541 604q-14 14 -14 37q0 21 13 35t34 14q25 0 51 -29l543 -616q16 -19 16 -45q0 -27 -16 -46z" />
    <glyph glyph-name="afii10025" unicode="&#x417;" horiz-adv-x="1155" 
d="M543 1452q185 0 295 -98t110 -273q0 -102 -57 -196.5t-160 -143.5q128 -21 200.5 -116.5t72.5 -223.5t-65.5 -224.5t-173.5 -145.5t-241 -49q-126 0 -234.5 46t-187.5 128q-12 12 -12 32q0 23 16 39q17 17 37 17q18 0 35 -17q151 -139 338 -139q169 0 272 87t103 237
q0 123 -82 195.5t-223 72.5h-127q-22 0 -36.5 15.5t-14.5 39.5q0 22 14.5 36.5t36.5 14.5h114q102 0 182.5 83t80.5 204q0 132 -84 202.5t-217 70.5q-103 0 -177.5 -30.5t-138.5 -92.5q-17 -17 -41 -17q-17 0 -33 13q-14 14 -14 34q0 23 12 35q74 77 178.5 120.5t221.5 43.5
z" />
    <glyph glyph-name="afii10026" unicode="&#x418;" horiz-adv-x="1632" 
d="M1405 45q0 -23 -16 -39t-41 -16q-23 0 -39.5 16t-16.5 39v1200l-944 -1218q-28 -37 -67 -37q-26 0 -40 17t-14 42v1335q0 22 17 38t43 16q22 0 37.5 -16t15.5 -38v-1200l932 1202q13 16 22 25.5t24.5 18t31.5 8.5q26 0 40.5 -16.5t14.5 -43.5v-1333z" />
    <glyph glyph-name="afii10027" unicode="&#x419;" horiz-adv-x="1632" 
d="M1405 45q0 -23 -16 -39t-41 -16q-23 0 -39.5 16t-16.5 39v1200l-944 -1218q-28 -37 -67 -37q-26 0 -40 17t-14 42v1335q0 22 17 38t43 16q22 0 37.5 -16t15.5 -38v-1200l932 1202q13 16 22 25.5t24.5 18t31.5 8.5q26 0 40.5 -16.5t14.5 -43.5v-1333zM530 1765
q33 0 48 -30q37 -67 100.5 -101.5t142.5 -34.5t143 34.5t101 101.5q17 30 45 30q4 0 20 -4q12 -3 20.5 -15t8.5 -26q0 -6 -4 -14q-44 -92 -130 -140t-204 -48t-204 48t-130 140q-4 8 -4 16q0 12 9 24.5t22 16.5q6 2 16 2z" />
    <glyph glyph-name="afii10028" unicode="&#x41a;" horiz-adv-x="1284" 
d="M1087 14l-638 691q-17 20 -17 43t17 43l614 624q23 23 49 23q20 0 32.5 -14t12.5 -33q0 -23 -18 -41l-598 -594l628 -676q15 -18 15 -39t-14 -36t-35 -15q-24 0 -48 24zM340 1384v-1339q0 -23 -16 -39t-39 -16q-25 0 -41.5 16t-16.5 39v1339q0 22 17 38t43 16
q22 0 37.5 -16t15.5 -38z" />
    <glyph glyph-name="afii10029" unicode="&#x41b;" horiz-adv-x="1474" 
d="M1247 1374v-1329q0 -23 -16 -39t-39 -16q-25 0 -41 16t-16 39v1282h-603l-24 -270q-15 -184 -37 -334.5t-47 -258.5t-55.5 -191t-61.5 -134.5t-67 -85t-69 -47t-71 -16.5h-4q-21 0 -37 13.5t-16 39.5q0 27 13.5 42t45.5 24q237 72 304 1038l16 227q2 25 20 42.5t43 17.5
h703q25 0 42 -17.5t17 -42.5z" />
    <glyph glyph-name="afii10030" unicode="&#x41c;" horiz-adv-x="1810" 
d="M340 1225v-1180q0 -23 -16 -39t-39 -16q-25 0 -41.5 16t-16.5 39v1333q0 24 16.5 42t39.5 18q7 0 13.5 -1t13 -5t10.5 -6.5t10.5 -10t9 -10t10.5 -13t10 -12.5l560 -733l532 729q44 62 80 62q21 0 36 -15.5t15 -40.5v-1337q0 -23 -16 -39t-41 -16q-23 0 -39.5 16
t-16.5 39v1180l-518 -699q-15 -18 -37 -18q-19 0 -32 16z" />
    <glyph glyph-name="afii10031" unicode="&#x41d;" horiz-adv-x="1574" 
d="M1348 1384v-1339q0 -23 -16.5 -39t-39.5 -16q-25 0 -41 16t-16 39v633h-895v-633q0 -23 -16 -39t-41 -16q-23 0 -39.5 16t-16.5 39v1339q0 22 17 38t43 16q22 0 37.5 -16t15.5 -38v-600h895v600q0 22 16.5 38t42.5 16q22 0 38 -16t16 -38z" />
    <glyph glyph-name="afii10032" unicode="&#x41e;" horiz-adv-x="1658" 
d="M111 717q0 206 92.5 374t257 264.5t368.5 96.5q151 0 284 -55t228.5 -151.5t151 -233.5t55.5 -295q0 -156 -55.5 -292.5t-151 -233.5t-228.5 -153t-284 -56t-284 55t-228.5 151.5t-150.5 233.5t-55 295zM229 717q0 -176 79 -320.5t216.5 -226.5t304.5 -82q172 0 310 82.5
t214.5 226.5t76.5 320q0 178 -79.5 322.5t-217 225.5t-304.5 81q-126 0 -237 -48t-191 -130.5t-126 -200t-46 -250.5z" />
    <glyph glyph-name="afii10033" unicode="&#x41f;" horiz-adv-x="1568" 
d="M1341 1374v-1327q0 -23 -16 -39t-39 -16q-25 0 -41 16t-16 39v1280h-889v-1280q0 -23 -16 -39t-41 -16q-23 0 -39.5 16t-16.5 39v1327q0 25 17.5 42.5t42.5 17.5h995q25 0 42 -17.5t17 -42.5z" />
    <glyph glyph-name="afii10034" unicode="&#x420;" horiz-adv-x="1198" 
d="M578 1438q115 0 205 -25t146 -65.5t92.5 -97.5t51 -116.5t14.5 -127.5q0 -86 -30.5 -163t-90 -139.5t-159.5 -99.5t-229 -37t-238 8v-530q0 -23 -16 -39t-41 -16q-23 0 -39.5 16t-16.5 39v1329q0 25 17.5 42.5t42.5 17.5q184 4 291 4zM340 1327v-643q133 -10 233 -10
q190 0 293 91t103 243q0 148 -93.5 235.5t-287.5 87.5q-112 0 -248 -4z" />
    <glyph glyph-name="afii10035" unicode="&#x421;" horiz-adv-x="1329" 
d="M1155 1260q-137 86 -340 86q-171 0 -305 -81.5t-207.5 -224.5t-73.5 -323q0 -281 169.5 -455t439.5 -174q194 0 344 105q17 10 30 10q21 0 39 -21q11 -15 11 -28q0 -24 -19 -39q-77 -60 -189 -96.5t-225 -36.5q-158 0 -291.5 52.5t-227.5 147.5t-146.5 232.5t-52.5 302.5
q0 154 49.5 288.5t139 233.5t222 156t291.5 57q245 0 395 -106q23 -16 23 -43q0 -11 -8 -27q-16 -25 -43 -25q-7 0 -25 9z" />
    <glyph glyph-name="afii10036" unicode="&#x422;" horiz-adv-x="1214" 
d="M664 45q0 -23 -16.5 -39t-41.5 -16q-23 0 -39 16t-16 39v1282h-479q-22 0 -37 15.5t-15 39.5q0 22 15 37t37 15h1071q22 0 36.5 -15.5t14.5 -40.5q0 -22 -14.5 -36.5t-36.5 -14.5h-479v-1282z" />
    <glyph glyph-name="afii10037" unicode="&#x423;" horiz-adv-x="1323" 
d="M164 1409l575 -954l420 948q16 35 47 35q24 0 40 -15t16 -37q0 -10 -7 -24l-467 -1038q-77 -173 -153 -253.5t-178 -80.5q-70 0 -115 22q-29 14 -29 49q0 5 4 21q12 31 43 31q15 0 23 -4q38 -15 72 -15q64 0 112 51.5t90 139.5l27 57l-614 1014q-9 12 -9 28q0 21 15 37.5
t39 16.5q33 0 49 -29z" />
    <glyph glyph-name="afii10038" unicode="&#x424;" horiz-adv-x="1699" 
d="M905 170v-133q0 -22 -17 -37.5t-40 -15.5q-25 0 -42.5 15.5t-17.5 37.5v133q-208 0 -364.5 65.5t-245 194.5t-88.5 307q0 268 190 418t511 150v92q0 22 16.5 37.5t42.5 15.5q22 0 38.5 -15.5t16.5 -37.5v-92q325 0 515 -151t190 -417q0 -177 -90 -306t-248.5 -195
t-366.5 -66zM907 1200v-926q266 0 425 119.5t159 343.5q0 220 -156 341.5t-428 121.5zM788 1200q-266 0 -422.5 -122t-156.5 -341q0 -222 158 -342.5t421 -120.5v926z" />
    <glyph glyph-name="afii10039" unicode="&#x425;" horiz-adv-x="1320" 
d="M217 1407l445 -592l442 592q23 31 51 31q25 0 40 -16t15 -38q0 -17 -10 -30l-467 -625l490 -655q10 -13 10 -29q0 -23 -16 -39t-41 -16q-30 0 -50 30l-467 623l-466 -620q-25 -33 -52 -33q-25 0 -39 15t-14 36t10 33l490 655l-465 627q-10 13 -10 28q0 21 15 37.5
t36 16.5q29 0 53 -31z" />
    <glyph glyph-name="afii10040" unicode="&#x426;" horiz-adv-x="1595" 
d="M1526 -223q0 -22 -15.5 -36.5t-40.5 -14.5q-22 0 -36.5 14.5t-14.5 36.5v223h-1132q-25 0 -42.5 17t-17.5 42v1325q0 22 17 38t43 16q22 0 37.5 -16t15.5 -38v-1278h879v1278q0 22 16.5 38t42.5 16q22 0 37.5 -16t15.5 -38v-1278h135q25 0 42.5 -17t17.5 -42v-270z" />
    <glyph glyph-name="afii10041" unicode="&#x427;" horiz-adv-x="1302" 
d="M963 764v620q0 22 16.5 38t40.5 16q23 0 39 -16t16 -38v-1339q0 -23 -16 -39t-41 -16q-23 0 -39 16t-16 39v612q-70 -48 -179 -84t-229 -36q-72 0 -134 15.5t-116.5 51t-93 87.5t-60.5 129.5t-22 174.5v389q0 22 16.5 38t42.5 16q22 0 38 -16t16 -38v-364
q0 -190 91.5 -283.5t250.5 -93.5q184 0 379 121z" />
    <glyph glyph-name="afii10042" unicode="&#x428;" horiz-adv-x="2033" 
d="M1806 1384v-1325q0 -25 -17 -42t-42 -17h-1460q-25 0 -42.5 17t-17.5 42v1325q0 22 17 38t43 16q22 0 37.5 -16t15.5 -38v-1278h621v1278q0 22 16.5 38t42.5 16q22 0 37.5 -16t15.5 -38v-1278h621v1278q0 22 16.5 38t42.5 16q22 0 37.5 -16t15.5 -38z" />
    <glyph glyph-name="afii10043" unicode="&#x429;" horiz-adv-x="2070" 
d="M2001 -223q0 -22 -15.5 -36.5t-39.5 -14.5q-22 0 -37 14.5t-15 36.5v223h-1607q-25 0 -42.5 17t-17.5 42v1325q0 22 17 38t43 16q22 0 37.5 -16t15.5 -38v-1278h621v1278q0 22 16.5 38t42.5 16q22 0 37.5 -16t15.5 -38v-1278h621v1278q0 22 16.5 38t42.5 16
q22 0 37.5 -16t15.5 -38v-1278h136q25 0 42 -17t17 -42v-270z" />
    <glyph glyph-name="afii10044" unicode="&#x42a;" horiz-adv-x="1363" 
d="M688 -4q-106 0 -258 4q-25 0 -42 17t-17 42v1268h-314q-22 0 -36.5 15.5t-14.5 39.5q0 22 14.5 37t36.5 15h367q25 0 42 -17.5t17 -42.5v-506q161 11 232 11q270 0 404 -112t134 -314q0 -221 -149 -339t-416 -118zM483 760v-651q214 -7 217 -7q209 0 322 89t113 260
q0 155 -109.5 238t-316.5 83q-125 0 -226 -12z" />
    <glyph glyph-name="afii10045" unicode="&#x42b;" horiz-adv-x="1697" 
d="M1470 1384v-1339q0 -23 -16 -39t-39 -16q-25 0 -41 16t-16 39v1339q0 22 16.5 38t42.5 16q22 0 37.5 -16t15.5 -38zM340 760v-651q7 0 81 -3.5t122 -3.5q208 0 318 89t110 260q0 155 -107 238t-313 83q-108 0 -211 -12zM227 59v1325q0 22 17 38t41 16q23 0 39 -16t16 -38
v-516q161 11 217 11q265 0 399 -112t134 -314q0 -220 -148.5 -338.5t-411.5 -118.5q-99 0 -243 4q-25 0 -42.5 17t-17.5 42z" />
    <glyph glyph-name="afii10046" unicode="&#x42c;" horiz-adv-x="1220" 
d="M340 760v-651q20 -1 62.5 -3t80.5 -3t74 -1q209 0 321.5 88.5t112.5 260.5q0 155 -109.5 238t-316.5 83q-122 0 -225 -12zM227 59v1325q0 22 17 38t41 16q23 0 39 -16t16 -38v-516q161 11 231 11q270 0 404.5 -112t134.5 -314q0 -221 -149 -339t-416 -118q-106 0 -258 4
q-25 0 -42.5 17t-17.5 42z" />
    <glyph glyph-name="afii10047" unicode="&#x42d;" horiz-adv-x="1376" 
d="M440 678q-22 0 -36.5 15.5t-14.5 39.5q0 22 14.5 36.5t36.5 14.5h711q-20 261 -188.5 411.5t-438.5 150.5q-206 0 -344 -91q-11 -8 -26 -8q-21 0 -41 23q-7 10 -7 24q0 28 17 39q81 57 194 88t232 31q324 0 520.5 -198t196.5 -531q0 -212 -88 -380t-253.5 -264.5
t-381.5 -96.5q-251 0 -437 120q-20 13 -20 41q0 14 10 31q16 23 43 23q15 0 27 -9q163 -100 375 -100q261 0 428.5 163t181.5 427h-711z" />
    <glyph glyph-name="afii10048" unicode="&#x42e;" horiz-adv-x="2203" 
d="M340 678v-633q0 -23 -16 -39t-39 -16q-25 0 -41.5 16t-16.5 39v1339q0 22 17 38t43 16q22 0 37.5 -16t15.5 -38v-600h365q11 142 66.5 265t144.5 212t213 140t266 51q201 0 360.5 -94t248.5 -262t89 -379q0 -209 -88.5 -376.5t-248.5 -263t-361 -95.5q-189 0 -344.5 88.5
t-247.5 247.5t-101 360h-362zM821 717q0 -132 43.5 -249t119.5 -200.5t183.5 -131.5t229.5 -48q172 0 304.5 83t202.5 225.5t70 320.5q0 179 -73 322.5t-205 225t-299 81.5q-165 0 -296.5 -81.5t-205.5 -225t-74 -322.5z" />
    <glyph glyph-name="afii10049" unicode="&#x42f;" horiz-adv-x="1243" 
d="M1016 1374v-1329q0 -23 -16 -39t-39 -16q-25 0 -41.5 16t-16.5 39v516h-319l-398 -545q-20 -26 -53 -26q-21 0 -34 14.5t-13 34.5q0 16 8 27l379 512q-130 43 -220.5 150t-90.5 253q0 97 33 179t97.5 145.5t168.5 99t237 35.5q18 0 258 -6q25 0 42.5 -17.5t17.5 -42.5z
M903 668v659q-171 6 -225 6q-192 0 -294.5 -97.5t-102.5 -248.5q0 -122 86.5 -211.5t201.5 -107.5h334z" />
    <glyph glyph-name="afii10065" unicode="&#x430;" horiz-adv-x="940" 
d="M90 262q0 134 98 210.5t252 76.5q152 0 250 -70q0 48 -1 79t-4.5 69.5t-10.5 62.5t-18.5 51t-29.5 43t-42.5 30t-58.5 20t-76 6q-114 0 -205 -45q-14 -7 -25 -7q-28 0 -43 27q-6 12 -6 23q0 25 25 39q123 63 260 63q185 0 263.5 -93t78.5 -276v-528q0 -22 -15 -36.5
t-39 -14.5q-22 0 -37.5 14.5t-15.5 36.5v98q-112 -153 -315 -153q-128 0 -206.5 74.5t-78.5 199.5zM690 233v154q-103 74 -239 74q-101 0 -174.5 -49.5t-73.5 -143.5q0 -84 58 -132t147 -48q56 0 102 12.5t79.5 35.5t55.5 45t45 52z" />
    <glyph glyph-name="afii10066" unicode="&#x431;" horiz-adv-x="1134" 
d="M1040 453q0 -196 -133.5 -333.5t-333.5 -137.5q-219 0 -349 152t-130 415q0 604 338 743q67 28 134.5 42.5t109.5 17.5t86.5 17t79.5 44q28 21 47 21q15 0 35 -13q20 -11 20 -41q0 -20 -14 -34q-46 -46 -101.5 -68.5t-103 -26t-121 -18t-139.5 -43.5q-241 -103 -262 -524
q49 114 159.5 181.5t239.5 67.5q202 0 320 -126.5t118 -335.5zM207 530q0 -209 101 -328.5t261 -119.5q154 0 256.5 106.5t102.5 260.5q0 165 -93 265.5t-257 100.5q-148 0 -247.5 -86t-123.5 -199z" />
    <glyph glyph-name="afii10067" unicode="&#x432;" horiz-adv-x="985" 
d="M840 690q0 -78 -49.5 -138.5t-137.5 -74.5q116 -20 168.5 -75t52.5 -148q0 -127 -103.5 -193.5t-307.5 -66.5q-32 0 -248 6q-23 0 -38 15.5t-15 37.5v815q0 22 15 38t38 16q204 6 244 6q191 0 286 -57t95 -181zM268 424v-326q118 -4 207 -4q287 0 287 170q0 82 -67.5 121
t-205.5 39h-221zM268 512h244q99 0 157 44t58 118q0 85 -69 119t-187 34q-101 0 -203 -4v-311z" />
    <glyph glyph-name="afii10068" unicode="&#x433;" horiz-adv-x="722" 
d="M268 821v-778q0 -22 -15 -36.5t-38 -14.5t-38 14.5t-15 36.5v825q0 22 15.5 38t37.5 16h455q19 0 33 -15t14 -37q0 -20 -14 -34.5t-33 -14.5h-402z" />
    <glyph glyph-name="afii10069" unicode="&#x434;" horiz-adv-x="1060" 
d="M121 0v-186q0 -19 -14.5 -33t-34.5 -14q-22 0 -37 14t-15 33v233q0 22 16 37.5t38 15.5h61q49 64 93.5 212.5t56.5 349.5l12 206q0 23 16 38.5t39 15.5h482q22 0 37.5 -16t15.5 -38v-768h100q22 0 37.5 -15.5t15.5 -37.5v-233q0 -19 -15 -33t-36 -14q-20 0 -34.5 14
t-14.5 33v186h-819zM780 100v721h-381l-12 -200q-14 -183 -56 -326.5t-83 -194.5h532z" />
    <glyph glyph-name="afii10070" unicode="&#x435;" horiz-adv-x="1077" 
d="M872 526q-3 146 -88.5 230t-230.5 84q-149 0 -239.5 -87t-104.5 -227h663zM981 524q0 -31 -2 -45q0 -15 -14 -28t-29 -13h-721q6 -165 108 -260.5t269 -95.5q138 0 250 80q13 10 28 10q24 0 41 -20q11 -15 11 -29q0 -18 -15 -33q-65 -51 -151 -79.5t-170 -28.5
q-219 0 -354.5 131t-135.5 348q0 136 52.5 243t160 171.5t254.5 64.5q181 0 299.5 -115t118.5 -301z" />
    <glyph glyph-name="afii10072" unicode="&#x436;" horiz-adv-x="1310" 
d="M502 438l-322 -409q-29 -37 -57 -37q-25 0 -37 12t-12 31q0 23 12 35l330 409l-310 371q-10 13 -10 29q0 20 13.5 33.5t35.5 13.5q30 0 56 -33l301 -373q14 -17 14 -41t-14 -41zM1133 29l-328 409q-14 21 -14 41t14 41l303 373q26 33 53 33q22 0 35.5 -13.5t13.5 -33.5
q0 -16 -8 -27l-311 -373l336 -409q10 -10 10 -31q0 -20 -12 -33.5t-35 -13.5q-19 0 -30 8.5t-27 28.5zM707 874v-831q0 -22 -15.5 -36.5t-38.5 -14.5t-38 14.5t-15 36.5v831q0 22 15.5 37t39.5 15q22 0 37 -15t15 -37z" />
    <glyph glyph-name="afii10073" unicode="&#x437;" horiz-adv-x="921" 
d="M444 940q160 0 246 -64t86 -178q0 -72 -40.5 -131.5t-125.5 -91.5q95 -10 148 -72.5t53 -146.5q0 -127 -106 -200.5t-275 -73.5q-210 0 -336 102q-14 14 -14 33q0 18 12 33q15 18 39 18q16 0 29 -8q124 -78 254 -78q128 0 206 50t78 138q0 72 -57 113t-156 41h-112
q-19 0 -31 13t-12 34q0 17 12 29t31 12h102q78 0 133.5 49t55.5 119q0 77 -63 118.5t-171 41.5q-140 0 -248 -74q-17 -10 -32 -10q-25 0 -39 20q-9 9 -9 25q0 26 19 39q129 100 323 100z" />
    <glyph glyph-name="afii10074" unicode="&#x438;" horiz-adv-x="1150" 
d="M989 43q0 -22 -15.5 -36.5t-39.5 -14.5q-22 0 -36.5 14.5t-14.5 36.5v719l-586 -725q-19 -24 -35 -34.5t-41 -10.5q-29 0 -44 16.5t-15 42.5v823q0 22 15.5 37t39.5 15q22 0 36.5 -15t14.5 -37v-720l586 725q37 47 78 47q26 0 41.5 -15t15.5 -41v-827z" />
    <glyph glyph-name="afii10075" unicode="&#x439;" horiz-adv-x="1150" 
d="M989 43q0 -22 -15.5 -36.5t-39.5 -14.5q-22 0 -36.5 14.5t-14.5 36.5v719l-586 -725q-19 -24 -35 -34.5t-41 -10.5q-29 0 -44 16.5t-15 42.5v823q0 22 15.5 37t39.5 15q22 0 36.5 -15t14.5 -37v-720l586 725q37 47 78 47q26 0 41.5 -15t15.5 -41v-827zM864 1348
q-15 -91 -90.5 -150t-183.5 -59q-119 0 -193 58t-88 151v8q0 19 12.5 32t32.5 13q40 0 52 -45q14 -60 63.5 -97.5t120.5 -37.5q68 0 115 37.5t61 97.5q6 24 18 34.5t35 10.5q20 0 32.5 -13t12.5 -32v-8z" />
    <glyph glyph-name="afii10076" unicode="&#x43a;" horiz-adv-x="974" 
d="M780 25l-413 413q-15 15 -15 37t15 37l383 383q31 31 57 31q17 0 30 -13t13 -32q0 -21 -16 -37l-375 -363l409 -401q21 -18 21 -43q0 -19 -13.5 -32t-33.5 -13q-25 0 -62 33zM268 874v-831q0 -22 -15 -36.5t-38 -14.5t-38 14.5t-15 36.5v831q0 22 15.5 37t39.5 15
q22 0 36.5 -15t14.5 -37z" />
    <glyph glyph-name="afii10077" unicode="&#x43b;" horiz-adv-x="1069" 
d="M907 868v-825q0 -22 -15 -36.5t-38 -14.5t-38 14.5t-15 36.5v772h-389l-13 -201q-10 -140 -31 -247.5t-47 -174.5t-61 -111.5t-70 -63.5t-77 -25h-9q-19 0 -34 13t-15 36t11.5 35t44.5 26q29 14 56 45.5t54.5 90t47.5 160.5t28 237l12 233q0 23 16.5 38.5t39.5 15.5h489
q22 0 37.5 -16t15.5 -38z" />
    <glyph glyph-name="afii10078" unicode="&#x43c;" horiz-adv-x="1271" 
d="M268 752v-709q0 -22 -15 -36.5t-38 -14.5t-38 14.5t-15 36.5v827q0 25 14.5 40.5t40.5 15.5q34 0 70 -47l358 -471l344 471q32 47 70 47q23 0 37 -15t14 -39v-829q0 -22 -15.5 -36.5t-39.5 -14.5q-22 0 -36.5 14.5t-14.5 36.5v709l-330 -447q-13 -16 -31 -16
q-20 0 -33 16z" />
    <glyph glyph-name="afii10079" unicode="&#x43d;" horiz-adv-x="1134" 
d="M973 874v-831q0 -22 -15 -36.5t-38 -14.5t-38.5 14.5t-15.5 36.5v375h-598v-375q0 -22 -15.5 -36.5t-39.5 -14.5q-22 0 -36.5 14.5t-14.5 36.5v831q0 22 15.5 37t39.5 15q22 0 36.5 -15t14.5 -37v-356h598v356q0 22 16 37t40 15q22 0 36.5 -15t14.5 -37z" />
    <glyph glyph-name="afii10080" unicode="&#x43e;" horiz-adv-x="1159" 
d="M96 461q0 208 135 343.5t349 135.5t348.5 -135t134.5 -344t-134.5 -344t-348.5 -135t-349 135.5t-135 343.5zM209 461q0 -166 105 -272.5t266 -106.5q163 0 266.5 106t103.5 273q0 166 -103.5 272.5t-266.5 106.5q-161 0 -266 -106.5t-105 -272.5z" />
    <glyph glyph-name="afii10081" unicode="&#x43f;" horiz-adv-x="1124" 
d="M963 868v-825q0 -22 -15.5 -36.5t-38.5 -14.5t-38 14.5t-15 36.5v778h-588v-778q0 -22 -15.5 -36.5t-39.5 -14.5q-22 0 -36.5 14.5t-14.5 36.5v825q0 22 15.5 38t37.5 16h694q22 0 38 -16t16 -38z" />
    <glyph glyph-name="afii10082" unicode="&#x440;" horiz-adv-x="1134" 
d="M268 59v-417q0 -22 -15 -37t-38 -15t-38 15t-15 37v1232q0 22 15.5 37t39.5 15q22 0 36.5 -15t14.5 -37v-75q53 62 146 101.5t192 39.5q197 0 313.5 -129t116.5 -336q0 -214 -130.5 -353.5t-342.5 -139.5q-189 0 -295 77zM268 696v-530q128 -84 287 -84
q166 0 267.5 108.5t101.5 278.5q0 168 -91.5 269.5t-254.5 101.5q-93 0 -178 -42t-132 -102z" />
    <glyph glyph-name="afii10083" unicode="&#x441;" horiz-adv-x="991" 
d="M817 776q-97 64 -246 64t-255.5 -108.5t-106.5 -270.5q0 -171 109 -275t274 -104q138 0 250 94q17 17 37 17q16 0 34 -15q15 -12 15 -33q0 -19 -15 -34q-132 -129 -329 -129q-216 0 -352 131.5t-136 347.5q0 132 59.5 242t165 173.5t234.5 63.5q204 0 330 -86
q18 -14 18 -39q0 -16 -12 -31q-18 -18 -41 -18q-16 0 -33 10z" />
    <glyph glyph-name="afii10084" unicode="&#x442;" horiz-adv-x="892" 
d="M500 43q0 -22 -15.5 -36.5t-40.5 -14.5q-22 0 -36.5 14.5t-14.5 36.5v772h-315q-22 0 -36.5 15.5t-14.5 39.5q0 22 14.5 37t36.5 15h737q22 0 36.5 -15.5t14.5 -40.5q0 -22 -14.5 -36.5t-36.5 -14.5h-315v-772z" />
    <glyph glyph-name="afii10085" unicode="&#x443;" horiz-adv-x="972" 
d="M461 270l65 -143q6 21 14.5 45t20 54.5t17.5 47.5l235 613q5 16 19.5 27.5t33.5 11.5q26 0 41 -15t15 -39q0 -12 -7 -26l-342 -846q-67 -164 -123 -253.5t-106.5 -123t-116.5 -33.5q-69 0 -125 29q-26 13 -26 41q0 11 6 23q12 24 43 24q8 0 20 -4q40 -14 68 -14
q70 0 125.5 61t114.5 201l20 49l-416 842q-6 15 -6 28q0 23 16 39.5t44 16.5q33 0 51 -37z" />
    <glyph glyph-name="afii10086" unicode="&#x444;" horiz-adv-x="1359" 
d="M733 -18v-340q0 -22 -15 -37t-38 -15t-38 15t-15 37v340h-31q-230 0 -365 134.5t-135 344.5q0 94 34.5 180.5t96.5 153t157.5 106t209.5 39.5h33v442q0 22 15.5 37t39.5 15q22 0 36.5 -15t14.5 -37v-442h35q221 0 358.5 -136.5t137.5 -342.5q0 -211 -132.5 -345
t-363.5 -134h-35zM627 82v758h-35q-176 0 -279.5 -108.5t-103.5 -270.5q0 -168 105.5 -273.5t287.5 -105.5h25zM733 82h27q184 0 287.5 104.5t103.5 274.5q0 101 -44 186.5t-132.5 139t-206.5 53.5h-35v-758z" />
    <glyph glyph-name="afii10087" unicode="&#x445;" horiz-adv-x="972" 
d="M219 893l270 -352l275 352q26 33 53 33q23 0 36 -14t13 -33q0 -18 -10 -31l-291 -373l307 -397q13 -16 13 -35q0 -22 -12.5 -36.5t-36.5 -14.5q-28 0 -58 37l-293 379l-292 -379q-29 -37 -60 -37q-20 0 -32.5 14t-12.5 33q0 18 12 33l312 399l-287 375q-10 13 -10 28
q0 21 14 36.5t35 15.5q29 0 55 -33z" />
    <glyph glyph-name="afii10088" unicode="&#x446;" horiz-adv-x="1144" 
d="M1110 -186q0 -19 -15 -33t-36 -14q-20 0 -34.5 14t-14.5 33v186h-795q-22 0 -37.5 15.5t-15.5 37.5v821q0 22 15.5 37t39.5 15q22 0 36.5 -15t14.5 -37v-774h582v774q0 22 15.5 37t39.5 15q22 0 36.5 -15t14.5 -37v-774h101q22 0 37.5 -15.5t15.5 -37.5v-233z" />
    <glyph glyph-name="afii10089" unicode="&#x447;" horiz-adv-x="972" 
d="M705 485v389q0 22 15 37t38 15t38 -15t15 -37v-831q0 -22 -15.5 -36.5t-39.5 -14.5q-22 0 -36.5 14.5t-14.5 36.5v346q-114 -78 -277 -78q-160 0 -242 84t-82 262v215q0 22 17 38t43 16q22 0 37.5 -16t15.5 -38v-206q0 -127 62 -190.5t178 -63.5q150 0 248 73z" />
    <glyph glyph-name="afii10090" unicode="&#x448;" horiz-adv-x="1441" 
d="M1280 874v-821q0 -22 -15.5 -37.5t-37.5 -15.5h-1012q-22 0 -37.5 15.5t-15.5 37.5v821q0 22 15.5 37t39.5 15q22 0 36.5 -15t14.5 -37v-774h400v774q0 22 15.5 37t39.5 15q22 0 36.5 -15t14.5 -37v-774h400v774q0 22 15.5 37t39.5 15q22 0 36.5 -15t14.5 -37z" />
    <glyph glyph-name="afii10091" unicode="&#x449;" horiz-adv-x="1468" 
d="M1434 -186q0 -19 -15 -33t-37 -14q-20 0 -34.5 14t-14.5 33v186h-1118q-22 0 -37.5 15.5t-15.5 37.5v821q0 22 15.5 37t39.5 15q22 0 36.5 -15t14.5 -37v-774h400v774q0 22 15.5 37t39.5 15q22 0 36.5 -15t14.5 -37v-774h400v774q0 22 15.5 37t39.5 15q22 0 36.5 -15
t14.5 -37v-774h100q22 0 38 -15.5t16 -37.5v-233z" />
    <glyph glyph-name="afii10092" unicode="&#x44a;" horiz-adv-x="1024" 
d="M561 0h-217q-22 0 -37.5 15.5t-15.5 37.5v768h-236q-21 0 -35 15t-14 38q0 19 14.5 33.5t34.5 14.5h289q22 0 37.5 -16t15.5 -38v-256h178q365 0 365 -303q0 -64 -19.5 -117t-61.5 -97.5t-118 -69.5t-180 -25zM397 100h158q145 0 208.5 52t63.5 155q0 100 -64 152.5
t-206 52.5h-160v-412z" />
    <glyph glyph-name="afii10093" unicode="&#x44b;" horiz-adv-x="1271" 
d="M268 612h160q365 0 365 -303q0 -64 -19 -117t-61 -97.5t-117.5 -69.5t-179.5 -25h-201q-22 0 -37.5 15.5t-15.5 37.5v821q0 22 15.5 37t39.5 15q22 0 36.5 -15t14.5 -37v-262zM268 100h140q147 0 209.5 52t62.5 155q0 101 -63.5 153t-206.5 52h-142v-412zM1110 874v-831
q0 -22 -15 -36.5t-38 -14.5t-38 14.5t-15 36.5v831q0 22 15.5 37t39.5 15q22 0 36.5 -15t14.5 -37z" />
    <glyph glyph-name="afii10094" unicode="&#x44c;" horiz-adv-x="894" 
d="M268 612h178q365 0 365 -303q0 -64 -19.5 -117t-61.5 -97.5t-118 -69.5t-180 -25h-217q-22 0 -37.5 15.5t-15.5 37.5v821q0 22 15.5 37t39.5 15q22 0 36.5 -15t14.5 -37v-262zM268 100h158q145 0 208.5 52t63.5 155q0 100 -64 152.5t-206 52.5h-160v-412z" />
    <glyph glyph-name="afii10095" unicode="&#x44d;" horiz-adv-x="991" 
d="M137 152q14 0 29 -9q104 -61 260 -61q149 0 248.5 94t109.5 250h-444q-19 0 -31 13t-12 34q0 17 12 29t31 12h442q-15 155 -116.5 240.5t-257.5 85.5q-154 0 -263 -80q-13 -10 -28 -10q-24 0 -41 20q-8 11 -8 27q0 26 14 37q65 54 151.5 80t172.5 26q216 0 351.5 -130.5
t135.5 -348.5q0 -132 -59.5 -242t-165 -173.5t-234.5 -63.5q-109 0 -187.5 16.5t-146.5 64.5q-16 13 -16 37q0 18 10 31q15 21 43 21z" />
    <glyph glyph-name="afii10096" unicode="&#x44e;" horiz-adv-x="1536" 
d="M274 418v-373q0 -22 -16 -37.5t-39 -15.5q-24 0 -40.5 15.5t-16.5 37.5v827q0 22 16.5 38t42.5 16q22 0 37.5 -16t15.5 -38v-348h234q21 185 146 300.5t315 115.5q208 0 338.5 -135t130.5 -344q0 -208 -131.5 -343.5t-337.5 -135.5q-195 0 -322 122t-141 314h-232z
M625 461q0 -166 97.5 -269.5t250.5 -103.5q154 0 250 103.5t96 269.5q0 165 -95.5 269t-250.5 104q-154 0 -251 -103.5t-97 -269.5z" />
    <glyph glyph-name="afii10097" unicode="&#x44f;" horiz-adv-x="954" 
d="M119 74l233 295q-89 15 -155 85.5t-66 176.5q0 60 20 110t63.5 92t121 65.5t182.5 23.5h221q22 0 38 -16t16 -38v-825q0 -22 -15.5 -36.5t-40.5 -14.5q-22 0 -36.5 14.5t-14.5 36.5v301h-229l-242 -315q-27 -37 -57 -37q-23 0 -36 14t-13 33q0 23 10 35zM686 444v377
h-186q-132 0 -194 -53t-62 -139q0 -82 63 -133.5t135 -51.5h244z" />
    <glyph glyph-name="afii10071" unicode="&#x451;" horiz-adv-x="1077" 
d="M872 526q-3 146 -88.5 230t-230.5 84q-149 0 -239.5 -87t-104.5 -227h663zM981 524q0 -31 -2 -45q0 -15 -14 -28t-29 -13h-721q6 -165 108 -260.5t269 -95.5q138 0 250 80q13 10 28 10q24 0 41 -20q11 -15 11 -29q0 -18 -15 -33q-65 -51 -151 -79.5t-170 -28.5
q-219 0 -354.5 131t-135.5 348q0 136 52.5 243t160 171.5t254.5 64.5q181 0 299.5 -115t118.5 -301zM338 1194q-30 0 -50 20t-20 52q0 30 20 48.5t50 18.5q25 0 44 -19t19 -48q0 -31 -19.5 -51.5t-43.5 -20.5zM764 1194q-30 0 -50 20t-20 52q0 30 20 48.5t50 18.5
q25 0 44 -19t19 -48q0 -31 -19.5 -51.5t-43.5 -20.5z" />
    <glyph glyph-name="afii10099" unicode="&#x452;" horiz-adv-x="1230" 
d="M399 43q0 -22 -15.5 -36.5t-39.5 -14.5q-22 0 -36.5 14.5t-14.5 36.5v944h-244q-19 0 -31 13t-12 34q0 17 12 29t31 12h244v307q0 22 15.5 37t39.5 15q22 0 36.5 -15t14.5 -37v-307h365q18 0 29.5 -12.5t11.5 -32.5q0 -19 -12 -31t-29 -12h-365v-364q57 61 147.5 100
t182.5 39q192 0 289.5 -100t97.5 -312q0 -227 -82 -421.5t-246 -315.5q-9 -6 -24 -6q-25 0 -43 18q-10 10 -10 29q0 24 16 37q142 126 212.5 293.5t70.5 339.5q0 171 -75 254.5t-228 83.5q-91 0 -176 -41.5t-132 -100.5v-477z" />
    <glyph glyph-name="afii10100" unicode="&#x453;" horiz-adv-x="722" 
d="M268 821v-778q0 -22 -15 -36.5t-38 -14.5t-38 14.5t-15 36.5v825q0 22 15.5 38t37.5 16h455q19 0 33 -15t14 -37q0 -20 -14 -34.5t-33 -14.5h-402zM637 1438l8 -6q19 -16 19 -37q0 -12 -11 -27l-184 -227q-12 -15 -33 -15q-14 0 -26 9q-15 12 -15 30q0 14 6 23l172 242
q12 18 35 18q16 0 29 -10z" />
    <glyph glyph-name="afii10101" unicode="&#x454;" horiz-adv-x="989" 
d="M590 82q126 0 227 61q15 9 29 9q25 0 45 -23q8 -11 8 -27q0 -26 -16 -36q-70 -51 -141.5 -67.5t-170.5 -16.5q-209 0 -342 134t-133 345q0 217 136 348t352 131q191 0 317 -106q14 -14 14 -33q0 -18 -12 -33q-15 -18 -37 -18q-15 0 -28 10q-109 80 -256 80
q-153 0 -256.5 -85.5t-120.5 -240.5h446q18 0 29.5 -12.5t11.5 -32.5q0 -19 -12 -31t-29 -12h-448q12 -163 119.5 -253.5t267.5 -90.5z" />
    <glyph glyph-name="afii10102" unicode="&#x455;" horiz-adv-x="831" 
d="M98 117q0 20 15 35q14 14 32 14q16 0 37 -14q102 -76 232 -76q86 0 146.5 43t60.5 123q0 47 -28 80t-73 52.5t-99.5 36.5t-109 38t-99.5 49.5t-73 78.5t-28 119q0 110 82 177t215 67q155 0 262 -72q16 -10 16 -34q0 -21 -10 -31q-16 -19 -37 -19q-15 0 -33 11
q-85 51 -196 51q-84 0 -135.5 -43t-51.5 -105q0 -43 22 -76t58 -52t81.5 -37t93.5 -31t93.5 -35t81.5 -48t58 -70.5t22 -102.5q0 -129 -95 -196.5t-237 -67.5q-83 0 -160 27.5t-128 74.5q-15 15 -15 33z" />
    <glyph glyph-name="afii10103" unicode="&#x456;" horiz-adv-x="532" 
d="M319 874v-831q0 -22 -15 -36.5t-38 -14.5t-38 14.5t-15 36.5v831q0 22 15.5 37t39.5 15q22 0 36.5 -15t14.5 -37zM340 1280q0 -34 -21 -55t-49 -21q-32 0 -53.5 21t-21.5 55q0 30 21.5 49t53.5 19q28 0 49 -19t21 -49z" />
    <glyph glyph-name="afii10104" unicode="&#x457;" horiz-adv-x="567" 
d="M90 1264q0 27 18.5 44t45.5 17q23 0 41 -17t18 -44q0 -28 -18 -46t-41 -18q-27 0 -45.5 17.5t-18.5 46.5zM354 1264q0 27 18.5 44t45.5 17q24 0 41.5 -17t17.5 -44q0 -28 -17.5 -46t-41.5 -18q-27 0 -45.5 17.5t-18.5 46.5zM334 874v-831q0 -22 -15 -36.5t-38 -14.5
t-38.5 14.5t-15.5 36.5v831q0 22 16 37t40 15q22 0 36.5 -15t14.5 -37z" />
    <glyph glyph-name="afii10105" unicode="&#x458;" horiz-adv-x="557" 
d="M244 -59v933q0 22 15 37t38 15t38 -15t15 -37v-942q0 -358 -289 -358q-85 0 -161 39q-23 10 -23 39q0 10 6 22q16 25 41 25q15 0 23 -4q51 -21 92 -21q205 0 205 267zM369 1280q0 -34 -21 -55t-49 -21q-32 0 -54 21t-22 55q0 30 22 49t54 19q28 0 49 -19t21 -49z" />
    <glyph glyph-name="afii10106" unicode="&#x459;" horiz-adv-x="1509" 
d="M907 100h133q146 0 209.5 52.5t63.5 154.5q0 100 -64.5 152.5t-206.5 52.5h-135v-412zM412 815l-13 -201q-10 -140 -31 -247.5t-47 -174.5t-61 -111.5t-70 -63.5t-77 -25h-9q-19 0 -34 13t-15 36t11.5 35t44.5 26q29 14 56 45.5t54.5 90t47.5 160.5t28 237l12 233
q0 23 16.5 38.5t39.5 15.5h489q22 0 37.5 -16t15.5 -38v-256h154q364 0 364 -303q0 -64 -19.5 -117t-61.5 -97.5t-117.5 -69.5t-179.5 -25h-193q-22 0 -37.5 15.5t-15.5 37.5v762h-389z" />
    </font>
</defs>
</svg>
