<?xml version="1.0" standalone="no"?>
<!DOCTYPE svg PUBLIC "-//W3C//DTD SVG 1.1//EN" "http://www.w3.org/Graphics/SVG/1.1/DTD/svg11.dtd" >
<svg xmlns="http://www.w3.org/2000/svg" xmlns:xlink="http://www.w3.org/1999/xlink" version="1.1">
<metadata>
Created by FontForge 20170731 at Wed Mar 15 10:31:50 2023
 By Aleksey,,,
Copyright (c) 2015 ParaType, Inc., ParaType Ltd. All rights reserved.
</metadata>
<defs>
<font id="CirceRounded-AltBold" horiz-adv-x="1220" >
  <font-face 
    font-family="Circe Rounded Alt Bold"
    font-weight="700"
    font-stretch="normal"
    units-per-em="2048"
    panose-1="2 15 6 2 2 2 3 2 2 3"
    ascent="1583"
    descent="-465"
    x-height="922"
    cap-height="1434"
    bbox="-1024 -655 2961 1927"
    underline-thickness="102"
    underline-position="-307"
    unicode-range="U+0020-FB02"
  />
<missing-glyph horiz-adv-x="434" 
 />
    <glyph glyph-name="uniF350.var.accented" unicode="&#xf350;`" horiz-adv-x="1196" 
d="M846 205h-506l-64 -142q-39 -79 -116 -79q-46 0 -78.5 31.5t-32.5 76.5q0 26 12 53l392 836q48 104 147 104q102 0 150 -104l380 -815q17 -39 17 -66q0 -50 -34.5 -83t-80.5 -33q-84 0 -123 79zM594 768l-150 -330h297zM500 1360l157 168q22 22 54 22q37 0 57 -26l39 -49
q18 -21 18 -52q0 -41 -32 -67l-170 -135q-28 -21 -56 -21q-37 0 -67 33q-25 28 -25 63q0 39 25 64z" />
    <glyph glyph-name="uniF355.var.accented" unicode="&#xf355;`" horiz-adv-x="1019" 
d="M410 236h383q49 0 84.5 -35t35.5 -80q0 -50 -35.5 -85.5t-84.5 -35.5h-512q-49 0 -85 36t-36 85v833q0 50 36 85.5t85 35.5h493q49 0 85 -34.5t36 -79.5q0 -49 -35.5 -85t-85.5 -36h-364v-181h315q49 0 85 -34.5t36 -79.5q0 -49 -36 -85t-85 -36h-315v-188zM414 1360
l157 168q22 22 54 22q37 0 57 -26l39 -49q18 -21 18 -52q0 -41 -32 -67l-170 -135q-28 -21 -56 -21q-37 0 -67 33q-25 28 -25 63q0 39 25 64z" />
    <glyph glyph-name="uniF358.var.accented" unicode="&#xf358;`" horiz-adv-x="1357" 
d="M1198 104q0 -50 -36.5 -85t-88.5 -35t-88.5 35t-36.5 85v572l-514 -610q-37 -45 -66.5 -63.5t-76.5 -18.5q-61 0 -96 37t-35 94v850q0 50 36.5 85t88.5 35t88.5 -35t36.5 -85v-566l514 611q34 40 66.5 57.5t76.5 17.5q53 0 92 -37t39 -96v-848zM567 1360l158 168
q22 22 53 22q38 0 58 -26l38 -49q19 -22 19 -52q0 -41 -33 -67l-170 -135q-28 -21 -55 -21q-38 0 -68 33q-24 27 -24 63q0 40 24 64z" />
    <glyph glyph-name="uniF35E.var.accented" unicode="&#xf35e;`" horiz-adv-x="1349" 
d="M72 535q0 116 44 218t121.5 176.5t191 117.5t245.5 43q174 0 310.5 -66.5t215 -193.5t78.5 -295q0 -161 -78 -288.5t-216 -198.5t-310 -71q-173 0 -309 67t-214.5 194.5t-78.5 296.5zM338 535q0 -136 97.5 -229t238.5 -93q160 0 249 90.5t89 231.5q0 144 -96.5 231.5
t-241.5 87.5q-148 0 -242 -87t-94 -232zM588 1360l157 168q22 22 54 22q37 0 57 -26l39 -49q18 -21 18 -52q0 -41 -32 -67l-170 -135q-28 -21 -56 -21q-37 0 -67 33q-25 28 -25 63q0 39 25 64z" />
    <glyph glyph-name="uniF363.var.accented" unicode="&#xf363;`" horiz-adv-x="1095" 
d="M332 1014l272 -441l211 437q37 75 113 75q51 0 83.5 -32t32.5 -76q0 -23 -14 -55l-330 -660q-69 -139 -150.5 -208.5t-193.5 -69.5q-66 0 -109.5 36.5t-43.5 88.5q0 54 33.5 83t93.5 29q20 0 32 -2h11q15 0 26.5 5t23.5 20t16.5 22t19.5 31l18 29l-373 559q-22 36 -22 71
q0 52 37 90.5t96 38.5q72 0 117 -71zM465 1360l158 168q22 22 53 22q37 0 57 -26l39 -49q19 -22 19 -52q0 -41 -33 -67l-170 -135q-28 -21 -56 -21q-37 0 -67 33q-25 28 -25 63q0 39 25 64z" />
    <glyph glyph-name="uniF36B.var.accented" unicode="&#xf36b;`" horiz-adv-x="1507" 
d="M1348 965v-861q0 -50 -36.5 -85t-88.5 -35q-54 0 -90.5 35t-36.5 85v861q0 50 36.5 85t90.5 35q52 0 88.5 -35t36.5 -85zM410 508v-272q44 -5 94 -5q194 0 194 146q0 67 -51 101t-141 34q-57 0 -96 -4zM160 121v844q0 50 36.5 85t88.5 35t88.5 -35t36.5 -85v-224
q55 7 116 7q217 0 328 -97t111 -268q0 -175 -130.5 -281t-361.5 -106q-34 0 -98.5 1t-93.5 1q-51 2 -86 37t-35 86zM629 1360l157 168q22 22 54 22q37 0 57 -26l39 -49q18 -21 18 -52q0 -41 -32 -67l-170 -135q-28 -21 -56 -21q-37 0 -67 33q-25 28 -25 63q0 39 25 64z" />
    <glyph glyph-name="uniF36D.var.accented" unicode="&#xf36d;`" horiz-adv-x="1112" 
d="M178 262q29 0 80 -14q6 -2 28.5 -8.5t28 -8t24 -5.5t30.5 -5t31.5 -2.5t41.5 -1.5q285 0 342 213h-381q-49 0 -83.5 34.5t-34.5 84.5q0 48 34.5 82.5t83.5 34.5h373q-68 192 -342 192q-95 0 -184 -27q-38 -12 -66 -12q-62 0 -92 58q-12 21 -12 47q0 74 88 116
q114 54 276 54q264 0 434.5 -154t170.5 -403q0 -258 -172 -406.5t-465 -148.5q-162 0 -262 49q-40 20 -63.5 52.5t-23.5 68.5q0 33 21 63q33 47 94 47zM352 1360l158 168q22 22 53 22q38 0 58 -26l38 -49q19 -22 19 -52q0 -41 -33 -67l-170 -135q-28 -21 -55 -21
q-38 0 -68 33q-24 27 -24 63q0 40 24 64z" />
    <glyph glyph-name="uniF36E.var.accented" unicode="&#xf36e;`" horiz-adv-x="1796" 
d="M410 430v-326q0 -50 -36.5 -85t-88.5 -35t-88.5 35t-36.5 85v861q0 50 36.5 85t88.5 35t88.5 -35t36.5 -85v-299h170q38 192 185 310t374 118q271 0 428 -149t157 -406q0 -249 -158.5 -403t-426.5 -154q-223 0 -375.5 119.5t-185.5 328.5h-168zM836 539q0 -140 86 -231
t225 -91q151 0 231 90t80 232q0 145 -84.5 232t-226.5 87q-139 0 -225 -87.5t-86 -231.5zM754 1360l157 168q22 22 54 22q37 0 57 -26l39 -49q18 -21 18 -52q0 -41 -32 -67l-170 -135q-28 -21 -56 -21q-37 0 -67 33q-25 28 -25 63q0 39 25 64z" />
    <glyph glyph-name="uniF36F.var.accented" unicode="&#xf36f;`" horiz-adv-x="1105" 
d="M946 954v-850q0 -50 -36.5 -85t-88.5 -35q-54 0 -90.5 35t-36.5 85v224h-188l-187 -275q-50 -69 -120 -69q-55 0 -86 31.5t-31 78.5q0 45 29 84l151 205q-182 104 -182 301q0 79 28.5 148t85 126t154 90t223.5 33q98 0 254 -4q51 -2 86 -37t35 -86zM694 563v277
q-69 6 -147 6q-95 0 -148 -39.5t-53 -106.5q0 -55 40.5 -91t98.5 -46h209zM426 1360l158 168q22 22 53 22q37 0 57 -26l39 -49q19 -22 19 -52q0 -41 -33 -67l-170 -135q-28 -21 -55 -21q-38 0 -68 33q-25 28 -25 63q0 39 25 64z" />
    <glyph glyph-name="uniF371.var.accented" unicode="&#xf371;`" horiz-adv-x="1019" 
d="M182 1321q0 56 38 89.5t95 33.5q46 0 82.5 -34.5t36.5 -88.5q0 -58 -36.5 -92.5t-82.5 -34.5q-58 0 -95.5 33.5t-37.5 93.5zM631 1321q0 55 38.5 89t92.5 34q48 0 85.5 -34t37.5 -89q0 -58 -37 -92.5t-86 -34.5q-55 0 -93 34t-38 93zM410 236h383q49 0 84.5 -35t35.5 -80
q0 -50 -35.5 -85.5t-84.5 -35.5h-512q-49 0 -85 36t-36 85v833q0 50 36 85.5t85 35.5h493q49 0 85 -34.5t36 -79.5q0 -49 -35.5 -85t-85.5 -36h-364v-181h315q49 0 85 -34.5t36 -79.5q0 -49 -36 -85t-85 -36h-315v-188zM526 1389q-44 0 -69 32q-25 28 -25 60q0 35 33 73
l123 132q23 26 61 26q37 0 68 -31l24 -26q23 -23 23 -58q0 -48 -39 -79l-135 -107q-28 -22 -64 -22z" />
    <glyph glyph-name="afii10017.var.accented" unicode="&#x410;`" horiz-adv-x="1411" 
d="M1006 350h-613l-121 -297q-26 -69 -108 -69q-50 0 -83.5 33.5t-33.5 80.5q0 22 10 45l510 1198q44 103 142 103q93 0 137 -103l508 -1194q10 -27 10 -49q0 -47 -34.5 -80.5t-82.5 -33.5q-93 0 -123 77zM700 1100l-211 -514h420zM600 1673l303 158q13 8 33 8q46 0 65 -43
l27 -63q6 -12 6 -29q0 -22 -13 -40.5t-34 -25.5l-317 -116q-8 -4 -27 -4q-56 0 -78 51q-8 13 -8 35t11.5 41t31.5 28z" />
    <glyph glyph-name="afii10022.var.accented" unicode="&#x415;`" horiz-adv-x="1177" 
d="M451 236h483q48 0 81.5 -34t33.5 -83q0 -51 -33.5 -85t-81.5 -34h-621q-47 0 -80.5 34t-33.5 81v1204q0 47 33.5 81t80.5 34h600q48 0 81.5 -34t33.5 -83q0 -51 -33.5 -85t-81.5 -34h-462v-356h401q48 0 81.5 -34t33.5 -83q0 -51 -33.5 -85t-81.5 -34h-401v-370z
M543 1673l303 158q13 8 33 8q46 0 65 -43l27 -63q6 -12 6 -29q0 -22 -13 -40.5t-34 -25.5l-318 -116q-8 -4 -26 -4q-56 0 -78 51q-8 13 -8 35t11.5 41t31.5 28z" />
    <glyph glyph-name="afii10026.var.accented" unicode="&#x418;`" horiz-adv-x="1622" 
d="M1423 109q0 -53 -36.5 -89t-88.5 -36q-54 0 -90.5 36t-36.5 89v907l-706 -955q-29 -38 -61 -57.5t-78 -19.5q-59 0 -93 34t-34 88v1213q0 53 36.5 89t90.5 36q52 0 88.5 -36t36.5 -89v-905l706 956q55 74 135 74q57 0 94 -35t37 -90v-1210zM727 1673l303 158q13 8 33 8
q46 0 65 -43l27 -63q6 -12 6 -29q0 -22 -13 -40.5t-34 -25.5l-317 -116q-8 -4 -27 -4q-56 0 -78 51q-8 13 -8 35t11.5 41t31.5 28z" />
    <glyph glyph-name="afii10032.var.accented" unicode="&#x41e;`" horiz-adv-x="1677" 
d="M92 717q0 154 55 290.5t152.5 235.5t237 156t301.5 57q212 0 381.5 -91t267.5 -260t98 -388q0 -212 -97.5 -381.5t-268 -264t-381.5 -94.5q-212 0 -381.5 91t-267 260.5t-97.5 388.5zM358 717q0 -214 139 -359t341 -145q220 0 350.5 143t130.5 361q0 220 -138 362
t-343 142q-207 0 -343.5 -141.5t-136.5 -362.5zM748 1673l303 158q13 8 32 8q21 0 39 -11.5t27 -31.5l27 -63q6 -12 6 -29q0 -22 -13 -40.5t-34 -25.5l-318 -116q-8 -4 -26 -4q-56 0 -78 51q-8 13 -8 35t11.5 41t31.5 28z" />
    <glyph glyph-name="afii10037.var.accented" unicode="&#x423;`" horiz-adv-x="1335" 
d="M305 1378l436 -745l314 731q33 80 110 80q53 0 85 -30t32 -75q0 -27 -12 -57l-420 -948q-84 -188 -169.5 -261t-219.5 -73q-63 0 -113 18q-29 11 -53.5 40t-24.5 69q0 9 4 33q9 34 34 54.5t61 23.5q6 2 20 2q11 0 37.5 -2t42.5 -2q83 0 131 100l21 49l-527 870
q-18 35 -18 70q0 48 32 83.5t85 35.5q70 0 112 -66zM604 1673l303 158q13 8 33 8q21 0 39 -11.5t27 -31.5l26 -63q6 -12 6 -29q0 -22 -13 -40.5t-34 -25.5l-317 -116q-8 -4 -27 -4q-56 0 -78 51q-8 13 -8 35t11.5 41t31.5 28z" />
    <glyph glyph-name="afii10045.var.accented" unicode="&#x42b;`" horiz-adv-x="1769" 
d="M1571 1319v-1210q0 -53 -36.5 -89t-88.5 -36t-88.5 36t-36.5 89v1210q0 53 36.5 89t88.5 36t88.5 -36t36.5 -89zM451 707v-469q11 0 58.5 -3.5t76.5 -3.5q139 0 210.5 63.5t71.5 188.5q0 114 -72.5 174t-205.5 60q-44 0 -139 -10zM199 125v1194q0 53 36.5 89t90.5 36
q52 0 88.5 -36t36.5 -89v-377q79 10 159 10q259 0 392 -123t133 -340q0 -229 -153.5 -361t-426.5 -132q-41 0 -119 1t-112 1q-53 2 -89 38.5t-36 88.5zM758 1673l303 158q13 8 33 8q46 0 65 -43l27 -63q6 -12 6 -29q0 -22 -13 -40.5t-34 -25.5l-318 -116q-8 -4 -26 -4
q-56 0 -78 51q-8 13 -8 35t11.5 41t31.5 28z" />
    <glyph glyph-name="afii10047.var.accented" unicode="&#x42d;`" horiz-adv-x="1353" 
d="M162 295q41 0 82 -21q129 -61 264 -61q125 0 228 44t175 135.5t93 219.5h-531q-48 0 -81.5 34t-33.5 85q0 49 33.5 83t81.5 34h524q-36 178 -173.5 275.5t-342.5 97.5q-116 0 -217 -52q-41 -20 -82 -20q-60 0 -92 49q-18 24 -18 59q0 64 73 111q136 88 381 88
q216 0 383 -90.5t260 -258.5t93 -388q0 -338 -203.5 -540t-546.5 -202q-245 0 -395 91q-70 42 -70 110q0 32 19 64q36 53 96 53zM457 1673l303 158q13 8 33 8q46 0 65 -43l27 -63q6 -12 6 -29q0 -22 -13 -40.5t-34 -25.5l-318 -116q-8 -4 -26 -4q-56 0 -78 51q-8 13 -8 35
t11.5 41t31.5 28z" />
    <glyph glyph-name="afii10048.var.accented" unicode="&#x42e;`" horiz-adv-x="2213" 
d="M451 612v-503q0 -53 -36.5 -89t-88.5 -36q-54 0 -90.5 36t-36.5 89v1210q0 53 36.5 89t90.5 36q52 0 88.5 -36t36.5 -89v-471h243q41 268 231 438t470 170q158 0 293 -53t230.5 -148.5t149.5 -234t54 -303.5q0 -213 -92.5 -381.5t-258.5 -263.5t-376 -95
q-182 0 -334 77.5t-250.5 222.5t-120.5 335h-239zM950 717q0 -214 131.5 -359t321.5 -145q146 0 250 68t153 180t49 256q0 223 -125 363.5t-327 140.5q-195 0 -324 -141.5t-129 -362.5zM1055 1673l303 158q13 8 33 8q46 0 65 -43l27 -63q6 -12 6 -29q0 -22 -13 -40.5
t-34 -25.5l-318 -116q-8 -4 -26 -4q-56 0 -78 51q-8 13 -8 35t11.5 41t31.5 28z" />
    <glyph glyph-name="afii10049.var.accented" unicode="&#x42f;`" horiz-adv-x="1253" 
d="M1055 1309v-1200q0 -53 -36.5 -89t-88.5 -36t-88.5 36t-36.5 89v387h-207l-293 -449q-40 -63 -106 -63q-53 0 -86 31.5t-33 76.5q0 36 24 74l256 381q-110 56 -180.5 156.5t-70.5 240.5q0 102 34 189.5t103 157t184.5 109.5t267.5 40q68 0 232 -4q53 -2 89 -38.5
t36 -88.5zM805 731v467q-105 6 -158 6q-123 0 -197.5 -67.5t-74.5 -175.5q0 -91 58.5 -152.5t141.5 -77.5h230zM600 1673l303 158q13 8 33 8q46 0 65 -43l27 -63q6 -12 6 -29q0 -22 -13 -40.5t-34 -25.5l-317 -116q-8 -4 -27 -4q-56 0 -78 51q-8 13 -8 35t11.5 41t31.5 28z
" />
    <glyph glyph-name="afii10023.var.accented" unicode="&#x401;`" horiz-adv-x="1177" 
d="M199 1688q0 59 34 94t86 35q44 0 78.5 -36t34.5 -93q0 -63 -34.5 -100.5t-78.5 -37.5q-53 0 -86.5 37t-33.5 101zM817 1688q0 58 36 93.5t87 35.5q45 0 78 -35.5t33 -93.5q0 -63 -33 -100.5t-78 -37.5q-52 0 -87.5 37t-35.5 101zM487 1581q0 20 11 39l88 178q11 23 33 38
t47 15q8 0 24 -4q28 -7 45 -30t17 -50q0 -32 -21 -53l-149 -162q-20 -20 -43 -20q-22 0 -37 13t-15 36zM451 236h483q48 0 81.5 -34t33.5 -83q0 -51 -33.5 -85t-81.5 -34h-621q-47 0 -80.5 34t-33.5 81v1204q0 47 33.5 81t80.5 34h600q48 0 81.5 -34t33.5 -83
q0 -51 -33.5 -85t-81.5 -34h-462v-356h401q48 0 81.5 -34t33.5 -83q0 -51 -33.5 -85t-81.5 -34h-401v-370z" />
    <glyph glyph-name="afii10065.var.accented" unicode="&#x430;`" horiz-adv-x="948" 
d="M72 270q0 146 94.5 222.5t241.5 76.5q60 0 116.5 -16.5t91.5 -42.5v29q0 106 -39.5 157.5t-132.5 51.5q-75 0 -143 -21q-32 -8 -47 -8q-56 0 -80 49q-8 19 -8 39q0 60 67 88q111 49 236 49q197 0 283 -96t86 -287v-469q0 -40 -30 -72t-75 -32q-44 0 -72 30.5t-28 79.5
q-39 -48 -111 -79t-162 -31q-129 0 -208.5 75.5t-79.5 206.5zM616 270v95q-60 45 -161 45q-63 0 -105.5 -29.5t-42.5 -85.5q0 -51 37 -80t94 -29q119 0 178 84zM403 1229l125 194q21 35 66 35q27 0 47 -14l49 -37q31 -22 31 -64q0 -29 -19 -51l-147 -170q-27 -30 -70 -30
q-29 0 -55 16q-39 26 -39 76q0 24 12 45z" />
    <glyph glyph-name="afii10070.var.accented" unicode="&#x435;`" horiz-adv-x="1071" 
d="M762 551q0 86 -57 141.5t-154 55.5q-102 0 -162 -53t-80 -148h453v4zM317 389q15 -102 90.5 -158.5t186.5 -56.5q97 0 172 35q32 14 53 14q47 0 74 -43q14 -24 14 -45q0 -53 -47 -80q-132 -78 -291 -78q-223 0 -359 133t-136 351q0 100 34 188.5t95.5 153.5t154 103
t203.5 38q183 0 309.5 -119.5t126.5 -308.5v-43q-4 -40 -29 -62t-63 -22h-588zM459 1229l125 194q21 35 65 35q27 0 47 -14l49 -37q31 -22 31 -64q0 -30 -18 -51l-148 -170q-27 -30 -69 -30q-30 0 -56 16q-39 26 -39 76q0 22 13 45z" />
    <glyph glyph-name="afii10074.var.accented" unicode="&#x438;`" horiz-adv-x="1163" 
d="M1032 98q0 -47 -34 -80.5t-83 -33.5q-51 0 -84.5 33t-33.5 81v475l-383 -501q-68 -88 -150 -88q-59 0 -96 37.5t-37 95.5v704q0 48 34 81.5t85 33.5q49 0 83 -33.5t34 -81.5v-475l383 502q31 42 65 65t82 23q61 0 98 -36t37 -91v-711zM477 1229l125 194q21 35 66 35
q27 0 47 -14l49 -37q31 -22 31 -64q0 -29 -19 -51l-147 -170q-27 -30 -70 -30q-29 0 -55 16q-39 26 -39 76q0 24 12 45z" />
    <glyph glyph-name="afii10080.var.accented" unicode="&#x43e;`" horiz-adv-x="1150" 
d="M74 461q0 210 138 346.5t363 136.5q226 0 364 -136.5t138 -346.5t-138.5 -347t-363.5 -137t-363 137t-138 347zM326 461q0 -115 70.5 -189.5t178.5 -74.5q110 0 181 72.5t71 191.5q0 116 -71.5 189t-180.5 73q-107 0 -178 -72t-71 -190zM487 1229l125 194q21 35 66 35
q27 0 47 -14l49 -37q31 -22 31 -64q0 -29 -19 -51l-147 -170q-27 -30 -70 -30q-29 0 -55 16q-39 26 -39 76q0 24 12 45z" />
    <glyph glyph-name="afii10085.var.accented" unicode="&#x443;`" horiz-adv-x="993" 
d="M483 418q16 -41 45 -133q16 84 33 135l141 428q29 88 119 88q58 0 90.5 -32t32.5 -81q0 -29 -12 -63l-299 -760q-66 -169 -123.5 -259.5t-109.5 -120.5t-124 -30q-69 0 -120 23q-66 28 -66 100q0 40 25 69.5t71 29.5q12 0 34 -2.5t32 -2.5h12q71 3 127 144l21 49
l-349 752q-14 32 -14 59q0 52 37 88.5t102 36.5q34 0 64.5 -24.5t46.5 -61.5zM403 1229l125 194q21 35 66 35q27 0 47 -14l49 -37q31 -22 31 -64q0 -29 -19 -51l-147 -170q-27 -30 -70 -30q-29 0 -55 16q-39 26 -39 76q0 24 12 45z" />
    <glyph glyph-name="afii10093.var.accented" unicode="&#x44b;`" horiz-adv-x="1384" 
d="M367 670h114q113 0 195 -26.5t126.5 -73t64.5 -101t20 -119.5q0 -69 -23 -129.5t-71 -111t-132.5 -80t-197.5 -29.5h-217q-47 0 -81 34t-34 81v706q0 48 34 81.5t85 33.5q49 0 83 -33.5t34 -81.5v-151zM1253 821v-723q0 -48 -33.5 -81t-82.5 -33q-51 0 -85 33t-34 81v723
q0 48 34 81.5t85 33.5q49 0 82.5 -33.5t33.5 -81.5zM367 205h92q178 0 178 137q0 139 -176 139h-94v-276zM551 1229l125 194q21 35 65 35q27 0 47 -14l50 -37q30 -21 30 -64q0 -30 -18 -51l-148 -170q-27 -30 -69 -30q-29 0 -55 16q-39 26 -39 76q0 24 12 45z" />
    <glyph glyph-name="afii10095.var.accented" unicode="&#x44d;`" horiz-adv-x="972" 
d="M156 242q26 0 65 -17q88 -43 185 -43q106 0 175 52.5t87 152.5h-320q-45 0 -67.5 22.5t-22.5 57.5q0 31 23 54.5t67 23.5h318q-22 96 -94 145t-171 49q-98 0 -190 -45q-24 -12 -53 -12q-56 0 -82 45q-15 24 -15 47q0 55 58 88q136 82 291 82q228 0 364.5 -131t136.5 -352
q0 -208 -132.5 -346t-358.5 -138q-99 0 -172 20t-142 66q-43 29 -43 84q0 33 17 56q26 39 76 39zM319 1229l125 194q21 35 66 35q27 0 47 -14l49 -37q31 -22 31 -64q0 -29 -19 -51l-147 -170q-27 -30 -70 -30q-29 0 -55 16q-39 26 -39 76q0 24 12 45z" />
    <glyph glyph-name="afii10096.var.accented" unicode="&#x44e;`" horiz-adv-x="1581" 
d="M381 352v-248q0 -50 -36.5 -85t-88.5 -35t-88.5 35t-36.5 85v711q0 50 36.5 85.5t88.5 35.5t88.5 -35.5t36.5 -85.5v-227h164q36 161 160 258.5t307 97.5q221 0 358 -136.5t137 -346.5q0 -209 -138 -346.5t-357 -137.5q-188 0 -313 103t-158 272h-160zM797 461
q0 -116 61.5 -182t159.5 -66q100 0 161.5 66.5t61.5 181.5q0 114 -60 181t-163 67q-98 0 -159.5 -67.5t-61.5 -180.5zM709 1229l125 194q21 35 65 35q27 0 47 -14l49 -37q31 -22 31 -64q0 -30 -18 -51l-148 -170q-27 -30 -69 -30q-30 0 -56 16q-39 26 -39 76q0 22 13 45z
" />
    <glyph glyph-name="afii10097.var.accented" unicode="&#x44f;`" horiz-adv-x="972" 
d="M139 166l121 162q-71 26 -124.5 94t-53.5 172q0 69 25.5 126.5t78.5 103.5t143.5 72t211.5 26h186q47 0 81 -34t34 -81v-709q0 -47 -34 -80.5t-83 -33.5q-51 0 -85 33t-34 81v178h-131l-160 -231q-43 -61 -104 -61q-48 0 -76.5 27.5t-28.5 68.5q0 44 33 86zM606 451v266
h-104q-81 0 -124.5 -41t-43.5 -98q0 -55 45.5 -91t103.5 -36h123zM430 1229l125 194q21 35 66 35q27 0 47 -14l49 -37q31 -22 31 -64q0 -29 -19 -51l-147 -170q-27 -30 -70 -30q-29 0 -55 16q-39 26 -39 76q0 24 12 45z" />
    <glyph glyph-name="afii10071.var.accented" unicode="&#x451;`" horiz-adv-x="1071" 
d="M147 1204q0 49 31.5 79t77.5 30q41 0 71.5 -30t30.5 -79q0 -53 -30.5 -83.5t-71.5 -30.5q-46 0 -77.5 30.5t-31.5 83.5zM739 1204q0 49 31.5 79t77.5 30q42 0 72 -30t30 -79q0 -53 -30 -83.5t-72 -30.5q-46 0 -77.5 30.5t-31.5 83.5zM444 1208l123 193q21 37 66 37
q23 0 47 -17l18 -14q31 -22 31 -64q0 -30 -18 -51l-148 -170q-27 -35 -69 -35q-15 0 -37 11q-31 19 -31 55q0 28 18 55zM762 551q0 86 -57 141.5t-154 55.5q-102 0 -162 -53t-80 -148h453v4zM997 516v-43q-4 -39 -28.5 -61.5t-61.5 -22.5h-590q15 -102 90.5 -158.5
t186.5 -56.5q97 0 172 35q32 14 53 14q47 0 74 -43q14 -24 14 -45q0 -53 -47 -80q-132 -78 -291 -78q-223 0 -359 133t-136 351q0 100 34 188.5t95.5 153.5t154 103t203.5 38q183 0 309.5 -119.5t126.5 -308.5z" />
    <glyph glyph-name="fi" unicode="fi" horiz-adv-x="1085" 
d="M977 807v-709q0 -47 -34 -80.5t-83 -33.5q-51 0 -85 33t-34 81v602h-364v-602q0 -47 -34 -80.5t-83 -33.5q-51 0 -85 33t-34 81v938q0 211 109.5 315.5t300.5 104.5q203 0 309 -96q37 -34 37 -78t-37 -78q-34 -30 -74 -30q-38 0 -96 30q-57 31 -123 31q-190 0 -190 -219
v-94h485q47 0 81 -34t34 -81z" />
    <glyph glyph-name="fl" unicode="fl" horiz-adv-x="1161" 
d="M920 1280v-930q0 -145 90 -145h32q34 0 50 -6q52 -20 57 -84q-3 -70 -59 -100.5t-164 -30.5q-242 0 -242 270v932q-69 49 -145 49q-162 0 -162 -182v-131h51q47 0 81 -33t34 -78t-34 -78t-81 -33h-51v-602q0 -47 -34 -80.5t-83 -33.5q-51 0 -85 33t-34 81v973
q0 189 86 287t242 98q147 0 242 -61h94q47 0 81 -34t34 -81z" />
    <glyph glyph-name=".notdef" horiz-adv-x="434" 
 />
    <glyph glyph-name=".null" horiz-adv-x="0" 
 />
    <glyph glyph-name="nonmarkingreturn" horiz-adv-x="682" 
 />
    <glyph glyph-name="space" unicode=" " horiz-adv-x="434" 
 />
    <glyph glyph-name="exclam" unicode="!" horiz-adv-x="632" 
d="M442 1319v-698q0 -53 -36 -89t-89 -36q-52 0 -88 36t-36 89v698q0 53 36 89t88 36q53 0 89 -36t36 -89zM160 154q0 58 45.5 104.5t118.5 46.5q63 0 106 -47t43 -104q0 -65 -42.5 -114.5t-106.5 -49.5q-73 0 -118.5 49t-45.5 115z" />
    <glyph glyph-name="quotedbl" unicode="&#x22;" horiz-adv-x="882" 
d="M745 1319v-264q0 -48 -34 -81.5t-86 -33.5q-47 0 -81 34t-34 81v264q0 48 34 81.5t85 33.5q49 0 82.5 -33.5t33.5 -81.5zM373 1319v-264q0 -48 -34.5 -81.5t-86.5 -33.5q-47 0 -81 34t-34 81v264q0 48 34 81.5t85 33.5q49 0 83 -33.5t34 -81.5z" />
    <glyph glyph-name="numbersign" unicode="#" horiz-adv-x="1482" 
d="M967 369l-111 -301q-10 -29 -35 -46.5t-55 -17.5q-18 0 -33 6q-30 10 -47.5 35t-17.5 55q0 16 6 31l88 238h-313l-113 -303q-10 -29 -35 -45.5t-55 -16.5q-18 0 -33 6q-30 9 -48 33.5t-18 54.5q0 16 7 33l88 238h-66q-39 0 -66.5 29t-27.5 73t27.5 73t66.5 29h141
l107 287h-248q-39 0 -66.5 29.5t-27.5 73.5t27.5 73t66.5 29h326l112 303q10 28 36 45t57 17q15 0 32 -7q29 -10 46.5 -35t17.5 -55q0 -15 -6 -30l-88 -238h309l112 303q10 28 36.5 45t56.5 17q19 0 32 -5q29 -10 46.5 -35t17.5 -55q0 -17 -6 -32l-88 -238h82q39 0 66.5 -29
t27.5 -73t-27.5 -73.5t-66.5 -29.5h-158l-107 -287h265q39 0 66.5 -29t27.5 -73t-27.5 -73t-66.5 -29h-340zM524 573h314l104 287h-311z" />
    <glyph glyph-name="dollar" unicode="$" horiz-adv-x="1165" 
d="M119 205q0 41 28 76q33 41 84 41q47 0 97 -33q121 -76 239 -76q90 0 141.5 43.5t51.5 124.5q0 50 -28 91t-73.5 68.5t-104 57t-119 54.5t-119 63t-104 82t-73.5 112t-28 152q0 137 92 243.5t246 139.5v59q0 48 34 81.5t84 33.5q49 0 83 -33.5t34 -81.5v-55
q133 -22 197 -68q65 -45 65 -104q0 -29 -20 -62q-34 -51 -88 -51q-35 0 -82 21q-83 37 -162 37q-106 0 -161.5 -42.5t-55.5 -115.5q0 -60 36 -105.5t93 -76.5t126 -59.5t138.5 -64.5t126.5 -82t93 -120.5t36 -171.5q0 -151 -93.5 -256.5t-248.5 -136.5v-80q0 -48 -34 -81.5
t-83 -33.5q-50 0 -84 33.5t-34 81.5v78q-96 16 -175.5 50.5t-119.5 82.5q-35 40 -35 84z" />
    <glyph glyph-name="percent" unicode="%" horiz-adv-x="1863" 
d="M1470 1296l-942 -1259q-30 -37 -73 -37q-25 0 -47 16q-31 25 -31 64q0 29 16 51l944 1266q22 28 60 28q26 0 53 -18q35 -24 35 -66q0 -27 -15 -45zM479 721q-176 0 -289.5 101.5t-113.5 264.5q0 164 113 264.5t290 100.5t290.5 -100.5t113.5 -264.5q0 -163 -114 -264.5
t-290 -101.5zM479 1262q-78 0 -130 -48.5t-52 -126.5q0 -80 52.5 -128t129.5 -48q81 0 133 48t52 128q0 78 -53 126.5t-132 48.5zM1384 -20q-176 0 -289.5 101.5t-113.5 264.5q0 164 113 264.5t290 100.5t290.5 -100.5t113.5 -264.5q0 -163 -114 -264.5t-290 -101.5z
M1384 520q-78 0 -130 -48t-52 -126q0 -80 52.5 -128t129.5 -48q81 0 133 48t52 128q0 78 -52.5 126t-132.5 48z" />
    <glyph glyph-name="ampersand" unicode="&#x26;" horiz-adv-x="1497" 
d="M1374 819v-12q-13 -138 -61 -265t-121 -225l104 -124q41 -49 41 -103q0 -45 -31 -75.5t-81 -30.5q-39 0 -66 18t-59 57l-74 91q-157 -173 -422 -173q-216 0 -348.5 115.5t-132.5 296.5q0 70 17.5 131.5t44 107t71.5 91.5t84.5 77.5t99.5 73.5q-76 37 -120 107t-44 168
q0 141 100 226t240 85t240 -85t100 -226q0 -94 -54 -173t-130 -104l279 -362q72 141 90 301q6 55 37.5 88t83.5 33t82 -33t30 -76zM885 338l-291 397q-109 -89 -157 -155t-48 -144q0 -94 64.5 -158.5t158.5 -64.5q182 0 273 125zM496 1145q0 -48 34.5 -83.5t85.5 -35.5
t86 35.5t35 83.5q0 51 -35.5 86t-85.5 35q-51 0 -85.5 -34.5t-34.5 -86.5z" />
    <glyph glyph-name="quotesingle" unicode="'" horiz-adv-x="509" 
d="M373 1319v-264q0 -48 -34.5 -81.5t-86.5 -33.5q-47 0 -81 34t-34 81v264q0 48 34 81.5t85 33.5q49 0 83 -33.5t34 -81.5z" />
    <glyph glyph-name="parenleft" unicode="(" horiz-adv-x="630" 
d="M602 1210q0 -33 -27 -67q-132 -151 -195 -316.5t-63 -365.5q0 -192 70 -370t191 -314q24 -30 24 -64q0 -43 -35 -73q-26 -23 -67 -23q-47 0 -76 29q-342 337 -342 815q0 466 344 815q29 29 76 29q42 0 65 -23q35 -30 35 -72z" />
    <glyph glyph-name="parenright" unicode=")" horiz-adv-x="630" 
d="M129 1305q44 0 76 -29q344 -349 344 -815q0 -478 -342 -815q-29 -29 -76 -29q-42 0 -68 23q-34 30 -34 73q0 34 24 64q121 136 190.5 313.5t69.5 370.5q0 200 -63 365.5t-195 316.5q-26 33 -26 67q0 42 34 72q23 23 66 23z" />
    <glyph glyph-name="asterisk" unicode="*" horiz-adv-x="1105" 
d="M557 1157q-63 0 -106 43.5t-43 106.5q0 61 43 104t106 43q60 0 104 -43.5t44 -103.5q0 -63 -43.5 -106.5t-104.5 -43.5zM551 535q-61 0 -104.5 42.5t-43.5 102.5q0 62 43.5 106.5t104.5 44.5q60 0 103.5 -44.5t43.5 -106.5q0 -60 -43.5 -102.5t-103.5 -42.5zM844 1016
q-61 0 -105.5 43t-44.5 104q0 60 45 105t105 45q61 0 105 -45t44 -105q0 -61 -43.5 -104t-105.5 -43zM844 684q-60 0 -105 42.5t-45 102.5q0 61 45 106.5t105 45.5q61 0 105 -45t44 -107q0 -60 -43.5 -102.5t-105.5 -42.5zM260 684q-60 0 -103.5 42.5t-43.5 102.5
q0 62 43.5 107t103.5 45q63 0 107.5 -45t44.5 -107q0 -60 -44.5 -102.5t-107.5 -42.5zM260 1016q-60 0 -103.5 43t-43.5 104q0 60 43.5 105t103.5 45q62 0 107 -44.5t45 -105.5t-44.5 -104t-107.5 -43z" />
    <glyph glyph-name="plus" unicode="+" 
d="M498 362v273h-260q-43 0 -73 29.5t-30 72.5t30 73t73 30h260v268q0 44 30.5 73t79.5 29t80 -29.5t31 -72.5v-268h264q43 0 72.5 -30t29.5 -73t-29.5 -72.5t-72.5 -29.5h-264v-273q0 -43 -31 -72.5t-80 -29.5t-79.5 29t-30.5 73z" />
    <glyph glyph-name="comma" unicode="," horiz-adv-x="530" 
d="M258 -2q0 6 -4 18q-12 -16 -53 -16t-73 38t-32 93q0 67 42 108.5t116 41.5q82 0 131 -64.5t49 -165.5q0 -112 -49.5 -188t-151.5 -137q-18 -9 -28 -9q-40 0 -60 33q-8 13 -8 33q0 35 31 57q17 14 27 23t21 24.5t20 34.5q22 46 22 76z" />
    <glyph glyph-name="hyphen" unicode="-" horiz-adv-x="770" 
d="M535 670q44 0 76 -32.5t32 -76.5q0 -46 -32 -78t-76 -32h-299q-44 0 -76.5 32.5t-32.5 77.5q0 44 32.5 76.5t76.5 32.5h299z" />
    <glyph glyph-name="period" unicode="." horiz-adv-x="497" 
d="M256 305q63 0 106.5 -47t43.5 -104q0 -65 -43 -114.5t-107 -49.5q-73 0 -118.5 49t-45.5 115q0 58 45.5 104.5t118.5 46.5z" />
    <glyph glyph-name="slash" unicode="/" horiz-adv-x="755" 
d="M772 1296l-606 -1630q-25 -63 -94 -63q-21 0 -31 4q-29 10 -46.5 35.5t-17.5 56.5q0 14 7 35l606 1630q10 30 36 46.5t58 16.5q23 0 33 -4q29 -10 45 -35.5t16 -56.5q0 -17 -6 -35z" />
    <glyph glyph-name="zero" unicode="0" horiz-adv-x="1132" 
d="M567 1450q160 0 269.5 -93t160 -255t50.5 -385q0 -224 -49.5 -385.5t-158 -254.5t-268.5 -93q-161 0 -271.5 93t-162 255t-51.5 385t50.5 385t160 255t270.5 93zM571 203q121 0 173.5 122.5t52.5 391.5q0 268 -54 390t-176 122q-120 0 -174.5 -124.5t-54.5 -387.5
q0 -514 233 -514z" />
    <glyph glyph-name="one" unicode="1" horiz-adv-x="772" 
d="M322 1102l-82 -62q-33 -26 -74 -26q-55 0 -90 41q-27 30 -27 71q0 55 45 91l252 190q43 31 92 31q50 0 84.5 -35t34.5 -84v-1217q0 -49 -34.5 -83.5t-82.5 -34.5q-50 0 -84 34t-34 84v1000z" />
    <glyph glyph-name="two" unicode="2" horiz-adv-x="1050" 
d="M846 219q44 0 76 -32t32 -76q0 -46 -32 -78.5t-76 -32.5h-690q-44 0 -76.5 32.5t-32.5 76.5q0 65 55 120q16 17 50 51q65 66 99.5 101.5t95.5 102t96 110.5t79.5 107.5t68.5 113t41 106t17 107.5q0 87 -47 136.5t-135 49.5q-105 0 -172 -90q-44 -59 -107 -59
q-31 0 -53 14q-53 29 -53 92q0 31 18 66q65 108 158.5 160.5t235.5 52.5q98 0 177 -31.5t128 -85t74.5 -119.5t25.5 -139q0 -79 -22.5 -162.5t-57.5 -154t-84.5 -142t-96 -126.5t-100 -109.5t-89.5 -87t-70 -62.5q-10 -8 -14 -12h481z" />
    <glyph glyph-name="three" unicode="3" horiz-adv-x="1064" 
d="M893 1092q0 -242 -219 -342q130 -26 202 -121t72 -226q0 -194 -133 -310t-336 -116q-124 0 -212 33.5t-181 106.5q-47 38 -47 94q0 39 22 70q38 47 95 47q31 0 69 -23q133 -92 240 -92q111 0 171 56.5t60 142.5q0 97 -70 149.5t-196 52.5q-46 0 -83.5 33t-37.5 86
q0 54 35 85.5t82 31.5q87 0 151 54t64 143q0 79 -46.5 126.5t-135.5 47.5q-93 0 -189 -66q-38 -27 -80 -27q-48 0 -81 39q-23 30 -23 66q0 58 45 94q160 129 350 129q186 0 299 -98.5t113 -265.5z" />
    <glyph glyph-name="four" unicode="4" horiz-adv-x="1150" 
d="M915 332v-230q0 -49 -34 -83.5t-82 -34.5q-50 0 -84.5 34.5t-34.5 83.5v230h-551q-51 0 -85 30t-34 78q0 10 2.5 21.5t5 20t8 20.5t9 18t10 18t8.5 15l502 848q35 57 100 57q30 0 62 -16q57 -39 57 -103q0 -32 -16 -61l-426 -711h348v236q0 49 35 84t84 35q47 0 81.5 -35
t34.5 -84v-236h66q49 0 84 -34.5t35 -81.5q0 -49 -35 -84t-84 -35h-66z" />
    <glyph glyph-name="five" unicode="5" horiz-adv-x="1028" 
d="M446 213q103 0 169.5 68t66.5 174q0 110 -82 182t-223 72q-45 0 -103 -7q-3 0 -10 -1t-10 -1q-44 0 -70 26.5t-26 70.5q0 3 1 10t1 10l61 502q6 49 42.5 82t86.5 33h449q47 0 80.5 -34t33.5 -83q0 -51 -33 -85t-81 -34h-357l-41 -285q52 9 82 9q195 0 323 -124.5
t128 -332.5q0 -150 -67 -262.5t-178.5 -169t-248.5 -56.5q-188 0 -356 144q-35 31 -35 80q0 33 25 69q33 41 80 41q36 0 77 -26q109 -72 215 -72z" />
    <glyph glyph-name="six" unicode="6" horiz-adv-x="1159" 
d="M666 887q168 0 284.5 -122.5t116.5 -315.5q0 -109 -40 -200t-106 -149.5t-148 -90.5t-169 -32q-155 0 -273 73t-178.5 192.5t-60.5 265.5q0 138 35.5 267.5t95.5 231.5t140 188t167.5 146t180.5 97q23 10 55 10q72 0 96 -62q8 -16 8 -38q0 -35 -21.5 -64.5t-57.5 -44.5
q-152 -68 -263.5 -191t-156.5 -294q96 133 295 133zM606 213q95 0 153 64.5t58 154.5q0 103 -60.5 169.5t-170.5 66.5q-89 0 -150.5 -47t-93.5 -115q0 -128 69.5 -210.5t194.5 -82.5z" />
    <glyph glyph-name="seven" unicode="7" horiz-adv-x="1003" 
d="M254 170l416 1028h-500q-50 0 -84.5 35t-34.5 84q0 48 35 82.5t84 34.5h664q50 0 84 -35t34 -86q0 -37 -14 -72l-459 -1153q-20 -50 -50 -69t-73 -19q-47 0 -80.5 31.5t-33.5 81.5q0 27 12 57z" />
    <glyph glyph-name="eight" unicode="8" horiz-adv-x="1226" 
d="M819 1038q0 86 -57.5 134.5t-151.5 48.5q-91 0 -146.5 -51.5t-55.5 -131.5q0 -75 53 -129.5t135 -54.5h39q80 0 132 55t52 129zM369 416q0 -88 65.5 -145.5t177.5 -57.5q121 0 184.5 55t63.5 144v4q-1 96 -64 149t-161 53h-35q-95 0 -163 -55t-68 -147zM1071 1079
q0 -107 -59.5 -201t-161.5 -139q111 -26 185.5 -120t74.5 -228q0 -129 -66 -224t-177.5 -142.5t-252.5 -47.5q-214 0 -355.5 107.5t-141.5 286.5q0 133 68 229.5t177 136.5q-88 39 -146 130t-58 212q0 166 131 271.5t323 105.5q194 0 326.5 -105.5t132.5 -271.5z" />
    <glyph glyph-name="nine" unicode="9" horiz-adv-x="1136" 
d="M494 535q-182 0 -307.5 127.5t-125.5 316.5q0 109 42 201t110.5 151t152.5 92t171 33q235 0 371 -151.5t136 -395.5q0 -375 -175 -608t-484 -307q-20 -4 -31 -4q-38 0 -65 23t-33 55q-2 8 -2 20q0 74 80 100q183 58 288 176t144 300q-93 -129 -272 -129zM537 1221
q-97 0 -161.5 -68.5t-64.5 -157.5q0 -99 65 -169t175 -70q90 0 151.5 44.5t92.5 110.5q0 131 -67.5 220.5t-190.5 89.5z" />
    <glyph glyph-name="colon" unicode=":" horiz-adv-x="651" 
d="M332 944q63 0 106 -47t43 -104q0 -65 -42.5 -114.5t-106.5 -49.5q-73 0 -118.5 49t-45.5 115q0 58 45.5 104.5t118.5 46.5zM332 305q63 0 106 -47t43 -104q0 -65 -42.5 -114.5t-106.5 -49.5q-73 0 -118.5 49t-45.5 115q0 58 45.5 104.5t118.5 46.5z" />
    <glyph glyph-name="semicolon" unicode=";" horiz-adv-x="663" 
d="M332 944q63 0 106 -47t43 -104q0 -65 -42.5 -114.5t-106.5 -49.5q-73 0 -118.5 49t-45.5 115q0 58 45.5 104.5t118.5 46.5zM332 -2q0 6 -4 18q-12 -16 -54 -16q-41 0 -72.5 38t-31.5 93q0 67 42 108.5t116 41.5q82 0 131 -64.5t49 -165.5q0 -112 -49.5 -188t-151.5 -137
q-18 -9 -28 -9q-40 0 -60 33q-8 13 -8 33q0 35 31 57q48 38 67 82q23 48 23 76z" />
    <glyph glyph-name="less" unicode="&#x3c;" horiz-adv-x="1130" 
d="M131 827l717 418q36 19 63 19q45 0 76 -32.5t31 -76.5q0 -65 -66 -104l-563 -310l563 -313q33 -19 49.5 -42.5t16.5 -61.5q0 -45 -32 -76t-77 -31q-32 0 -59 16l-719 418q-63 38 -63 90q0 51 63 86z" />
    <glyph glyph-name="equal" unicode="=" 
d="M981 1034q43 0 73.5 -30.5t30.5 -71.5q0 -42 -30.5 -72.5t-73.5 -30.5h-741q-43 0 -74 31t-31 72t31 71.5t74 30.5h741zM981 645q43 0 73.5 -30.5t30.5 -71.5t-30.5 -72t-73.5 -31h-741q-43 0 -74 31t-31 72t31 71.5t74 30.5h741z" />
    <glyph glyph-name="greater" unicode="&#x3e;" horiz-adv-x="1130" 
d="M283 1245l716 -418q64 -36 64 -86q0 -51 -64 -90l-718 -418q-27 -16 -60 -16q-45 0 -76.5 31t-31.5 76q0 38 16 61.5t49 42.5l563 313l-563 310q-65 38 -65 104q0 44 30.5 76.5t75.5 32.5q28 0 64 -19z" />
    <glyph glyph-name="question" unicode="?" horiz-adv-x="931" 
d="M598 649q-46 -46 -64 -73t-30 -68q-25 -76 -107 -76q-53 0 -79.5 34t-26.5 81v10q3 37 16 68.5t34.5 57t44 46t51.5 44.5q9 7 14 11q9 8 37.5 31t38 32t31 30t30.5 35.5t20.5 36t16 45t4.5 50.5q0 73 -55.5 125t-137.5 52q-103 0 -168 -45q-47 -33 -92 -33q-47 0 -74 35
q-26 32 -26 67q0 45 41 86q53 53 140.5 89t193.5 36q198 0 314 -103.5t116 -256.5q0 -63 -13.5 -117t-33 -90.5t-51.5 -72.5t-59 -58.5t-65 -54.5t-61 -54zM250 154q0 58 45.5 104.5t116.5 46.5q65 0 108 -47t43 -104q0 -65 -43 -114.5t-108 -49.5q-72 0 -117 49t-45 115z
" />
    <glyph glyph-name="at" unicode="@" horiz-adv-x="2037" 
d="M117 461q0 186 70.5 352.5t192 287t293.5 191t367 70.5q249 0 449 -98.5t316 -282.5t116 -422q0 -107 -30 -205.5t-85.5 -178t-144.5 -127.5t-199 -48h-139q-40 0 -67 22.5t-29 51.5q-104 -97 -254 -97q-206 0 -329.5 133t-123.5 351q0 204 149.5 343.5t379.5 139.5
q187 0 346 -76q67 -29 67 -102v-547h41q86 0 142.5 93t56.5 247q0 119 -46.5 225t-130 186t-209.5 126.5t-276 46.5q-144 0 -272 -47.5t-223.5 -134t-151 -216t-55.5 -284.5q0 -195 94.5 -352t255 -243.5t352.5 -86.5q56 0 109 6q4 0 11 1t11 1q106 0 119 -88q2 -8 2 -23
q0 -44 -29 -73t-75 -35q-68 -10 -148 -10q-196 0 -367.5 68t-293.5 186.5t-192 287t-70 361.5zM1227 293v385q-92 45 -180 45q-129 0 -202 -78.5t-73 -193.5q0 -119 67 -186.5t177 -67.5q60 0 116.5 27.5t94.5 68.5z" />
    <glyph glyph-name="A" unicode="A" horiz-adv-x="1411" 
d="M1006 350h-613l-121 -297q-26 -69 -108 -69q-50 0 -83.5 33.5t-33.5 80.5q0 22 10 45l510 1198q44 103 142 103q93 0 137 -103l508 -1194q10 -27 10 -49q0 -47 -34.5 -80.5t-82.5 -33.5q-93 0 -123 77zM700 1100l-211 -514h420z" />
    <glyph glyph-name="B" unicode="B" horiz-adv-x="1263" 
d="M1083 1085q0 -229 -204 -327q113 -30 182 -115t69 -221q0 -108 -40 -191t-112.5 -135t-168 -78t-211.5 -26q-102 0 -274 4q-51 1 -88 39.5t-37 89.5v1182q0 51 36.5 88.5t88.5 38.5q132 6 288 6q125 0 217.5 -27t147 -76t80.5 -112t26 -140zM451 616v-378q96 -11 165 -11
q128 0 195.5 53t67.5 154q0 90 -65 136t-185 46h-178zM451 836h170q93 0 153 48t60 142q0 86 -61 132t-165 46q-90 0 -157 -6v-362z" />
    <glyph glyph-name="C" unicode="C" horiz-adv-x="1320" 
d="M1042 1174q-110 47 -217 47q-204 0 -335.5 -137.5t-131.5 -366.5q0 -224 138 -364t358 -140q116 0 229 55q51 21 82 21q56 0 92 -47q21 -30 21 -66q0 -63 -57 -100q-150 -99 -390 -99q-217 0 -385 91.5t-261 260t-93 388.5q0 155 48.5 289t139.5 234.5t231.5 158
t313.5 57.5q180 0 324 -74q78 -38 78 -106q0 -25 -17 -59q-34 -58 -100 -58q-34 0 -68 15z" />
    <glyph glyph-name="D" unicode="D" horiz-adv-x="1517" 
d="M324 1436q208 4 297 4q167 0 303 -37.5t228 -102.5t154.5 -155.5t90.5 -194t28 -219.5q0 -122 -32.5 -231t-99.5 -201.5t-163 -159.5t-231 -105t-295 -38q-54 0 -280 4q-52 0 -88.5 36t-36.5 89v1184q0 52 36 88.5t89 38.5zM451 1198v-962q88 -5 161 -5q257 0 402 135
t145 365q0 218 -144 345.5t-399 127.5q-80 0 -165 -6z" />
    <glyph glyph-name="E" unicode="E" horiz-adv-x="1177" 
d="M451 236h483q48 0 81.5 -34t33.5 -83q0 -51 -33.5 -85t-81.5 -34h-621q-47 0 -80.5 34t-33.5 81v1204q0 47 33.5 81t80.5 34h600q48 0 81.5 -34t33.5 -83q0 -51 -33.5 -85t-81.5 -34h-462v-356h401q48 0 81.5 -34t33.5 -83q0 -51 -33.5 -85t-81.5 -34h-401v-370z" />
    <glyph glyph-name="F" unicode="F" horiz-adv-x="1099" 
d="M451 557v-448q0 -53 -36.5 -89t-88.5 -36q-54 0 -90.5 36t-36.5 89v1210q0 47 33.5 81t80.5 34h590q48 0 81.5 -34t33.5 -83q0 -51 -33.5 -85t-81.5 -34h-452v-405h391q47 0 80.5 -34t33.5 -83q0 -51 -33 -85t-81 -34h-391z" />
    <glyph glyph-name="G" unicode="G" horiz-adv-x="1488" 
d="M92 717q0 155 51.5 289.5t145 234.5t235.5 157.5t314 57.5q179 0 323 -74q78 -38 78 -106q0 -27 -16 -59q-34 -58 -101 -58q-32 0 -67 15q-110 47 -217 47q-212 0 -346 -135t-134 -369q0 -228 133.5 -366t352.5 -138q82 0 169 29.5t128 68.5v226h-232q-48 0 -81 33.5
t-33 84.5q0 49 33.5 83t80.5 34h353q47 0 80.5 -34t33.5 -81v-387q0 -103 -90 -164q-95 -60 -216.5 -94.5t-229.5 -34.5q-348 0 -548 201t-200 539z" />
    <glyph glyph-name="H" unicode="H" horiz-adv-x="1554" 
d="M1356 1319v-1210q0 -53 -36 -89t-89 -36t-89 36t-36 89v503h-655v-503q0 -53 -36.5 -89t-88.5 -36q-54 0 -90.5 36t-36.5 89v1210q0 53 36.5 89t90.5 36q52 0 88.5 -36t36.5 -89v-471h655v471q0 53 36 89t89 36t89 -36t36 -89z" />
    <glyph glyph-name="I" unicode="I" horiz-adv-x="710" 
d="M481 1319v-1210q0 -53 -36.5 -89t-88.5 -36q-54 0 -90.5 36t-36.5 89v1210q0 53 36.5 89t90.5 36q52 0 88.5 -36t36.5 -89z" />
    <glyph glyph-name="J" unicode="J" horiz-adv-x="790" 
d="M340 381v938q0 53 36.5 89t90.5 36q53 0 89 -36t36 -89v-981q0 -174 -87 -267.5t-259 -93.5q-75 0 -140 21q-38 13 -63 42t-25 69q0 21 5 36q9 36 36 57t64 21q3 0 9 -1t9 -1q49 -8 70 -8q129 0 129 168z" />
    <glyph glyph-name="K" unicode="K" horiz-adv-x="1329" 
d="M451 739v-630q0 -53 -36.5 -89t-88.5 -36q-54 0 -90.5 36t-36.5 89v1210q0 53 36.5 89t90.5 36q52 0 88.5 -36t36.5 -89v-565l516 622q30 36 54.5 52t59.5 16q50 0 81.5 -30.5t31.5 -74.5q0 -50 -37 -90l-428 -483l465 -569q41 -49 41 -101q0 -48 -34.5 -80t-90.5 -32
q-62 0 -121 75z" />
    <glyph glyph-name="L" unicode="L" horiz-adv-x="1120" 
d="M451 236h520q52 0 88.5 -35t36.5 -82q0 -48 -36.5 -83.5t-88.5 -35.5h-647q-52 0 -88.5 36t-36.5 89v1194q0 53 36.5 89t90.5 36q52 0 88.5 -36t36.5 -89v-1083z" />
    <glyph glyph-name="M" unicode="M" horiz-adv-x="1845" 
d="M451 1012v-903q0 -53 -36.5 -89t-88.5 -36q-54 0 -90.5 36t-36.5 89v1196q0 60 39 99.5t102 39.5q55 0 90.5 -24t67.5 -66l444 -590l424 586q19 26 34 42.5t48.5 34t73.5 17.5q55 0 90 -36t35 -89v-1210q0 -53 -36.5 -89t-88.5 -36t-88.5 36t-36.5 89v905l-353 -475
q-52 -70 -118 -70q-67 0 -119 70z" />
    <glyph glyph-name="N" unicode="N" horiz-adv-x="1622" 
d="M1188 436v893q0 48 34 81.5t85 33.5q49 0 82.5 -33.5t33.5 -81.5v-1231q0 -48 -31.5 -81t-80.5 -33q-76 0 -135 75l-742 934v-895q0 -47 -34 -80.5t-83 -33.5q-51 0 -84.5 33t-33.5 81v1231q0 50 34 82.5t86 32.5q38 0 67 -16t60 -54z" />
    <glyph glyph-name="O" unicode="O" horiz-adv-x="1677" 
d="M92 717q0 154 55 290.5t152.5 235.5t237 156t301.5 57q212 0 381.5 -91t267.5 -260t98 -388q0 -212 -97.5 -381.5t-268 -264t-381.5 -94.5q-212 0 -381.5 91t-267 260.5t-97.5 388.5zM358 717q0 -214 139 -359t341 -145q220 0 350.5 143t130.5 361q0 220 -138 362
t-343 142q-207 0 -343.5 -141.5t-136.5 -362.5z" />
    <glyph glyph-name="P" unicode="P" horiz-adv-x="1253" 
d="M606 1438q123 0 219.5 -25.5t158.5 -68.5t102.5 -103t57.5 -125t17 -139q0 -93 -34.5 -176t-98.5 -148t-165.5 -103t-225.5 -38q-125 0 -186 6v-409q0 -53 -36.5 -89t-88.5 -36q-54 0 -90.5 36t-36.5 89v1200q0 52 36 88.5t89 38.5q52 0 152.5 1t129.5 1zM451 1198v-440
q98 -10 178 -10q119 0 192.5 58t73.5 173q0 223 -264 223q-44 0 -180 -4z" />
    <glyph glyph-name="Q" unicode="Q" horiz-adv-x="1677" 
d="M1268 4l-56 64q-168 -91 -374 -91q-212 0 -381.5 91t-267 260.5t-97.5 388.5q0 154 55 290.5t152.5 235.5t237 156t301.5 57q212 0 381.5 -91t267.5 -260t98 -388q0 -151 -51 -282.5t-145 -229.5l49 -55q28 -36 28 -76q0 -51 -36 -84q-31 -25 -72 -25q-57 0 -90 39z
M1169 459l54 -62q96 135 96 320q0 220 -138 362t-343 142q-207 0 -343.5 -141.5t-136.5 -362.5q0 -214 139 -359t341 -145q117 0 215 45l-47 53q-27 34 -27 76q0 52 35 82q32 29 73 29q49 0 82 -39z" />
    <glyph glyph-name="R" unicode="R" horiz-adv-x="1304" 
d="M981 55l-354 482h-176v-428q0 -53 -36.5 -89t-88.5 -36q-54 0 -90.5 36t-36.5 89v1200q0 53 36.5 89t88.5 36q242 4 311 4q114 0 203.5 -22.5t148.5 -61.5t97 -96t54.5 -121.5t16.5 -141.5q0 -88 -25.5 -161t-68.5 -121.5t-88 -79t-94 -47.5l313 -412q27 -38 27 -76
q0 -47 -34 -80.5t-87 -33.5q-37 0 -63 17t-54 54zM451 772h163q116 0 195.5 58t79.5 163q0 209 -266 209q-36 0 -172 -4v-426z" />
    <glyph glyph-name="S" unicode="S" horiz-adv-x="1083" 
d="M88 213q0 41 31 80q33 41 88 41q45 0 90 -31q122 -90 227 -90q92 0 150.5 44.5t58.5 123.5q0 50 -28 91t-73.5 68.5t-104 57t-119 54.5t-119 63t-104 82t-73.5 112t-28 152q0 167 121.5 281t324.5 114q169 0 281 -59q39 -21 61.5 -50.5t22.5 -62.5q0 -29 -18 -59
q-34 -58 -97 -58q-28 0 -63 15q-93 41 -170 41q-92 0 -144.5 -44t-52.5 -116q0 -60 36 -105.5t93 -76.5t126 -59.5t138.5 -64.5t126.5 -82t93 -120.5t36 -171.5q0 -179 -137.5 -292.5t-341.5 -113.5q-222 0 -385 140q-47 41 -47 96z" />
    <glyph glyph-name="T" unicode="T" horiz-adv-x="1222" 
d="M485 109v1089h-350q-48 0 -81.5 34t-33.5 85q0 49 33.5 83t81.5 34h952q48 0 81.5 -34t33.5 -83q0 -51 -33.5 -85t-81.5 -34h-350v-1089q0 -53 -36.5 -89t-88.5 -36q-54 0 -90.5 36t-36.5 89z" />
    <glyph glyph-name="U" unicode="U" horiz-adv-x="1536" 
d="M1108 645v674q0 53 36 89t89 36t89 -36t36 -89v-725q0 -128 -30.5 -232t-83.5 -175t-125.5 -119t-155.5 -69.5t-175 -21.5q-135 0 -246 40t-192.5 117.5t-126.5 198.5t-45 275v711q0 53 36.5 89t90.5 36q53 0 89 -36t36 -89v-657q0 -209 89 -329t269 -120q320 0 320 432z
" />
    <glyph glyph-name="V" unicode="V" horiz-adv-x="1312" 
d="M274 1364l398 -985l381 985q32 80 104 80q57 0 90 -32t33 -79q0 -31 -12 -61l-482 -1198q-38 -90 -124 -90q-85 0 -123 90l-496 1200q-10 27 -10 51q0 49 33 84t90 35q85 0 118 -80z" />
    <glyph glyph-name="W" unicode="W" horiz-adv-x="1990" 
d="M1163 1323l297 -913l260 929q31 105 117 105q53 0 86 -32t33 -77q0 -19 -6 -37l-344 -1192q-37 -122 -146 -122q-110 0 -151 120l-312 924l-305 -922q-40 -122 -153 -122q-111 0 -148 122l-350 1162q-6 21 -6 45q0 55 36.5 93t104.5 38q48 0 80 -30t45 -75l262 -927
l291 911q40 121 156 121q114 0 153 -121z" />
    <glyph glyph-name="X" unicode="X" horiz-adv-x="1290" 
d="M342 1372l309 -457l305 455q51 74 117 74q55 0 87 -34.5t32 -82.5q0 -34 -23 -72l-360 -524l379 -551q26 -39 26 -78q0 -50 -33.5 -84t-84.5 -34q-67 0 -113 63l-338 492l-334 -490q-47 -65 -112 -65q-52 0 -87.5 33t-35.5 81q0 41 28 82l379 551l-356 522q-25 39 -25 76
q0 47 35 81t90 34q66 0 115 -72z" />
    <glyph glyph-name="Y" unicode="Y" horiz-adv-x="1226" 
d="M303 1368l318 -534l313 534q45 76 117 76q53 0 82.5 -32.5t29.5 -76.5q0 -34 -20 -67l-408 -670v-489q0 -53 -36.5 -89t-88.5 -36q-54 0 -90.5 36t-36.5 89v489l-399 659q-21 40 -21 70q0 48 33.5 82.5t91.5 34.5q68 0 115 -76z" />
    <glyph glyph-name="Z" unicode="Z" horiz-adv-x="1292" 
d="M160 0q-49 0 -82 30t-33 81q0 46 49 104l758 983h-637q-48 0 -81.5 34t-33.5 85q0 49 33.5 83t81.5 34h879q53 0 83.5 -29.5t30.5 -75.5q0 -22 -11 -47t-18 -35t-24 -33l-760 -978h701q47 0 80.5 -34t33.5 -83q0 -51 -33 -85t-81 -34h-936z" />
    <glyph glyph-name="bracketleft" unicode="[" horiz-adv-x="716" 
d="M575 -190q44 0 77.5 -33.5t33.5 -77.5q0 -43 -33.5 -76t-77.5 -33h-342q-44 0 -77 33.5t-33 77.5v1520q0 44 33 77t77 33h342q44 0 77.5 -33t33.5 -77t-33.5 -77.5t-77.5 -33.5h-217v-1300h217z" />
    <glyph glyph-name="backslash" unicode="\" horiz-adv-x="757" 
d="M590 -340l-606 1636q-7 21 -7 39q0 29 14.5 53.5t41.5 34.5q21 7 37 7q31 0 56 -17t36 -45l612 -1640q6 -15 6 -31q0 -32 -17.5 -57.5t-47.5 -34.5q-10 -4 -33 -4q-31 0 -56.5 16t-35.5 43z" />
    <glyph glyph-name="bracketright" unicode="]" horiz-adv-x="716" 
d="M141 1110q-44 0 -77 33.5t-33 77.5t33 77t77 33h342q44 0 77.5 -33t33.5 -77v-1520q0 -44 -33.5 -77.5t-77.5 -33.5h-342q-44 0 -77 33t-33 76q0 44 33 77.5t77 33.5h217v1300h-217z" />
    <glyph glyph-name="asciicircum" unicode="^" horiz-adv-x="1038" 
d="M520 1214l-158 -225q-25 -35 -46.5 -51t-55.5 -16q-46 0 -73 28.5t-27 69.5q0 43 24 76l209 286q34 48 63.5 68t65.5 20q35 0 64 -20t63 -68l205 -286q27 -40 27 -78q0 -40 -27.5 -68t-65.5 -28q-67 0 -114 67z" />
    <glyph glyph-name="underscore" unicode="_" horiz-adv-x="704" 
d="M594 -174q45 0 78 -34.5t33 -84.5q0 -49 -33 -83t-78 -34h-483q-45 0 -78 34t-33 83q0 50 33 84.5t78 34.5h483z" />
    <glyph glyph-name="grave" unicode="`" horiz-adv-x="645" 
d="M354 1419l123 -190q12 -21 12 -47q0 -51 -36 -74q-21 -16 -54 -16q-46 0 -73 30l-146 166q-20 20 -20 53q0 41 30 62l52 37q22 16 47 16q44 0 65 -37z" />
    <glyph glyph-name="a" unicode="a" horiz-adv-x="948" 
d="M72 270q0 146 94.5 222.5t241.5 76.5q60 0 116.5 -16.5t91.5 -42.5v29q0 106 -39.5 157.5t-132.5 51.5q-75 0 -143 -21q-32 -8 -47 -8q-56 0 -80 49q-8 19 -8 39q0 60 67 88q111 49 236 49q197 0 283 -96t86 -287v-469q0 -40 -30 -72t-75 -32q-44 0 -72 30.5t-28 79.5
q-39 -48 -111 -79t-162 -31q-129 0 -208.5 75.5t-79.5 206.5zM616 270v95q-60 45 -161 45q-63 0 -105.5 -29.5t-42.5 -85.5q0 -51 37 -80t94 -29q119 0 178 84z" />
    <glyph glyph-name="b" unicode="b" horiz-adv-x="1122" 
d="M367 864q101 80 243 80q202 0 320.5 -130.5t118.5 -338.5q0 -228 -142.5 -363t-384.5 -135q-152 0 -289 54q-102 41 -102 147v1141q0 48 34 81.5t85 33.5q49 0 83 -33.5t34 -81.5v-455zM367 635v-391q73 -47 168 -47q114 0 188 70.5t74 191.5q0 127 -68.5 195.5
t-173.5 68.5q-57 0 -106 -25t-82 -63z" />
    <glyph glyph-name="c" unicode="c" horiz-adv-x="974" 
d="M719 698q-70 25 -137 25q-103 0 -179.5 -72.5t-76.5 -189.5q0 -119 78.5 -191.5t187.5 -72.5q89 0 151 36q42 25 82 25q48 0 82 -43q21 -27 21 -61q0 -56 -49 -93q-114 -84 -299 -84q-229 0 -367.5 133t-138.5 351q0 133 60 243.5t170 175t247 64.5q162 0 260 -49
q34 -15 54 -41.5t20 -56.5q0 -18 -15 -52q-29 -59 -94 -59q-27 0 -57 12z" />
    <glyph glyph-name="d" unicode="d" horiz-adv-x="1138" 
d="M1008 1319v-1204q0 -54 -28.5 -92.5t-88.5 -38.5q-51 0 -83.5 30t-35.5 82q-104 -112 -264 -112q-197 0 -315.5 128t-118.5 339q0 218 141.5 355.5t364.5 137.5q118 0 192 -45v420q0 48 34 81.5t85 33.5q49 0 83 -33.5t34 -81.5zM772 297v371q-88 55 -182 55
q-110 0 -187 -71t-77 -193q0 -119 66.5 -187.5t164.5 -68.5q121 0 215 94z" />
    <glyph glyph-name="e" unicode="e" horiz-adv-x="1071" 
d="M762 551q0 86 -57 141.5t-154 55.5q-102 0 -162 -53t-80 -148h453v4zM317 389q15 -102 90.5 -158.5t186.5 -56.5q97 0 172 35q32 14 53 14q47 0 74 -43q14 -24 14 -45q0 -53 -47 -80q-132 -78 -291 -78q-223 0 -359 133t-136 351q0 100 34 188.5t95.5 153.5t154 103
t203.5 38q183 0 309.5 -119.5t126.5 -308.5v-43q-4 -40 -29 -62t-63 -22h-588z" />
    <glyph glyph-name="f" unicode="f" horiz-adv-x="675" 
d="M377 700v-602q0 -47 -34 -80.5t-83 -33.5q-51 0 -85 33t-34 81v973q0 189 86 287t242 98q227 0 227 -117q0 -108 -116 -108q-15 0 -40.5 3t-37.5 3q-59 0 -92 -48t-33 -136v-131h135q47 0 81 -33t34 -78t-34 -78t-81 -33h-135z" />
    <glyph glyph-name="g" unicode="g" horiz-adv-x="1036" 
d="M467 223q0 -29 18 -47q104 0 190.5 -18.5t153 -54.5t103.5 -94t37 -134q0 -100 -65 -169t-171 -100.5t-244 -31.5q-139 0 -244 30.5t-170 99.5t-65 171q0 111 80.5 183.5t218.5 101.5q-16 29 -16 63q0 40 20 66q-103 41 -161 124t-58 185q0 144 108 245t285 101
q136 0 236 -65l186 41q8 2 23 2q33 0 59 -20t33 -52q2 -6 2 -19q0 -33 -20.5 -59.5t-53.5 -32.5l-96 -22q23 -61 23 -119q0 -143 -110.5 -241.5t-289.5 -98.5q-12 -12 -12 -35zM229 -125q0 -54 69.5 -83.5t190.5 -29.5q122 0 190.5 29t68.5 84q0 52 -67 82.5t-192 30.5
q-124 0 -192 -30.5t-68 -82.5zM315 598q0 -66 47 -107.5t125 -41.5q76 0 124 40.5t48 108.5q0 67 -46 111.5t-126 44.5q-77 0 -124.5 -45.5t-47.5 -110.5z" />
    <glyph glyph-name="h" unicode="h" horiz-adv-x="1118" 
d="M367 633v-535q0 -47 -34 -80.5t-83 -33.5q-51 0 -85 33t-34 81v1221q0 48 34 81.5t85 33.5q49 0 83 -33.5t34 -81.5v-481q46 44 116.5 72t147.5 28q178 0 278.5 -97.5t100.5 -305.5v-437q0 -47 -34 -80.5t-83 -33.5q-51 0 -85 33t-34 81v406q0 102 -54 157.5t-151 55.5
q-118 0 -202 -84z" />
    <glyph glyph-name="i" unicode="i" horiz-adv-x="567" 
d="M401 821v-723q0 -48 -33.5 -81t-82.5 -33q-51 0 -85 33t-34 81v723q0 48 34 81.5t85 33.5q49 0 82.5 -33.5t33.5 -81.5zM289 1391q54 0 94.5 -38.5t40.5 -99.5q0 -67 -40.5 -107t-94.5 -40q-63 0 -105.5 39.5t-42.5 107.5q0 61 43 99.5t105 38.5z" />
    <glyph glyph-name="j" unicode="j" horiz-adv-x="606" 
d="M203 -47v868q0 48 34 81.5t85 33.5q49 0 82.5 -33.5t33.5 -81.5v-889q0 -358 -288 -358q-83 0 -140 30.5t-57 96.5t57 84q16 6 45 6h35q113 0 113 162zM328 1391q54 0 94.5 -38.5t40.5 -99.5q0 -67 -40.5 -107t-94.5 -40q-63 0 -105.5 39.5t-42.5 107.5q0 61 43 99.5
t105 38.5z" />
    <glyph glyph-name="k" unicode="k" horiz-adv-x="1011" 
d="M700 47l-282 371q-21 27 -21 65q0 35 21 62l246 327q48 64 110 64q53 0 83 -32.5t30 -76.5q0 -39 -27 -73l-209 -254l252 -324q29 -40 29 -78q0 -46 -32.5 -80t-84.5 -34q-68 0 -115 63zM367 1319v-1221q0 -47 -34 -80.5t-83 -33.5q-51 0 -85 33t-34 81v1221
q0 48 34 81.5t85 33.5q49 0 83 -33.5t34 -81.5z" />
    <glyph glyph-name="l" unicode="l" horiz-adv-x="612" 
d="M367 1319v-969q0 -145 86 -145h34q34 0 48 -6q57 -20 57 -84q0 -70 -56 -100.5t-167 -30.5q-238 0 -238 270v1065q0 48 34 81.5t85 33.5q49 0 83 -33.5t34 -81.5z" />
    <glyph glyph-name="m" unicode="m" horiz-adv-x="1638" 
d="M367 821q50 54 126 85.5t162 31.5q102 0 172.5 -40.5t96.5 -106.5q113 147 311 147q295 0 295 -336v-504q0 -47 -34 -80.5t-83 -33.5q-51 0 -85 33t-34 81v443q0 88 -37.5 132t-119.5 44q-64 0 -115 -29t-76 -78q0 -6 1 -31t1 -36v-445q0 -47 -34 -80.5t-83 -33.5
q-51 0 -84.5 33t-33.5 81v459q0 73 -40 116.5t-114 43.5q-125 0 -192 -99v-520q0 -47 -34 -80.5t-83 -33.5q-51 0 -85 33t-34 81v709q0 59 33 94t88 35q50 0 82.5 -31.5t32.5 -83.5z" />
    <glyph glyph-name="n" unicode="n" horiz-adv-x="1118" 
d="M252 936q49 0 82 -31t33 -74q44 46 114.5 76.5t149.5 30.5q379 0 379 -397v-443q0 -47 -34 -80.5t-83 -33.5q-51 0 -85 33t-34 81v402q0 108 -53.5 162.5t-153.5 54.5q-112 0 -200 -88v-531q0 -47 -34 -80.5t-83 -33.5q-51 0 -85 33t-34 81v709q0 59 33 94t88 35z" />
    <glyph glyph-name="o" unicode="o" horiz-adv-x="1150" 
d="M74 461q0 210 138 346.5t363 136.5q226 0 364 -136.5t138 -346.5t-138.5 -347t-363.5 -137t-363 137t-138 347zM326 461q0 -115 70.5 -189.5t178.5 -74.5q110 0 181 72.5t71 191.5q0 116 -71.5 189t-180.5 73q-107 0 -178 -72t-71 -190z" />
    <glyph glyph-name="p" unicode="p" horiz-adv-x="1142" 
d="M367 623v-373q81 -53 194 -53q120 0 189 76.5t69 195.5q0 113 -63.5 183.5t-177.5 70.5q-121 0 -211 -100zM131 -295v1098q0 64 32.5 98.5t88.5 34.5q49 0 82 -28.5t33 -71.5q45 47 121.5 77.5t162.5 30.5q188 0 303 -131.5t115 -337.5q0 -214 -134.5 -356t-352.5 -142
q-136 0 -215 46v-318q0 -48 -34 -81.5t-83 -33.5q-51 0 -85 33.5t-34 81.5z" />
    <glyph glyph-name="q" unicode="q" horiz-adv-x="1144" 
d="M1016 733v-1028q0 -48 -34 -81.5t-83 -33.5q-51 0 -85 33.5t-34 81.5v342q-109 -70 -227 -70q-220 0 -349.5 132t-129.5 352q0 204 149 343.5t379 139.5q167 0 311 -59q103 -44 103 -152zM780 281v397q-92 45 -180 45q-129 0 -201.5 -78.5t-72.5 -193.5
q0 -111 70.5 -182.5t187.5 -71.5q55 0 108.5 23.5t87.5 60.5z" />
    <glyph glyph-name="r" unicode="r" horiz-adv-x="714" 
d="M252 936q49 0 82 -29.5t33 -72.5q39 51 85.5 79.5t122.5 28.5q45 0 83 -26t38 -80q0 -59 -34 -90t-113 -31q-5 0 -16 1t-17 1h-14q-51 0 -82 -26.5t-53 -72.5v-520q0 -47 -34 -80.5t-83 -33.5q-51 0 -85 33t-34 81v709q0 60 32.5 94.5t88.5 34.5z" />
    <glyph glyph-name="s" unicode="s" horiz-adv-x="868" 
d="M70 162q0 34 20 57q30 37 74 37q29 0 67 -23q92 -59 213 -59q53 0 87 22.5t34 63.5q0 34 -37 58.5t-92 38t-119.5 36t-119.5 50.5t-92 85t-37 136q0 131 95 205.5t243 74.5q162 0 280 -70q49 -30 49 -79q0 -26 -12 -47q-26 -48 -82 -48q-26 0 -55 13q-78 35 -168 35
q-52 0 -83.5 -24t-31.5 -56q0 -31 27.5 -53t71.5 -36t97 -28t106 -35t97 -49.5t71.5 -78.5t27.5 -116q0 -136 -101.5 -215.5t-271.5 -79.5q-192 0 -319 105q-39 33 -39 80z" />
    <glyph glyph-name="t" unicode="t" horiz-adv-x="710" 
d="M561 209q46 0 70 -27.5t24 -66.5q0 -61 -63 -95q-76 -40 -195 -40q-152 0 -219 93t-67 277v713q0 48 34 81.5t84 33.5q49 0 83 -33.5t34 -81.5v-141h182q47 0 81 -33t34 -78t-34 -78t-81 -33h-182v-335q0 -166 107 -166q28 0 62 5t46 5z" />
    <glyph glyph-name="u" unicode="u" horiz-adv-x="1095" 
d="M729 309v512q0 48 34 81.5t85 33.5q49 0 83 -33.5t34 -81.5v-723q0 -48 -34 -81t-85 -33q-52 0 -84.5 35t-32.5 94q-47 -59 -121.5 -97.5t-173.5 -38.5q-143 0 -233 96t-90 285v463q0 48 34 81.5t84 33.5q49 0 83 -33.5t34 -81.5v-413q0 -211 176 -211q58 0 112.5 29.5
t94.5 82.5z" />
    <glyph glyph-name="v" unicode="v" horiz-adv-x="956" 
d="M424 526q46 -101 70 -209q27 119 67 213l135 332q14 34 43.5 54t67.5 20q47 0 79 -33t32 -78q0 -22 -9 -43l-307 -714q-36 -84 -117 -84q-80 0 -120 84l-314 686q-12 27 -12 57q0 53 35.5 89t95.5 36q78 0 115 -86z" />
    <glyph glyph-name="w" unicode="w" horiz-adv-x="1449" 
d="M1014 422q17 -50 35 -127q17 93 28 133l115 416q11 41 40 66.5t71 25.5q50 0 81 -28.5t31 -73.5q0 -14 -8 -46l-219 -702q-14 -47 -49 -74.5t-84 -27.5q-102 0 -142 100l-161 424q-6 16 -11.5 34t-11 40.5t-8.5 33.5q-10 -51 -33 -112l-160 -420q-38 -100 -133 -100
q-97 0 -131 102l-223 688q-6 21 -6 41q0 49 32 85t89 36q87 0 112 -90l125 -426q14 -51 27 -123q22 87 35 123l143 411q37 105 133 105q98 0 135 -105z" />
    <glyph glyph-name="x" unicode="x" horiz-adv-x="978" 
d="M336 870l162 -254l168 254q46 66 108 66q51 0 80 -30t29 -72q0 -37 -23 -70l-196 -283l210 -311q23 -36 23 -74q0 -46 -31 -79t-82 -33q-67 0 -112 65l-183 283l-190 -283q-45 -65 -111 -65q-51 0 -78.5 29.5t-27.5 72.5q0 36 22 72l218 311l-191 281q-20 33 -20 71
q0 46 31.5 80.5t86.5 34.5q64 0 107 -66z" />
    <glyph glyph-name="y" unicode="y" horiz-adv-x="993" 
d="M483 418q16 -41 45 -133q16 84 33 135l141 428q29 88 119 88q58 0 90.5 -32t32.5 -81q0 -29 -12 -63l-299 -760q-66 -169 -123.5 -259.5t-109.5 -120.5t-124 -30q-69 0 -120 23q-66 28 -66 100q0 40 25 69.5t71 29.5q12 0 34 -2.5t32 -2.5h12q71 3 127 144l21 49
l-349 752q-14 32 -14 59q0 52 37 88.5t102 36.5q34 0 64.5 -24.5t46.5 -61.5z" />
    <glyph glyph-name="z" unicode="z" horiz-adv-x="972" 
d="M199 0q-52 0 -82.5 29.5t-30.5 79.5t51 104l441 487h-353q-44 0 -76 32.5t-32 78.5t32 78.5t76 32.5h574q52 0 82 -31.5t30 -77.5q0 -51 -49 -104l-440 -490h375q44 0 76 -32t32 -76q0 -46 -32 -78.5t-76 -32.5h-598z" />
    <glyph glyph-name="braceleft" unicode="{" horiz-adv-x="718" 
d="M135 328q-64 50 -85 75.5t-21 59.5t21 59.5t85 73.5q76 59 76 192v230q0 162 73 237.5t248 75.5h33q58 0 91.5 -30.5t33.5 -81.5q0 -46 -30 -77.5t-80 -31.5q-74 0 -104 -37.5t-30 -136.5v-240q0 -99 -41.5 -161.5t-111.5 -71.5q70 -9 111.5 -72t41.5 -162v-239
q0 -99 30 -136.5t104 -37.5q50 0 80 -31.5t30 -77.5q0 -51 -33.5 -82t-91.5 -31h-33q-175 0 -248 76t-73 238v229q0 133 -76 191z" />
    <glyph glyph-name="bar" unicode="|" horiz-adv-x="694" 
d="M465 1319v-1221q0 -47 -34 -80.5t-83 -33.5q-51 0 -85 33t-34 81v1221q0 48 34 81.5t85 33.5q49 0 83 -33.5t34 -81.5z" />
    <glyph glyph-name="braceright" unicode="}" horiz-adv-x="718" 
d="M584 596q64 -48 85 -73.5t21 -59.5t-21 -59.5t-85 -75.5q-76 -58 -76 -191v-229q0 -162 -73.5 -238t-248.5 -76h-32q-58 0 -91.5 31t-33.5 82q0 46 30 77.5t80 31.5q73 0 103 37.5t30 136.5v239q0 99 42 162t112 72q-70 9 -112 71.5t-42 161.5v240q0 99 -30 136.5
t-103 37.5q-50 0 -80 31.5t-30 77.5q0 51 33.5 81.5t91.5 30.5h32q175 0 248.5 -75.5t73.5 -237.5v-230q0 -133 76 -192z" />
    <glyph glyph-name="asciitilde" unicode="~" 
d="M1124 676q-123 -115 -264 -115q-55 0 -121 22t-117.5 48.5t-113.5 48.5t-109 22q-75 0 -149 -53q-45 -33 -86 -33q-36 0 -64 25q-26 23 -26 64q0 34 22 59q64 71 141.5 106t147.5 35q56 0 123 -22t118.5 -48.5t117 -48.5t118.5 -22q63 0 121 39q53 33 82 33q34 0 61 -31
q25 -28 25 -64q0 -38 -27 -65z" />
    <glyph glyph-name="uni00A0" unicode="&#xa0;" horiz-adv-x="434" 
 />
    <glyph glyph-name="exclamdown" unicode="&#xa1;" horiz-adv-x="632" 
d="M193 -385v698q0 53 36 89t88 36q53 0 89 -36t36 -89v-698q0 -53 -36 -89t-89 -36q-52 0 -88 36t-36 89zM475 780q0 -58 -45.5 -104.5t-118.5 -46.5q-63 0 -106 47t-43 104q0 65 42.5 114.5t106.5 49.5q73 0 118.5 -49t45.5 -115z" />
    <glyph glyph-name="cent" unicode="&#xa2;" horiz-adv-x="1157" 
d="M430 461q0 -119 78.5 -191.5t187.5 -72.5q90 0 152 36q42 25 82 25q48 0 82 -43q20 -26 20 -61q0 -56 -49 -93q-84 -62 -209 -79v-113q0 -48 -34 -81.5t-83 -33.5q-50 0 -84 33.5t-34 81.5v125q-167 37 -264 161t-97 306q0 172 99.5 302t261.5 167v110q0 48 34 81.5
t84 33.5q49 0 83 -33.5t34 -81.5v-104q71 -10 141 -41q34 -15 54 -41.5t20 -56.5q0 -21 -14 -52q-29 -59 -94 -59q-28 0 -58 12q-70 25 -137 25q-103 0 -179.5 -72.5t-76.5 -189.5z" />
    <glyph glyph-name="sterling" unicode="&#xa3;" horiz-adv-x="1204" 
d="M1153 166q0 -57 -57 -98q-107 -76 -258 -76q-79 0 -233.5 53t-233.5 53q-67 0 -131 -45q-45 -28 -82 -28q-47 0 -82 43q-25 28 -25 65q0 50 35 80q73 60 139 88q68 106 68 242h-72q-44 0 -71 25.5t-27 70.5q0 42 27.5 67t70.5 25h33q-5 13 -28 68t-31.5 81t-18.5 76
t-10 99q0 169 130 282t333 113q197 0 334 -100q55 -42 55 -97q0 -35 -27 -69q-35 -43 -84 -43q-44 0 -92 28q-77 45 -176 45q-93 0 -150 -53.5t-57 -142.5q0 -49 15 -93.5t40 -98.5t37 -95h260q44 0 71.5 -25t27.5 -67q0 -45 -27.5 -70.5t-71.5 -25.5h-243
q-12 -110 -82 -217q46 -9 178.5 -54t204.5 -45q66 0 125 29q41 20 80 20q55 0 83 -43q23 -33 23 -67z" />
    <glyph glyph-name="currency" unicode="&#xa4;" horiz-adv-x="1157" 
d="M88 356l90 90q-69 112 -69 254q0 144 71 256l-86 91q-28 31 -28 71q0 44 28 72q29 29 72 29q46 0 72 -29l88 -90q111 65 254 65q140 0 251 -65l95 92q29 29 71 29q46 0 72 -29q29 -26 29 -72q0 -42 -29 -71l-90 -91q74 -120 74 -258q0 -141 -72 -254l86 -84
q29 -26 29 -71q0 -43 -29 -72q-31 -31 -74 -31q-42 0 -71 29l-86 86q-109 -67 -256 -67t-256 67l-91 -92q-29 -29 -69 -29q-43 0 -74 31t-31 74q0 40 29 69zM580 440q119 0 185 74t66 186q0 117 -67 189t-184 72q-115 0 -183.5 -72.5t-68.5 -188.5q0 -110 68.5 -185
t183.5 -75z" />
    <glyph glyph-name="yen" unicode="&#xa5;" horiz-adv-x="1157" 
d="M698 240v-131q0 -53 -36 -89t-89 -36q-54 0 -89 36t-35 89v131h-254q-39 0 -67 28t-28 68q0 38 28.5 66t66.5 28h254v168h-254q-39 0 -67 28t-28 68q0 38 28.5 66t66.5 28h147l-260 472q-14 25 -14 59q0 51 35 88t90 37q34 0 64.5 -18.5t45.5 -49.5l281 -542l278 542
q15 31 44.5 49.5t64.5 18.5q51 0 85 -32.5t34 -78.5q0 -33 -17 -61l-270 -484h153q38 0 66.5 -28t28.5 -66q0 -40 -28.5 -68t-66.5 -28h-258v-168h258q38 0 66.5 -28t28.5 -66q0 -40 -28.5 -68t-66.5 -28h-258z" />
    <glyph glyph-name="brokenbar" unicode="&#xa6;" horiz-adv-x="694" 
d="M229 1319q0 48 34 81.5t85 33.5q49 0 83 -33.5t34 -81.5v-303q0 -48 -34 -81.5t-83 -33.5q-51 0 -85 33.5t-34 81.5v303zM465 115q0 -48 -34 -81.5t-83 -33.5q-51 0 -85 33.5t-34 81.5v303q0 48 34 81t85 33q49 0 83 -33.5t34 -80.5v-303z" />
    <glyph glyph-name="section" unicode="&#xa7;" horiz-adv-x="1071" 
d="M414 -170q34 -20 75 -20q51 0 87 35t36 85q0 67 -36.5 114.5t-108.5 88.5q-166 20 -258 124t-92 253q0 124 65.5 218.5t184.5 135.5q-67 42 -107.5 114t-40.5 163q0 124 93 208.5t257 84.5q137 0 234 -86q37 -34 37 -76q0 -30 -21 -58q-35 -43 -80 -43q-29 0 -88 25
q-37 16 -73 16q-50 0 -86.5 -34.5t-36.5 -83.5q0 -122 147 -207q167 -20 259.5 -123t92.5 -254q0 -124 -64 -219t-183 -135q64 -43 102.5 -113.5t38.5 -159.5q0 -125 -92.5 -209t-257.5 -84q-145 0 -234 80q-37 30 -37 84q0 41 27 68q34 37 76 37q34 0 84 -29zM352 510
q0 -69 50 -122.5t135 -53.5q89 0 135.5 52t46.5 124q0 70 -48.5 123t-133.5 53t-135 -53t-50 -123z" />
    <glyph glyph-name="dieresis" unicode="&#xa8;" horiz-adv-x="907" 
d="M256 1090q-56 0 -94.5 36.5t-38.5 100.5q0 60 38.5 95.5t94.5 35.5q49 0 86 -36t37 -95q0 -63 -37 -100t-86 -37zM662 1090q-55 0 -93.5 37t-38.5 100q0 59 38.5 95t93.5 36q50 0 86 -36t36 -95q0 -63 -36 -100t-86 -37z" />
    <glyph glyph-name="copyright" unicode="&#xa9;" horiz-adv-x="2082" 
d="M147 453q0 185 69 350t188 284.5t285.5 189t352.5 69.5t352 -69.5t284.5 -189t187.5 -284.5t69 -350q0 -248 -117 -453t-322 -323.5t-454 -118.5t-454.5 118.5t-323 323.5t-117.5 453zM352 451q0 -187 89 -344.5t248.5 -251t354.5 -93.5q193 0 351.5 93.5t247 251
t88.5 344.5q0 141 -52.5 268t-142.5 220t-218.5 147.5t-273.5 54.5q-147 0 -276 -54.5t-220 -147.5t-143.5 -220t-52.5 -268zM1202 698q-70 25 -137 25q-103 0 -179.5 -72.5t-76.5 -189.5q0 -119 78.5 -191.5t187.5 -72.5q90 0 152 36q42 25 82 25q48 0 82 -43
q20 -26 20 -61q0 -56 -49 -93q-114 -84 -299 -84q-229 0 -367.5 133t-138.5 351q0 133 60 243.5t170 175t247 64.5q162 0 260 -49q34 -15 54 -41.5t20 -56.5q0 -21 -14 -52q-29 -59 -94 -59q-28 0 -58 12z" />
    <glyph glyph-name="ordfeminine" unicode="&#xaa;" horiz-adv-x="911" 
d="M356 1079q130 0 217 -43q-8 138 -149 138q-51 0 -117 -15q-12 -4 -35 -4q-58 0 -77 51q-5 10 -5 27q0 51 58 74q113 41 227 41q58 0 111 -17t96.5 -50t69.5 -87.5t26 -124.5v-354q0 -40 -27.5 -68.5t-72.5 -28.5q-48 0 -76.5 28.5t-28.5 68.5q-42 -47 -99.5 -72
t-154.5 -25q-101 0 -164 65t-63 159q0 116 69 176.5t195 60.5zM573 907q-78 29 -145 29q-57 0 -87 -20t-30 -52t28.5 -51.5t84.5 -19.5q73 0 149 51v63z" />
    <glyph glyph-name="guillemotleft" unicode="&#xab;" horiz-adv-x="1099" 
d="M778 512l215 -254q27 -34 27 -72q0 -48 -35 -75q-26 -23 -65 -23q-56 0 -86 37l-261 307q-28 36 -28 80t28 80l269 307q30 37 82 37q42 0 69 -27q31 -28 31 -69t-29 -78zM309 512l215 -254q27 -34 27 -72q0 -48 -35 -75q-26 -23 -65 -23q-56 0 -86 37l-261 307
q-28 36 -28 80t28 80l269 307q30 37 82 37q42 0 69 -27q31 -28 31 -69t-29 -78z" />
    <glyph glyph-name="logicalnot" unicode="&#xac;" 
d="M911 469v166h-704q-43 0 -73 29.5t-30 72.5t30 73t73 30h807q43 0 72.5 -30t29.5 -73v-268q0 -43 -29.5 -72.5t-72.5 -29.5t-73 29.5t-30 72.5z" />
    <glyph glyph-name="uni00AD" unicode="&#xad;" horiz-adv-x="770" 
d="M539 670q43 0 73.5 -31.5t30.5 -77.5q0 -47 -30.5 -78.5t-73.5 -31.5h-308q-43 0 -73.5 31.5t-30.5 78.5q0 46 30.5 77.5t73.5 31.5h308z" />
    <glyph glyph-name="registered" unicode="&#xae;" horiz-adv-x="1357" 
d="M666 918h-56v-105q0 -31 -23 -53.5t-55 -22.5q-33 0 -56 22.5t-23 53.5v422q0 31 22 53.5t53 22.5h164q118 0 176 -51t58 -140q0 -59 -32 -104.5t-77 -61.5l70 -92q18 -23 18 -53t-22.5 -51t-55.5 -21q-46 0 -79 54zM610 1030h60q45 0 70.5 25.5t25.5 62.5q0 80 -96 80
h-60v-168zM678 426q-161 0 -296 79.5t-212.5 214.5t-77.5 294q0 160 77 295t212 214t297 79q164 0 299 -79t211 -214t76 -295q0 -159 -77 -294t-212 -214.5t-297 -79.5zM678 614q166 0 281.5 117.5t115.5 282.5t-114.5 282t-282.5 117q-169 0 -283 -116.5t-114 -282.5
q0 -165 115.5 -282.5t281.5 -117.5z" />
    <glyph glyph-name="macron" unicode="&#xaf;" horiz-adv-x="817" 
d="M600 1315q38 0 66 -28t28 -66t-28 -66.5t-66 -28.5h-383q-38 0 -66 28.5t-28 66.5t28 66t66 28h383z" />
    <glyph glyph-name="degree" unicode="&#xb0;" horiz-adv-x="870" 
d="M432 823q-141 0 -240.5 98t-99.5 242q0 148 99.5 247t240.5 99q145 0 245.5 -94t100.5 -239q0 -146 -101.5 -249.5t-244.5 -103.5zM434 1305q-56 0 -96.5 -40.5t-40.5 -97.5t40.5 -98t96.5 -41q57 0 98 41t41 98t-41 97.5t-98 40.5z" />
    <glyph glyph-name="plusminus" unicode="&#xb1;" 
d="M719 717q0 -43 -32 -74t-79 -31t-78.5 31t-31.5 74v106h-258q-43 0 -74 31t-31 72t31 71.5t74 30.5h258v266q0 43 31.5 74t78.5 31t79 -31t32 -74v-266h262q43 0 73.5 -30.5t30.5 -71.5q0 -42 -30.5 -72.5t-73.5 -30.5h-262v-106zM240 522h741q43 0 73.5 -30.5
t30.5 -71.5q0 -42 -30.5 -72.5t-73.5 -30.5h-741q-43 0 -74 31t-31 72t31 71.5t74 30.5z" />
    <glyph glyph-name="twosuperior" unicode="&#xb2;" horiz-adv-x="747" 
d="M598 891q37 0 62.5 -25.5t25.5 -60.5q0 -37 -25.5 -62.5t-62.5 -25.5h-457q-36 0 -58 24t-22 58q0 20 5 34t23.5 30t26.5 21.5t42 26.5q276 171 276 277q0 37 -24 58.5t-64 21.5q-42 0 -82 -45q-32 -37 -80 -37q-24 0 -39 6q-24 8 -41.5 31t-17.5 53q0 27 10 47
q28 57 98 88t173 31q137 0 211.5 -62.5t74.5 -165.5q0 -51 -24 -98.5t-57 -80.5t-80 -64t-80.5 -47.5t-71.5 -32.5h258z" />
    <glyph glyph-name="threesuperior" unicode="&#xb3;" horiz-adv-x="718" 
d="M623 1264q0 -65 -42.5 -109t-115.5 -59q87 -7 134.5 -55t47.5 -117q0 -99 -90.5 -159t-218.5 -60q-165 0 -270 94q-27 27 -27 61q0 31 22 53q22 25 56 25q32 0 71 -27q54 -41 113 -41q62 0 93.5 20t31.5 52q0 29 -29.5 47.5t-91.5 18.5q-32 0 -53 19.5t-21 53.5
q0 33 21 51.5t53 18.5q42 0 68 19.5t26 50.5q0 27 -24.5 43t-67.5 16q-60 0 -114 -35q-27 -18 -54 -18q-34 0 -57 26q-16 19 -16 45q0 41 36 70q97 78 246 78q121 0 197 -49.5t76 -132.5z" />
    <glyph glyph-name="acute" unicode="&#xb4;" horiz-adv-x="645" 
d="M168 1229l125 194q21 35 65 35q28 0 48 -14l49 -37q30 -21 30 -64q0 -30 -18 -51l-148 -170q-27 -30 -69 -30q-29 0 -55 16q-39 26 -39 76q0 24 12 45z" />
    <glyph glyph-name="mu" unicode="&#xb5;" horiz-adv-x="1103" 
d="M743 309v512q0 48 34 81.5t85 33.5q49 0 83 -33.5t34 -81.5v-723q0 -48 -34 -81t-85 -33q-52 0 -84.5 35t-32.5 94q-110 -136 -294 -136q-39 0 -89 11v-283q0 -48 -33.5 -81.5t-82.5 -33.5q-51 0 -85 33.5t-34 81.5v1116q0 48 34 81.5t85 33.5q49 0 82.5 -33.5
t33.5 -81.5v-432q0 -90 44 -141t133 -51q58 0 112 29.5t94 82.5z" />
    <glyph glyph-name="mu" unicode="&#x3bc;" horiz-adv-x="1103" 
d="M743 309v512q0 48 34 81.5t85 33.5q49 0 83 -33.5t34 -81.5v-723q0 -48 -34 -81t-85 -33q-52 0 -84.5 35t-32.5 94q-110 -136 -294 -136q-39 0 -89 11v-283q0 -48 -33.5 -81.5t-82.5 -33.5q-51 0 -85 33.5t-34 81.5v1116q0 48 34 81.5t85 33.5q49 0 82.5 -33.5
t33.5 -81.5v-432q0 -90 44 -141t133 -51q58 0 112 29.5t94 82.5z" />
    <glyph glyph-name="paragraph" unicode="&#xb6;" horiz-adv-x="1005" 
d="M307 -201q24 -6 55 -6q91 0 127.5 62t36.5 170v514q-88 1 -168.5 31.5t-143.5 86t-100.5 141t-37.5 187.5q0 205 127.5 327t326.5 122h314q44 0 77 -33.5t33 -77.5t-33 -77.5t-77 -33.5h-82v-1196q0 -219 -97 -330.5t-286 -111.5q-89 0 -172 39q-25 11 -47.5 37t-22.5 59
q0 22 8 41q25 62 91 62q24 0 71 -13z" />
    <glyph glyph-name="periodcentered" unicode="&#xb7;" horiz-adv-x="434" 
d="M223 770q63 0 106.5 -47.5t43.5 -104.5q0 -65 -43 -114t-107 -49q-74 0 -119 48.5t-45 114.5q0 58 45.5 105t118.5 47z" />
    <glyph glyph-name="cedilla" unicode="&#xb8;" horiz-adv-x="774" 
d="M438 -70q104 -7 158.5 -52.5t54.5 -123.5q0 -81 -73.5 -130.5t-208.5 -49.5q-111 0 -193 49q-31 21 -31 60q0 14 7 28q18 35 59 35q21 0 37 -8q51 -21 88 -21q35 0 57.5 14t22.5 38q0 36 -31 47q-38 15 -52 36t-14 62v127h119v-111z" />
    <glyph glyph-name="onesuperior" unicode="&#xb9;" horiz-adv-x="534" 
d="M190 1200l-28 -18q-23 -13 -45 -13q-44 0 -68 31q-14 20 -14 47q0 45 35 66l139 92q35 24 56 32.5t48 8.5q38 0 60 -24t22 -62v-555q0 -41 -27.5 -69.5t-74.5 -28.5t-75 29t-28 69v395z" />
    <glyph glyph-name="ordmasculine" unicode="&#xba;" horiz-adv-x="1019" 
d="M510 616q-176 0 -290 102t-114 265q0 164 113.5 264.5t290.5 100.5t290 -100.5t113 -264.5q0 -163 -113.5 -265t-289.5 -102zM510 1157q-78 0 -130 -48t-52 -126q0 -80 52.5 -128t129.5 -48q81 0 132.5 48t51.5 128q0 78 -52.5 126t-131.5 48z" />
    <glyph glyph-name="guillemotright" unicode="&#xbb;" horiz-adv-x="1099" 
d="M547 838q0 42 33 71q28 25 69 25q50 0 80 -35l268 -307q29 -33 29 -82t-29 -82l-260 -303q-30 -37 -80 -37q-41 0 -69 25q-35 27 -35 77q0 37 25 68l215 254l-218 250q-28 36 -28 76zM76 838q0 42 33 71q28 25 69 25q50 0 80 -35l268 -307q29 -33 29 -82t-29 -82
l-260 -303q-30 -37 -80 -37q-41 0 -69 25q-35 27 -35 77q0 38 24 68l216 254l-218 250q-28 36 -28 76z" />
    <glyph glyph-name="onequarter" unicode="&#xbc;" horiz-adv-x="1411" 
d="M201 1200l-29 -18q-23 -13 -45 -13q-44 0 -68 31q-14 20 -14 47q0 45 35 66l139 92q34 24 56 32.5t49 8.5q38 0 60 -24t22 -62v-555q0 -40 -28 -69t-75 -29t-74.5 28.5t-27.5 69.5v395zM1198 1296l-942 -1259q-30 -37 -74 -37q-25 0 -47 16q-31 25 -31 64q0 27 17 51
l944 1266q22 28 59 28q27 0 54 -18q34 -24 34 -66q0 -28 -14 -45zM1247 143v-59q0 -38 -28 -66t-66 -28t-66 28t-28 66v59h-301q-38 0 -66 28.5t-28 66.5q0 8 1.5 16t3 14t5.5 14.5t6.5 13.5t9.5 14.5t10 13.5t11.5 16t11.5 16l215 301q19 27 28 37.5t26.5 20.5t39.5 10
q32 0 54 -20.5t22 -51.5q0 -29 -21 -59l-210 -291h182v64q0 38 28 66t66 28t66 -28t28 -66v-64q46 0 74.5 -19.5t28.5 -56.5q0 -38 -28.5 -61t-74.5 -23z" />
    <glyph glyph-name="onehalf" unicode="&#xbd;" horiz-adv-x="1417" 
d="M201 1200l-29 -18q-23 -13 -45 -13q-44 0 -68 31q-14 20 -14 47q0 45 35 66l139 92q34 24 56 32.5t49 8.5q38 0 60 -24t22 -62v-555q0 -40 -28 -69t-75 -29t-74.5 28.5t-27.5 69.5v395zM1178 1296l-942 -1259q-30 -37 -74 -37q-25 0 -47 16q-31 25 -31 64q0 29 16 51
l944 1266q22 28 60 28q26 0 53 -18q35 -24 35 -66q0 -28 -14 -45zM1268 174q37 0 62.5 -25.5t25.5 -60.5q0 -37 -25.5 -62.5t-62.5 -25.5h-457q-36 0 -58 24t-22 58q0 26 14 47t28.5 31.5t53.5 34.5q128 79 202.5 147.5t74.5 128.5q0 37 -24 58.5t-64 21.5q-42 0 -82 -45
q-32 -37 -80 -37q-24 0 -39 6q-24 8 -41.5 31t-17.5 53q0 27 10 47q28 57 98 88t172 31q137 0 212 -62t75 -165q0 -51 -24 -98.5t-57 -80.5t-80 -64.5t-81 -48t-71 -32.5h258z" />
    <glyph glyph-name="threequarters" unicode="&#xbe;" horiz-adv-x="1556" 
d="M1384 1296l-942 -1259q-30 -37 -73 -37q-25 0 -47 16q-31 25 -31 64q0 29 16 51l944 1266q22 28 60 28q26 0 53 -18q35 -24 35 -66q0 -27 -15 -45zM1393 143v-59q0 -38 -28.5 -66t-66.5 -28t-66 28t-28 66v59h-301q-38 0 -66 28.5t-28 66.5q0 8 1.5 16t3 14t5.5 14.5
t6.5 13.5t9.5 14.5t10 13.5t11.5 16t11.5 16l215 301q18 26 28 37t27.5 21t39.5 10q32 0 53.5 -20.5t21.5 -51.5q0 -30 -20 -59l-211 -291h182v64q0 38 28 66t66 28t66.5 -28t28.5 -66v-64q46 0 74 -19.5t28 -56.5q0 -38 -28 -61t-74 -23zM643 1264q0 -65 -42.5 -109
t-115.5 -59q88 -7 135.5 -55t47.5 -117q0 -99 -91 -159t-219 -60q-165 0 -270 94q-27 27 -27 61q0 30 23 53q22 25 55 25t72 -27q54 -41 113 -41q62 0 93.5 20t31.5 52q0 29 -29.5 47.5t-91.5 18.5q-32 0 -53 19.5t-21 53.5q0 33 21 51.5t53 18.5q42 0 68 19.5t26 50.5
q0 27 -24.5 43t-67.5 16q-61 0 -115 -35q-27 -18 -53 -18q-35 0 -58 26q-16 19 -16 45q0 40 37 70q97 78 246 78q120 0 196 -49.5t76 -132.5z" />
    <glyph glyph-name="questiondown" unicode="&#xbf;" horiz-adv-x="931" 
d="M371 285q46 46 64 73t30 68q25 76 106 76q53 0 80 -34.5t27 -80.5v-10q-3 -37 -16 -68.5t-34.5 -57t-44 -46t-51.5 -44.5q-3 -2 -5 -3.5t-4.5 -3.5t-4.5 -4q-8 -7 -37.5 -31t-38.5 -32.5t-31 -30t-30 -35.5t-20.5 -36t-16.5 -45.5t-4 -50.5q0 -73 55 -124.5t137 -51.5
q103 0 168 45q47 33 93 33t73 -35q27 -34 27 -67q0 -45 -41 -86q-53 -53 -140.5 -89t-193.5 -36q-198 0 -314 103.5t-116 256.5q0 63 13.5 117t33 90.5t51.5 72.5t59 58.5t65 54.5t61 54zM719 780q0 -58 -45.5 -104.5t-116.5 -46.5q-65 0 -108 47t-43 104q0 65 43 114.5
t108 49.5q72 0 117 -49t45 -115z" />
    <glyph glyph-name="Agrave" unicode="&#xc0;" horiz-adv-x="1411" 
d="M1006 350h-613l-121 -297q-26 -69 -108 -69q-50 0 -83.5 33.5t-33.5 80.5q0 22 10 45l510 1198q44 103 142 103q93 0 137 -103l508 -1194q10 -27 10 -49q0 -47 -34.5 -80.5t-82.5 -33.5q-93 0 -123 77zM700 1100l-211 -514h420zM512 1829l299 -154q45 -22 45 -73
q0 -13 -8 -33q-10 -23 -31.5 -36t-46.5 -13q-19 0 -29 4l-313 112q-23 7 -36 26.5t-13 43.5q0 17 6 29l27 59q19 43 65 43q22 0 35 -8z" />
    <glyph glyph-name="Aacute" unicode="&#xc1;" horiz-adv-x="1411" 
d="M1006 350h-613l-121 -297q-26 -69 -108 -69q-50 0 -83.5 33.5t-33.5 80.5q0 22 10 45l510 1198q44 103 142 103q93 0 137 -103l508 -1194q10 -27 10 -49q0 -47 -34.5 -80.5t-82.5 -33.5q-93 0 -123 77zM700 1100l-211 -514h420zM600 1673l303 158q13 8 33 8q46 0 65 -43
l27 -63q6 -12 6 -29q0 -22 -13 -40.5t-34 -25.5l-317 -116q-8 -4 -27 -4q-56 0 -78 51q-8 13 -8 35t11.5 41t31.5 28z" />
    <glyph glyph-name="Acircumflex" unicode="&#xc2;" horiz-adv-x="1411" 
d="M1006 350h-613l-121 -297q-26 -69 -108 -69q-50 0 -83.5 33.5t-33.5 80.5q0 22 10 45l510 1198q44 103 142 103q93 0 137 -103l508 -1194q10 -27 10 -49q0 -47 -34.5 -80.5t-82.5 -33.5q-93 0 -123 77zM700 1100l-211 -514h420zM702 1636l-208 -108q-15 -10 -41 -10
q-47 0 -70 36q-12 18 -12 43q0 44 35 68l231 143q30 21 68 21q33 0 65 -19l236 -145q34 -21 34 -66q0 -25 -14 -45q-26 -36 -72 -36q-26 0 -43 10z" />
    <glyph glyph-name="Atilde" unicode="&#xc3;" horiz-adv-x="1411" 
d="M1006 350h-613l-121 -297q-26 -69 -108 -69q-50 0 -83.5 33.5t-33.5 80.5q0 22 10 45l510 1198q44 103 142 103q93 0 137 -103l508 -1194q10 -27 10 -49q0 -47 -34.5 -80.5t-82.5 -33.5q-93 0 -123 77zM700 1100l-211 -514h420zM1065 1632q-117 -106 -223 -106
q-51 0 -142.5 45t-146.5 45q-35 0 -96 -37q-26 -16 -51 -16q-37 0 -64 34q-16 19 -16 48q0 41 28 63q115 94 211 94q52 0 102 -23t97.5 -46t93.5 -23q37 0 96 39q33 23 66 23q34 0 57 -29q19 -23 19 -49q0 -35 -31 -62z" />
    <glyph glyph-name="Adieresis" unicode="&#xc4;" horiz-adv-x="1411" 
d="M1006 350h-613l-121 -297q-26 -69 -108 -69q-50 0 -83.5 33.5t-33.5 80.5q0 22 10 45l510 1198q44 103 142 103q93 0 137 -103l508 -1194q10 -27 10 -49q0 -47 -34.5 -80.5t-82.5 -33.5q-93 0 -123 77zM700 1100l-211 -514h420zM475 1817q59 0 102.5 -35t43.5 -92
q0 -63 -43.5 -99.5t-102.5 -36.5q-67 0 -112.5 36t-45.5 100q0 58 45.5 92.5t112.5 34.5zM950 1817q60 0 103 -34.5t43 -92.5q0 -63 -43 -99.5t-103 -36.5q-67 0 -112 36t-45 100q0 58 45 92.5t112 34.5z" />
    <glyph glyph-name="Aring" unicode="&#xc5;" horiz-adv-x="1419" 
d="M272 53q-12 -31 -41.5 -50t-66.5 -19q-50 0 -83.5 33.5t-33.5 80.5q0 22 10 45l541 1284q-80 23 -127 76t-47 135q0 110 79.5 166t205.5 56q129 0 210.5 -56t81.5 -166q0 -80 -47 -134t-127 -77l535 -1271q10 -20 10 -52q0 -48 -33 -84t-82 -36q-44 0 -76.5 24t-45.5 58
l-123 301h-613zM707 1112l-211 -510h419zM598 1638q0 -47 31.5 -71.5t81.5 -24.5q52 0 84 24t32 72q0 47 -31.5 70t-84.5 23q-51 0 -82 -23t-31 -70z" />
    <glyph glyph-name="AE" unicode="&#xc6;" horiz-adv-x="1935" 
d="M1208 236h484q47 0 80.5 -34t33.5 -83q0 -51 -33 -85t-81 -34h-621q-47 0 -81 34t-34 81v256h-477l-227 -326q-45 -61 -117 -61q-46 0 -77 34t-31 80q0 37 22 68l869 1206q45 62 118 62h635q48 0 81.5 -34t33.5 -83q0 -51 -33.5 -85t-81.5 -34h-463v-356h402
q47 0 80.5 -34t33.5 -83q0 -51 -33 -85t-81 -34h-402v-370zM956 1053l-311 -447h311v447z" />
    <glyph glyph-name="Ccedilla" unicode="&#xc7;" horiz-adv-x="1320" 
d="M862 -68q228 -17 228 -178q0 -80 -72.5 -130t-200.5 -50q-83 0 -135.5 16t-99.5 48q-27 17 -27 51q0 18 10 35q19 32 58 32q18 0 34 -8q64 -31 103 -31q35 0 57.5 14t22.5 38q0 34 -35 49q-34 16 -48 34.5t-14 53.5v76q-295 28 -473 226.5t-178 508.5q0 155 48.5 289
t139.5 234.5t231.5 158t313.5 57.5q180 0 324 -74q78 -38 78 -106q0 -25 -17 -59q-34 -58 -100 -58q-34 0 -68 15q-110 47 -217 47q-204 0 -335.5 -137.5t-131.5 -366.5q0 -224 138 -364t358 -140q116 0 229 55q51 21 82 21q56 0 92 -47q21 -30 21 -66q0 -63 -57 -100
q-136 -92 -359 -99v-45z" />
    <glyph glyph-name="Egrave" unicode="&#xc8;" horiz-adv-x="1177" 
d="M451 236h483q48 0 81.5 -34t33.5 -83q0 -51 -33.5 -85t-81.5 -34h-621q-47 0 -80.5 34t-33.5 81v1204q0 47 33.5 81t80.5 34h600q48 0 81.5 -34t33.5 -83q0 -51 -33.5 -85t-81.5 -34h-462v-356h401q48 0 81.5 -34t33.5 -83q0 -51 -33.5 -85t-81.5 -34h-401v-370z
M438 1829l299 -154q45 -22 45 -73q0 -13 -8 -33q-10 -23 -31.5 -36t-46.5 -13q-18 0 -28 4l-314 112q-23 7 -36 26.5t-13 43.5q0 17 6 29l27 59q19 43 65 43q22 0 35 -8z" />
    <glyph glyph-name="Eacute" unicode="&#xc9;" horiz-adv-x="1177" 
d="M451 236h483q48 0 81.5 -34t33.5 -83q0 -51 -33.5 -85t-81.5 -34h-621q-47 0 -80.5 34t-33.5 81v1204q0 47 33.5 81t80.5 34h600q48 0 81.5 -34t33.5 -83q0 -51 -33.5 -85t-81.5 -34h-462v-356h401q48 0 81.5 -34t33.5 -83q0 -51 -33.5 -85t-81.5 -34h-401v-370z
M512 1673l303 158q13 8 33 8q46 0 65 -43l27 -63q6 -12 6 -29q0 -22 -13 -40.5t-34 -25.5l-317 -116q-8 -4 -27 -4q-56 0 -78 51q-8 13 -8 35t11.5 41t31.5 28z" />
    <glyph glyph-name="Ecircumflex" unicode="&#xca;" horiz-adv-x="1177" 
d="M451 236h483q48 0 81.5 -34t33.5 -83q0 -51 -33.5 -85t-81.5 -34h-621q-47 0 -80.5 34t-33.5 81v1204q0 47 33.5 81t80.5 34h600q48 0 81.5 -34t33.5 -83q0 -51 -33.5 -85t-81.5 -34h-462v-356h401q48 0 81.5 -34t33.5 -83q0 -51 -33.5 -85t-81.5 -34h-401v-370z
M610 1636l-209 -108q-15 -10 -41 -10q-46 0 -69 36q-12 18 -12 43q0 44 34 68l232 143q30 21 67 21q34 0 66 -19l235 -145q35 -21 35 -66q0 -25 -14 -45q-26 -36 -72 -36q-26 0 -43 10z" />
    <glyph glyph-name="Edieresis" unicode="&#xcb;" horiz-adv-x="1177" 
d="M451 236h483q48 0 81.5 -34t33.5 -83q0 -51 -33.5 -85t-81.5 -34h-621q-47 0 -80.5 34t-33.5 81v1204q0 47 33.5 81t80.5 34h600q48 0 81.5 -34t33.5 -83q0 -51 -33.5 -85t-81.5 -34h-462v-356h401q48 0 81.5 -34t33.5 -83q0 -51 -33.5 -85t-81.5 -34h-401v-370z
M389 1817q59 0 102.5 -35t43.5 -92q0 -63 -43.5 -99.5t-102.5 -36.5q-67 0 -112.5 36t-45.5 100q0 58 45.5 92.5t112.5 34.5zM864 1817q60 0 103 -34.5t43 -92.5q0 -63 -43 -99.5t-103 -36.5q-67 0 -112 36t-45 100q0 58 45 92.5t112 34.5z" />
    <glyph glyph-name="Igrave" unicode="&#xcc;" horiz-adv-x="710" 
d="M481 1319v-1210q0 -53 -36.5 -89t-88.5 -36q-54 0 -90.5 36t-36.5 89v1210q0 53 36.5 89t90.5 36q52 0 88.5 -36t36.5 -89zM141 1829l299 -154q45 -22 45 -73q0 -13 -8 -33q-10 -23 -31.5 -36t-46.5 -13q-18 0 -28 4l-314 112q-23 7 -36 26.5t-13 43.5q0 17 6 29l27 59
q19 43 65 43q22 0 35 -8z" />
    <glyph glyph-name="Iacute" unicode="&#xcd;" horiz-adv-x="710" 
d="M481 1319v-1210q0 -53 -36.5 -89t-88.5 -36q-54 0 -90.5 36t-36.5 89v1210q0 53 36.5 89t90.5 36q52 0 88.5 -36t36.5 -89zM272 1673l303 158q13 8 33 8q21 0 39 -11.5t27 -31.5l26 -63q7 -14 7 -29q0 -22 -13 -40.5t-35 -25.5l-317 -116q-8 -4 -27 -4q-55 0 -77 51
q-9 15 -9 35q0 22 11.5 41t31.5 28z" />
    <glyph glyph-name="Icircumflex" unicode="&#xce;" horiz-adv-x="710" 
d="M481 1319v-1210q0 -53 -36.5 -89t-88.5 -36q-54 0 -90.5 36t-36.5 89v1210q0 53 36.5 89t90.5 36q52 0 88.5 -36t36.5 -89zM350 1636l-209 -108q-15 -10 -41 -10q-46 0 -69 36q-13 20 -13 43q0 44 35 68l232 143q30 21 67 21q34 0 66 -19l235 -145q35 -21 35 -66
q0 -25 -14 -45q-26 -36 -72 -36q-26 0 -43 10z" />
    <glyph glyph-name="Idieresis" unicode="&#xcf;" horiz-adv-x="710" 
d="M481 1319v-1210q0 -53 -36.5 -89t-88.5 -36q-54 0 -90.5 36t-36.5 89v1210q0 53 36.5 89t90.5 36q52 0 88.5 -36t36.5 -89zM123 1817q59 0 102 -35t43 -92q0 -63 -43 -99.5t-102 -36.5q-68 0 -113 36t-45 100q0 58 45.5 92.5t112.5 34.5zM598 1817q60 0 102.5 -34.5
t42.5 -92.5q0 -63 -42.5 -99.5t-102.5 -36.5q-68 0 -113 36t-45 100q0 58 45.5 92.5t112.5 34.5z" />
    <glyph glyph-name="Eth" unicode="&#xd0;" horiz-adv-x="1533" 
d="M621 -4q-57 0 -295 4q-46 0 -78.5 33t-32.5 80v495h-84q-44 0 -77.5 33.5t-33.5 77.5t33.5 77t77.5 33h84v492q0 47 32.5 80t78.5 35q58 0 167 2t144 2q167 0 303 -37.5t228.5 -102.5t155 -155.5t90.5 -194t28 -219.5q0 -122 -32.5 -231t-99.5 -201.5t-163 -159.5
t-231 -105t-295 -38zM465 608v-372q87 -5 164 -5q257 0 402 135t145 365q0 218 -144 345.5t-399 127.5q-83 0 -168 -6v-369h252q44 0 77 -33t33 -77t-33 -77.5t-77 -33.5h-252z" />
    <glyph glyph-name="Ntilde" unicode="&#xd1;" horiz-adv-x="1622" 
d="M1188 436v893q0 48 34 81.5t85 33.5q49 0 82.5 -33.5t33.5 -81.5v-1231q0 -48 -31.5 -81t-80.5 -33q-76 0 -135 75l-742 934v-895q0 -47 -34 -80.5t-83 -33.5q-51 0 -84.5 33t-33.5 81v1231q0 50 34 82.5t86 32.5q38 0 67 -16t60 -54zM1184 1632q-117 -106 -223 -106
q-51 0 -142.5 45t-146.5 45q-36 0 -97 -37q-26 -16 -51 -16q-36 0 -63 34q-17 20 -17 48q0 40 29 63q115 94 211 94q52 0 102 -23t97.5 -46t93.5 -23q37 0 96 39q33 23 66 23q34 0 57 -29q18 -22 18 -49q0 -36 -30 -62z" />
    <glyph glyph-name="Ograve" unicode="&#xd2;" horiz-adv-x="1677" 
d="M92 717q0 154 55 290.5t152.5 235.5t237 156t301.5 57q212 0 381.5 -91t267.5 -260t98 -388q0 -212 -97.5 -381.5t-268 -264t-381.5 -94.5q-212 0 -381.5 91t-267 260.5t-97.5 388.5zM358 717q0 -214 139 -359t341 -145q220 0 350.5 143t130.5 361q0 220 -138 362
t-343 142q-207 0 -343.5 -141.5t-136.5 -362.5zM684 1829l299 -154q45 -22 45 -73q0 -13 -8 -33q-10 -23 -31.5 -36t-46.5 -13q-19 0 -29 4l-313 112q-23 7 -36 26.5t-13 43.5q0 17 6 29l27 59q19 43 65 43q22 0 35 -8z" />
    <glyph glyph-name="Oacute" unicode="&#xd3;" horiz-adv-x="1677" 
d="M92 717q0 154 55 290.5t152.5 235.5t237 156t301.5 57q212 0 381.5 -91t267.5 -260t98 -388q0 -212 -97.5 -381.5t-268 -264t-381.5 -94.5q-212 0 -381.5 91t-267 260.5t-97.5 388.5zM358 717q0 -214 139 -359t341 -145q220 0 350.5 143t130.5 361q0 220 -138 362
t-343 142q-207 0 -343.5 -141.5t-136.5 -362.5zM748 1673l303 158q13 8 32 8q21 0 39 -11.5t27 -31.5l27 -63q6 -12 6 -29q0 -22 -13 -40.5t-34 -25.5l-318 -116q-8 -4 -26 -4q-56 0 -78 51q-8 13 -8 35t11.5 41t31.5 28z" />
    <glyph glyph-name="Ocircumflex" unicode="&#xd4;" horiz-adv-x="1677" 
d="M92 717q0 154 55 290.5t152.5 235.5t237 156t301.5 57q212 0 381.5 -91t267.5 -260t98 -388q0 -212 -97.5 -381.5t-268 -264t-381.5 -94.5q-212 0 -381.5 91t-267 260.5t-97.5 388.5zM358 717q0 -214 139 -359t341 -145q220 0 350.5 143t130.5 361q0 220 -138 362
t-343 142q-207 0 -343.5 -141.5t-136.5 -362.5zM840 1636l-209 -108q-15 -10 -41 -10q-47 0 -70 36q-12 18 -12 43q0 44 35 68l231 143q30 21 68 21q33 0 65 -19l236 -145q35 -21 35 -66q0 -24 -15 -45q-26 -36 -71 -36q-26 0 -43 10z" />
    <glyph glyph-name="Otilde" unicode="&#xd5;" horiz-adv-x="1677" 
d="M92 717q0 154 55 290.5t152.5 235.5t237 156t301.5 57q212 0 381.5 -91t267.5 -260t98 -388q0 -212 -97.5 -381.5t-268 -264t-381.5 -94.5q-212 0 -381.5 91t-267 260.5t-97.5 388.5zM358 717q0 -214 139 -359t341 -145q220 0 350.5 143t130.5 361q0 220 -138 362
t-343 142q-207 0 -343.5 -141.5t-136.5 -362.5zM1188 1632q-117 -106 -223 -106q-51 0 -142.5 45t-146.5 45q-35 0 -96 -37q-26 -16 -52 -16q-36 0 -63 34q-16 19 -16 48q0 41 28 63q115 94 211 94q52 0 102 -23t97.5 -46t93.5 -23q37 0 96 39q33 23 66 23q34 0 57 -29
q19 -23 19 -49q0 -35 -31 -62z" />
    <glyph glyph-name="Odieresis" unicode="&#xd6;" horiz-adv-x="1677" 
d="M92 717q0 154 55 290.5t152.5 235.5t237 156t301.5 57q212 0 381.5 -91t267.5 -260t98 -388q0 -212 -97.5 -381.5t-268 -264t-381.5 -94.5q-212 0 -381.5 91t-267 260.5t-97.5 388.5zM358 717q0 -214 139 -359t341 -145q220 0 350.5 143t130.5 361q0 220 -138 362
t-343 142q-207 0 -343.5 -141.5t-136.5 -362.5zM600 1817q59 0 102 -35t43 -92q0 -63 -43 -99.5t-102 -36.5q-68 0 -113 36t-45 100q0 58 45.5 92.5t112.5 34.5zM1075 1817q60 0 103 -34.5t43 -92.5q0 -63 -43 -99.5t-103 -36.5q-67 0 -112 36t-45 100q0 58 45 92.5
t112 34.5z" />
    <glyph glyph-name="multiply" unicode="&#xd7;" horiz-adv-x="1056" 
d="M190 545l193 192l-190 191q-29 29 -29 71q0 43 31 74q29 29 71 29q46 0 72 -29l190 -190l191 190q29 29 72 29q44 0 73 -29t29 -74q0 -42 -29 -71l-190 -191l192 -192q29 -26 29 -72q0 -43 -29 -72q-30 -30 -73 -30q-44 0 -72 28l-193 193l-192 -193q-28 -28 -70 -28
q-43 0 -73 30q-31 31 -31 74q0 42 28 70z" />
    <glyph glyph-name="Oslash" unicode="&#xd8;" horiz-adv-x="1677" 
d="M203 254l20 20q-131 186 -131 443q0 154 55 290.5t152.5 235.5t237 156t301.5 57q248 0 460 -133q33 33 78 33q39 0 66 -27q26 -26 26 -67q0 -46 -32 -74q149 -206 149 -471q0 -212 -97.5 -381.5t-268 -264t-381.5 -94.5q-282 0 -480 156l-18 -18q-30 -27 -66 -27
q-41 0 -69 31q-29 29 -29 69q0 42 27 66zM1243 997l-698 -682q124 -102 293 -102q220 0 350.5 143t130.5 361q0 154 -76 280zM418 465l692 674q-125 82 -272 82q-207 0 -343.5 -141.5t-136.5 -362.5q0 -138 60 -252z" />
    <glyph glyph-name="Ugrave" unicode="&#xd9;" horiz-adv-x="1536" 
d="M1108 645v674q0 53 36 89t89 36t89 -36t36 -89v-725q0 -128 -30.5 -232t-83.5 -175t-125.5 -119t-155.5 -69.5t-175 -21.5q-135 0 -246 40t-192.5 117.5t-126.5 198.5t-45 275v711q0 53 36.5 89t90.5 36q53 0 89 -36t36 -89v-657q0 -209 89 -329t269 -120q320 0 320 432z
M588 1829l299 -154q45 -22 45 -73q0 -13 -8 -33q-10 -23 -31.5 -36t-46.5 -13q-19 0 -29 4l-313 112q-23 7 -36 26.5t-13 43.5q0 17 6 29l26 59q9 20 27 31.5t39 11.5q22 0 35 -8z" />
    <glyph glyph-name="Uacute" unicode="&#xda;" horiz-adv-x="1536" 
d="M1108 645v674q0 53 36 89t89 36t89 -36t36 -89v-725q0 -128 -30.5 -232t-83.5 -175t-125.5 -119t-155.5 -69.5t-175 -21.5q-135 0 -246 40t-192.5 117.5t-126.5 198.5t-45 275v711q0 53 36.5 89t90.5 36q53 0 89 -36t36 -89v-657q0 -209 89 -329t269 -120q320 0 320 432z
M672 1673l303 158q13 8 33 8q46 0 65 -43l27 -63q6 -12 6 -29q0 -22 -13 -40.5t-34 -25.5l-318 -116q-8 -4 -26 -4q-56 0 -78 51q-8 13 -8 35t11.5 41t31.5 28z" />
    <glyph glyph-name="Ucircumflex" unicode="&#xdb;" horiz-adv-x="1536" 
d="M1108 645v674q0 53 36 89t89 36t89 -36t36 -89v-725q0 -128 -30.5 -232t-83.5 -175t-125.5 -119t-155.5 -69.5t-175 -21.5q-135 0 -246 40t-192.5 117.5t-126.5 198.5t-45 275v711q0 53 36.5 89t90.5 36q53 0 89 -36t36 -89v-657q0 -209 89 -329t269 -120q320 0 320 432z
M762 1636l-209 -108q-15 -10 -41 -10q-47 0 -70 36q-12 18 -12 43q0 44 35 68l231 143q30 21 68 21q33 0 65 -19l236 -145q35 -21 35 -66q0 -24 -15 -45q-26 -36 -71 -36q-26 0 -43 10z" />
    <glyph glyph-name="Udieresis" unicode="&#xdc;" horiz-adv-x="1536" 
d="M1108 645v674q0 53 36 89t89 36t89 -36t36 -89v-725q0 -128 -30.5 -232t-83.5 -175t-125.5 -119t-155.5 -69.5t-175 -21.5q-135 0 -246 40t-192.5 117.5t-126.5 198.5t-45 275v711q0 53 36.5 89t90.5 36q53 0 89 -36t36 -89v-657q0 -209 89 -329t269 -120q320 0 320 432z
M522 1817q59 0 102.5 -35t43.5 -92q0 -63 -43.5 -99.5t-102.5 -36.5q-67 0 -112 36t-45 100q0 58 45 92.5t112 34.5zM997 1817q60 0 103 -34.5t43 -92.5q0 -63 -43 -99.5t-103 -36.5q-67 0 -112 36t-45 100q0 58 45 92.5t112 34.5z" />
    <glyph glyph-name="Yacute" unicode="&#xdd;" horiz-adv-x="1226" 
d="M303 1368l318 -534l313 534q45 76 117 76q53 0 82.5 -32.5t29.5 -76.5q0 -34 -20 -67l-408 -670v-489q0 -53 -36.5 -89t-88.5 -36q-54 0 -90.5 36t-36.5 89v489l-399 659q-21 40 -21 70q0 48 33.5 82.5t91.5 34.5q68 0 115 -76zM516 1673l303 158q13 8 33 8
q21 0 39 -11.5t27 -31.5l26 -63q6 -12 6 -29q0 -22 -13 -40.5t-34 -25.5l-317 -116q-8 -4 -27 -4q-56 0 -78 51q-8 13 -8 35t11.5 41t31.5 28z" />
    <glyph glyph-name="Thorn" unicode="&#xde;" horiz-adv-x="1253" 
d="M606 1227q103 0 187.5 -17.5t144 -49.5t103.5 -74t70 -94.5t38 -107.5t12 -116q0 -93 -34.5 -176.5t-98.5 -148.5t-165.5 -103.5t-225.5 -38.5q-105 0 -186 8v-200q0 -53 -36.5 -89t-88.5 -36q-54 0 -90.5 36t-36.5 89v1210q0 53 36.5 89t90.5 36q52 0 88.5 -36t36.5 -89
v-96q16 0 77.5 2t77.5 2zM451 985v-438q98 -10 178 -10q119 0 192.5 59t73.5 174q0 109 -73 165t-212 56q-100 0 -159 -6z" />
    <glyph glyph-name="germandbls" unicode="&#xdf;" horiz-adv-x="1128" 
d="M471 127q0 27 16 55q20 39 70 39q24 0 51 -8q55 -16 76 -16q58 0 94.5 34.5t36.5 96.5q0 37 -18.5 70t-48 58t-65 50t-71 51.5t-65 55.5t-48 69.5t-18.5 87.5q0 59 17.5 106.5t42 77.5t49 56t42 55.5t17.5 62.5q0 46 -38 76.5t-95 30.5q-80 0 -117 -55.5t-37 -175.5v-906
q0 -48 -33.5 -81t-82.5 -33q-51 0 -85 33t-34 81v926q0 221 110 326.5t314 105.5q149 0 248.5 -82t99.5 -200q0 -57 -17 -101.5t-41.5 -72.5t-49 -53.5t-41.5 -58t-17 -71.5q0 -40 18.5 -72.5t48 -56.5t65 -47.5t71 -52t65 -63t48 -86.5t18.5 -117q0 -143 -92 -244
t-234 -101q-140 0 -227 70q-43 37 -43 80z" />
    <glyph glyph-name="agrave" unicode="&#xe0;" horiz-adv-x="948" 
d="M72 270q0 146 94.5 222.5t241.5 76.5q60 0 116.5 -16.5t91.5 -42.5v29q0 106 -39.5 157.5t-132.5 51.5q-75 0 -143 -21q-32 -8 -47 -8q-56 0 -80 49q-8 19 -8 39q0 60 67 88q111 49 236 49q197 0 283 -96t86 -287v-469q0 -40 -30 -72t-75 -32q-44 0 -72 30.5t-28 79.5
q-39 -48 -111 -79t-162 -31q-129 0 -208.5 75.5t-79.5 206.5zM616 270v95q-60 45 -161 45q-63 0 -105.5 -29.5t-42.5 -85.5q0 -51 37 -80t94 -29q119 0 178 84zM479 1419l123 -190q12 -21 12 -47q0 -51 -36 -74q-21 -16 -54 -16q-46 0 -73 30l-146 166q-20 20 -20 53
q0 41 30 62l52 37q22 16 47 16q44 0 65 -37z" />
    <glyph glyph-name="aacute" unicode="&#xe1;" horiz-adv-x="948" 
d="M72 270q0 146 94.5 222.5t241.5 76.5q60 0 116.5 -16.5t91.5 -42.5v29q0 106 -39.5 157.5t-132.5 51.5q-75 0 -143 -21q-32 -8 -47 -8q-56 0 -80 49q-8 19 -8 39q0 60 67 88q111 49 236 49q197 0 283 -96t86 -287v-469q0 -40 -30 -72t-75 -32q-44 0 -72 30.5t-28 79.5
q-39 -48 -111 -79t-162 -31q-129 0 -208.5 75.5t-79.5 206.5zM616 270v95q-60 45 -161 45q-63 0 -105.5 -29.5t-42.5 -85.5q0 -51 37 -80t94 -29q119 0 178 84zM362 1229l125 194q21 35 66 35q27 0 47 -14l49 -37q31 -22 31 -64q0 -30 -18 -51l-148 -170q-27 -30 -70 -30
q-29 0 -55 16q-39 26 -39 76q0 24 12 45z" />
    <glyph glyph-name="acircumflex" unicode="&#xe2;" horiz-adv-x="948" 
d="M72 270q0 146 94.5 222.5t241.5 76.5q60 0 116.5 -16.5t91.5 -42.5v29q0 106 -39.5 157.5t-132.5 51.5q-75 0 -143 -21q-32 -8 -47 -8q-56 0 -80 49q-8 19 -8 39q0 60 67 88q111 49 236 49q197 0 283 -96t86 -287v-469q0 -40 -30 -72t-75 -32q-44 0 -72 30.5t-28 79.5
q-39 -48 -111 -79t-162 -31q-129 0 -208.5 75.5t-79.5 206.5zM616 270v95q-60 45 -161 45q-63 0 -105.5 -29.5t-42.5 -85.5q0 -51 37 -80t94 -29q119 0 178 84zM276 1071q-43 0 -67 35q-19 22 -19 53q0 42 33 72l183 158q27 24 67 24q43 0 70 -27l180 -155q31 -28 31 -70
q0 -35 -21 -59q-27 -35 -69 -35q-29 0 -56 20l-137 111l-139 -108q-25 -19 -56 -19z" />
    <glyph glyph-name="atilde" unicode="&#xe3;" horiz-adv-x="948" 
d="M72 270q0 146 94.5 222.5t241.5 76.5q60 0 116.5 -16.5t91.5 -42.5v29q0 106 -39.5 157.5t-132.5 51.5q-75 0 -143 -21q-32 -8 -47 -8q-56 0 -80 49q-8 19 -8 39q0 60 67 88q111 49 236 49q197 0 283 -96t86 -287v-469q0 -40 -30 -72t-75 -32q-44 0 -72 30.5t-28 79.5
q-39 -48 -111 -79t-162 -31q-129 0 -208.5 75.5t-79.5 206.5zM616 270v95q-60 45 -161 45q-63 0 -105.5 -29.5t-42.5 -85.5q0 -51 37 -80t94 -29q119 0 178 84zM780 1174q-114 -99 -202 -99q-30 0 -62 16t-55.5 35.5t-55.5 35.5t-63 16q-20 0 -78 -35q-35 -21 -55 -21
q-29 0 -57 31q-15 18 -15 41q0 40 33 70q102 86 190 86q32 0 66 -16t58 -35.5t55 -35.5t59 -16q13 0 26 4.5t20 8.5t20 13.5t18 12.5q33 23 59 23q30 0 54 -27q18 -21 18 -45q0 -33 -33 -63z" />
    <glyph glyph-name="adieresis" unicode="&#xe4;" horiz-adv-x="948" 
d="M72 270q0 146 94.5 222.5t241.5 76.5q60 0 116.5 -16.5t91.5 -42.5v29q0 106 -39.5 157.5t-132.5 51.5q-75 0 -143 -21q-32 -8 -47 -8q-56 0 -80 49q-8 19 -8 39q0 60 67 88q111 49 236 49q197 0 283 -96t86 -287v-469q0 -40 -30 -72t-75 -32q-44 0 -72 30.5t-28 79.5
q-39 -48 -111 -79t-162 -31q-129 0 -208.5 75.5t-79.5 206.5zM616 270v95q-60 45 -161 45q-63 0 -105.5 -29.5t-42.5 -85.5q0 -51 37 -80t94 -29q119 0 178 84zM285 1090q-56 0 -94.5 36.5t-38.5 100.5q0 60 38.5 95.5t94.5 35.5q49 0 86 -36t37 -95q0 -63 -37 -100t-86 -37
zM690 1090q-55 0 -93 37t-38 100q0 59 38 95t93 36q50 0 86.5 -36t36.5 -95q0 -63 -36.5 -100t-86.5 -37z" />
    <glyph glyph-name="aring" unicode="&#xe5;" horiz-adv-x="948" 
d="M72 270q0 146 94.5 222.5t241.5 76.5q60 0 116.5 -16.5t91.5 -42.5v29q0 106 -39.5 157.5t-132.5 51.5q-75 0 -143 -21q-32 -8 -47 -8q-56 0 -80 49q-8 19 -8 39q0 60 67 88q111 49 236 49q197 0 283 -96t86 -287v-469q0 -40 -30 -72t-75 -32q-44 0 -72 30.5t-28 79.5
q-39 -48 -111 -79t-162 -31q-129 0 -208.5 75.5t-79.5 206.5zM616 270v95q-60 45 -161 45q-63 0 -105.5 -29.5t-42.5 -85.5q0 -51 37 -80t94 -29q119 0 178 84zM485 1012q-111 0 -184.5 70t-73.5 171q0 103 73.5 174.5t184.5 71.5q113 0 188 -71.5t75 -174.5
q0 -101 -75 -171t-188 -70zM489 1370q-49 0 -79.5 -33.5t-30.5 -81.5t31 -82t79 -34q46 0 76.5 34t30.5 82t-30.5 81.5t-76.5 33.5z" />
    <glyph glyph-name="ae" unicode="&#xe6;" horiz-adv-x="1566" 
d="M838 555l422 -8q-3 90 -60.5 145.5t-159.5 55.5q-62 0 -117 -29t-89 -88q4 -46 4 -76zM614 264l2 117q-76 29 -161 29q-63 0 -105.5 -32t-42.5 -83q0 -47 34.5 -78t96.5 -31q94 0 176 78zM618 561q0 90 -46 138.5t-128 48.5q-75 0 -143 -21q-32 -8 -47 -8q-56 0 -80 49
q-10 18 -10 41q0 27 16.5 49.5t44.5 34.5q123 51 244 51q190 0 283 -96q130 96 307 96q183 0 309.5 -119.5t126.5 -308.5q0 -29 -2 -41q-6 -42 -31 -64t-59 -22h-565v-88q28 -58 95.5 -92.5t156.5 -34.5q103 0 178 35q32 16 59 16q47 0 70 -41q16 -26 16 -49q0 -48 -57 -82
q-60 -34 -136.5 -55t-148.5 -21q-221 0 -354 121q-148 -116 -316 -116q-160 0 -244.5 78.5t-84.5 222.5q0 131 92.5 208.5t243.5 77.5q50 0 114.5 -14.5t93.5 -30.5q2 12 2 37z" />
    <glyph glyph-name="ccedilla" unicode="&#xe7;" horiz-adv-x="974" 
d="M643 -70q104 -7 158.5 -52.5t54.5 -123.5q0 -81 -73.5 -130.5t-209.5 -49.5q-110 0 -192 49q-31 21 -31 60q0 16 6 28q18 35 60 35q21 0 37 -8q51 -21 88 -21q35 0 57.5 14t22.5 38q0 36 -31 47q-38 15 -52 36t-14 62v66q-206 17 -328 147t-122 334q0 133 60 243.5
t170 175t247 64.5q162 0 260 -49q34 -15 54 -41.5t20 -56.5q0 -18 -15 -52q-29 -59 -94 -59q-27 0 -57 12q-70 25 -137 25q-103 0 -179.5 -72.5t-76.5 -189.5q0 -119 78.5 -191.5t187.5 -72.5q89 0 151 36q42 25 82 25q48 0 82 -43q21 -27 21 -61q0 -56 -49 -93
q-95 -71 -236 -81v-50z" />
    <glyph glyph-name="egrave" unicode="&#xe8;" horiz-adv-x="1071" 
d="M762 551q0 86 -57 141.5t-154 55.5q-102 0 -162 -53t-80 -148h453v4zM317 389q15 -102 90.5 -158.5t186.5 -56.5q97 0 172 35q32 14 53 14q47 0 74 -43q14 -24 14 -45q0 -53 -47 -80q-132 -78 -291 -78q-223 0 -359 133t-136 351q0 100 34 188.5t95.5 153.5t154 103
t203.5 38q183 0 309.5 -119.5t126.5 -308.5v-43q-4 -40 -29 -62t-63 -22h-588zM561 1419l123 -190q12 -21 12 -47q0 -50 -37 -74q-21 -16 -53 -16q-47 0 -74 30l-145 166q-20 20 -20 53q0 41 30 62l52 37q22 16 47 16q44 0 65 -37z" />
    <glyph glyph-name="eacute" unicode="&#xe9;" horiz-adv-x="1071" 
d="M762 551q0 86 -57 141.5t-154 55.5q-102 0 -162 -53t-80 -148h453v4zM317 389q15 -102 90.5 -158.5t186.5 -56.5q97 0 172 35q32 14 53 14q47 0 74 -43q14 -24 14 -45q0 -53 -47 -80q-132 -78 -291 -78q-223 0 -359 133t-136 351q0 100 34 188.5t95.5 153.5t154 103
t203.5 38q183 0 309.5 -119.5t126.5 -308.5v-43q-4 -40 -29 -62t-63 -22h-588zM465 1229l125 194q21 35 65 35q27 0 47 -14l50 -37q30 -21 30 -64q0 -30 -18 -51l-148 -170q-27 -30 -69 -30q-29 0 -55 16q-39 26 -39 76q0 24 12 45z" />
    <glyph glyph-name="ecircumflex" unicode="&#xea;" horiz-adv-x="1071" 
d="M762 551q0 86 -57 141.5t-154 55.5q-102 0 -162 -53t-80 -148h453v4zM317 389q15 -102 90.5 -158.5t186.5 -56.5q97 0 172 35q32 14 53 14q47 0 74 -43q14 -24 14 -45q0 -53 -47 -80q-132 -78 -291 -78q-223 0 -359 133t-136 351q0 100 34 188.5t95.5 153.5t154 103
t203.5 38q183 0 309.5 -119.5t126.5 -308.5v-43q-4 -40 -29 -62t-63 -22h-588zM354 1071q-43 0 -67 35q-19 22 -19 53q0 42 33 72l182 158q27 24 68 24q43 0 70 -27l180 -155q30 -27 30 -70q0 -36 -20 -59q-27 -35 -70 -35q-28 0 -55 20l-137 111l-139 -108q-25 -19 -56 -19
z" />
    <glyph glyph-name="edieresis" unicode="&#xeb;" horiz-adv-x="1071" 
d="M762 551q0 86 -57 141.5t-154 55.5q-102 0 -162 -53t-80 -148h453v4zM317 389q15 -102 90.5 -158.5t186.5 -56.5q97 0 172 35q32 14 53 14q47 0 74 -43q14 -24 14 -45q0 -53 -47 -80q-132 -78 -291 -78q-223 0 -359 133t-136 351q0 100 34 188.5t95.5 153.5t154 103
t203.5 38q183 0 309.5 -119.5t126.5 -308.5v-43q-4 -40 -29 -62t-63 -22h-588zM352 1090q-56 0 -94.5 36.5t-38.5 100.5q0 60 38.5 95.5t94.5 35.5q49 0 86 -36t37 -95q0 -63 -37 -100t-86 -37zM758 1090q-55 0 -93 37t-38 100q0 59 38 95t93 36q50 0 86.5 -36t36.5 -95
q0 -63 -36.5 -100t-86.5 -37z" />
    <glyph glyph-name="igrave" unicode="&#xec;" horiz-adv-x="567" 
d="M401 821v-723q0 -48 -33.5 -81t-82.5 -33q-51 0 -85 33t-34 81v723q0 48 34 81.5t85 33.5q49 0 82.5 -33.5t33.5 -81.5zM223 1419l123 -190q12 -21 12 -47q0 -51 -36 -74q-21 -16 -54 -16q-46 0 -73 30l-146 166q-20 20 -20 53q0 41 30 62l52 37q22 16 47 16q44 0 65 -37
z" />
    <glyph glyph-name="iacute" unicode="&#xed;" horiz-adv-x="567" 
d="M401 821v-723q0 -48 -33.5 -81t-82.5 -33q-51 0 -85 33t-34 81v723q0 48 34 81.5t85 33.5q49 0 82.5 -33.5t33.5 -81.5zM174 1229l125 194q21 35 66 35q27 0 47 -14l49 -37q31 -22 31 -64q0 -29 -19 -51l-147 -170q-27 -30 -70 -30q-29 0 -55 16q-39 26 -39 76
q0 24 12 45z" />
    <glyph glyph-name="icircumflex" unicode="&#xee;" horiz-adv-x="567" 
d="M401 821v-723q0 -48 -33.5 -81t-82.5 -33q-51 0 -85 33t-34 81v723q0 48 34 81.5t85 33.5q49 0 82.5 -33.5t33.5 -81.5zM88 1071q-44 0 -68 35q-18 21 -18 53q0 42 33 72l182 158q27 24 68 24q42 0 69 -27l181 -155q30 -27 30 -70q0 -36 -20 -59q-27 -35 -70 -35
q-28 0 -55 20l-137 111l-140 -108q-25 -19 -55 -19z" />
    <glyph glyph-name="idieresis" unicode="&#xef;" horiz-adv-x="567" 
d="M401 821v-723q0 -48 -33.5 -81t-82.5 -33q-51 0 -85 33t-34 81v723q0 48 34 81.5t85 33.5q49 0 82.5 -33.5t33.5 -81.5zM86 1090q-56 0 -94.5 36.5t-38.5 100.5q0 60 38.5 95.5t94.5 35.5q49 0 86 -36t37 -95q0 -63 -37 -100t-86 -37zM492 1090q-55 0 -93.5 37t-38.5 100
q0 59 38.5 95t93.5 36q50 0 86 -36t36 -95q0 -63 -36 -100t-86 -37z" />
    <glyph glyph-name="eth" unicode="&#xf0;" horiz-adv-x="1150" 
d="M74 461q0 210 138 346.5t363 136.5q58 0 111 -25t84 -67q-42 132 -125 250l-149 -53q-21 -7 -35 -7q-37 0 -67.5 21.5t-39.5 54.5q-6 15 -6 31q0 35 21.5 65t58.5 43l59 21q-18 18 -36 33q-54 44 -54 92q0 28 21 55q24 35 69 35q28 0 66 -23q83 -50 156 -112l104 37
q18 6 39 6q34 0 63.5 -20t38.5 -52q4 -10 4 -31q0 -36 -23 -67.5t-63 -46.5q97 -148 151 -318.5t54 -324.5q0 -263 -135.5 -413.5t-366.5 -150.5q-225 0 -363 137t-138 347zM326 461q0 -115 70.5 -189.5t178.5 -74.5q114 0 183 85t69 234v35q-22 76 -90 124t-162 48
q-107 0 -178 -72t-71 -190z" />
    <glyph glyph-name="ntilde" unicode="&#xf1;" horiz-adv-x="1118" 
d="M252 936q49 0 82 -31t33 -74q44 46 114.5 76.5t149.5 30.5q379 0 379 -397v-443q0 -47 -34 -80.5t-83 -33.5q-51 0 -85 33t-34 81v402q0 108 -53.5 162.5t-153.5 54.5q-112 0 -200 -88v-531q0 -47 -34 -80.5t-83 -33.5q-51 0 -85 33t-34 81v709q0 59 33 94t88 35z
M870 1174q-114 -99 -202 -99q-30 0 -62 16t-55.5 35.5t-55.5 35.5t-63 16q-20 0 -78 -35q-35 -21 -55 -21q-29 0 -57 31q-15 18 -15 41q0 40 33 70q102 86 191 86q32 0 65.5 -16t57.5 -35.5t55 -35.5t59 -16q13 0 26 4.5t20 8.5t20 13.5t18 12.5q33 23 59 23q30 0 54 -27
q18 -21 18 -45q0 -33 -33 -63z" />
    <glyph glyph-name="ograve" unicode="&#xf2;" horiz-adv-x="1150" 
d="M74 461q0 210 138 346.5t363 136.5q226 0 364 -136.5t138 -346.5t-138.5 -347t-363.5 -137t-363 137t-138 347zM326 461q0 -115 70.5 -189.5t178.5 -74.5q110 0 181 72.5t71 191.5q0 116 -71.5 189t-180.5 73q-107 0 -178 -72t-71 -190zM553 1419l123 -190q12 -21 12 -47
q0 -50 -37 -74q-21 -16 -53 -16q-47 0 -74 30l-145 166q-21 21 -21 53q0 40 31 62l51 37q22 16 47 16q45 0 66 -37z" />
    <glyph glyph-name="oacute" unicode="&#xf3;" horiz-adv-x="1150" 
d="M74 461q0 210 138 346.5t363 136.5q226 0 364 -136.5t138 -346.5t-138.5 -347t-363.5 -137t-363 137t-138 347zM326 461q0 -115 70.5 -189.5t178.5 -74.5q110 0 181 72.5t71 191.5q0 116 -71.5 189t-180.5 73q-107 0 -178 -72t-71 -190zM477 1229l125 194q21 35 66 35
q27 0 47 -14l49 -37q31 -22 31 -64q0 -29 -19 -51l-147 -170q-27 -30 -70 -30q-29 0 -55 16q-39 26 -39 76q0 24 12 45z" />
    <glyph glyph-name="ocircumflex" unicode="&#xf4;" horiz-adv-x="1150" 
d="M74 461q0 210 138 346.5t363 136.5q226 0 364 -136.5t138 -346.5t-138.5 -347t-363.5 -137t-363 137t-138 347zM326 461q0 -115 70.5 -189.5t178.5 -74.5q110 0 181 72.5t71 191.5q0 116 -71.5 189t-180.5 73q-107 0 -178 -72t-71 -190zM383 1071q-44 0 -68 35
q-18 21 -18 53q0 42 33 72l182 158q27 24 68 24q42 0 69 -27l180 -155q31 -28 31 -70q0 -36 -20 -59q-27 -35 -70 -35q-28 0 -55 20l-137 111l-140 -108q-25 -19 -55 -19z" />
    <glyph glyph-name="otilde" unicode="&#xf5;" horiz-adv-x="1150" 
d="M74 461q0 210 138 346.5t363 136.5q226 0 364 -136.5t138 -346.5t-138.5 -347t-363.5 -137t-363 137t-138 347zM326 461q0 -115 70.5 -189.5t178.5 -74.5q110 0 181 72.5t71 191.5q0 116 -71.5 189t-180.5 73q-107 0 -178 -72t-71 -190zM887 1174q-114 -99 -203 -99
q-30 0 -62 16t-55 35.5t-55 35.5t-63 16q-21 0 -78 -35q-35 -21 -56 -21q-29 0 -57 31q-14 17 -14 41q0 41 32 70q102 86 191 86q32 0 66 -16t58 -35.5t55 -35.5t59 -16q13 0 25.5 4.5t20 9t20 13.5t17.5 12q33 23 60 23q29 0 53 -27q19 -22 19 -45q0 -33 -33 -63z" />
    <glyph glyph-name="odieresis" unicode="&#xf6;" horiz-adv-x="1150" 
d="M74 461q0 210 138 346.5t363 136.5q226 0 364 -136.5t138 -346.5t-138.5 -347t-363.5 -137t-363 137t-138 347zM326 461q0 -115 70.5 -189.5t178.5 -74.5q110 0 181 72.5t71 191.5q0 116 -71.5 189t-180.5 73q-107 0 -178 -72t-71 -190zM391 1090q-56 0 -94.5 36.5
t-38.5 100.5q0 60 38.5 95.5t94.5 35.5q49 0 86 -36t37 -95q0 -63 -37 -100t-86 -37zM797 1090q-55 0 -93 37t-38 100q0 59 38 95t93 36q50 0 86.5 -36t36.5 -95q0 -63 -36.5 -100t-86.5 -37z" />
    <glyph glyph-name="divide" unicode="&#xf7;" 
d="M610 1274q62 0 100 -40t38 -93q0 -57 -38 -100.5t-100 -43.5q-64 0 -101.5 43t-37.5 101q0 53 37.5 93t101.5 40zM610 471q60 0 99 -42t39 -93q0 -58 -38 -100.5t-100 -42.5q-64 0 -101.5 42t-37.5 101q0 52 38 93.5t101 41.5zM983 840q43 0 72.5 -30t29.5 -73
t-29.5 -72.5t-72.5 -29.5h-745q-43 0 -73 29.5t-30 72.5t30 73t73 30h745z" />
    <glyph glyph-name="oslash" unicode="&#xf8;" horiz-adv-x="1181" 
d="M266 74l-35 -31q-15 -18 -43 -18t-49 24q-16 19 -16 45q0 32 22 49l27 23q-98 124 -98 295q0 208 145.5 345.5t372.5 137.5q185 0 323 -98l35 31q19 16 43 16q29 0 49 -23q17 -20 17 -41q0 -30 -25 -51l-26 -22q100 -127 100 -295q0 -209 -144.5 -346.5t-371.5 -137.5
q-189 0 -326 97zM827 590l-385 -354q64 -39 150 -39q120 0 193 72t73 192q0 72 -31 129zM354 332l385 352q-64 39 -147 39q-118 0 -192 -71.5t-74 -190.5q0 -71 28 -129z" />
    <glyph glyph-name="ugrave" unicode="&#xf9;" horiz-adv-x="1095" 
d="M729 309v512q0 48 34 81.5t85 33.5q49 0 83 -33.5t34 -81.5v-723q0 -48 -34 -81t-85 -33q-52 0 -84.5 35t-32.5 94q-47 -59 -121.5 -97.5t-173.5 -38.5q-143 0 -233 96t-90 285v463q0 48 34 81.5t84 33.5q49 0 83 -33.5t34 -81.5v-413q0 -211 176 -211q58 0 112.5 29.5
t94.5 82.5zM516 1419l123 -190q12 -21 12 -47q0 -50 -37 -74q-21 -16 -53 -16q-47 0 -74 30l-145 166q-20 20 -20 53q0 41 30 62l51 37q22 16 48 16q44 0 65 -37z" />
    <glyph glyph-name="uacute" unicode="&#xfa;" horiz-adv-x="1095" 
d="M729 309v512q0 48 34 81.5t85 33.5q49 0 83 -33.5t34 -81.5v-723q0 -48 -34 -81t-85 -33q-52 0 -84.5 35t-32.5 94q-47 -59 -121.5 -97.5t-173.5 -38.5q-143 0 -233 96t-90 285v463q0 48 34 81.5t84 33.5q49 0 83 -33.5t34 -81.5v-413q0 -211 176 -211q58 0 112.5 29.5
t94.5 82.5zM457 1229l125 194q21 35 65 35q27 0 47 -14l49 -37q31 -22 31 -64q0 -30 -18 -51l-148 -170q-27 -30 -69 -30q-30 0 -56 16q-39 26 -39 76q0 22 13 45z" />
    <glyph glyph-name="ucircumflex" unicode="&#xfb;" horiz-adv-x="1095" 
d="M729 309v512q0 48 34 81.5t85 33.5q49 0 83 -33.5t34 -81.5v-723q0 -48 -34 -81t-85 -33q-52 0 -84.5 35t-32.5 94q-47 -59 -121.5 -97.5t-173.5 -38.5q-143 0 -233 96t-90 285v463q0 48 34 81.5t84 33.5q49 0 83 -33.5t34 -81.5v-413q0 -211 176 -211q58 0 112.5 29.5
t94.5 82.5zM350 1071q-43 0 -67 35q-19 22 -19 53q0 42 33 72l182 158q27 24 68 24q42 0 69 -27l181 -155q30 -27 30 -70q0 -36 -20 -59q-27 -35 -70 -35q-28 0 -55 20l-137 111l-139 -108q-25 -19 -56 -19z" />
    <glyph glyph-name="udieresis" unicode="&#xfc;" horiz-adv-x="1095" 
d="M729 309v512q0 48 34 81.5t85 33.5q49 0 83 -33.5t34 -81.5v-723q0 -48 -34 -81t-85 -33q-52 0 -84.5 35t-32.5 94q-47 -59 -121.5 -97.5t-173.5 -38.5q-143 0 -233 96t-90 285v463q0 48 34 81.5t84 33.5q49 0 83 -33.5t34 -81.5v-413q0 -211 176 -211q58 0 112.5 29.5
t94.5 82.5zM344 1090q-56 0 -94.5 36.5t-38.5 100.5q0 60 38.5 95.5t94.5 35.5q49 0 86 -36t37 -95q0 -63 -37 -100t-86 -37zM750 1090q-55 0 -93.5 37t-38.5 100q0 59 38.5 95t93.5 36q50 0 86 -36t36 -95q0 -63 -36 -100t-86 -37z" />
    <glyph glyph-name="yacute" unicode="&#xfd;" horiz-adv-x="993" 
d="M483 418q16 -41 45 -133q16 84 33 135l141 428q29 88 119 88q58 0 90.5 -32t32.5 -81q0 -29 -12 -63l-299 -760q-66 -169 -123.5 -259.5t-109.5 -120.5t-124 -30q-69 0 -120 23q-66 28 -66 100q0 40 25 69.5t71 29.5q12 0 34 -2.5t32 -2.5h12q71 3 127 144l21 49
l-349 752q-14 32 -14 59q0 52 37 88.5t102 36.5q34 0 64.5 -24.5t46.5 -61.5zM383 1229l125 194q21 35 65 35q28 0 48 -14l49 -37q30 -21 30 -64q0 -30 -18 -51l-147 -170q-27 -30 -70 -30q-29 0 -55 16q-39 26 -39 76q0 24 12 45z" />
    <glyph glyph-name="thorn" unicode="&#xfe;" horiz-adv-x="1142" 
d="M367 23v-318q0 -48 -34 -81.5t-83 -33.5q-51 0 -85 33.5t-34 81.5v1614q0 48 34 81.5t85 33.5q49 0 83 -33.5t34 -81.5v-471q110 96 284 96q188 0 303 -131.5t115 -337.5q0 -214 -134.5 -356t-352.5 -142q-136 0 -215 46zM367 623v-373q81 -53 194 -53q120 0 189 76.5
t69 195.5q0 113 -63.5 183.5t-177.5 70.5q-121 0 -211 -100z" />
    <glyph glyph-name="ydieresis" unicode="&#xff;" horiz-adv-x="993" 
d="M483 418q16 -41 45 -133q16 84 33 135l141 428q29 88 119 88q58 0 90.5 -32t32.5 -81q0 -29 -12 -63l-299 -760q-66 -169 -123.5 -259.5t-109.5 -120.5t-124 -30q-69 0 -120 23q-66 28 -66 100q0 40 25 69.5t71 29.5q12 0 34 -2.5t32 -2.5h12q71 3 127 144l21 49
l-349 752q-14 32 -14 59q0 52 37 88.5t102 36.5q34 0 64.5 -24.5t46.5 -61.5zM307 1090q-56 0 -94.5 36.5t-38.5 100.5q0 60 38.5 95.5t94.5 35.5q49 0 86 -36t37 -95q0 -63 -37 -100t-86 -37zM713 1090q-55 0 -93 37t-38 100q0 59 38 95t93 36q50 0 86.5 -36t36.5 -95
q0 -63 -36.5 -100t-86.5 -37z" />
    <glyph glyph-name="Amacron" unicode="&#x100;" horiz-adv-x="1411" 
d="M1006 350h-613l-121 -297q-26 -69 -108 -69q-50 0 -83.5 33.5t-33.5 80.5q0 22 10 45l510 1198q44 103 142 103q93 0 137 -103l508 -1194q10 -27 10 -49q0 -47 -34.5 -80.5t-82.5 -33.5q-93 0 -123 77zM700 1100l-211 -514h420zM928 1745q38 0 66 -28t28 -66t-28 -66.5
t-66 -28.5h-445q-38 0 -66 28.5t-28 66.5t28 66t66 28h445z" />
    <glyph glyph-name="amacron" unicode="&#x101;" horiz-adv-x="948" 
d="M72 270q0 146 94.5 222.5t241.5 76.5q60 0 116.5 -16.5t91.5 -42.5v29q0 106 -39.5 157.5t-132.5 51.5q-75 0 -143 -21q-32 -8 -47 -8q-56 0 -80 49q-8 19 -8 39q0 60 67 88q111 49 236 49q197 0 283 -96t86 -287v-469q0 -40 -30 -72t-75 -32q-44 0 -72 30.5t-28 79.5
q-39 -48 -111 -79t-162 -31q-129 0 -208.5 75.5t-79.5 206.5zM616 270v95q-60 45 -161 45q-63 0 -105.5 -29.5t-42.5 -85.5q0 -51 37 -80t94 -29q119 0 178 84zM674 1315q38 0 66 -28t28 -66t-28 -66.5t-66 -28.5h-383q-38 0 -66 28.5t-28 66.5t28 66t66 28h383z" />
    <glyph glyph-name="Abreve" unicode="&#x102;" horiz-adv-x="1411" 
d="M1006 350h-613l-121 -297q-26 -69 -108 -69q-50 0 -83.5 33.5t-33.5 80.5q0 22 10 45l510 1198q44 103 142 103q93 0 137 -103l508 -1194q10 -27 10 -49q0 -47 -34.5 -80.5t-82.5 -33.5q-93 0 -123 77zM700 1100l-211 -514h420zM1096 1739q0 -32 -19 -51
q-66 -74 -165 -126.5t-195 -52.5q-108 0 -203 51t-164 128q-18 18 -18 51t22 55q25 25 56 25q30 0 69 -27q97 -78 238 -78q131 0 231 78q39 27 68 27q32 0 57 -25q23 -20 23 -55z" />
    <glyph glyph-name="abreve" unicode="&#x103;" horiz-adv-x="948" 
d="M72 270q0 146 94.5 222.5t241.5 76.5q60 0 116.5 -16.5t91.5 -42.5v29q0 106 -39.5 157.5t-132.5 51.5q-75 0 -143 -21q-32 -8 -47 -8q-56 0 -80 49q-8 19 -8 39q0 60 67 88q111 49 236 49q197 0 283 -96t86 -287v-469q0 -40 -30 -72t-75 -32q-44 0 -72 30.5t-28 79.5
q-39 -48 -111 -79t-162 -31q-129 0 -208.5 75.5t-79.5 206.5zM616 270v95q-60 45 -161 45q-63 0 -105.5 -29.5t-42.5 -85.5q0 -51 37 -80t94 -29q119 0 178 84zM786 1305q0 -26 -14 -43q-132 -172 -311 -172q-176 0 -291 170q-14 21 -14 43q0 33 28 55q22 16 47 16
q34 0 58 -24q81 -70 182 -70q104 0 186 68q31 24 60 24q24 0 45 -16q24 -18 24 -51z" />
    <glyph glyph-name="Aogonek" unicode="&#x104;" horiz-adv-x="1411" 
d="M1006 350h-613l-121 -297q-26 -69 -108 -69q-50 0 -83.5 33.5t-33.5 80.5q0 22 10 45l510 1198q44 103 142 103q93 0 137 -103l508 -1194q10 -27 10 -49q0 -47 -34.5 -80.5t-82.5 -33.5q-29 0 -47 6q-53 -17 -86 -54t-33 -75q0 -42 30 -62t75 -20q60 0 88 -11.5t37 -46.5
q2 -8 2 -24q0 -27 -14.5 -49.5t-41.5 -32.5q-60 -25 -137 -25q-116 0 -195 48t-79 145q0 96 84.5 159t212.5 87q-14 18 -19 32zM700 1100l-211 -514h420z" />
    <glyph glyph-name="aogonek" unicode="&#x105;" horiz-adv-x="948" 
d="M72 270q0 146 94.5 222.5t241.5 76.5q60 0 116.5 -16.5t91.5 -42.5v29q0 106 -39.5 157.5t-132.5 51.5q-75 0 -143 -21q-32 -8 -47 -8q-56 0 -80 49q-8 19 -8 39q0 60 67 88q111 49 236 49q197 0 283 -96t86 -287v-469q0 -40 -30 -72t-75 -32q-10 0 -26 4
q-27 -13 -44.5 -45t-17.5 -68q0 -51 28.5 -75.5t71.5 -24.5q60 0 88 -11.5t37 -46.5q2 -8 2 -24q0 -61 -55 -82q-60 -25 -137 -25q-117 0 -193.5 44.5t-76.5 142.5q0 81 72.5 150.5t170.5 97.5q-20 26 -20 73q-39 -48 -111 -79t-162 -31q-129 0 -208.5 75.5t-79.5 206.5z
M616 270v95q-60 45 -161 45q-63 0 -105.5 -29.5t-42.5 -85.5q0 -51 37 -80t94 -29q119 0 178 84z" />
    <glyph glyph-name="Cacute" unicode="&#x106;" horiz-adv-x="1320" 
d="M1042 1174q-110 47 -217 47q-204 0 -335.5 -137.5t-131.5 -366.5q0 -224 138 -364t358 -140q116 0 229 55q51 21 82 21q56 0 92 -47q21 -30 21 -66q0 -63 -57 -100q-150 -99 -390 -99q-217 0 -385 91.5t-261 260t-93 388.5q0 155 48.5 289t139.5 234.5t231.5 158
t313.5 57.5q180 0 324 -74q78 -38 78 -106q0 -25 -17 -59q-34 -58 -100 -58q-34 0 -68 15zM682 1673l303 158q13 8 33 8q46 0 65 -43l27 -63q6 -12 6 -29q0 -22 -13 -40.5t-34 -25.5l-317 -116q-8 -4 -27 -4q-56 0 -78 51q-8 13 -8 35t11.5 41t31.5 28z" />
    <glyph glyph-name="cacute" unicode="&#x107;" horiz-adv-x="974" 
d="M719 698q-70 25 -137 25q-103 0 -179.5 -72.5t-76.5 -189.5q0 -119 78.5 -191.5t187.5 -72.5q89 0 151 36q42 25 82 25q48 0 82 -43q21 -27 21 -61q0 -56 -49 -93q-114 -84 -299 -84q-229 0 -367.5 133t-138.5 351q0 133 60 243.5t170 175t247 64.5q162 0 260 -49
q34 -15 54 -41.5t20 -56.5q0 -18 -15 -52q-29 -59 -94 -59q-27 0 -57 12zM446 1229l125 194q21 35 66 35q27 0 47 -14l49 -37q31 -22 31 -64q0 -29 -19 -51l-147 -170q-27 -30 -70 -30q-29 0 -55 16q-39 26 -39 76q0 24 12 45z" />
    <glyph glyph-name="Ccircumflex" unicode="&#x108;" horiz-adv-x="1320" 
d="M1042 1174q-110 47 -217 47q-204 0 -335.5 -137.5t-131.5 -366.5q0 -224 138 -364t358 -140q116 0 229 55q51 21 82 21q56 0 92 -47q21 -30 21 -66q0 -63 -57 -100q-150 -99 -390 -99q-217 0 -385 91.5t-261 260t-93 388.5q0 155 48.5 289t139.5 234.5t231.5 158
t313.5 57.5q180 0 324 -74q78 -38 78 -106q0 -25 -17 -59q-34 -58 -100 -58q-34 0 -68 15zM788 1636l-208 -108q-15 -10 -41 -10q-47 0 -70 36q-12 18 -12 43q0 44 35 68l231 143q30 21 68 21q33 0 65 -19l236 -145q34 -21 34 -66q0 -25 -14 -45q-26 -36 -72 -36
q-26 0 -43 10z" />
    <glyph glyph-name="ccircumflex" unicode="&#x109;" horiz-adv-x="974" 
d="M719 698q-70 25 -137 25q-103 0 -179.5 -72.5t-76.5 -189.5q0 -119 78.5 -191.5t187.5 -72.5q89 0 151 36q42 25 82 25q48 0 82 -43q21 -27 21 -61q0 -56 -49 -93q-114 -84 -299 -84q-229 0 -367.5 133t-138.5 351q0 133 60 243.5t170 175t247 64.5q162 0 260 -49
q34 -15 54 -41.5t20 -56.5q0 -18 -15 -52q-29 -59 -94 -59q-27 0 -57 12zM371 1071q-44 0 -68 35q-18 21 -18 53q0 43 32 72l183 158q27 24 67 24q43 0 70 -27l180 -155q31 -28 31 -70q0 -35 -21 -59q-27 -35 -69 -35q-29 0 -56 20l-137 111l-139 -108q-25 -19 -55 -19z" />
    <glyph glyph-name="Cdotaccent" unicode="&#x10a;" horiz-adv-x="1320" 
d="M1042 1174q-110 47 -217 47q-204 0 -335.5 -137.5t-131.5 -366.5q0 -224 138 -364t358 -140q116 0 229 55q51 21 82 21q56 0 92 -47q21 -30 21 -66q0 -63 -57 -100q-150 -99 -390 -99q-217 0 -385 91.5t-261 260t-93 388.5q0 155 48.5 289t139.5 234.5t231.5 158
t313.5 57.5q180 0 324 -74q78 -38 78 -106q0 -25 -17 -59q-34 -58 -100 -58q-34 0 -68 15zM784 1847q62 0 108 -40t46 -105q0 -70 -46 -112t-108 -42q-68 0 -114.5 41.5t-46.5 112.5q0 65 47 105t114 40z" />
    <glyph glyph-name="cdotaccent" unicode="&#x10b;" horiz-adv-x="974" 
d="M719 698q-70 25 -137 25q-103 0 -179.5 -72.5t-76.5 -189.5q0 -119 78.5 -191.5t187.5 -72.5q89 0 151 36q42 25 82 25q48 0 82 -43q21 -27 21 -61q0 -56 -49 -93q-114 -84 -299 -84q-229 0 -367.5 133t-138.5 351q0 133 60 243.5t170 175t247 64.5q162 0 260 -49
q34 -15 54 -41.5t20 -56.5q0 -18 -15 -52q-29 -59 -94 -59q-27 0 -57 12zM563 1391q54 0 94.5 -38.5t40.5 -99.5q0 -67 -40.5 -107t-94.5 -40q-63 0 -105 39.5t-42 107.5q0 61 42.5 99.5t104.5 38.5z" />
    <glyph glyph-name="Ccaron" unicode="&#x10c;" horiz-adv-x="1320" 
d="M1042 1174q-110 47 -217 47q-204 0 -335.5 -137.5t-131.5 -366.5q0 -224 138 -364t358 -140q116 0 229 55q51 21 82 21q56 0 92 -47q21 -30 21 -66q0 -63 -57 -100q-150 -99 -390 -99q-217 0 -385 91.5t-261 260t-93 388.5q0 155 48.5 289t139.5 234.5t231.5 158
t313.5 57.5q180 0 324 -74q78 -38 78 -106q0 -25 -17 -59q-34 -58 -100 -58q-34 0 -68 15zM1049 1837q45 0 67 -35q12 -18 12 -41q0 -44 -36 -69l-230 -144q-29 -20 -69 -20q-38 0 -68 18l-231 146q-35 21 -35 65q0 27 14 47q24 35 68 35q24 0 45 -12l211 -123l209 123
q15 10 43 10z" />
    <glyph glyph-name="ccaron" unicode="&#x10d;" horiz-adv-x="974" 
d="M719 698q-70 25 -137 25q-103 0 -179.5 -72.5t-76.5 -189.5q0 -119 78.5 -191.5t187.5 -72.5q89 0 151 36q42 25 82 25q48 0 82 -43q21 -27 21 -61q0 -56 -49 -93q-114 -84 -299 -84q-229 0 -367.5 133t-138.5 351q0 133 60 243.5t170 175t247 64.5q162 0 260 -49
q34 -15 54 -41.5t20 -56.5q0 -18 -15 -52q-29 -59 -94 -59q-27 0 -57 12zM758 1415q35 0 61 -26q21 -24 21 -56q0 -42 -31 -67l-191 -166q-28 -25 -67 -25q-43 0 -70 27l-188 164q-29 29 -29 67q0 32 23 58q22 28 65 28q38 0 60 -22l141 -129l143 125q28 22 62 22z" />
    <glyph glyph-name="Dcaron" unicode="&#x10e;" horiz-adv-x="1517" 
d="M324 1436q208 4 297 4q167 0 303 -37.5t228 -102.5t154.5 -155.5t90.5 -194t28 -219.5q0 -122 -32.5 -231t-99.5 -201.5t-163 -159.5t-231 -105t-295 -38q-54 0 -280 4q-52 0 -88.5 36t-36.5 89v1184q0 52 36 88.5t89 38.5zM451 1198v-962q88 -5 161 -5q257 0 402 135
t145 365q0 218 -144 345.5t-399 127.5q-80 0 -165 -6zM942 1837q46 0 68 -35q12 -18 12 -41q0 -43 -37 -69l-229 -144q-29 -20 -70 -20q-38 0 -68 18l-231 146q-35 21 -35 65q0 26 15 47q24 35 67 35q24 0 45 -12l211 -123l209 123q15 10 43 10z" />
    <glyph glyph-name="dcaron" unicode="&#x10f;" horiz-adv-x="1138" 
d="M1008 1319v-1204q0 -54 -28.5 -92.5t-88.5 -38.5q-51 0 -83.5 30t-35.5 82q-104 -112 -264 -112q-197 0 -315.5 128t-118.5 339q0 218 141.5 355.5t364.5 137.5q118 0 192 -45v420q0 48 34 81.5t85 33.5q49 0 83 -33.5t34 -81.5zM772 297v371q-88 55 -182 55
q-110 0 -187 -71t-77 -193q0 -119 66.5 -187.5t164.5 -68.5q121 0 215 94zM1110 1108q0 27 18 57q50 76 50 142q0 18 -2 26q-7 35 -7 51q0 27 13.5 38.5t44.5 11.5h98q38 0 54 -21.5t16 -48.5q0 -201 -144 -317q-20 -17 -55 -17t-57 19q-29 26 -29 59z" />
    <glyph glyph-name="Dcroat" unicode="&#x110;" horiz-adv-x="1533" 
d="M621 -4q-57 0 -295 4q-46 0 -78.5 33t-32.5 80v495h-84q-44 0 -77.5 33.5t-33.5 77.5t33.5 77t77.5 33h84v492q0 47 32.5 80t78.5 35q58 0 167 2t144 2q167 0 303 -37.5t228.5 -102.5t155 -155.5t90.5 -194t28 -219.5q0 -122 -32.5 -231t-99.5 -201.5t-163 -159.5
t-231 -105t-295 -38zM465 608v-372q87 -5 164 -5q257 0 402 135t145 365q0 218 -144 345.5t-399 127.5q-83 0 -168 -6v-369h252q44 0 77 -33t33 -77t-33 -77.5t-77 -33.5h-252z" />
    <glyph glyph-name="dcroat" unicode="&#x111;" horiz-adv-x="1148" 
d="M772 297v371q-88 55 -182 55q-110 0 -187 -71t-77 -193q0 -119 66.5 -187.5t164.5 -68.5q121 0 215 94zM772 1065h-170q-39 0 -65.5 27.5t-26.5 68.5q0 40 27 67t65 27h170v64q0 48 34 81.5t85 33.5q49 0 83 -33.5t34 -81.5v-64h67q38 0 65 -27t27 -67q0 -41 -26.5 -68.5
t-65.5 -27.5h-67v-950q0 -54 -28.5 -92.5t-88.5 -38.5q-51 0 -83.5 30t-35.5 82q-104 -112 -264 -112q-197 0 -315.5 128t-118.5 339q0 218 141.5 355.5t364.5 137.5q118 0 192 -45v166z" />
    <glyph glyph-name="Emacron" unicode="&#x112;" horiz-adv-x="1177" 
d="M451 236h483q48 0 81.5 -34t33.5 -83q0 -51 -33.5 -85t-81.5 -34h-621q-47 0 -80.5 34t-33.5 81v1204q0 47 33.5 81t80.5 34h600q48 0 81.5 -34t33.5 -83q0 -51 -33.5 -85t-81.5 -34h-462v-356h401q48 0 81.5 -34t33.5 -83q0 -51 -33.5 -85t-81.5 -34h-401v-370z
M836 1745q38 0 66 -28t28 -66t-28 -66.5t-66 -28.5h-445q-38 0 -66 28.5t-28 66.5t28 66t66 28h445z" />
    <glyph glyph-name="emacron" unicode="&#x113;" horiz-adv-x="1071" 
d="M762 551q0 86 -57 141.5t-154 55.5q-102 0 -162 -53t-80 -148h453v4zM317 389q15 -102 90.5 -158.5t186.5 -56.5q97 0 172 35q32 14 53 14q47 0 74 -43q14 -24 14 -45q0 -53 -47 -80q-132 -78 -291 -78q-223 0 -359 133t-136 351q0 100 34 188.5t95.5 153.5t154 103
t203.5 38q183 0 309.5 -119.5t126.5 -308.5v-43q-4 -40 -29 -62t-63 -22h-588zM733 1315q38 0 66 -28t28 -66t-28 -66.5t-66 -28.5h-383q-38 0 -66 28.5t-28 66.5t28 66t66 28h383z" />
    <glyph glyph-name="Edotaccent" unicode="&#x116;" horiz-adv-x="1177" 
d="M451 236h483q48 0 81.5 -34t33.5 -83q0 -51 -33.5 -85t-81.5 -34h-621q-47 0 -80.5 34t-33.5 81v1204q0 47 33.5 81t80.5 34h600q48 0 81.5 -34t33.5 -83q0 -51 -33.5 -85t-81.5 -34h-462v-356h401q48 0 81.5 -34t33.5 -83q0 -51 -33.5 -85t-81.5 -34h-401v-370z
M627 1847q62 0 107.5 -40t45.5 -105q0 -70 -45.5 -112t-107.5 -42q-68 0 -115 41.5t-47 112.5q0 65 47.5 105t114.5 40z" />
    <glyph glyph-name="edotaccent" unicode="&#x117;" horiz-adv-x="1071" 
d="M762 551q0 86 -57 141.5t-154 55.5q-102 0 -162 -53t-80 -148h453v4zM317 389q15 -102 90.5 -158.5t186.5 -56.5q97 0 172 35q32 14 53 14q47 0 74 -43q14 -24 14 -45q0 -53 -47 -80q-132 -78 -291 -78q-223 0 -359 133t-136 351q0 100 34 188.5t95.5 153.5t154 103
t203.5 38q183 0 309.5 -119.5t126.5 -308.5v-43q-4 -40 -29 -62t-63 -22h-588zM551 1391q54 0 94.5 -38.5t40.5 -99.5q0 -67 -40.5 -107t-94.5 -40q-63 0 -105.5 39.5t-42.5 107.5q0 61 43 99.5t105 38.5z" />
    <glyph glyph-name="Eogonek" unicode="&#x118;" horiz-adv-x="1177" 
d="M924 0q-74 0 -129.5 -45t-55.5 -94q0 -42 30 -62t75 -20q60 0 88 -11.5t37 -46.5q2 -8 2 -24q0 -27 -14.5 -49.5t-41.5 -32.5q-60 -25 -137 -25q-116 0 -195 48t-79 145q0 75 52 129.5t140 87.5h-383q-47 0 -80.5 34t-33.5 81v1204q0 47 33.5 81t80.5 34h600
q48 0 81.5 -34t33.5 -83q0 -51 -33.5 -85t-81.5 -34h-462v-356h401q48 0 81.5 -34t33.5 -83q0 -51 -33.5 -85t-81.5 -34h-401v-370h483q48 0 81.5 -34t33.5 -83t-31 -82.5t-76 -36.5h-18z" />
    <glyph glyph-name="eogonek" unicode="&#x119;" horiz-adv-x="1071" 
d="M317 389q15 -102 90.5 -158.5t186.5 -56.5q97 0 172 35q32 14 53 14q47 0 74 -43q14 -24 14 -45q0 -53 -47 -80q-123 -75 -285 -78q-41 -20 -65.5 -52.5t-24.5 -63.5q0 -42 30 -62t75 -20q60 0 88 -11.5t37 -46.5q2 -8 2 -24q0 -61 -55 -82q-60 -25 -138 -25
q-116 0 -195 48t-79 145q0 71 47.5 125t128.5 86q-163 39 -257.5 163t-94.5 304q0 100 34 188.5t95.5 153.5t154 103t203.5 38q183 0 309.5 -119.5t126.5 -308.5v-43q-4 -40 -29 -62t-63 -22h-588zM762 551q0 86 -57 141.5t-154 55.5q-102 0 -162 -53t-80 -148h453v4z" />
    <glyph glyph-name="Ecaron" unicode="&#x11a;" horiz-adv-x="1177" 
d="M451 236h483q48 0 81.5 -34t33.5 -83q0 -51 -33.5 -85t-81.5 -34h-621q-47 0 -80.5 34t-33.5 81v1204q0 47 33.5 81t80.5 34h600q48 0 81.5 -34t33.5 -83q0 -51 -33.5 -85t-81.5 -34h-462v-356h401q48 0 81.5 -34t33.5 -83q0 -51 -33.5 -85t-81.5 -34h-401v-370z
M885 1837q45 0 67 -35q13 -20 13 -41q0 -43 -37 -69l-230 -144q-29 -20 -69 -20q-38 0 -68 18l-231 146q-35 21 -35 65q0 27 14 47q24 35 68 35q24 0 45 -12l211 -123l209 123q15 10 43 10z" />
    <glyph glyph-name="ecaron" unicode="&#x11b;" horiz-adv-x="1071" 
d="M762 551q0 86 -57 141.5t-154 55.5q-102 0 -162 -53t-80 -148h453v4zM317 389q15 -102 90.5 -158.5t186.5 -56.5q97 0 172 35q32 14 53 14q47 0 74 -43q14 -24 14 -45q0 -53 -47 -80q-132 -78 -291 -78q-223 0 -359 133t-136 351q0 100 34 188.5t95.5 153.5t154 103
t203.5 38q183 0 309.5 -119.5t126.5 -308.5v-43q-4 -40 -29 -62t-63 -22h-588zM766 1415q35 0 61 -26q21 -24 21 -56q0 -42 -31 -67l-190 -166q-28 -25 -68 -25q-43 0 -70 27l-188 164q-29 29 -29 67q0 32 23 58q22 28 65 28q38 0 60 -22l141 -129l144 125q28 22 61 22z" />
    <glyph glyph-name="Gcircumflex" unicode="&#x11c;" horiz-adv-x="1488" 
d="M92 717q0 155 51.5 289.5t145 234.5t235.5 157.5t314 57.5q179 0 323 -74q78 -38 78 -106q0 -27 -16 -59q-34 -58 -101 -58q-32 0 -67 15q-110 47 -217 47q-212 0 -346 -135t-134 -369q0 -228 133.5 -366t352.5 -138q82 0 169 29.5t128 68.5v226h-232q-48 0 -81 33.5
t-33 84.5q0 49 33.5 83t80.5 34h353q47 0 80.5 -34t33.5 -81v-387q0 -103 -90 -164q-95 -60 -216.5 -94.5t-229.5 -34.5q-348 0 -548 201t-200 539zM788 1636l-208 -108q-15 -10 -41 -10q-47 0 -70 36q-12 18 -12 43q0 44 35 68l231 143q30 21 68 21q33 0 65 -19l236 -145
q34 -21 34 -66q0 -25 -14 -45q-26 -36 -72 -36q-26 0 -43 10z" />
    <glyph glyph-name="gcircumflex" unicode="&#x11d;" horiz-adv-x="1036" 
d="M467 223q0 -29 18 -47q104 0 190.5 -18.5t153 -54.5t103.5 -94t37 -134q0 -100 -65 -169t-171 -100.5t-244 -31.5q-139 0 -244 30.5t-170 99.5t-65 171q0 111 80.5 183.5t218.5 101.5q-16 29 -16 63q0 40 20 66q-103 41 -161 124t-58 185q0 144 108 245t285 101
q136 0 236 -65l186 41q8 2 23 2q33 0 59 -20t33 -52q2 -6 2 -19q0 -33 -20.5 -59.5t-53.5 -32.5l-96 -22q23 -61 23 -119q0 -143 -110.5 -241.5t-289.5 -98.5q-12 -12 -12 -35zM229 -125q0 -54 69.5 -83.5t190.5 -29.5q122 0 190.5 29t68.5 84q0 52 -67 82.5t-192 30.5
q-124 0 -192 -30.5t-68 -82.5zM315 598q0 -66 47 -107.5t125 -41.5q76 0 124 40.5t48 108.5q0 67 -46 111.5t-126 44.5q-77 0 -124.5 -45.5t-47.5 -110.5zM303 1071q-43 0 -67 35q-19 22 -19 53q0 42 33 72l182 158q27 24 68 24q42 0 69 -27l181 -155q30 -27 30 -70
q0 -36 -20 -59q-27 -35 -70 -35q-28 0 -55 20l-137 111l-140 -108q-25 -19 -55 -19z" />
    <glyph glyph-name="Gbreve" unicode="&#x11e;" horiz-adv-x="1488" 
d="M92 717q0 155 51.5 289.5t145 234.5t235.5 157.5t314 57.5q179 0 323 -74q78 -38 78 -106q0 -27 -16 -59q-34 -58 -101 -58q-32 0 -67 15q-110 47 -217 47q-212 0 -346 -135t-134 -369q0 -228 133.5 -366t352.5 -138q82 0 169 29.5t128 68.5v226h-232q-48 0 -81 33.5
t-33 84.5q0 49 33.5 83t80.5 34h353q47 0 80.5 -34t33.5 -81v-387q0 -103 -90 -164q-95 -60 -216.5 -94.5t-229.5 -34.5q-348 0 -548 201t-200 539zM1212 1739q0 -33 -18 -51q-66 -74 -165 -126.5t-195 -52.5q-108 0 -203 51t-164 128q-18 18 -18 51t22 55q25 25 55 25
q31 0 70 -27q97 -78 238 -78q131 0 231 78q39 27 68 27q32 0 57 -25q22 -19 22 -55z" />
    <glyph glyph-name="gbreve" unicode="&#x11f;" horiz-adv-x="1036" 
d="M467 223q0 -29 18 -47q104 0 190.5 -18.5t153 -54.5t103.5 -94t37 -134q0 -100 -65 -169t-171 -100.5t-244 -31.5q-139 0 -244 30.5t-170 99.5t-65 171q0 111 80.5 183.5t218.5 101.5q-16 29 -16 63q0 40 20 66q-103 41 -161 124t-58 185q0 144 108 245t285 101
q136 0 236 -65l186 41q8 2 23 2q33 0 59 -20t33 -52q2 -6 2 -19q0 -33 -20.5 -59.5t-53.5 -32.5l-96 -22q23 -61 23 -119q0 -143 -110.5 -241.5t-289.5 -98.5q-12 -12 -12 -35zM229 -125q0 -54 69.5 -83.5t190.5 -29.5q122 0 190.5 29t68.5 84q0 52 -67 82.5t-192 30.5
q-124 0 -192 -30.5t-68 -82.5zM315 598q0 -66 47 -107.5t125 -41.5q76 0 124 40.5t48 108.5q0 67 -46 111.5t-126 44.5q-77 0 -124.5 -45.5t-47.5 -110.5zM813 1305q0 -26 -14 -43q-132 -172 -312 -172q-175 0 -290 170q-15 22 -15 43q0 32 29 55q22 16 47 16q33 0 57 -24
q81 -70 183 -70q104 0 186 68q31 24 59 24q24 0 45 -16q25 -19 25 -51z" />
    <glyph glyph-name="Gdotaccent" unicode="&#x120;" horiz-adv-x="1488" 
d="M92 717q0 155 51.5 289.5t145 234.5t235.5 157.5t314 57.5q179 0 323 -74q78 -38 78 -106q0 -27 -16 -59q-34 -58 -101 -58q-32 0 -67 15q-110 47 -217 47q-212 0 -346 -135t-134 -369q0 -228 133.5 -366t352.5 -138q82 0 169 29.5t128 68.5v226h-232q-48 0 -81 33.5
t-33 84.5q0 49 33.5 83t80.5 34h353q47 0 80.5 -34t33.5 -81v-387q0 -103 -90 -164q-95 -60 -216.5 -94.5t-229.5 -34.5q-348 0 -548 201t-200 539zM774 1847q62 0 108 -40t46 -105q0 -70 -46 -112t-108 -42q-68 0 -115 41.5t-47 112.5q0 65 47.5 105t114.5 40z" />
    <glyph glyph-name="gdotaccent" unicode="&#x121;" horiz-adv-x="1036" 
d="M467 223q0 -29 18 -47q104 0 190.5 -18.5t153 -54.5t103.5 -94t37 -134q0 -100 -65 -169t-171 -100.5t-244 -31.5q-139 0 -244 30.5t-170 99.5t-65 171q0 111 80.5 183.5t218.5 101.5q-16 29 -16 63q0 40 20 66q-103 41 -161 124t-58 185q0 144 108 245t285 101
q136 0 236 -65l186 41q8 2 23 2q33 0 59 -20t33 -52q2 -6 2 -19q0 -33 -20.5 -59.5t-53.5 -32.5l-96 -22q23 -61 23 -119q0 -143 -110.5 -241.5t-289.5 -98.5q-12 -12 -12 -35zM229 -125q0 -54 69.5 -83.5t190.5 -29.5q122 0 190.5 29t68.5 84q0 52 -67 82.5t-192 30.5
q-124 0 -192 -30.5t-68 -82.5zM315 598q0 -66 47 -107.5t125 -41.5q76 0 124 40.5t48 108.5q0 67 -46 111.5t-126 44.5q-77 0 -124.5 -45.5t-47.5 -110.5zM494 1391q54 0 94.5 -38.5t40.5 -99.5q0 -67 -40.5 -107t-94.5 -40q-63 0 -105.5 39.5t-42.5 107.5q0 61 43 99.5
t105 38.5z" />
    <glyph glyph-name="Gcommaaccent" unicode="&#x122;" horiz-adv-x="1488" 
d="M92 717q0 155 51.5 289.5t145 234.5t235.5 157.5t314 57.5q179 0 323 -74q78 -38 78 -106q0 -27 -16 -59q-34 -58 -101 -58q-32 0 -67 15q-110 47 -217 47q-212 0 -346 -135t-134 -369q0 -228 133.5 -366t352.5 -138q82 0 169 29.5t128 68.5v226h-232q-48 0 -81 33.5
t-33 84.5q0 49 33.5 83t80.5 34h353q47 0 80.5 -34t33.5 -81v-387q0 -103 -90 -164q-95 -60 -216.5 -94.5t-229.5 -34.5q-348 0 -548 201t-200 539zM664 -344q0 27 28 55q37 32 37 92q0 10 -1 26t-1 21q0 20 8 31t33 17l121 26q6 2 14 2q32 0 47 -29t15 -65
q0 -86 -57 -148.5t-140 -91.5q-12 -6 -31 -6q-42 0 -61 31q-12 18 -12 39z" />
    <glyph glyph-name="gcommaaccent" unicode="&#x123;" horiz-adv-x="1036" 
d="M467 223q0 -29 18 -47q104 0 190.5 -18.5t153 -54.5t103.5 -94t37 -134q0 -100 -65 -169t-171 -100.5t-244 -31.5q-139 0 -244 30.5t-170 99.5t-65 171q0 111 80.5 183.5t218.5 101.5q-16 29 -16 63q0 40 20 66q-103 41 -161 124t-58 185q0 144 108 245t285 101
q136 0 236 -65l186 41q8 2 23 2q33 0 59 -20t33 -52q2 -6 2 -19q0 -33 -20.5 -59.5t-53.5 -32.5l-96 -22q23 -61 23 -119q0 -143 -110.5 -241.5t-289.5 -98.5q-12 -12 -12 -35zM229 -125q0 -54 69.5 -83.5t190.5 -29.5q122 0 190.5 29t68.5 84q0 52 -67 82.5t-192 30.5
q-124 0 -192 -30.5t-68 -82.5zM315 598q0 -66 47 -107.5t125 -41.5q76 0 124 40.5t48 108.5q0 67 -46 111.5t-126 44.5q-77 0 -124.5 -45.5t-47.5 -110.5zM651 1362q0 -27 -28 -55q-37 -32 -37 -93q0 -10 1 -26t1 -21q0 -20 -8 -30.5t-33 -16.5l-121 -26q-6 -2 -14 -2
q-32 0 -47 29t-15 65q0 86 57 148t140 91q14 7 31 7q42 0 61 -31q12 -18 12 -39z" />
    <glyph glyph-name="Hcircumflex" unicode="&#x124;" horiz-adv-x="1554" 
d="M1356 1319v-1210q0 -53 -36 -89t-89 -36t-89 36t-36 89v503h-655v-503q0 -53 -36.5 -89t-88.5 -36q-54 0 -90.5 36t-36.5 89v1210q0 53 36.5 89t90.5 36q52 0 88.5 -36t36.5 -89v-471h655v471q0 53 36 89t89 36t89 -36t36 -89zM776 1636l-209 -108q-15 -10 -41 -10
q-46 0 -69 36q-13 20 -13 43q0 44 35 68l232 143q30 21 67 21q34 0 66 -19l235 -145q35 -21 35 -66q0 -25 -14 -45q-26 -36 -72 -36q-26 0 -43 10z" />
    <glyph glyph-name="hcircumflex" unicode="&#x125;" horiz-adv-x="1118" 
d="M367 633v-535q0 -47 -34 -80.5t-83 -33.5q-51 0 -85 33t-34 81v1221q0 48 34 81.5t85 33.5q49 0 83 -33.5t34 -81.5v-481q46 44 116.5 72t147.5 28q178 0 278.5 -97.5t100.5 -305.5v-437q0 -47 -34 -80.5t-83 -33.5q-51 0 -85 33t-34 81v406q0 102 -54 157.5t-151 55.5
q-118 0 -202 -84zM311 1636l-209 -108q-15 -10 -41 -10q-46 0 -69 36q-12 18 -12 43q0 44 34 68l232 143q30 21 67 21q34 0 66 -19l235 -145q35 -21 35 -66q0 -25 -14 -45q-26 -36 -72 -36q-25 0 -43 10z" />
    <glyph glyph-name="Hbar" unicode="&#x126;" horiz-adv-x="1574" 
d="M1116 848v188h-655v-188h655zM1116 109v503h-655v-503q0 -53 -36.5 -89t-88.5 -36q-54 0 -90.5 36t-36.5 89v927h-55q-44 0 -76.5 32.5t-32.5 78.5q0 44 32.5 76t76.5 32h55v66q0 52 36.5 87.5t90.5 35.5q53 0 89 -35.5t36 -87.5v-66h655v66q0 52 36 87.5t89 35.5
t89 -35.5t36 -87.5v-66h55q44 0 76.5 -32t32.5 -76q0 -46 -32.5 -78.5t-76.5 -32.5h-55v-927q0 -53 -36 -89t-89 -36t-89 36t-36 89z" />
    <glyph glyph-name="hbar" unicode="&#x127;" horiz-adv-x="1193" 
d="M442 98q0 -48 -33.5 -81t-82.5 -33q-51 0 -85 33t-34 81v936h-103q-47 0 -80.5 33t-33.5 78q0 43 33.5 75.5t80.5 32.5h103v66q0 48 34 81.5t85 33.5q49 0 82.5 -33.5t33.5 -81.5v-66h189q47 0 80.5 -32.5t33.5 -75.5q0 -45 -33.5 -78t-80.5 -33h-189v-196q46 44 117 72
t148 28q178 0 278 -97.5t100 -305.5v-437q0 -48 -33.5 -81t-82.5 -33q-51 0 -85 33t-34 81v406q0 102 -54 157.5t-151 55.5q-119 0 -203 -84v-535z" />
    <glyph glyph-name="Imacron" unicode="&#x12a;" horiz-adv-x="710" 
d="M481 1319v-1210q0 -53 -36.5 -89t-88.5 -36q-54 0 -90.5 36t-36.5 89v1210q0 53 36.5 89t90.5 36q52 0 88.5 -36t36.5 -89zM586 1745q38 0 66 -28t28 -66t-28 -66.5t-66 -28.5h-445q-38 0 -66 28.5t-28 66.5t28 66t66 28h445z" />
    <glyph glyph-name="imacron" unicode="&#x12b;" horiz-adv-x="567" 
d="M401 821v-723q0 -48 -33.5 -81t-82.5 -33q-51 0 -85 33t-34 81v723q0 48 34 81.5t85 33.5q49 0 82.5 -33.5t33.5 -81.5zM475 1315q38 0 66 -28t28 -66t-28 -66.5t-66 -28.5h-383q-38 0 -66 28.5t-28 66.5t28 66t66 28h383z" />
    <glyph glyph-name="Iogonek" unicode="&#x12e;" horiz-adv-x="710" 
d="M481 1319v-1210q0 -53 -36.5 -89t-88.5 -36q-19 0 -47 8q-55 -14 -91 -53.5t-36 -77.5q0 -42 30 -62t75 -20q60 0 88 -11.5t37 -46.5q2 -8 2 -24q0 -27 -14.5 -49.5t-41.5 -32.5q-60 -25 -137 -25q-116 0 -195 48t-79 145t88.5 161.5t220.5 84.5q-27 35 -27 80v1210
q0 53 36.5 89t90.5 36q52 0 88.5 -36t36.5 -89z" />
    <glyph glyph-name="iogonek" unicode="&#x12f;" horiz-adv-x="567" 
d="M401 821v-723q0 -48 -33.5 -81t-82.5 -33q-29 0 -52 10q-57 -13 -95 -53t-38 -80q0 -42 30 -62t75 -20q60 0 88 -11.5t37 -46.5q2 -8 2 -24q0 -27 -14.5 -49.5t-41.5 -32.5q-60 -25 -137 -25q-116 0 -195 48t-79 145q0 100 92.5 164.5t228.5 83.5q-20 26 -20 67v723
q0 48 34 81.5t85 33.5q49 0 82.5 -33.5t33.5 -81.5zM289 1391q54 0 94.5 -38.5t40.5 -99.5q0 -67 -40.5 -107t-94.5 -40q-63 0 -105.5 39.5t-42.5 107.5q0 61 43 99.5t105 38.5z" />
    <glyph glyph-name="Idotaccent" unicode="&#x130;" horiz-adv-x="710" 
d="M481 1319v-1210q0 -53 -36.5 -89t-88.5 -36q-54 0 -90.5 36t-36.5 89v1210q0 53 36.5 89t90.5 36q52 0 88.5 -36t36.5 -89zM360 1847q62 0 108 -40t46 -105q0 -70 -46 -112t-108 -42q-68 0 -114.5 41.5t-46.5 112.5q0 65 47 105t114 40z" />
    <glyph glyph-name="dotlessi" unicode="&#x131;" horiz-adv-x="567" 
d="M401 821v-723q0 -48 -33.5 -81t-82.5 -33q-51 0 -85 33t-34 81v723q0 48 34 81.5t85 33.5q49 0 82.5 -33.5t33.5 -81.5z" />
    <glyph glyph-name="Jcircumflex" unicode="&#x134;" horiz-adv-x="790" 
d="M340 381v938q0 53 36.5 89t90.5 36q53 0 89 -36t36 -89v-981q0 -174 -87 -267.5t-259 -93.5q-75 0 -140 21q-38 13 -63 42t-25 69q0 21 5 36q9 36 36 57t64 21q3 0 9 -1t9 -1q49 -8 70 -8q129 0 129 168zM459 1636l-209 -108q-15 -10 -41 -10q-47 0 -70 36q-12 18 -12 43
q0 44 35 68l231 143q30 21 68 21q33 0 65 -19l236 -145q35 -21 35 -66q0 -24 -15 -45q-26 -36 -71 -36q-25 0 -43 10z" />
    <glyph glyph-name="jcircumflex" unicode="&#x135;" horiz-adv-x="606" 
d="M203 -47v868q0 48 34 81.5t85 33.5q49 0 82.5 -33.5t33.5 -81.5v-889q0 -358 -288 -358q-83 0 -140 30.5t-57 96.5t57 84q16 6 45 6h35q113 0 113 162zM125 1071q-44 0 -68 35q-18 21 -18 53q0 42 33 72l182 158q27 24 68 24q42 0 69 -27l180 -155q31 -28 31 -70
q0 -36 -20 -59q-27 -35 -70 -35q-28 0 -55 20l-138 111l-139 -108q-25 -19 -55 -19z" />
    <glyph glyph-name="Kcommaaccent" unicode="&#x136;" horiz-adv-x="1329" 
d="M451 739v-630q0 -53 -36.5 -89t-88.5 -36q-54 0 -90.5 36t-36.5 89v1210q0 53 36.5 89t90.5 36q52 0 88.5 -36t36.5 -89v-565l516 622q30 36 54.5 52t59.5 16q50 0 81.5 -30.5t31.5 -74.5q0 -50 -37 -90l-428 -483l465 -569q41 -49 41 -101q0 -48 -34.5 -80t-90.5 -32
q-62 0 -121 75zM520 -344q0 26 29 55q37 32 37 92q0 10 -1 26t-1 21q0 20 8 31t33 17l120 26q6 2 15 2q32 0 46.5 -29t14.5 -65q0 -86 -56.5 -148.5t-139.5 -91.5q-12 -6 -31 -6q-43 0 -62 31q-12 18 -12 39z" />
    <glyph glyph-name="kcommaaccent" unicode="&#x137;" horiz-adv-x="1011" 
d="M700 47l-282 371q-21 27 -21 65q0 35 21 62l246 327q48 64 110 64q53 0 83 -32.5t30 -76.5q0 -39 -27 -73l-209 -254l252 -324q29 -40 29 -78q0 -46 -32.5 -80t-84.5 -34q-68 0 -115 63zM367 1319v-1221q0 -47 -34 -80.5t-83 -33.5q-51 0 -85 33t-34 81v1221
q0 48 34 81.5t85 33.5q49 0 83 -33.5t34 -81.5zM338 -344q0 26 29 55q36 31 36 92q0 10 -1 26t-1 21q0 20 8 31t33 17l121 26q6 2 15 2q32 0 46.5 -29t14.5 -65q0 -86 -57 -148.5t-140 -91.5q-12 -6 -30 -6q-43 0 -62 31q-12 18 -12 39z" />
    <glyph glyph-name="Lacute" unicode="&#x139;" horiz-adv-x="1120" 
d="M451 236h520q52 0 88.5 -35t36.5 -82q0 -48 -36.5 -83.5t-88.5 -35.5h-647q-52 0 -88.5 36t-36.5 89v1194q0 53 36.5 89t90.5 36q52 0 88.5 -36t36.5 -89v-1083zM467 1673l303 158q13 8 33 8q46 0 65 -43l27 -63q6 -12 6 -29q0 -22 -13 -40.5t-34 -25.5l-317 -116
q-8 -4 -27 -4q-56 0 -78 51q-8 13 -8 35t11.5 41t31.5 28z" />
    <glyph glyph-name="lacute" unicode="&#x13a;" horiz-adv-x="612" 
d="M367 1319v-969q0 -145 86 -145h34q34 0 48 -6q57 -20 57 -84q0 -70 -56 -100.5t-167 -30.5q-238 0 -238 270v1065q0 48 34 81.5t85 33.5q49 0 83 -33.5t34 -81.5zM213 1673l303 158q13 8 33 8q46 0 65 -43l27 -63q6 -12 6 -29q0 -22 -13 -40.5t-34 -25.5l-317 -116
q-8 -4 -27 -4q-56 0 -78 51q-8 13 -8 35t11.5 41t31.5 28z" />
    <glyph glyph-name="Lcommaaccent" unicode="&#x13b;" horiz-adv-x="1120" 
d="M451 236h520q52 0 88.5 -35t36.5 -82q0 -48 -36.5 -83.5t-88.5 -35.5h-647q-52 0 -88.5 36t-36.5 89v1194q0 53 36.5 89t90.5 36q52 0 88.5 -36t36.5 -89v-1083zM469 -344q0 26 29 55q37 32 37 92q0 10 -1.5 26t-1.5 21q0 20 8 31t33 17l121 26q6 2 15 2q32 0 46.5 -29
t14.5 -65q0 -86 -57 -148.5t-140 -91.5q-12 -6 -30 -6q-43 0 -62 31q-12 18 -12 39z" />
    <glyph glyph-name="lcommaaccent" unicode="&#x13c;" horiz-adv-x="612" 
d="M367 1319v-969q0 -145 86 -145h34q34 0 48 -6q57 -20 57 -84q0 -70 -56 -100.5t-167 -30.5q-238 0 -238 270v1065q0 48 34 81.5t85 33.5q49 0 83 -33.5t34 -81.5zM195 -344q0 27 28 55q37 32 37 92q0 10 -1 26t-1 21q0 20 8 31t33 17l121 26q6 2 14 2q32 0 47 -29t15 -65
q0 -86 -57 -148.5t-140 -91.5q-12 -6 -31 -6q-42 0 -61 31q-12 18 -12 39z" />
    <glyph glyph-name="Lcaron" unicode="&#x13d;" horiz-adv-x="1120" 
d="M451 236h520q52 0 88.5 -35t36.5 -82q0 -48 -36.5 -83.5t-88.5 -35.5h-647q-52 0 -88.5 36t-36.5 89v1194q0 53 36.5 89t90.5 36q52 0 88.5 -36t36.5 -89v-1083zM686 1108q0 25 19 57q49 74 49 142q0 18 -2 26q-7 35 -7 51q0 27 13.5 38.5t44.5 11.5h98q38 0 54 -21.5
t16 -48.5q0 -201 -144 -317q-20 -17 -55 -17t-57 19q-29 26 -29 59z" />
    <glyph glyph-name="lcaron" unicode="&#x13e;" horiz-adv-x="612" 
d="M367 1319v-969q0 -145 86 -145h34q34 0 48 -6q57 -20 57 -84q0 -70 -56 -100.5t-167 -30.5q-238 0 -238 270v1065q0 48 34 81.5t85 33.5q49 0 83 -33.5t34 -81.5zM481 1108q0 25 19 57q49 74 49 142q0 18 -2 26q-6 30 -6 51q0 28 13 39t44 11h98q38 0 54 -21.5t16 -48.5
q0 -202 -143 -317q-20 -17 -56 -17q-35 0 -57 19q-29 26 -29 59z" />
    <glyph glyph-name="Ldot" unicode="&#x13f;" horiz-adv-x="1120" 
d="M451 236h520q52 0 88.5 -35t36.5 -82q0 -48 -36.5 -83.5t-88.5 -35.5h-647q-52 0 -88.5 36t-36.5 89v1194q0 53 36.5 89t90.5 36q52 0 88.5 -36t36.5 -89v-1083zM893 920q63 0 106 -47.5t43 -104.5q0 -65 -42.5 -114.5t-106.5 -49.5q-73 0 -118.5 49t-45.5 115
q0 58 45.5 105t118.5 47z" />
    <glyph glyph-name="ldot" unicode="&#x140;" horiz-adv-x="716" 
d="M367 1319v-969q0 -145 86 -145h34q34 0 48 -6q57 -20 57 -84q0 -70 -56 -100.5t-167 -30.5q-238 0 -238 270v1065q0 48 34 81.5t85 33.5q49 0 83 -33.5t34 -81.5zM614 829q54 0 95 -38.5t41 -98.5q0 -67 -41 -107t-95 -40q-63 0 -105 39.5t-42 107.5q0 61 42.5 99
t104.5 38z" />
    <glyph glyph-name="Lslash" unicode="&#x141;" horiz-adv-x="1128" 
d="M209 739v580q0 53 36.5 89t90.5 36q52 0 88.5 -36t36.5 -89v-463l190 86q17 10 47 10q32 0 59 -16t40 -45q10 -23 10 -43q0 -32 -17.5 -60t-48.5 -43l-280 -131v-378h534q45 0 78 -34t33 -83q0 -50 -33 -84.5t-78 -34.5h-676q-44 0 -77 33.5t-33 77.5v387l-31 -15
q-17 -10 -47 -10q-31 0 -58 16.5t-40 45.5q-10 17 -10 45q0 72 63 100z" />
    <glyph glyph-name="lslash" unicode="&#x142;" horiz-adv-x="659" 
d="M401 590v-240q0 -145 86 -145h35q33 0 47 -6q58 -20 58 -84q0 -70 -56.5 -100.5t-167.5 -30.5q-237 0 -237 270v229q-24 -12 -47 -12q-29 0 -55 15.5t-39 41.5t-13 50q0 32 17.5 60.5t46.5 41.5l90 43v596q0 48 34 81.5t85 33.5q49 0 82.5 -33.5t33.5 -81.5v-492l91 43
q22 11 49 11q31 0 58.5 -16.5t39.5 -43.5q8 -16 8 -41q0 -33 -18 -62t-49 -44z" />
    <glyph glyph-name="Nacute" unicode="&#x143;" horiz-adv-x="1622" 
d="M1188 436v893q0 48 34 81.5t85 33.5q49 0 82.5 -33.5t33.5 -81.5v-1231q0 -48 -31.5 -81t-80.5 -33q-76 0 -135 75l-742 934v-895q0 -47 -34 -80.5t-83 -33.5q-51 0 -84.5 33t-33.5 81v1231q0 50 34 82.5t86 32.5q38 0 67 -16t60 -54zM727 1673l303 158q13 8 33 8
q46 0 65 -43l27 -63q6 -12 6 -29q0 -22 -13 -40.5t-34 -25.5l-317 -116q-8 -4 -27 -4q-56 0 -78 51q-8 13 -8 35t11.5 41t31.5 28z" />
    <glyph glyph-name="nacute" unicode="&#x144;" horiz-adv-x="1118" 
d="M252 936q49 0 82 -31t33 -74q44 46 114.5 76.5t149.5 30.5q379 0 379 -397v-443q0 -47 -34 -80.5t-83 -33.5q-51 0 -85 33t-34 81v402q0 108 -53.5 162.5t-153.5 54.5q-112 0 -200 -88v-531q0 -47 -34 -80.5t-83 -33.5q-51 0 -85 33t-34 81v709q0 59 33 94t88 35z
M475 1229l125 194q21 35 66 35q27 0 47 -14l49 -37q31 -22 31 -64q0 -29 -19 -51l-147 -170q-27 -30 -70 -30q-29 0 -55 16q-39 26 -39 76q0 24 12 45z" />
    <glyph glyph-name="Ncommaaccent" unicode="&#x145;" horiz-adv-x="1622" 
d="M1188 436v893q0 48 34 81.5t85 33.5q49 0 82.5 -33.5t33.5 -81.5v-1231q0 -48 -31.5 -81t-80.5 -33q-76 0 -135 75l-742 934v-895q0 -47 -34 -80.5t-83 -33.5q-51 0 -84.5 33t-33.5 81v1231q0 50 34 82.5t86 32.5q38 0 67 -16t60 -54zM647 -344q0 26 29 55q37 32 37 92
q0 10 -1 26t-1 21q0 20 8 31t33 17l120 26q6 2 15 2q32 0 46.5 -29t14.5 -65q0 -86 -56.5 -148.5t-139.5 -91.5q-12 -6 -31 -6q-43 0 -62 31q-12 18 -12 39z" />
    <glyph glyph-name="ncommaaccent" unicode="&#x146;" horiz-adv-x="1118" 
d="M252 936q49 0 82 -31t33 -74q44 46 114.5 76.5t149.5 30.5q379 0 379 -397v-443q0 -47 -34 -80.5t-83 -33.5q-51 0 -85 33t-34 81v402q0 108 -53.5 162.5t-153.5 54.5q-112 0 -200 -88v-531q0 -47 -34 -80.5t-83 -33.5q-51 0 -85 33t-34 81v709q0 59 33 94t88 35z
M391 -344q0 26 29 55q37 32 37 92q0 10 -1 26t-1 21q0 20 8 31t33 17l120 26q6 2 15 2q32 0 46.5 -29t14.5 -65q0 -86 -56.5 -148.5t-139.5 -91.5q-12 -6 -31 -6q-43 0 -62 31q-12 18 -12 39z" />
    <glyph glyph-name="Ncaron" unicode="&#x147;" horiz-adv-x="1622" 
d="M1188 436v893q0 48 34 81.5t85 33.5q49 0 82.5 -33.5t33.5 -81.5v-1231q0 -48 -31.5 -81t-80.5 -33q-76 0 -135 75l-742 934v-895q0 -47 -34 -80.5t-83 -33.5q-51 0 -84.5 33t-33.5 81v1231q0 50 34 82.5t86 32.5q38 0 67 -16t60 -54zM1069 1837q46 0 68 -35
q12 -18 12 -41q0 -43 -37 -69l-229 -144q-29 -20 -70 -20q-38 0 -68 18l-231 146q-35 21 -35 65q0 26 15 47q24 35 67 35q24 0 45 -12l211 -123l209 123q15 10 43 10z" />
    <glyph glyph-name="ncaron" unicode="&#x148;" horiz-adv-x="1118" 
d="M252 936q49 0 82 -31t33 -74q44 46 114.5 76.5t149.5 30.5q379 0 379 -397v-443q0 -47 -34 -80.5t-83 -33.5q-51 0 -85 33t-34 81v402q0 108 -53.5 162.5t-153.5 54.5q-112 0 -200 -88v-531q0 -47 -34 -80.5t-83 -33.5q-51 0 -85 33t-34 81v709q0 59 33 94t88 35z
M764 1415q35 0 61 -26q21 -24 21 -56q0 -42 -31 -67l-190 -166q-28 -25 -68 -25q-43 0 -70 27l-188 164q-29 29 -29 67q0 32 23 58q22 28 65 28q38 0 60 -22l141 -129l143 125q28 22 62 22z" />
    <glyph glyph-name="Omacron" unicode="&#x14c;" horiz-adv-x="1677" 
d="M92 717q0 154 55 290.5t152.5 235.5t237 156t301.5 57q212 0 381.5 -91t267.5 -260t98 -388q0 -212 -97.5 -381.5t-268 -264t-381.5 -94.5q-212 0 -381.5 91t-267 260.5t-97.5 388.5zM358 717q0 -214 139 -359t341 -145q220 0 350.5 143t130.5 361q0 220 -138 362
t-343 142q-207 0 -343.5 -141.5t-136.5 -362.5zM1075 1745q38 0 66 -28t28 -66t-28 -66.5t-66 -28.5h-444q-38 0 -66 28.5t-28 66.5t28 66t66 28h444z" />
    <glyph glyph-name="omacron" unicode="&#x14d;" horiz-adv-x="1150" 
d="M74 461q0 210 138 346.5t363 136.5q226 0 364 -136.5t138 -346.5t-138.5 -347t-363.5 -137t-363 137t-138 347zM326 461q0 -115 70.5 -189.5t178.5 -74.5q110 0 181 72.5t71 191.5q0 116 -71.5 189t-180.5 73q-107 0 -178 -72t-71 -190zM782 1315q38 0 66.5 -28t28.5 -66
t-28.5 -66.5t-66.5 -28.5h-383q-38 0 -66 28.5t-28 66.5t28 66t66 28h383z" />
    <glyph glyph-name="Ohungarumlaut" unicode="&#x150;" horiz-adv-x="1677" 
d="M92 717q0 154 55 290.5t152.5 235.5t237 156t301.5 57q212 0 381.5 -91t267.5 -260t98 -388q0 -212 -97.5 -381.5t-268 -264t-381.5 -94.5q-212 0 -381.5 91t-267 260.5t-97.5 388.5zM358 717q0 -214 139 -359t341 -145q220 0 350.5 143t130.5 361q0 220 -138 362
t-343 142q-207 0 -343.5 -141.5t-136.5 -362.5zM956 1642l213 179q21 18 54 18q30 0 55 -22l57 -50q19 -16 19 -38q0 -33 -29 -46l-264 -151q-22 -14 -57 -14q-39 0 -58 22q-16 19 -16 45q0 34 26 57zM575 1647l140 163q30 33 69 33q21 0 41 -10l76 -39q25 -12 25 -41
q0 -21 -19 -37l-221 -174q-24 -18 -55 -18q-32 0 -53 18q-23 23 -23 51q0 31 20 54z" />
    <glyph glyph-name="ohungarumlaut" unicode="&#x151;" horiz-adv-x="1150" 
d="M74 461q0 210 138 346.5t363 136.5q226 0 364 -136.5t138 -346.5t-138.5 -347t-363.5 -137t-363 137t-138 347zM326 461q0 -115 70.5 -189.5t178.5 -74.5q110 0 181 72.5t71 191.5q0 116 -71.5 189t-180.5 73q-107 0 -178 -72t-71 -190zM662 1225l135 184q26 33 69 33
q29 0 49 -17l39 -30q31 -24 31 -62q0 -29 -22 -51l-152 -162q-35 -35 -78 -35q-29 0 -51 19q-37 27 -37 74q0 23 17 47zM322 1231l116 192q21 37 68 37q25 0 45 -14l33 -23q32 -22 32 -67q0 -32 -16 -51l-131 -179q-22 -32 -72 -32q-27 0 -53 16q-37 24 -37 70q0 27 15 51z
" />
    <glyph glyph-name="OE" unicode="&#x152;" horiz-adv-x="2125" 
d="M1399 236h483q48 0 81.5 -34t33.5 -83q0 -51 -33.5 -85t-81.5 -34h-696q-15 0 -27 12t-12 29q-148 -64 -316 -64q-217 0 -385 91.5t-261 260t-93 388.5q0 155 48.5 289t139.5 234.5t231.5 158t313.5 57.5q178 0 322 -67q0 19 13 32t32 13h670q47 0 80.5 -34t33.5 -83
q0 -51 -33 -85t-81 -34h-463v-356h401q48 0 81.5 -34t33.5 -83q0 -51 -33.5 -85t-81.5 -34h-401v-370zM1147 295v829q-146 97 -322 97q-204 0 -335.5 -137.5t-131.5 -366.5q0 -224 138 -364t358 -140q162 0 293 82z" />
    <glyph glyph-name="oe" unicode="&#x153;" horiz-adv-x="1720" 
d="M723 461q0 111 37 198q-79 64 -185 64q-107 0 -179 -72.5t-72 -189.5q0 -115 71 -189.5t180 -74.5q111 0 183 65q-35 90 -35 199zM1411 551q0 85 -57.5 141t-153.5 56q-102 0 -162 -53t-80 -148h453v4zM1563 389h-596q15 -102 89 -158.5t185 -56.5q97 0 172 35
q31 14 53 14q47 0 74 -43q14 -24 14 -45q0 -53 -47 -80q-132 -78 -290 -78q-191 0 -320 99q-132 -99 -322 -99q-225 0 -363 137t-138 347t138 346.5t363 136.5q192 0 322 -102q130 102 313 102t310 -119.5t127 -308.5v-43q0 -38 -25 -61t-59 -23z" />
    <glyph glyph-name="Racute" unicode="&#x154;" horiz-adv-x="1304" 
d="M981 55l-354 482h-176v-428q0 -53 -36.5 -89t-88.5 -36q-54 0 -90.5 36t-36.5 89v1200q0 53 36.5 89t88.5 36q242 4 311 4q114 0 203.5 -22.5t148.5 -61.5t97 -96t54.5 -121.5t16.5 -141.5q0 -88 -25.5 -161t-68.5 -121.5t-88 -79t-94 -47.5l313 -412q27 -38 27 -76
q0 -47 -34 -80.5t-87 -33.5q-37 0 -63 17t-54 54zM451 772h163q116 0 195.5 58t79.5 163q0 209 -266 209q-36 0 -172 -4v-426zM492 1673l303 158q13 8 32 8q21 0 39 -11.5t27 -31.5l27 -63q6 -12 6 -29q0 -22 -13 -40.5t-34 -25.5l-318 -116q-8 -4 -26 -4q-56 0 -78 51
q-8 13 -8 35t11.5 41t31.5 28z" />
    <glyph glyph-name="racute" unicode="&#x155;" horiz-adv-x="714" 
d="M252 936q49 0 82 -29.5t33 -72.5q39 51 85.5 79.5t122.5 28.5q45 0 83 -26t38 -80q0 -59 -34 -90t-113 -31q-5 0 -16 1t-17 1h-14q-51 0 -82 -26.5t-53 -72.5v-520q0 -47 -34 -80.5t-83 -33.5q-51 0 -85 33t-34 81v709q0 60 32.5 94.5t88.5 34.5zM295 1229l125 194
q21 35 65 35q27 0 47 -14l50 -37q30 -21 30 -64q0 -30 -18 -51l-148 -170q-27 -30 -69 -30q-29 0 -55 16q-39 26 -39 76q0 24 12 45z" />
    <glyph glyph-name="Rcommaaccent" unicode="&#x156;" horiz-adv-x="1304" 
d="M981 55l-354 482h-176v-428q0 -53 -36.5 -89t-88.5 -36q-54 0 -90.5 36t-36.5 89v1200q0 53 36.5 89t88.5 36q242 4 311 4q114 0 203.5 -22.5t148.5 -61.5t97 -96t54.5 -121.5t16.5 -141.5q0 -88 -25.5 -161t-68.5 -121.5t-88 -79t-94 -47.5l313 -412q27 -38 27 -76
q0 -47 -34 -80.5t-87 -33.5q-37 0 -63 17t-54 54zM451 772h163q116 0 195.5 58t79.5 163q0 209 -266 209q-36 0 -172 -4v-426zM504 -344q0 27 28 55q37 32 37 92q0 10 -1 26t-1 21q0 20 8 31t33 17l121 26q6 2 14 2q32 0 47 -29t15 -65q0 -86 -57 -148.5t-140 -91.5
q-12 -6 -30 -6q-43 0 -62 31q-12 18 -12 39z" />
    <glyph glyph-name="rcommaaccent" unicode="&#x157;" horiz-adv-x="714" 
d="M252 936q49 0 82 -29.5t33 -72.5q39 51 85.5 79.5t122.5 28.5q45 0 83 -26t38 -80q0 -59 -34 -90t-113 -31q-5 0 -16 1t-17 1h-14q-51 0 -82 -26.5t-53 -72.5v-520q0 -47 -34 -80.5t-83 -33.5q-51 0 -85 33t-34 81v709q0 60 32.5 94.5t88.5 34.5zM182 -344q0 26 29 55
q37 32 37 92q0 10 -1 26t-1 21q0 20 8 31t33 17l121 26q6 2 14 2q32 0 46.5 -29t14.5 -65q0 -86 -56.5 -148.5t-139.5 -91.5q-12 -6 -31 -6q-42 0 -61 31q-13 19 -13 39z" />
    <glyph glyph-name="Rcaron" unicode="&#x158;" horiz-adv-x="1304" 
d="M981 55l-354 482h-176v-428q0 -53 -36.5 -89t-88.5 -36q-54 0 -90.5 36t-36.5 89v1200q0 53 36.5 89t88.5 36q242 4 311 4q114 0 203.5 -22.5t148.5 -61.5t97 -96t54.5 -121.5t16.5 -141.5q0 -88 -25.5 -161t-68.5 -121.5t-88 -79t-94 -47.5l313 -412q27 -38 27 -76
q0 -47 -34 -80.5t-87 -33.5q-37 0 -63 17t-54 54zM451 772h163q116 0 195.5 58t79.5 163q0 209 -266 209q-36 0 -172 -4v-426zM874 1837q46 0 68 -35q12 -18 12 -41q0 -44 -36 -69l-230 -144q-29 -20 -70 -20q-37 0 -67 18l-232 146q-34 21 -34 65q0 27 14 47q24 35 68 35
q24 0 45 -12l211 -123l208 123q15 10 43 10z" />
    <glyph glyph-name="rcaron" unicode="&#x159;" horiz-adv-x="714" 
d="M252 936q49 0 82 -29.5t33 -72.5q39 51 85.5 79.5t122.5 28.5q45 0 83 -26t38 -80q0 -59 -34 -90t-113 -31q-5 0 -16 1t-17 1h-14q-51 0 -82 -26.5t-53 -72.5v-520q0 -47 -34 -80.5t-83 -33.5q-51 0 -85 33t-34 81v709q0 60 32.5 94.5t88.5 34.5zM610 1415q36 0 62 -26
q20 -23 20 -56q0 -43 -30 -67l-191 -166q-28 -25 -68 -25q-42 0 -69 27l-189 164q-28 28 -28 67q0 33 22 58q22 28 66 28q37 0 59 -22l142 -129l143 125q28 22 61 22z" />
    <glyph glyph-name="Sacute" unicode="&#x15a;" horiz-adv-x="1083" 
d="M88 213q0 41 31 80q33 41 88 41q45 0 90 -31q122 -90 227 -90q92 0 150.5 44.5t58.5 123.5q0 50 -28 91t-73.5 68.5t-104 57t-119 54.5t-119 63t-104 82t-73.5 112t-28 152q0 167 121.5 281t324.5 114q169 0 281 -59q39 -21 61.5 -50.5t22.5 -62.5q0 -29 -18 -59
q-34 -58 -97 -58q-28 0 -63 15q-93 41 -170 41q-92 0 -144.5 -44t-52.5 -116q0 -60 36 -105.5t93 -76.5t126 -59.5t138.5 -64.5t126.5 -82t93 -120.5t36 -171.5q0 -179 -137.5 -292.5t-341.5 -113.5q-222 0 -385 140q-47 41 -47 96zM455 1673l303 158q13 8 33 8q46 0 65 -43
l27 -63q6 -12 6 -29q0 -22 -13 -40.5t-34 -25.5l-318 -116q-8 -4 -26 -4q-56 0 -78 51q-8 13 -8 35t11.5 41t31.5 28z" />
    <glyph glyph-name="sacute" unicode="&#x15b;" horiz-adv-x="868" 
d="M70 162q0 34 20 57q30 37 74 37q29 0 67 -23q92 -59 213 -59q53 0 87 22.5t34 63.5q0 34 -37 58.5t-92 38t-119.5 36t-119.5 50.5t-92 85t-37 136q0 131 95 205.5t243 74.5q162 0 280 -70q49 -30 49 -79q0 -26 -12 -47q-26 -48 -82 -48q-26 0 -55 13q-78 35 -168 35
q-52 0 -83.5 -24t-31.5 -56q0 -31 27.5 -53t71.5 -36t97 -28t106 -35t97 -49.5t71.5 -78.5t27.5 -116q0 -136 -101.5 -215.5t-271.5 -79.5q-192 0 -319 105q-39 33 -39 80zM309 1229l125 194q21 35 66 35q27 0 47 -14l49 -37q31 -22 31 -64q0 -29 -19 -51l-147 -170
q-27 -30 -70 -30q-29 0 -55 16q-39 26 -39 76q0 24 12 45z" />
    <glyph glyph-name="Scircumflex" unicode="&#x15c;" horiz-adv-x="1083" 
d="M88 213q0 41 31 80q33 41 88 41q45 0 90 -31q122 -90 227 -90q92 0 150.5 44.5t58.5 123.5q0 50 -28 91t-73.5 68.5t-104 57t-119 54.5t-119 63t-104 82t-73.5 112t-28 152q0 167 121.5 281t324.5 114q169 0 281 -59q39 -21 61.5 -50.5t22.5 -62.5q0 -29 -18 -59
q-34 -58 -97 -58q-28 0 -63 15q-93 41 -170 41q-92 0 -144.5 -44t-52.5 -116q0 -60 36 -105.5t93 -76.5t126 -59.5t138.5 -64.5t126.5 -82t93 -120.5t36 -171.5q0 -179 -137.5 -292.5t-341.5 -113.5q-222 0 -385 140q-47 41 -47 96zM520 1636l-209 -108q-15 -10 -41 -10
q-46 0 -69 36q-13 20 -13 43q0 44 35 68l232 143q30 21 67 21q34 0 66 -19l235 -145q35 -21 35 -66q0 -25 -14 -45q-26 -36 -72 -36q-26 0 -43 10z" />
    <glyph glyph-name="scircumflex" unicode="&#x15d;" horiz-adv-x="868" 
d="M70 162q0 34 20 57q30 37 74 37q29 0 67 -23q92 -59 213 -59q53 0 87 22.5t34 63.5q0 34 -37 58.5t-92 38t-119.5 36t-119.5 50.5t-92 85t-37 136q0 131 95 205.5t243 74.5q162 0 280 -70q49 -30 49 -79q0 -26 -12 -47q-26 -48 -82 -48q-26 0 -55 13q-78 35 -168 35
q-52 0 -83.5 -24t-31.5 -56q0 -31 27.5 -53t71.5 -36t97 -28t106 -35t97 -49.5t71.5 -78.5t27.5 -116q0 -136 -101.5 -215.5t-271.5 -79.5q-192 0 -319 105q-39 33 -39 80zM227 1071q-43 0 -67 35q-19 22 -19 53q0 42 33 72l182 158q27 24 68 24q43 0 70 -27l180 -155
q31 -28 31 -70q0 -35 -21 -59q-27 -35 -70 -35q-28 0 -55 20l-137 111l-139 -108q-25 -19 -56 -19z" />
    <glyph glyph-name="Scedilla" unicode="&#x15e;" horiz-adv-x="1083" 
d="M555 -68q227 -17 227 -178q0 -80 -72 -130t-200 -50q-141 0 -236 64q-26 16 -26 51q0 18 10 35q19 32 57 32q19 0 35 -8q64 -31 103 -31q35 0 57 14t22 38q0 34 -34 49q-34 16 -48 34.5t-14 53.5v76q-167 18 -301 135q-47 41 -47 96q0 41 31 80q33 41 88 41q45 0 90 -31
q122 -90 227 -90q92 0 150.5 44.5t58.5 123.5q0 50 -28 91t-73.5 68.5t-104 57t-119 54.5t-119 63t-104 82t-73.5 112t-28 152q0 167 121.5 281t324.5 114q169 0 281 -59q39 -21 61.5 -50.5t22.5 -62.5q0 -29 -18 -59q-34 -58 -97 -58q-28 0 -63 15q-93 41 -170 41
q-92 0 -144.5 -44t-52.5 -116q0 -60 36 -105.5t93 -76.5t126 -59.5t138.5 -64.5t126.5 -82t93 -120.5t36 -171.5q0 -171 -126 -282.5t-318 -120.5v-48z" />
    <glyph glyph-name="scedilla" unicode="&#x15f;" horiz-adv-x="868" 
d="M487 -70q104 -7 158.5 -52.5t54.5 -123.5q0 -81 -73.5 -130.5t-208.5 -49.5q-111 0 -193 49q-30 20 -30 60q0 16 6 28q18 35 59 35q21 0 37 -8q51 -21 88 -21q35 0 57.5 14t22.5 38q0 36 -31 47q-38 15 -51.5 35.5t-13.5 62.5v66q-152 14 -260 102q-39 33 -39 80
q0 34 20 57q30 37 74 37q29 0 67 -23q92 -59 213 -59q53 0 87 22.5t34 63.5q0 34 -37 58.5t-92 38t-119.5 36t-119.5 50.5t-92 85t-37 136q0 131 95 205.5t243 74.5q162 0 280 -70q49 -30 49 -79q0 -26 -12 -47q-26 -48 -82 -48q-26 0 -55 13q-78 35 -168 35
q-52 0 -83.5 -24t-31.5 -56q0 -31 27.5 -53t71.5 -36t97 -28t106 -35t97 -49.5t71.5 -78.5t27.5 -116q0 -123 -85 -199.5t-229 -90.5v-52z" />
    <glyph glyph-name="Scaron" unicode="&#x160;" horiz-adv-x="1083" 
d="M88 213q0 41 31 80q33 41 88 41q45 0 90 -31q122 -90 227 -90q92 0 150.5 44.5t58.5 123.5q0 50 -28 91t-73.5 68.5t-104 57t-119 54.5t-119 63t-104 82t-73.5 112t-28 152q0 167 121.5 281t324.5 114q169 0 281 -59q39 -21 61.5 -50.5t22.5 -62.5q0 -29 -18 -59
q-34 -58 -97 -58q-28 0 -63 15q-93 41 -170 41q-92 0 -144.5 -44t-52.5 -116q0 -60 36 -105.5t93 -76.5t126 -59.5t138.5 -64.5t126.5 -82t93 -120.5t36 -171.5q0 -179 -137.5 -292.5t-341.5 -113.5q-222 0 -385 140q-47 41 -47 96zM786 1837q46 0 68 -35q12 -18 12 -41
q0 -43 -37 -69l-229 -144q-29 -20 -70 -20q-37 0 -67 18l-232 146q-34 21 -34 65q0 27 14 47q24 35 68 35q24 0 45 -12l211 -123l208 123q15 10 43 10z" />
    <glyph glyph-name="scaron" unicode="&#x161;" horiz-adv-x="868" 
d="M70 162q0 34 20 57q30 37 74 37q29 0 67 -23q92 -59 213 -59q53 0 87 22.5t34 63.5q0 34 -37 58.5t-92 38t-119.5 36t-119.5 50.5t-92 85t-37 136q0 131 95 205.5t243 74.5q162 0 280 -70q49 -30 49 -79q0 -26 -12 -47q-26 -48 -82 -48q-26 0 -55 13q-78 35 -168 35
q-52 0 -83.5 -24t-31.5 -56q0 -31 27.5 -53t71.5 -36t97 -28t106 -35t97 -49.5t71.5 -78.5t27.5 -116q0 -136 -101.5 -215.5t-271.5 -79.5q-192 0 -319 105q-39 33 -39 80zM627 1415q35 0 61 -26q21 -24 21 -56q0 -42 -31 -67l-191 -166q-28 -25 -67 -25q-43 0 -70 27
l-188 164q-29 29 -29 67q0 32 23 58q22 28 65 28q38 0 60 -22l141 -129l143 125q28 22 62 22z" />
    <glyph glyph-name="Tcedilla" unicode="&#x162;" horiz-adv-x="1222" 
d="M670 -68q227 -17 227 -178q0 -80 -72 -130t-200 -50q-141 0 -236 64q-27 17 -27 51q0 17 11 35q19 32 57 32q19 0 35 -8q64 -31 102 -31q35 0 57.5 14t22.5 38q0 34 -35 49q-34 16 -47.5 34.5t-13.5 53.5v94q-30 15 -48 44t-18 65v1089h-350q-48 0 -81.5 34t-33.5 85
q0 49 33.5 83t81.5 34h952q48 0 81.5 -34t33.5 -83q0 -51 -33.5 -85t-81.5 -34h-350v-1089q0 -36 -18.5 -66.5t-48.5 -44.5v-66z" />
    <glyph glyph-name="tcedilla" unicode="&#x163;" horiz-adv-x="710" 
d="M438 -70q104 -7 158.5 -52.5t54.5 -123.5q0 -81 -73.5 -130.5t-208.5 -49.5q-111 0 -193 49q-31 21 -31 60q0 14 7 28q18 35 59 35q21 0 37 -8q51 -21 88 -21q35 0 57.5 14t22.5 38q0 36 -31 47q-38 15 -52 36t-14 62v74q-110 21 -159 111.5t-49 250.5v713q0 48 34 81.5
t84 33.5q49 0 83 -33.5t34 -81.5v-141h182q47 0 81 -33t34 -78t-34 -78t-81 -33h-182v-335q0 -166 107 -166q28 0 62 5t46 5q46 0 70 -27.5t24 -66.5q0 -61 -63 -95q-69 -35 -154 -38v-52z" />
    <glyph glyph-name="Tcaron" unicode="&#x164;" horiz-adv-x="1222" 
d="M485 109v1089h-350q-48 0 -81.5 34t-33.5 85q0 49 33.5 83t81.5 34h952q48 0 81.5 -34t33.5 -83q0 -51 -33.5 -85t-81.5 -34h-350v-1089q0 -53 -36.5 -89t-88.5 -36q-54 0 -90.5 36t-36.5 89zM858 1837q46 0 68 -35q12 -18 12 -41q0 -43 -37 -69l-229 -144
q-29 -20 -70 -20q-37 0 -67 18l-232 146q-35 21 -35 65q0 26 15 47q24 35 67 35q24 0 45 -12l211 -123l209 123q15 10 43 10z" />
    <glyph glyph-name="tcaron" unicode="&#x165;" horiz-adv-x="710" 
d="M561 209q46 0 70 -27.5t24 -66.5q0 -61 -63 -95q-76 -40 -195 -40q-152 0 -219 93t-67 277v713q0 48 34 81.5t84 33.5q49 0 83 -33.5t34 -81.5v-141h182q47 0 81 -33t34 -78t-34 -78t-81 -33h-182v-335q0 -166 107 -166q28 0 62 5t46 5zM471 1108q0 27 18 57
q50 76 50 142q0 18 -2 26q-7 35 -7 51q0 27 13.5 38.5t44.5 11.5h98q38 0 54 -21.5t16 -48.5q0 -201 -144 -317q-20 -17 -55 -17t-57 19q-29 26 -29 59z" />
    <glyph glyph-name="Umacron" unicode="&#x16a;" horiz-adv-x="1536" 
d="M1108 645v674q0 53 36 89t89 36t89 -36t36 -89v-725q0 -128 -30.5 -232t-83.5 -175t-125.5 -119t-155.5 -69.5t-175 -21.5q-135 0 -246 40t-192.5 117.5t-126.5 198.5t-45 275v711q0 53 36.5 89t90.5 36q53 0 89 -36t36 -89v-657q0 -209 89 -329t269 -120q320 0 320 432z
M1006 1745q38 0 66 -28t28 -66t-28 -66.5t-66 -28.5h-445q-38 0 -66 28.5t-28 66.5t28 66t66 28h445z" />
    <glyph glyph-name="umacron" unicode="&#x16b;" horiz-adv-x="1095" 
d="M729 309v512q0 48 34 81.5t85 33.5q49 0 83 -33.5t34 -81.5v-723q0 -48 -34 -81t-85 -33q-52 0 -84.5 35t-32.5 94q-47 -59 -121.5 -97.5t-173.5 -38.5q-143 0 -233 96t-90 285v463q0 48 34 81.5t84 33.5q49 0 83 -33.5t34 -81.5v-413q0 -211 176 -211q58 0 112.5 29.5
t94.5 82.5zM731 1315q38 0 66 -28t28 -66t-28 -66.5t-66 -28.5h-383q-38 0 -66 28.5t-28 66.5t28 66t66 28h383z" />
    <glyph glyph-name="Ubreve" unicode="&#x16c;" horiz-adv-x="1536" 
d="M1108 645v674q0 53 36 89t89 36t89 -36t36 -89v-725q0 -128 -30.5 -232t-83.5 -175t-125.5 -119t-155.5 -69.5t-175 -21.5q-135 0 -246 40t-192.5 117.5t-126.5 198.5t-45 275v711q0 53 36.5 89t90.5 36q53 0 89 -36t36 -89v-657q0 -209 89 -329t269 -120q320 0 320 432z
M1151 1739q0 -33 -18 -51q-66 -74 -165.5 -126.5t-195.5 -52.5q-107 0 -202 51t-164 128q-19 19 -19 51t23 55q25 25 55 25q31 0 70 -27q97 -78 237 -78q132 0 232 78q39 27 67 27q32 0 57 -25q23 -20 23 -55z" />
    <glyph glyph-name="ubreve" unicode="&#x16d;" horiz-adv-x="1095" 
d="M729 309v512q0 48 34 81.5t85 33.5q49 0 83 -33.5t34 -81.5v-723q0 -48 -34 -81t-85 -33q-52 0 -84.5 35t-32.5 94q-47 -59 -121.5 -97.5t-173.5 -38.5q-143 0 -233 96t-90 285v463q0 48 34 81.5t84 33.5q49 0 83 -33.5t34 -81.5v-413q0 -211 176 -211q58 0 112.5 29.5
t94.5 82.5zM862 1305q0 -26 -14 -43q-132 -172 -311 -172q-176 0 -291 170q-15 22 -15 43q0 32 29 55q22 16 47 16q34 0 58 -24q81 -70 182 -70q104 0 186 68q31 24 60 24q24 0 45 -16q24 -18 24 -51z" />
    <glyph glyph-name="Uring" unicode="&#x16e;" horiz-adv-x="1536" 
d="M1108 645v674q0 53 36 89t89 36t89 -36t36 -89v-725q0 -128 -30.5 -232t-83.5 -175t-125.5 -119t-155.5 -69.5t-175 -21.5q-135 0 -246 40t-192.5 117.5t-126.5 198.5t-45 275v711q0 53 36.5 89t90.5 36q53 0 89 -36t36 -89v-657q0 -209 89 -329t269 -120q320 0 320 432z
M768 1860q129 0 211 -56t82 -166q0 -108 -82.5 -166.5t-210.5 -58.5q-124 0 -204.5 58.5t-80.5 166.5q0 110 79.5 166t205.5 56zM770 1542q52 0 84.5 24.5t32.5 71.5t-32 70t-85 23q-51 0 -82 -23t-31 -70t31.5 -71.5t81.5 -24.5z" />
    <glyph glyph-name="uring" unicode="&#x16f;" horiz-adv-x="1095" 
d="M729 309v512q0 48 34 81.5t85 33.5q49 0 83 -33.5t34 -81.5v-723q0 -48 -34 -81t-85 -33q-52 0 -84.5 35t-32.5 94q-47 -59 -121.5 -97.5t-173.5 -38.5q-143 0 -233 96t-90 285v463q0 48 34 81.5t84 33.5q49 0 83 -33.5t34 -81.5v-413q0 -211 176 -211q58 0 112.5 29.5
t94.5 82.5zM539 1012q-111 0 -184.5 70t-73.5 171q0 103 73.5 174.5t184.5 71.5q113 0 187.5 -71.5t74.5 -174.5q0 -101 -74.5 -171t-187.5 -70zM543 1370q-49 0 -80 -33.5t-31 -81.5t31 -82t80 -34q46 0 76 34t30 82t-30 81.5t-76 33.5z" />
    <glyph glyph-name="Uhungarumlaut" unicode="&#x170;" horiz-adv-x="1536" 
d="M1108 645v674q0 53 36 89t89 36t89 -36t36 -89v-725q0 -128 -30.5 -232t-83.5 -175t-125.5 -119t-155.5 -69.5t-175 -21.5q-135 0 -246 40t-192.5 117.5t-126.5 198.5t-45 275v711q0 53 36.5 89t90.5 36q53 0 89 -36t36 -89v-657q0 -209 89 -329t269 -120q320 0 320 432z
M858 1642l213 179q21 18 53 18q31 0 56 -22l57 -50q18 -15 18 -38q0 -34 -28 -46l-264 -151q-22 -14 -58 -14q-38 0 -57 22q-17 20 -17 45q0 33 27 57zM477 1647l139 163q30 33 70 33q21 0 41 -10l76 -39q24 -12 24 -41q0 -22 -18 -37l-221 -174q-24 -18 -56 -18t-53 18
q-22 22 -22 51q0 31 20 54z" />
    <glyph glyph-name="uhungarumlaut" unicode="&#x171;" horiz-adv-x="1095" 
d="M729 309v512q0 48 34 81.5t85 33.5q49 0 83 -33.5t34 -81.5v-723q0 -48 -34 -81t-85 -33q-52 0 -84.5 35t-32.5 94q-47 -59 -121.5 -97.5t-173.5 -38.5q-143 0 -233 96t-90 285v463q0 48 34 81.5t84 33.5q49 0 83 -33.5t34 -81.5v-413q0 -211 176 -211q58 0 112.5 29.5
t94.5 82.5zM625 1225l135 184q26 33 69 33q30 0 50 -17l39 -30q30 -23 30 -62q0 -29 -22 -51l-152 -162q-35 -35 -78 -35q-29 0 -51 19q-37 27 -37 74q0 23 17 47zM285 1231l116 192q21 37 68 37q25 0 45 -14l33 -23q33 -23 33 -67q0 -31 -17 -51l-131 -179q-22 -32 -72 -32
q-27 0 -53 16q-37 24 -37 70q0 27 15 51z" />
    <glyph glyph-name="Uogonek" unicode="&#x172;" horiz-adv-x="1536" 
d="M1108 645v674q0 53 36 89t89 36t89 -36t36 -89v-725q0 -154 -43.5 -273t-119.5 -191t-171 -110t-207 -43q-41 -20 -65.5 -52.5t-24.5 -63.5q0 -43 29.5 -62.5t74.5 -19.5q60 0 88 -11.5t37 -46.5q2 -8 2 -24q0 -61 -55 -82q-60 -25 -137 -25q-116 0 -195 48t-79 145
q0 68 43.5 120.5t119.5 86.5q-221 35 -349 192.5t-128 425.5v711q0 53 36.5 89t90.5 36q53 0 89 -36t36 -89v-657q0 -209 89 -329t269 -120q320 0 320 432z" />
    <glyph glyph-name="uogonek" unicode="&#x173;" horiz-adv-x="1095" 
d="M729 309v512q0 48 34 81.5t85 33.5q49 0 83 -33.5t34 -81.5v-723q0 -48 -34 -81t-85 -33q-26 0 -49 10q-57 -15 -94 -54t-37 -79q0 -43 29.5 -62.5t74.5 -19.5q60 0 88 -11.5t37 -46.5q2 -8 2 -24q0 -61 -55 -82q-60 -25 -137 -25q-116 0 -195.5 48t-79.5 145
q0 100 93 164.5t229 83.5q-23 38 -23 82q-47 -59 -121.5 -97.5t-173.5 -38.5q-143 0 -233 96t-90 285v463q0 48 34 81.5t84 33.5q49 0 83 -33.5t34 -81.5v-413q0 -211 176 -211q58 0 112.5 29.5t94.5 82.5z" />
    <glyph glyph-name="Ydieresis" unicode="&#x178;" horiz-adv-x="1226" 
d="M303 1368l318 -534l313 534q45 76 117 76q53 0 82.5 -32.5t29.5 -76.5q0 -34 -20 -67l-408 -670v-489q0 -53 -36.5 -89t-88.5 -36q-54 0 -90.5 36t-36.5 89v489l-399 659q-21 40 -21 70q0 48 33.5 82.5t91.5 34.5q68 0 115 -76zM379 1817q59 0 102 -35t43 -92
q0 -63 -43 -99.5t-102 -36.5q-67 0 -112.5 36t-45.5 100q0 58 45.5 92.5t112.5 34.5zM854 1817q60 0 102.5 -34.5t42.5 -92.5q0 -63 -42.5 -99.5t-102.5 -36.5q-68 0 -113 36t-45 100q0 58 45.5 92.5t112.5 34.5z" />
    <glyph glyph-name="Zacute" unicode="&#x179;" horiz-adv-x="1292" 
d="M160 0q-49 0 -82 30t-33 81q0 46 49 104l758 983h-637q-48 0 -81.5 34t-33.5 85q0 49 33.5 83t81.5 34h879q53 0 83.5 -29.5t30.5 -75.5q0 -22 -11 -47t-18 -35t-24 -33l-760 -978h701q47 0 80.5 -34t33.5 -83q0 -51 -33 -85t-81 -34h-936zM547 1673l303 158q13 8 33 8
q46 0 65 -43l27 -63q6 -12 6 -29q0 -22 -13 -40.5t-34 -25.5l-318 -116q-8 -4 -26 -4q-56 0 -78 51q-8 13 -8 35t11.5 41t31.5 28z" />
    <glyph glyph-name="zacute" unicode="&#x17a;" horiz-adv-x="972" 
d="M199 0q-52 0 -82.5 29.5t-30.5 79.5t51 104l441 487h-353q-44 0 -76 32.5t-32 78.5t32 78.5t76 32.5h574q52 0 82 -31.5t30 -77.5q0 -51 -49 -104l-440 -490h375q44 0 76 -32t32 -76q0 -46 -32 -78.5t-76 -32.5h-598zM406 1229l124 194q21 35 66 35q27 0 47 -14l49 -37
q31 -22 31 -64q0 -30 -18 -51l-148 -170q-27 -30 -70 -30q-29 0 -55 16q-39 26 -39 76q0 22 13 45z" />
    <glyph glyph-name="Zdotaccent" unicode="&#x17b;" horiz-adv-x="1292" 
d="M160 0q-49 0 -82 30t-33 81q0 46 49 104l758 983h-637q-48 0 -81.5 34t-33.5 85q0 49 33.5 83t81.5 34h879q53 0 83.5 -29.5t30.5 -75.5q0 -22 -11 -47t-18 -35t-24 -33l-760 -978h701q47 0 80.5 -34t33.5 -83q0 -51 -33 -85t-81 -34h-936zM645 1847q62 0 108 -40
t46 -105q0 -70 -46 -112t-108 -42q-68 0 -115 41.5t-47 112.5q0 65 47.5 105t114.5 40z" />
    <glyph glyph-name="zdotaccent" unicode="&#x17c;" horiz-adv-x="972" 
d="M199 0q-52 0 -82.5 29.5t-30.5 79.5t51 104l441 487h-353q-44 0 -76 32.5t-32 78.5t32 78.5t76 32.5h574q52 0 82 -31.5t30 -77.5q0 -51 -49 -104l-440 -490h375q44 0 76 -32t32 -76q0 -46 -32 -78.5t-76 -32.5h-598zM502 1391q54 0 94.5 -38.5t40.5 -99.5
q0 -67 -40.5 -107t-94.5 -40q-63 0 -105.5 39.5t-42.5 107.5q0 61 43 99.5t105 38.5z" />
    <glyph glyph-name="Zcaron" unicode="&#x17d;" horiz-adv-x="1292" 
d="M160 0q-49 0 -82 30t-33 81q0 46 49 104l758 983h-637q-48 0 -81.5 34t-33.5 85q0 49 33.5 83t81.5 34h879q53 0 83.5 -29.5t30.5 -75.5q0 -22 -11 -47t-18 -35t-24 -33l-760 -978h701q47 0 80.5 -34t33.5 -83q0 -51 -33 -85t-81 -34h-936zM903 1837q46 0 68 -35
q12 -18 12 -41q0 -43 -37 -69l-229 -144q-29 -20 -70 -20q-37 0 -67 18l-232 146q-35 21 -35 65q0 26 15 47q24 35 67 35q24 0 45 -12l211 -123l209 123q15 10 43 10z" />
    <glyph glyph-name="zcaron" unicode="&#x17e;" horiz-adv-x="972" 
d="M199 0q-52 0 -82.5 29.5t-30.5 79.5t51 104l441 487h-353q-44 0 -76 32.5t-32 78.5t32 78.5t76 32.5h574q52 0 82 -31.5t30 -77.5q0 -51 -49 -104l-440 -490h375q44 0 76 -32t32 -76q0 -46 -32 -78.5t-76 -32.5h-598zM723 1415q35 0 61 -26q21 -24 21 -56q0 -42 -31 -67
l-190 -166q-28 -25 -68 -25q-43 0 -70 27l-188 164q-29 29 -29 67q0 32 23 58q22 28 65 28q38 0 60 -22l141 -129l144 125q28 22 61 22z" />
    <glyph glyph-name="longs" unicode="&#x17f;" horiz-adv-x="583" 
d="M141 98v973q0 189 86 287t242 98q227 0 227 -117q0 -108 -116 -108q-15 0 -40.5 3t-37.5 3q-59 0 -92 -48t-33 -136v-955q0 -47 -34 -80.5t-83 -33.5q-51 0 -85 33t-34 81z" />
    <glyph glyph-name="uni018F" unicode="&#x18f;" horiz-adv-x="1568" 
d="M328 1346q102 59 196.5 84.5t212.5 25.5q331 0 535.5 -202t204.5 -535q0 -222 -89.5 -390.5t-254 -260t-381.5 -91.5q-310 0 -501.5 206t-191.5 556q0 49 32.5 79t76.5 30h1036q-36 174 -167 273.5t-314 99.5q-74 0 -136.5 -19t-135.5 -55q-39 -17 -70 -17q-65 0 -98 56
q-17 27 -17 59q0 65 62 101zM326 612q13 -168 126 -283.5t296 -115.5q191 0 312.5 103.5t153.5 295.5h-888z" />
    <glyph glyph-name="florin" unicode="&#x192;" horiz-adv-x="1173" 
d="M1141 1327q0 -24 -15 -51q-13 -27 -33.5 -38t-54.5 -11q-24 0 -65 6q-10 2 -29 2q-60 0 -96 -43.5t-53 -138.5l-23 -131h121q47 0 81 -33t34 -78t-34 -78t-81 -33h-160l-135 -768q-17 -90 -39.5 -152t-59 -110.5t-91 -72t-129.5 -23.5q-95 0 -160 33q-27 13 -42.5 38.5
t-15.5 53.5q0 23 9 41q15 35 44.5 46t100.5 11q63 0 98 40.5t49 117.5l132 745h-125q-47 0 -81 33t-34 78t34 78t81 33h163l27 149q38 202 116 293.5t228 91.5q93 0 164 -31q74 -33 74 -98z" />
    <glyph glyph-name="uni01DD" unicode="&#x1dd;" horiz-adv-x="1042" 
d="M303 375q0 -89 57.5 -145t157.5 -56q102 0 162.5 54.5t75.5 150.5h-453v-4zM516 -23q-197 0 -327 119t-130 310v43q0 39 25.5 63.5t62.5 24.5h603q-17 97 -90.5 154t-182.5 57q-97 0 -172 -35q-34 -15 -53 -15q-47 0 -74 43q-14 24 -14 45q0 53 47 80q132 78 291 78
q221 0 351 -131.5t130 -351.5q0 -137 -51.5 -244.5t-159 -173.5t-256.5 -66z" />
    <glyph glyph-name="Scommaaccent" unicode="&#x218;" horiz-adv-x="1083" 
d="M88 213q0 41 31 80q33 41 88 41q45 0 90 -31q122 -90 227 -90q92 0 150.5 44.5t58.5 123.5q0 50 -28 91t-73.5 68.5t-104 57t-119 54.5t-119 63t-104 82t-73.5 112t-28 152q0 167 121.5 281t324.5 114q169 0 281 -59q39 -21 61.5 -50.5t22.5 -62.5q0 -29 -18 -59
q-34 -58 -97 -58q-28 0 -63 15q-93 41 -170 41q-92 0 -144.5 -44t-52.5 -116q0 -60 36 -105.5t93 -76.5t126 -59.5t138.5 -64.5t126.5 -82t93 -120.5t36 -171.5q0 -179 -137.5 -292.5t-341.5 -113.5q-222 0 -385 140q-47 41 -47 96zM381 -344q0 26 29 55q36 31 36 92
q0 10 -1 26t-1 21q0 20 8 31t33 17l121 26q6 2 15 2q32 0 46.5 -29t14.5 -65q0 -86 -57 -148.5t-140 -91.5q-12 -6 -30 -6q-43 0 -62 31q-12 18 -12 39z" />
    <glyph glyph-name="scommaaccent" unicode="&#x219;" horiz-adv-x="868" 
d="M70 162q0 34 20 57q30 37 74 37q29 0 67 -23q92 -59 213 -59q53 0 87 22.5t34 63.5q0 34 -37 58.5t-92 38t-119.5 36t-119.5 50.5t-92 85t-37 136q0 131 95 205.5t243 74.5q162 0 280 -70q49 -30 49 -79q0 -26 -12 -47q-26 -48 -82 -48q-26 0 -55 13q-78 35 -168 35
q-52 0 -83.5 -24t-31.5 -56q0 -31 27.5 -53t71.5 -36t97 -28t106 -35t97 -49.5t71.5 -78.5t27.5 -116q0 -136 -101.5 -215.5t-271.5 -79.5q-192 0 -319 105q-39 33 -39 80zM268 -344q0 26 29 55q37 32 37 92q0 10 -1 26t-1 21q0 20 8 31t33 17l121 26q6 2 14 2
q32 0 46.5 -29t14.5 -65q0 -86 -56.5 -148.5t-139.5 -91.5q-12 -6 -31 -6q-42 0 -61 31q-13 19 -13 39z" />
    <glyph glyph-name="Tcommaaccent" unicode="&#x21a;" horiz-adv-x="1222" 
d="M485 109v1089h-350q-48 0 -81.5 34t-33.5 85q0 49 33.5 83t81.5 34h952q48 0 81.5 -34t33.5 -83q0 -51 -33.5 -85t-81.5 -34h-350v-1089q0 -53 -36.5 -89t-88.5 -36q-54 0 -90.5 36t-36.5 89zM438 -344q0 26 29 55q37 32 37 92q0 10 -1 26t-1 21q0 20 8 31t33 17l121 26
q6 2 14 2q32 0 46.5 -29t14.5 -65q0 -86 -56.5 -148.5t-139.5 -91.5q-12 -6 -31 -6q-42 0 -61 31q-13 19 -13 39z" />
    <glyph glyph-name="tcommaaccent" unicode="&#x21b;" horiz-adv-x="710" 
d="M561 209q46 0 70 -27.5t24 -66.5q0 -61 -63 -95q-76 -40 -195 -40q-152 0 -219 93t-67 277v713q0 48 34 81.5t84 33.5q49 0 83 -33.5t34 -81.5v-141h182q47 0 81 -33t34 -78t-34 -78t-81 -33h-182v-335q0 -166 107 -166q28 0 62 5t46 5zM195 -344q0 27 28 55q37 32 37 92
q0 10 -1 26t-1 21q0 20 8 31t33 17l121 26q6 2 14 2q32 0 47 -29t15 -65q0 -86 -57 -148.5t-140 -91.5q-12 -6 -31 -6q-42 0 -61 31q-12 18 -12 39z" />
    <glyph glyph-name="uni0237" unicode="&#x237;" horiz-adv-x="606" 
d="M203 -47v868q0 48 34 81.5t85 33.5q49 0 82.5 -33.5t33.5 -81.5v-889q0 -358 -288 -358q-83 0 -140 30.5t-57 96.5t57 84q16 6 45 6h35q113 0 113 162z" />
    <glyph glyph-name="uni0259" unicode="&#x259;" horiz-adv-x="1042" 
d="M303 375q0 -89 57.5 -145t157.5 -56q102 0 162.5 54.5t75.5 150.5h-453v-4zM516 -23q-197 0 -327 119t-130 310v43q0 39 25.5 63.5t62.5 24.5h603q-17 97 -90.5 154t-182.5 57q-97 0 -172 -35q-34 -15 -53 -15q-47 0 -74 43q-14 24 -14 45q0 53 47 80q132 78 291 78
q221 0 351 -131.5t130 -351.5q0 -137 -51.5 -244.5t-159 -173.5t-256.5 -66z" />
    <glyph glyph-name="afii57929" unicode="&#x2bc;" horiz-adv-x="454" 
d="M115 963q0 26 18 53q43 64 43 143q0 32 -10 62q-8 32 -8 43q0 23 12 38.5t41 30.5l61 37q13 8 33 8q21 0 39.5 -11.5t24.5 -27.5q28 -61 28 -127q0 -191 -143 -309q-18 -18 -55 -18q-38 0 -56 18q-28 28 -28 60z" />
    <glyph glyph-name="circumflex" unicode="&#x2c6;" horiz-adv-x="878" 
d="M244 1071q-44 0 -68 35q-18 21 -18 53q0 43 32 72l183 158q27 24 67 24q43 0 70 -27l180 -155q31 -28 31 -70q0 -35 -21 -59q-27 -35 -69 -35q-29 0 -56 20l-137 111l-139 -108q-25 -19 -55 -19z" />
    <glyph glyph-name="caron" unicode="&#x2c7;" horiz-adv-x="878" 
d="M645 1415q36 0 62 -26q20 -23 20 -56q0 -42 -31 -67l-190 -166q-28 -25 -68 -25q-42 0 -69 27l-189 164q-28 28 -28 67q0 33 22 58q22 28 66 28q37 0 59 -22l141 -129l144 125q28 22 61 22z" />
    <glyph glyph-name="breve" unicode="&#x2d8;" horiz-adv-x="886" 
d="M768 1305q0 -26 -14 -43q-132 -172 -312 -172q-175 0 -290 170q-15 22 -15 43q0 32 29 55q22 16 47 16q33 0 57 -24q81 -70 183 -70q104 0 186 68q31 24 59 24q24 0 45 -16q25 -19 25 -51z" />
    <glyph glyph-name="dotaccent" unicode="&#x2d9;" horiz-adv-x="528" 
d="M270 1391q54 0 95 -38.5t41 -99.5q0 -67 -41 -107t-95 -40q-63 0 -105 39.5t-42 107.5q0 61 42.5 99.5t104.5 38.5z" />
    <glyph glyph-name="ring" unicode="&#x2da;" horiz-adv-x="765" 
d="M381 1012q-111 0 -184.5 70t-73.5 171q0 103 73.5 174.5t184.5 71.5q113 0 187.5 -71.5t74.5 -174.5q0 -101 -74.5 -171t-187.5 -70zM385 1370q-49 0 -80 -33.5t-31 -81.5t31 -82t80 -34q46 0 76.5 34t30.5 82t-30.5 81.5t-76.5 33.5z" />
    <glyph glyph-name="ogonek" unicode="&#x2db;" horiz-adv-x="731" 
d="M543 0q-74 0 -129.5 -45t-55.5 -94q0 -42 30 -62t75 -20q60 0 88 -11.5t37 -46.5q2 -8 2 -24q0 -61 -55 -82q-60 -25 -138 -25q-116 0 -195 48t-79 145q0 80 64 140t158 88t198 28h18v-39h-18z" />
    <glyph glyph-name="tilde" unicode="&#x2dc;" horiz-adv-x="950" 
d="M791 1174q-114 -99 -203 -99q-30 0 -62 16t-55.5 35.5t-55.5 35.5t-63 16q-20 0 -78 -35q-35 -21 -55 -21q-29 0 -57 31q-15 18 -15 41q0 40 33 70q102 86 191 86q32 0 65.5 -16t57.5 -35.5t55 -35.5t59 -16q13 0 26 4.5t20 8.5t20 13.5t18 12.5q33 23 60 23q29 0 53 -27
q18 -21 18 -45q0 -34 -32 -63z" />
    <glyph glyph-name="hungarumlaut" unicode="&#x2dd;" horiz-adv-x="991" 
d="M508 1225l135 184q26 33 70 33q29 0 49 -17l39 -30q30 -23 30 -62q0 -29 -22 -51l-152 -162q-35 -35 -77 -35q-30 0 -52 19q-36 26 -36 74q0 25 16 47zM168 1231l117 192q21 37 67 37q25 0 45 -14l33 -23q33 -23 33 -67q0 -31 -17 -51l-131 -179q-22 -32 -71 -32
q-28 0 -54 16q-36 23 -36 70q0 29 14 51z" />
    <glyph glyph-name="gravecomb" unicode="&#x300;" horiz-adv-x="0" 
d="M-580 1427l131 -206q15 -26 15 -50q0 -44 -37 -69q-23 -17 -53 -17q-41 0 -72 31l-162 178q-16 16 -16 45q0 38 26 58l68 49q17 14 41 14q36 0 59 -33z" />
    <glyph glyph-name="acutecomb" unicode="&#x301;" horiz-adv-x="0" 
d="M-612 1229l125 194q21 35 65 35q27 0 47 -14l49 -37q31 -22 31 -64q0 -30 -18 -51l-148 -170q-27 -30 -69 -30q-30 0 -56 16q-39 26 -39 76q0 22 13 45z" />
    <glyph glyph-name="uni0394" unicode="&#x394;" horiz-adv-x="1441" 
d="M606 1380q12 31 42 50.5t67 19.5q36 0 66 -19.5t44 -50.5l535 -1222q10 -23 10 -45q0 -45 -33.5 -79t-81.5 -34h-1067q-50 0 -83 34t-33 81q0 22 10 45zM709 1028l-330 -792h676z" />
    <glyph glyph-name="uni0394" unicode="&#x2206;" horiz-adv-x="1441" 
d="M606 1380q12 31 42 50.5t67 19.5q36 0 66 -19.5t44 -50.5l535 -1222q10 -23 10 -45q0 -45 -33.5 -79t-81.5 -34h-1067q-50 0 -83 34t-33 81q0 22 10 45zM709 1028l-330 -792h676z" />
    <glyph glyph-name="uni03A9" unicode="&#x3a9;" horiz-adv-x="1685" 
d="M641 260q30 -16 41 -22t29.5 -20t25 -26t12 -31.5t5.5 -45.5q0 -47 -34 -81t-81 -34h-414q-48 0 -81 34t-33 85q0 49 33.5 83t80.5 34h207q-76 24 -147.5 97t-121.5 192.5t-50 252.5q0 203 98 359t263.5 237.5t369.5 81.5q155 0 289.5 -48t232 -134.5t153.5 -214.5
t56 -281q0 -107 -30 -203t-78.5 -163t-103.5 -112t-110 -64h205q48 0 81.5 -34t33.5 -83q0 -51 -33.5 -85t-81.5 -34h-411q-47 0 -81 34t-34 81q0 26 5.5 45.5t11.5 31.5t24.5 26t29.5 20t41 22q125 65 195 194.5t70 282.5q0 128 -54.5 237t-162.5 178t-248 69
q-147 0 -254.5 -69.5t-159 -179t-51.5 -241.5q0 -88 29 -178t89.5 -170t143.5 -123z" />
    <glyph glyph-name="uni03A9" unicode="&#x2126;" horiz-adv-x="1685" 
d="M641 260q30 -16 41 -22t29.5 -20t25 -26t12 -31.5t5.5 -45.5q0 -47 -34 -81t-81 -34h-414q-48 0 -81 34t-33 85q0 49 33.5 83t80.5 34h207q-76 24 -147.5 97t-121.5 192.5t-50 252.5q0 203 98 359t263.5 237.5t369.5 81.5q155 0 289.5 -48t232 -134.5t153.5 -214.5
t56 -281q0 -107 -30 -203t-78.5 -163t-103.5 -112t-110 -64h205q48 0 81.5 -34t33.5 -83q0 -51 -33.5 -85t-81.5 -34h-411q-47 0 -81 34t-34 81q0 26 5.5 45.5t11.5 31.5t24.5 26t29.5 20t41 22q125 65 195 194.5t70 282.5q0 128 -54.5 237t-162.5 178t-248 69
q-147 0 -254.5 -69.5t-159 -179t-51.5 -241.5q0 -88 29 -178t89.5 -170t143.5 -123z" />
    <glyph glyph-name="pi" unicode="&#x3c0;" horiz-adv-x="1253" 
d="M37 96q0 38 16 64.5t60 54.5q64 41 94.5 121t30.5 237v127h-60q-44 0 -77 33.5t-33 77.5t33 77.5t77 33.5h873q44 0 77 -33.5t33 -77.5t-33 -77.5t-77 -33.5h-47v-360q0 -74 15 -106.5t58 -32.5h13q4 0 12 1t12 1q59 0 81 -26.5t22 -61.5q0 -39 -22.5 -67t-60.5 -42
t-76.5 -20t-80.5 -6q-209 0 -209 264v456h-297v-92q0 -316 -80 -470t-229 -154q-53 0 -89 30t-36 82z" />
    <glyph glyph-name="afii10023" unicode="&#x401;" horiz-adv-x="1177" 
d="M451 236h483q48 0 81.5 -34t33.5 -83q0 -51 -33.5 -85t-81.5 -34h-621q-47 0 -80.5 34t-33.5 81v1204q0 47 33.5 81t80.5 34h600q48 0 81.5 -34t33.5 -83q0 -51 -33.5 -85t-81.5 -34h-462v-356h401q48 0 81.5 -34t33.5 -83q0 -51 -33.5 -85t-81.5 -34h-401v-370z
M401 1817q59 0 102.5 -35t43.5 -92q0 -63 -43.5 -99.5t-102.5 -36.5q-67 0 -112 36t-45 100q0 58 45 92.5t112 34.5zM877 1817q60 0 102.5 -34.5t42.5 -92.5q0 -63 -42.5 -99.5t-102.5 -36.5q-67 0 -112.5 36t-45.5 100q0 58 45.5 92.5t112.5 34.5z" />
    <glyph glyph-name="afii10051" unicode="&#x402;" horiz-adv-x="1564" 
d="M485 109v1089h-350q-48 0 -81.5 34t-33.5 85q0 49 33.5 83t81.5 34h952q48 0 81.5 -34t33.5 -83q0 -51 -33.5 -85t-81.5 -34h-350v-414q136 82 305 82q74 0 136.5 -13.5t118 -46t93.5 -83t60.5 -128.5t22.5 -179q0 -218 -96 -328.5t-261 -110.5q-99 0 -188 48
q-34 19 -53 48.5t-19 61.5q0 29 10 47q30 58 99 58q19 0 56 -13.5t62 -13.5q63 0 101.5 49t38.5 150q0 115 -58.5 167t-169.5 52q-133 0 -258 -76v-446q0 -53 -36.5 -89t-88.5 -36q-54 0 -90.5 36t-36.5 89z" />
    <glyph glyph-name="afii10052" unicode="&#x403;" horiz-adv-x="1038" 
d="M199 109v1210q0 47 33.5 81t80.5 34h580q48 0 81.5 -34t33.5 -83q0 -51 -33.5 -85t-81.5 -34h-442v-1089q0 -53 -36.5 -89t-88.5 -36q-53 0 -90 36.5t-37 88.5zM584 1673l303 158q13 8 33 8q46 0 65 -43l27 -63q6 -12 6 -29q0 -22 -13 -40.5t-34 -25.5l-318 -116
q-8 -4 -26 -4q-56 0 -78 51q-8 13 -8 35t11.5 41t31.5 28z" />
    <glyph glyph-name="afii10053" unicode="&#x404;" horiz-adv-x="1353" 
d="M1190 295q60 0 96 -53q21 -35 21 -66q0 -66 -70 -108q-150 -91 -395 -91q-343 0 -546.5 202t-203.5 540q0 220 92.5 388t259.5 258.5t383 90.5q245 0 381 -88q72 -44 72 -108q0 -33 -18 -60q-36 -51 -95 -51q-38 0 -77 20q-101 52 -218 52q-205 0 -342.5 -97.5
t-173.5 -275.5h525q47 0 80.5 -34t33.5 -83q0 -51 -33 -85t-81 -34h-531q21 -128 93 -219.5t175 -135.5t228 -44q135 0 264 61q40 21 80 21z" />
    <glyph glyph-name="afii10054" unicode="&#x405;" horiz-adv-x="1083" 
d="M88 213q0 41 31 80q33 41 88 41q45 0 90 -31q122 -90 227 -90q92 0 150.5 44.5t58.5 123.5q0 50 -28 91t-73.5 68.5t-104 57t-119 54.5t-119 63t-104 82t-73.5 112t-28 152q0 167 121.5 281t324.5 114q169 0 281 -59q39 -21 61.5 -50.5t22.5 -62.5q0 -29 -18 -59
q-34 -58 -97 -58q-28 0 -63 15q-93 41 -170 41q-92 0 -144.5 -44t-52.5 -116q0 -60 36 -105.5t93 -76.5t126 -59.5t138.5 -64.5t126.5 -82t93 -120.5t36 -171.5q0 -179 -137.5 -292.5t-341.5 -113.5q-222 0 -385 140q-47 41 -47 96z" />
    <glyph glyph-name="afii10055" unicode="&#x406;" horiz-adv-x="710" 
d="M481 1319v-1210q0 -53 -36.5 -89t-88.5 -36q-54 0 -90.5 36t-36.5 89v1210q0 53 36.5 89t90.5 36q52 0 88.5 -36t36.5 -89z" />
    <glyph glyph-name="afii10056" unicode="&#x407;" horiz-adv-x="712" 
d="M53 1690q0 57 39 92t96 35q53 0 91 -35t38 -92q0 -63 -37.5 -99.5t-91.5 -36.5q-58 0 -96.5 36t-38.5 100zM395 1690q0 57 39.5 92t97.5 35q52 0 89.5 -35.5t37.5 -91.5q0 -63 -37.5 -99.5t-89.5 -36.5q-59 0 -98 36t-39 100zM481 1319v-1210q0 -53 -36.5 -89t-88.5 -36
q-54 0 -90.5 36t-36.5 89v1210q0 53 36.5 89t90.5 36q52 0 88.5 -36t36.5 -89z" />
    <glyph glyph-name="afii10057" unicode="&#x408;" horiz-adv-x="790" 
d="M340 381v938q0 53 36.5 89t90.5 36q53 0 89 -36t36 -89v-981q0 -174 -87 -267.5t-259 -93.5q-75 0 -140 21q-38 13 -63 42t-25 69q0 21 5 36q9 36 36 57t64 21q3 0 9 -1t9 -1q49 -8 70 -8q129 0 129 168z" />
    <glyph glyph-name="afii10058" unicode="&#x409;" horiz-adv-x="2058" 
d="M1282 707v-469q11 -1 57.5 -4t75.5 -3q139 0 212 63.5t73 188.5q0 114 -73.5 174t-207.5 60q-45 0 -137 -10zM358 1147l13 162q3 52 41.5 88.5t91.5 36.5h653q53 0 89 -36t36 -89v-367q79 10 158 10q260 0 393 -123t133 -340q0 -231 -153 -362t-427 -131q-42 0 -119 1
t-110 1q-53 2 -89 38.5t-36 88.5v1073h-418l-28 -270q-25 -232 -58.5 -401.5t-70.5 -273t-85 -164.5t-95.5 -83t-108.5 -22q-65 0 -104 33t-39 85q0 45 20.5 78t79.5 53q103 35 150.5 241.5t82.5 672.5z" />
    <glyph glyph-name="afii10059" unicode="&#x40a;" horiz-adv-x="2113" 
d="M451 662v-553q0 -53 -36.5 -89t-88.5 -36q-54 0 -90.5 36t-36.5 89v1210q0 53 36.5 89t90.5 36q52 0 88.5 -36t36.5 -89v-422h634v422q0 53 36.5 89t88.5 36t88.5 -36t36.5 -89v-412q88 8 160 8q260 0 393 -119t133 -325q0 -219 -153 -347t-426 -128q-42 0 -120 1t-112 1
q-53 2 -89 38.5t-36 88.5v537h-634zM1335 238q13 -1 60 -4t75 -3q139 0 212 59.5t73 174.5q0 104 -73.5 159.5t-206.5 55.5q-69 0 -140 -10v-432z" />
    <glyph glyph-name="afii10060" unicode="&#x40b;" horiz-adv-x="1566" 
d="M1225 109v227q0 161 -65.5 228t-180.5 67q-122 0 -242 -78v-444q0 -53 -36.5 -89t-88.5 -36q-54 0 -90.5 36t-36.5 89v1089h-350q-48 0 -81.5 34t-33.5 85q0 49 33.5 83t81.5 34h952q48 0 81.5 -34t33.5 -83q0 -51 -33.5 -85t-81.5 -34h-350v-414q130 82 307 82
q68 0 128.5 -14.5t116.5 -48.5t97 -85.5t65 -130t24 -177.5v-301q0 -53 -35.5 -89t-89.5 -36q-52 0 -88.5 36t-36.5 89z" />
    <glyph glyph-name="afii10061" unicode="&#x40c;" horiz-adv-x="1329" 
d="M451 739v-630q0 -53 -36.5 -89t-88.5 -36q-54 0 -90.5 36t-36.5 89v1210q0 53 36.5 89t90.5 36q52 0 88.5 -36t36.5 -89v-565l516 622q30 36 54.5 52t59.5 16q50 0 81.5 -30.5t31.5 -74.5q0 -50 -37 -90l-428 -483l465 -569q41 -49 41 -101q0 -48 -34.5 -80t-90.5 -32
q-62 0 -121 75zM676 1673l303 158q13 8 33 8q46 0 65 -43l27 -63q6 -12 6 -29q0 -22 -13 -40.5t-34 -25.5l-318 -116q-8 -4 -26 -4q-56 0 -78 51q-8 13 -8 35t11.5 41t31.5 28z" />
    <glyph glyph-name="afii10062" unicode="&#x40e;" horiz-adv-x="1335" 
d="M305 1378l436 -745l314 731q33 80 110 80q53 0 85 -30t32 -75q0 -27 -12 -57l-420 -948q-84 -188 -169.5 -261t-219.5 -73q-63 0 -113 18q-29 11 -53.5 40t-24.5 69q0 9 4 33q9 34 34 54.5t61 23.5q6 2 20 2q11 0 37.5 -2t42.5 -2q83 0 131 100l21 49l-527 870
q-18 35 -18 70q0 48 32 83.5t85 35.5q70 0 112 -66zM1102 1784q0 -133 -112.5 -214t-297.5 -81t-297 81t-112 214q0 52 31.5 86.5t88.5 34.5t86 -34t29 -87q0 -121 174 -121t174 121q0 53 29 87t86 34q58 0 89.5 -34.5t31.5 -86.5z" />
    <glyph glyph-name="afii10145" unicode="&#x40f;" horiz-adv-x="1519" 
d="M877 -188q0 -52 -35 -88.5t-82 -36.5q-48 0 -83.5 36.5t-35.5 88.5v188h-317q-52 0 -88.5 36t-36.5 89v1194q0 53 36.5 89t90.5 36q52 0 88.5 -36t36.5 -89v-1083h618v1083q0 53 36.5 89t90.5 36q52 0 88.5 -36t36.5 -89v-1194q0 -53 -36.5 -89t-88.5 -36h-319v-188z" />
    <glyph glyph-name="afii10017" unicode="&#x410;" horiz-adv-x="1411" 
d="M1006 350h-613l-121 -297q-26 -69 -108 -69q-50 0 -83.5 33.5t-33.5 80.5q0 22 10 45l510 1198q44 103 142 103q93 0 137 -103l508 -1194q10 -27 10 -49q0 -47 -34.5 -80.5t-82.5 -33.5q-93 0 -123 77zM700 1100l-211 -514h420z" />
    <glyph glyph-name="afii10018" unicode="&#x411;" horiz-adv-x="1257" 
d="M451 879q83 12 192 12q223 0 352 -116.5t129 -315.5q0 -223 -144.5 -345t-408.5 -122q-48 0 -258 6q-49 1 -81.5 35t-32.5 82v1204q0 47 33.5 81t80.5 34h609q47 0 80.5 -34t33.5 -83q0 -51 -33 -85t-81 -34h-471v-319zM451 643v-407q128 -9 159 -9q134 0 199 56.5
t65 156.5q0 98 -62.5 156.5t-188.5 58.5q-77 0 -172 -12z" />
    <glyph glyph-name="afii10019" unicode="&#x412;" horiz-adv-x="1263" 
d="M1083 1085q0 -229 -204 -327q113 -30 182 -115t69 -221q0 -108 -40 -191t-112.5 -135t-168 -78t-211.5 -26q-102 0 -274 4q-51 1 -88 39.5t-37 89.5v1182q0 51 36.5 88.5t88.5 38.5q132 6 288 6q125 0 217.5 -27t147 -76t80.5 -112t26 -140zM451 616v-378q96 -11 165 -11
q128 0 195.5 53t67.5 154q0 90 -65 136t-185 46h-178zM451 836h170q93 0 153 48t60 142q0 86 -61 132t-165 46q-90 0 -157 -6v-362z" />
    <glyph glyph-name="afii10020" unicode="&#x413;" horiz-adv-x="1038" 
d="M199 109v1210q0 47 33.5 81t80.5 34h580q48 0 81.5 -34t33.5 -83q0 -51 -33.5 -85t-81.5 -34h-442v-1089q0 -53 -36.5 -89t-88.5 -36q-53 0 -90 36.5t-37 88.5z" />
    <glyph glyph-name="afii10021" unicode="&#x414;" horiz-adv-x="1548" 
d="M528 1434h660q47 0 81 -34t34 -81v-1083h79q47 0 81 -34t34 -81v-262q0 -48 -34 -81.5t-83 -33.5q-50 0 -84 33.5t-34 81.5v141h-1002v-141q0 -48 -34 -81.5t-83 -33.5q-50 0 -84 33.5t-34 81.5v262q0 47 33.5 81t80.5 34h39q26 32 57 101t66 178.5t62 276.5t36 355
l9 172q3 47 38 81t82 34zM1053 236v962h-396l-22 -250q-18 -251 -75.5 -452.5t-104.5 -259.5h598z" />
    <glyph glyph-name="afii10022" unicode="&#x415;" horiz-adv-x="1177" 
d="M451 236h483q48 0 81.5 -34t33.5 -83q0 -51 -33.5 -85t-81.5 -34h-621q-47 0 -80.5 34t-33.5 81v1204q0 47 33.5 81t80.5 34h600q48 0 81.5 -34t33.5 -83q0 -51 -33.5 -85t-81.5 -34h-462v-356h401q48 0 81.5 -34t33.5 -83q0 -51 -33.5 -85t-81.5 -34h-401v-370z" />
    <glyph glyph-name="afii10024" unicode="&#x416;" horiz-adv-x="1869" 
d="M1061 743v-634q0 -53 -36.5 -89t-88.5 -36t-88.5 36t-36.5 89v634l-510 -698q-45 -61 -113 -61q-50 0 -79 30.5t-29 75.5q0 44 26 80l435 578l-400 509q-28 35 -28 78q0 44 31.5 76.5t80.5 32.5q57 0 111 -70l475 -624v569q0 53 36.5 89t88.5 36t88.5 -36t36.5 -89v-569
l473 624q54 70 117 70q49 0 79.5 -31.5t30.5 -75.5q0 -42 -28 -80l-402 -507l434 -580q25 -36 25 -76q0 -46 -30 -78t-83 -32q-63 0 -108 61z" />
    <glyph glyph-name="afii10025" unicode="&#x417;" horiz-adv-x="1165" 
d="M547 1456q194 0 312 -103.5t118 -289.5q0 -89 -49 -175t-144 -143q125 -34 186.5 -125t61.5 -219q0 -127 -72 -225.5t-185 -148.5t-245 -50q-244 0 -424 158q-38 30 -38 90q0 46 28 78q37 43 90 43q34 0 76 -27q147 -106 256 -106q111 0 187.5 54.5t76.5 158.5
q0 87 -65.5 137.5t-188.5 50.5h-32q-52 0 -84.5 34t-32.5 87q0 48 31.5 81.5t81.5 33.5h28q84 0 145.5 51.5t61.5 136.5q0 89 -58 136t-151 47q-103 0 -215 -72q-50 -31 -84 -31q-47 0 -84 43q-24 30 -24 66q0 60 49 96q176 133 387 133z" />
    <glyph glyph-name="afii10026" unicode="&#x418;" horiz-adv-x="1622" 
d="M1423 109q0 -53 -36.5 -89t-88.5 -36q-54 0 -90.5 36t-36.5 89v907l-706 -955q-29 -38 -61 -57.5t-78 -19.5q-59 0 -93 34t-34 88v1213q0 53 36.5 89t90.5 36q52 0 88.5 -36t36.5 -89v-905l706 956q55 74 135 74q57 0 94 -35t37 -90v-1210z" />
    <glyph glyph-name="afii10027" unicode="&#x419;" horiz-adv-x="1622" 
d="M1423 109q0 -53 -36.5 -89t-88.5 -36q-54 0 -90.5 36t-36.5 89v907l-706 -955q-29 -38 -61 -57.5t-78 -19.5q-59 0 -93 34t-34 88v1213q0 53 36.5 89t90.5 36q52 0 88.5 -36t36.5 -89v-905l706 956q55 74 135 74q57 0 94 -35t37 -90v-1210zM1245 1784q0 -133 -112 -214
t-297 -81t-297.5 81t-112.5 214q0 52 31.5 86.5t89.5 34.5q57 0 86 -34t29 -87q0 -121 174 -121t174 121q0 53 28.5 87t85.5 34q58 0 89.5 -34.5t31.5 -86.5z" />
    <glyph glyph-name="afii10028" unicode="&#x41a;" horiz-adv-x="1329" 
d="M451 739v-630q0 -53 -36.5 -89t-88.5 -36q-54 0 -90.5 36t-36.5 89v1210q0 53 36.5 89t90.5 36q52 0 88.5 -36t36.5 -89v-565l516 622q30 36 54.5 52t59.5 16q50 0 81.5 -30.5t31.5 -74.5q0 -50 -37 -90l-428 -483l465 -569q41 -49 41 -101q0 -48 -34.5 -80t-90.5 -32
q-62 0 -121 75z" />
    <glyph glyph-name="afii10029" unicode="&#x41b;" horiz-adv-x="1480" 
d="M1282 1309v-1200q0 -53 -36 -89t-89 -36t-89 36t-36 89v1089h-418l-28 -270q-25 -232 -58.5 -401.5t-70.5 -273t-85 -164.5t-95.5 -83t-108.5 -22q-65 0 -104 33t-39 85q0 45 20.5 78t79.5 53q103 35 150.5 241.5t82.5 672.5l13 162q3 52 41.5 88.5t91.5 36.5h653
q53 0 89 -36t36 -89z" />
    <glyph glyph-name="afii10030" unicode="&#x41c;" horiz-adv-x="1845" 
d="M451 1012v-903q0 -53 -36.5 -89t-88.5 -36q-54 0 -90.5 36t-36.5 89v1196q0 60 39 99.5t102 39.5q55 0 90.5 -24t67.5 -66l444 -590l424 586q19 26 34 42.5t48.5 34t73.5 17.5q55 0 90 -36t35 -89v-1210q0 -53 -36.5 -89t-88.5 -36t-88.5 36t-36.5 89v905l-353 -475
q-52 -70 -118 -70q-67 0 -119 70z" />
    <glyph glyph-name="afii10031" unicode="&#x41d;" horiz-adv-x="1554" 
d="M1356 1319v-1210q0 -53 -36 -89t-89 -36t-89 36t-36 89v503h-655v-503q0 -53 -36.5 -89t-88.5 -36q-54 0 -90.5 36t-36.5 89v1210q0 53 36.5 89t90.5 36q52 0 88.5 -36t36.5 -89v-471h655v471q0 53 36 89t89 36t89 -36t36 -89z" />
    <glyph glyph-name="afii10032" unicode="&#x41e;" horiz-adv-x="1677" 
d="M92 717q0 154 55 290.5t152.5 235.5t237 156t301.5 57q212 0 381.5 -91t267.5 -260t98 -388q0 -212 -97.5 -381.5t-268 -264t-381.5 -94.5q-212 0 -381.5 91t-267 260.5t-97.5 388.5zM358 717q0 -214 139 -359t341 -145q220 0 350.5 143t130.5 361q0 220 -138 362
t-343 142q-207 0 -343.5 -141.5t-136.5 -362.5z" />
    <glyph glyph-name="afii10033" unicode="&#x41f;" horiz-adv-x="1540" 
d="M1341 1309v-1200q0 -53 -36 -89t-88 -36q-54 0 -90.5 36t-36.5 89v1089h-639v-1089q0 -53 -36.5 -89t-88.5 -36q-54 0 -90.5 36t-36.5 89v1200q0 53 36.5 89t88.5 36h893q52 0 88 -36t36 -89z" />
    <glyph glyph-name="afii10034" unicode="&#x420;" horiz-adv-x="1253" 
d="M606 1438q123 0 219.5 -25.5t158.5 -68.5t102.5 -103t57.5 -125t17 -139q0 -93 -34.5 -176t-98.5 -148t-165.5 -103t-225.5 -38q-125 0 -186 6v-409q0 -53 -36.5 -89t-88.5 -36q-54 0 -90.5 36t-36.5 89v1200q0 52 36 88.5t89 38.5q52 0 152.5 1t129.5 1zM451 1198v-440
q98 -10 178 -10q119 0 192.5 58t73.5 173q0 223 -264 223q-44 0 -180 -4z" />
    <glyph glyph-name="afii10035" unicode="&#x421;" horiz-adv-x="1320" 
d="M1042 1174q-110 47 -217 47q-204 0 -335.5 -137.5t-131.5 -366.5q0 -224 138 -364t358 -140q116 0 229 55q51 21 82 21q56 0 92 -47q21 -30 21 -66q0 -63 -57 -100q-150 -99 -390 -99q-217 0 -385 91.5t-261 260t-93 388.5q0 155 48.5 289t139.5 234.5t231.5 158
t313.5 57.5q180 0 324 -74q78 -38 78 -106q0 -25 -17 -59q-34 -58 -100 -58q-34 0 -68 15z" />
    <glyph glyph-name="afii10036" unicode="&#x422;" horiz-adv-x="1222" 
d="M485 109v1089h-350q-48 0 -81.5 34t-33.5 85q0 49 33.5 83t81.5 34h952q48 0 81.5 -34t33.5 -83q0 -51 -33.5 -85t-81.5 -34h-350v-1089q0 -53 -36.5 -89t-88.5 -36q-54 0 -90.5 36t-36.5 89z" />
    <glyph glyph-name="afii10037" unicode="&#x423;" horiz-adv-x="1335" 
d="M305 1378l436 -745l314 731q33 80 110 80q53 0 85 -30t32 -75q0 -27 -12 -57l-420 -948q-84 -188 -169.5 -261t-219.5 -73q-63 0 -113 18q-29 11 -53.5 40t-24.5 69q0 9 4 33q9 34 34 54.5t61 23.5q6 2 20 2q11 0 37.5 -2t42.5 -2q83 0 131 100l21 49l-527 870
q-18 35 -18 70q0 48 32 83.5t85 35.5q70 0 112 -66z" />
    <glyph glyph-name="afii10038" unicode="&#x424;" horiz-adv-x="1718" 
d="M985 174v-65q0 -53 -36.5 -89t-88.5 -36q-54 0 -90.5 36t-36.5 89v65q-302 0 -481.5 148t-179.5 415q0 263 180 410.5t481 152.5v25q0 53 36.5 89t90.5 36q52 0 88.5 -36t36.5 -89v-25q299 -5 480.5 -154.5t181.5 -408.5q0 -176 -84.5 -304t-233 -193t-344.5 -66z
M985 406q395 3 395 331q0 150 -100 239.5t-295 92.5v-663zM733 1069q-192 -1 -293.5 -91t-101.5 -241q0 -160 102.5 -244.5t292.5 -86.5v663z" />
    <glyph glyph-name="afii10039" unicode="&#x425;" horiz-adv-x="1290" 
d="M342 1372l309 -457l305 455q51 74 117 74q55 0 87 -34.5t32 -82.5q0 -34 -23 -72l-360 -524l379 -551q26 -39 26 -78q0 -50 -33.5 -84t-84.5 -34q-67 0 -113 63l-338 492l-334 -490q-47 -65 -112 -65q-52 0 -87.5 33t-35.5 81q0 41 28 82l379 551l-356 522q-25 39 -25 76
q0 47 35 81t90 34q66 0 115 -72z" />
    <glyph glyph-name="afii10040" unicode="&#x426;" horiz-adv-x="1576" 
d="M1526 -135q0 -51 -35 -86t-82 -35q-48 0 -83.5 35t-35.5 86v135h-966q-52 0 -88.5 36t-36.5 89v1194q0 53 36.5 89t90.5 36q52 0 88.5 -36t36.5 -89v-1083h628v1083q0 53 36.5 89t90.5 36q52 0 88.5 -36t36.5 -89v-1083h70q53 0 89 -36t36 -89v-246z" />
    <glyph glyph-name="afii10041" unicode="&#x427;" horiz-adv-x="1366" 
d="M915 817v502q0 53 36.5 89t90.5 36q52 0 88.5 -36t36.5 -89v-1210q0 -53 -36.5 -89t-88.5 -36q-54 0 -90.5 36t-36.5 89v479q-58 -42 -146.5 -70.5t-195.5 -28.5q-86 0 -160.5 24.5t-138 76t-100.5 143.5t-37 215v371q0 53 36.5 89t90.5 36q52 0 88.5 -36t36.5 -89v-299
q0 -295 252 -295q139 0 274 92z" />
    <glyph glyph-name="afii10042" unicode="&#x428;" horiz-adv-x="2041" 
d="M1843 1319v-1194q0 -53 -36.5 -89t-88.5 -36h-1394q-52 0 -88.5 36t-36.5 89v1194q0 53 36.5 89t90.5 36q52 0 88.5 -36t36.5 -89v-1083h444v1083q0 53 36.5 89t90.5 36q52 0 88.5 -36t36.5 -89v-1083h444v1083q0 53 36.5 89t90.5 36q52 0 88.5 -36t36.5 -89z" />
    <glyph glyph-name="afii10043" unicode="&#x429;" horiz-adv-x="2088" 
d="M2038 -131q0 -52 -35 -88.5t-82 -36.5q-48 0 -83.5 36.5t-35.5 88.5v131h-1478q-52 0 -88.5 36t-36.5 89v1194q0 53 36.5 89t90.5 36q52 0 88.5 -36t36.5 -89v-1083h444v1083q0 53 36.5 89t90.5 36q52 0 88.5 -36t36.5 -89v-1083h444v1083q0 53 36.5 89t90.5 36
q52 0 88.5 -36t36.5 -89v-1083h70q53 0 89 -36t36 -89v-242z" />
    <glyph glyph-name="afii10044" unicode="&#x42a;" horiz-adv-x="1378" 
d="M690 -4q-43 0 -126.5 1t-119.5 1q-47 2 -80.5 36t-33.5 81v1083h-201q-48 0 -81.5 34t-33.5 85q0 49 33.5 83t81.5 34h336q47 0 81 -34t34 -81v-377q82 10 165 10q271 0 406 -122.5t135 -340.5q0 -230 -156 -361.5t-440 -131.5zM580 707v-469q11 0 61.5 -3.5t79.5 -3.5
q143 0 221 62t78 190q0 118 -79 176t-216 58q-50 0 -145 -10z" />
    <glyph glyph-name="afii10045" unicode="&#x42b;" horiz-adv-x="1769" 
d="M1571 1319v-1210q0 -53 -36.5 -89t-88.5 -36t-88.5 36t-36.5 89v1210q0 53 36.5 89t88.5 36t88.5 -36t36.5 -89zM451 707v-469q11 0 58.5 -3.5t76.5 -3.5q139 0 210.5 63.5t71.5 188.5q0 114 -72.5 174t-205.5 60q-44 0 -139 -10zM199 125v1194q0 53 36.5 89t90.5 36
q52 0 88.5 -36t36.5 -89v-377q79 10 159 10q259 0 392 -123t133 -340q0 -229 -153.5 -361t-426.5 -132q-41 0 -119 1t-112 1q-53 2 -89 38.5t-36 88.5z" />
    <glyph glyph-name="afii10046" unicode="&#x42c;" horiz-adv-x="1247" 
d="M451 707v-469q9 0 59.5 -3.5t79.5 -3.5q143 0 221 62t78 190q0 118 -79 176t-216 58q-48 0 -143 -10zM199 125v1194q0 53 36.5 89t90.5 36q52 0 88.5 -36t36.5 -89v-377q79 10 163 10q271 0 406 -122.5t135 -340.5q0 -230 -155.5 -361.5t-438.5 -131.5q-42 0 -122 1
t-115 1q-53 2 -89 38.5t-36 88.5z" />
    <glyph glyph-name="afii10047" unicode="&#x42d;" horiz-adv-x="1353" 
d="M162 295q41 0 82 -21q129 -61 264 -61q125 0 228 44t175 135.5t93 219.5h-531q-48 0 -81.5 34t-33.5 85q0 49 33.5 83t81.5 34h524q-36 178 -173.5 275.5t-342.5 97.5q-116 0 -217 -52q-41 -20 -82 -20q-60 0 -92 49q-18 24 -18 59q0 64 73 111q136 88 381 88
q216 0 383 -90.5t260 -258.5t93 -388q0 -338 -203.5 -540t-546.5 -202q-245 0 -395 91q-70 42 -70 110q0 32 19 64q36 53 96 53z" />
    <glyph glyph-name="afii10048" unicode="&#x42e;" horiz-adv-x="2213" 
d="M451 612v-503q0 -53 -36.5 -89t-88.5 -36q-54 0 -90.5 36t-36.5 89v1210q0 53 36.5 89t90.5 36q52 0 88.5 -36t36.5 -89v-471h243q41 268 231 438t470 170q158 0 293 -53t230.5 -148.5t149.5 -234t54 -303.5q0 -213 -92.5 -381.5t-258.5 -263.5t-376 -95
q-182 0 -334 77.5t-250.5 222.5t-120.5 335h-239zM950 717q0 -214 131.5 -359t321.5 -145q146 0 250 68t153 180t49 256q0 223 -125 363.5t-327 140.5q-195 0 -324 -141.5t-129 -362.5z" />
    <glyph glyph-name="afii10049" unicode="&#x42f;" horiz-adv-x="1253" 
d="M1055 1309v-1200q0 -53 -36.5 -89t-88.5 -36t-88.5 36t-36.5 89v387h-207l-293 -449q-40 -63 -106 -63q-53 0 -86 31.5t-33 76.5q0 36 24 74l256 381q-110 56 -180.5 156.5t-70.5 240.5q0 102 34 189.5t103 157t184.5 109.5t267.5 40q68 0 232 -4q53 -2 89 -38.5
t36 -88.5zM805 731v467q-105 6 -158 6q-123 0 -197.5 -67.5t-74.5 -175.5q0 -91 58.5 -152.5t141.5 -77.5h230z" />
    <glyph glyph-name="afii10065" unicode="&#x430;" horiz-adv-x="948" 
d="M72 270q0 146 94.5 222.5t241.5 76.5q60 0 116.5 -16.5t91.5 -42.5v29q0 106 -39.5 157.5t-132.5 51.5q-75 0 -143 -21q-32 -8 -47 -8q-56 0 -80 49q-8 19 -8 39q0 60 67 88q111 49 236 49q197 0 283 -96t86 -287v-469q0 -40 -30 -72t-75 -32q-44 0 -72 30.5t-28 79.5
q-39 -48 -111 -79t-162 -31q-129 0 -208.5 75.5t-79.5 206.5zM616 270v95q-60 45 -161 45q-63 0 -105.5 -29.5t-42.5 -85.5q0 -51 37 -80t94 -29q119 0 178 84z" />
    <glyph glyph-name="afii10066" unicode="&#x431;" horiz-adv-x="1114" 
d="M1049 453q0 -129 -59.5 -237t-171 -173.5t-253.5 -65.5q-231 0 -365 157.5t-134 426.5q0 592 348 742q74 31 182 52.5t152 41.5q64 28 110 28q57 0 84 -36q29 -40 29 -74q0 -62 -62 -107q-57 -41 -125.5 -57.5t-145.5 -30t-138 -43.5q-175 -80 -197 -344q45 76 135.5 124
t190.5 48q191 0 305.5 -122.5t114.5 -329.5zM317 512q2 -137 67 -226t175 -89q109 0 173.5 70.5t64.5 174.5q0 107 -59.5 175.5t-168.5 68.5q-94 0 -160.5 -49.5t-91.5 -124.5z" />
    <glyph glyph-name="afii10067" unicode="&#x432;" horiz-adv-x="1028" 
d="M911 690q0 -80 -50 -137t-122 -70q96 -25 146.5 -80t50.5 -135q0 -278 -438 -278q-88 0 -252 8q-49 1 -82 35t-33 84v690q0 47 34 82.5t81 36.5q216 6 248 6q417 0 417 -242zM367 391v-205q140 -8 155 -8q77 0 121.5 29.5t44.5 77.5q0 52 -45 79t-129 27h-147zM367 535
h153q62 0 102 27t40 79q0 49 -40 74.5t-108 25.5q-97 0 -147 -4v-202z" />
    <glyph glyph-name="afii10068" unicode="&#x433;" horiz-adv-x="765" 
d="M367 700v-602q0 -47 -34 -80.5t-83 -33.5q-51 0 -85 33t-34 81v709q0 47 34 81t81 34h389q47 0 81 -33t34 -78t-34 -78t-81 -33h-268z" />
    <glyph glyph-name="afii10069" unicode="&#x434;" horiz-adv-x="1134" 
d="M240 0v-104q0 -44 -33 -77.5t-76 -33.5q-44 0 -77.5 33.5t-33.5 77.5v213q0 44 34 77t81 33q51 65 86.5 195t44.5 286l6 111q3 46 38 78.5t81 32.5h459q44 0 77.5 -33.5t33.5 -77.5v-592h43q44 0 77 -33t33 -77v-213q0 -44 -33 -77.5t-77 -33.5t-77.5 33.5t-33.5 77.5
v104h-653zM725 219v481h-225l-6 -94q-12 -135 -44 -236.5t-67 -150.5h342z" />
    <glyph glyph-name="afii10070" unicode="&#x435;" horiz-adv-x="1071" 
d="M762 551q0 86 -57 141.5t-154 55.5q-102 0 -162 -53t-80 -148h453v4zM317 389q15 -102 90.5 -158.5t186.5 -56.5q97 0 172 35q32 14 53 14q47 0 74 -43q14 -24 14 -45q0 -53 -47 -80q-132 -78 -291 -78q-223 0 -359 133t-136 351q0 100 34 188.5t95.5 153.5t154 103
t203.5 38q183 0 309.5 -119.5t126.5 -308.5v-43q-4 -40 -29 -62t-63 -22h-588z" />
    <glyph glyph-name="afii10072" unicode="&#x436;" horiz-adv-x="1380" 
d="M1264 758l-193 -283l217 -313q21 -30 21 -68q0 -45 -29.5 -77.5t-79.5 -32.5q-68 0 -110 65l-232 361q-18 30 -18 65q0 36 18 66l205 329q40 66 115 66q50 0 79 -32.5t29 -76.5q0 -42 -22 -69zM805 821v-723q0 -47 -34 -80.5t-83 -33.5q-51 0 -85 33t-34 81v723
q0 48 34 81.5t85 33.5q49 0 83 -33.5t34 -81.5zM518 408l-225 -357q-43 -67 -115 -67q-50 0 -78 32t-28 78q0 41 20 70l213 311l-190 277q-21 30 -21 67q0 47 32 82t85 35q65 0 106 -68l201 -325q19 -32 19 -70q0 -33 -19 -65z" />
    <glyph glyph-name="afii10073" unicode="&#x437;" horiz-adv-x="937" 
d="M453 944q180 0 274 -69.5t94 -192.5q0 -67 -44.5 -122.5t-125.5 -84.5q94 -20 144.5 -78.5t50.5 -140.5q0 -128 -114.5 -203.5t-303.5 -75.5q-108 0 -184.5 21t-149.5 78q-37 26 -37 74q0 32 23 61q30 35 74 35q35 0 65 -21q99 -59 189 -59t139 31t49 82q0 47 -36.5 75.5
t-102.5 28.5h-97q-35 0 -55 23.5t-20 56.5q0 31 20 54.5t55 23.5h86q56 0 89.5 33t33.5 79q0 47 -42.5 74t-118.5 27q-80 0 -183 -54q-20 -10 -49 -10q-53 0 -76 39q-14 22 -14 49q0 57 47 80q155 86 320 86z" />
    <glyph glyph-name="afii10074" unicode="&#x438;" horiz-adv-x="1163" 
d="M1032 98q0 -47 -34 -80.5t-83 -33.5q-51 0 -84.5 33t-33.5 81v475l-383 -501q-68 -88 -150 -88q-59 0 -96 37.5t-37 95.5v704q0 48 34 81.5t85 33.5q49 0 83 -33.5t34 -81.5v-475l383 502q31 42 65 65t82 23q61 0 98 -36t37 -91v-711z" />
    <glyph glyph-name="afii10075" unicode="&#x439;" horiz-adv-x="1163" 
d="M1032 98q0 -47 -34 -80.5t-83 -33.5q-51 0 -84.5 33t-33.5 81v475l-383 -501q-68 -88 -150 -88q-59 0 -96 37.5t-37 95.5v704q0 48 34 81.5t85 33.5q49 0 83 -33.5t34 -81.5v-475l383 502q31 42 65 65t82 23q61 0 98 -36t37 -91v-711zM795 1454q51 0 79.5 -30t28.5 -81
q0 -122 -81.5 -200t-231.5 -78q-164 0 -243 76t-79 202q0 51 26.5 81t76.5 30q54 0 83 -30t29 -81q0 -47 26 -78.5t81 -31.5q49 0 73.5 31.5t24.5 78.5q0 51 27 81t80 30z" />
    <glyph glyph-name="afii10076" unicode="&#x43a;" horiz-adv-x="1013" 
d="M702 45l-278 358q-23 30 -23 64t21 61l248 344q48 64 114 64q50 0 79.5 -31.5t29.5 -75.5q0 -43 -27 -77l-217 -269l250 -303q31 -39 31 -86q0 -46 -30.5 -78t-88.5 -32q-61 0 -109 61zM367 821v-723q0 -47 -34 -80.5t-83 -33.5q-51 0 -85 33t-34 81v723q0 48 34 81.5
t85 33.5q49 0 83 -33.5t34 -81.5z" />
    <glyph glyph-name="afii10077" unicode="&#x43b;" horiz-adv-x="1083" 
d="M952 807v-709q0 -48 -33.5 -81t-82.5 -33q-51 0 -85 33t-34 81v588h-244l-6 -98q-28 -313 -101 -458.5t-202 -145.5q-55 0 -90 30.5t-35 85.5q0 44 19 72t61 55q54 34 83 126t38 282l8 172q3 47 38.5 81t82.5 34h469q47 0 80.5 -34t33.5 -81z" />
    <glyph glyph-name="afii10078" unicode="&#x43c;" horiz-adv-x="1292" 
d="M367 555v-457q0 -47 -34 -80.5t-83 -33.5q-51 0 -85 33t-34 81v709q0 58 34.5 93.5t90.5 35.5q40 0 71 -21t66 -63l264 -324l250 324q63 84 133 84q58 0 89.5 -32.5t31.5 -82.5v-723q0 -47 -34 -80.5t-83 -33.5q-51 0 -84.5 33t-33.5 81v457l-193 -242q-34 -43 -82 -43
q-47 0 -84 43z" />
    <glyph glyph-name="afii10079" unicode="&#x43d;" horiz-adv-x="1136" 
d="M1006 821v-723q0 -47 -34 -80.5t-83 -33.5q-51 0 -85 33t-34 81v254h-403v-254q0 -47 -34 -80.5t-83 -33.5q-51 0 -85 33t-34 81v723q0 48 34 81.5t85 33.5q49 0 83 -33.5t34 -81.5v-248h403v248q0 48 34 81.5t85 33.5q49 0 83 -33.5t34 -81.5z" />
    <glyph glyph-name="afii10080" unicode="&#x43e;" horiz-adv-x="1150" 
d="M74 461q0 210 138 346.5t363 136.5q226 0 364 -136.5t138 -346.5t-138.5 -347t-363.5 -137t-363 137t-138 347zM326 461q0 -115 70.5 -189.5t178.5 -74.5q110 0 181 72.5t71 191.5q0 116 -71.5 189t-180.5 73q-107 0 -178 -72t-71 -190z" />
    <glyph glyph-name="afii10081" unicode="&#x43f;" horiz-adv-x="1126" 
d="M995 807v-709q0 -48 -33.5 -81t-82.5 -33q-51 0 -85 33t-34 81v602h-393v-602q0 -47 -34 -80.5t-83 -33.5q-51 0 -85 33t-34 81v709q0 47 34 81t81 34h635q47 0 80.5 -34t33.5 -81z" />
    <glyph glyph-name="afii10082" unicode="&#x440;" horiz-adv-x="1142" 
d="M367 623v-373q81 -53 194 -53q120 0 189 76.5t69 195.5q0 113 -63.5 183.5t-177.5 70.5q-121 0 -211 -100zM131 -295v1098q0 64 32.5 98.5t88.5 34.5q49 0 82 -28.5t33 -71.5q45 47 121.5 77.5t162.5 30.5q188 0 303 -131.5t115 -337.5q0 -214 -134.5 -356t-352.5 -142
q-136 0 -215 46v-318q0 -48 -34 -81.5t-83 -33.5q-51 0 -85 33.5t-34 81.5z" />
    <glyph glyph-name="afii10083" unicode="&#x441;" horiz-adv-x="974" 
d="M719 698q-70 25 -137 25q-103 0 -179.5 -72.5t-76.5 -189.5q0 -119 78.5 -191.5t187.5 -72.5q89 0 151 36q42 25 82 25q48 0 82 -43q21 -27 21 -61q0 -56 -49 -93q-114 -84 -299 -84q-229 0 -367.5 133t-138.5 351q0 133 60 243.5t170 175t247 64.5q162 0 260 -49
q34 -15 54 -41.5t20 -56.5q0 -18 -15 -52q-29 -59 -94 -59q-27 0 -57 12z" />
    <glyph glyph-name="afii10084" unicode="&#x442;" horiz-adv-x="909" 
d="M573 98q0 -48 -33.5 -81t-82.5 -33q-51 0 -85 33t-34 81v588h-188q-48 0 -81.5 34t-33.5 85q0 49 33.5 83t81.5 34h610q47 0 80.5 -34t33.5 -83q0 -51 -33 -85t-81 -34h-187v-588z" />
    <glyph glyph-name="afii10085" unicode="&#x443;" horiz-adv-x="993" 
d="M483 418q16 -41 45 -133q16 84 33 135l141 428q29 88 119 88q58 0 90.5 -32t32.5 -81q0 -29 -12 -63l-299 -760q-66 -169 -123.5 -259.5t-109.5 -120.5t-124 -30q-69 0 -120 23q-66 28 -66 100q0 40 25 69.5t71 29.5q12 0 34 -2.5t32 -2.5h12q71 3 127 144l21 49
l-349 752q-14 32 -14 59q0 52 37 88.5t102 36.5q34 0 64.5 -24.5t46.5 -61.5z" />
    <glyph glyph-name="afii10086" unicode="&#x444;" horiz-adv-x="1406" 
d="M823 -23v-272q0 -47 -34.5 -81t-83.5 -34q-51 0 -86 33.5t-35 81.5v272q-239 0 -374.5 136t-135.5 348q0 95 34 181t96.5 154t161 108t218.5 40v375q0 48 35 81.5t86 33.5q49 0 83.5 -34t34.5 -81v-375q237 0 373.5 -136.5t136.5 -346.5q0 -215 -131.5 -349.5
t-378.5 -134.5zM823 723v-526q127 0 192.5 71.5t65.5 192.5q0 110 -67 186t-191 76zM584 723q-129 0 -193.5 -74t-64.5 -188q0 -120 66 -192t192 -72v526z" />
    <glyph glyph-name="afii10087" unicode="&#x445;" horiz-adv-x="978" 
d="M336 870l162 -254l168 254q46 66 108 66q51 0 80 -30t29 -72q0 -37 -23 -70l-196 -283l210 -311q23 -36 23 -74q0 -46 -31 -79t-82 -33q-67 0 -112 65l-183 283l-190 -283q-45 -65 -111 -65q-51 0 -78.5 29.5t-27.5 72.5q0 36 22 72l218 311l-191 281q-20 33 -20 71
q0 46 31.5 80.5t86.5 34.5q64 0 107 -66z" />
    <glyph glyph-name="afii10088" unicode="&#x446;" horiz-adv-x="1159" 
d="M1135 -106q0 -46 -33 -77.5t-78 -31.5t-78 31.5t-33 77.5v106h-667q-47 0 -81 34t-34 81v706q0 48 34 81.5t85 33.5q49 0 83 -33.5t34 -81.5v-602h378v602q0 48 34 81.5t85 33.5q49 0 83 -33.5t34 -81.5v-602h39q47 0 81 -34t34 -81v-210z" />
    <glyph glyph-name="afii10089" unicode="&#x447;" horiz-adv-x="1005" 
d="M639 522v299q0 48 34 81.5t85 33.5q49 0 82.5 -33.5t33.5 -81.5v-723q0 -48 -33.5 -81t-82.5 -33q-51 0 -85 33t-34 81v219q-97 -53 -229 -53q-174 0 -254 91.5t-80 271.5v190q0 52 35.5 85.5t91.5 33.5q55 0 90 -33t35 -86v-162q0 -85 38.5 -127.5t110.5 -42.5
q43 0 89 11t73 26z" />
    <glyph glyph-name="afii10090" unicode="&#x448;" horiz-adv-x="1490" 
d="M1360 821v-706q0 -47 -34 -81t-81 -34h-999q-47 0 -81 34t-34 81v706q0 48 34 81.5t85 33.5q49 0 83 -33.5t34 -81.5v-602h260v602q0 48 34 81.5t84 33.5q49 0 83 -33.5t34 -81.5v-602h262v602q0 48 34 81.5t85 33.5q49 0 83 -33.5t34 -81.5z" />
    <glyph glyph-name="afii10091" unicode="&#x449;" horiz-adv-x="1538" 
d="M1513 -106q0 -46 -32.5 -77.5t-77.5 -31.5t-78 31.5t-33 77.5v106h-1046q-47 0 -81 34t-34 81v706q0 48 34 81.5t85 33.5q49 0 83 -33.5t34 -81.5v-602h260v602q0 48 34 81.5t84 33.5q49 0 83 -33.5t34 -81.5v-602h262v602q0 48 34 81.5t85 33.5q49 0 83 -33.5t34 -81.5
v-602h39q47 0 80.5 -34t33.5 -81v-210z" />
    <glyph glyph-name="afii10092" unicode="&#x44a;" horiz-adv-x="1097" 
d="M616 0h-231q-47 0 -81 34t-34 81v585h-125q-47 0 -80.5 33t-33.5 78t33.5 78t80.5 33h246q47 0 81 -34t34 -81v-137h129q113 0 194.5 -26.5t126 -73t64.5 -101t20 -119.5q0 -69 -23 -129.5t-71 -111t-132.5 -80t-197.5 -29.5zM506 205h106q176 0 176 137q0 139 -174 139
h-108v-276z" />
    <glyph glyph-name="afii10093" unicode="&#x44b;" horiz-adv-x="1384" 
d="M367 670h114q113 0 195 -26.5t126.5 -73t64.5 -101t20 -119.5q0 -69 -23 -129.5t-71 -111t-132.5 -80t-197.5 -29.5h-217q-47 0 -81 34t-34 81v706q0 48 34 81.5t85 33.5q49 0 83 -33.5t34 -81.5v-151zM1253 821v-723q0 -48 -33.5 -81t-82.5 -33q-51 0 -85 33t-34 81v723
q0 48 34 81.5t85 33.5q49 0 82.5 -33.5t33.5 -81.5zM367 205h92q178 0 178 137q0 139 -176 139h-94v-276z" />
    <glyph glyph-name="afii10094" unicode="&#x44c;" horiz-adv-x="956" 
d="M367 670h127q113 0 194.5 -26.5t126 -73t64.5 -101t20 -119.5q0 -69 -23 -129.5t-71 -111t-132.5 -80t-197.5 -29.5h-229q-47 0 -81 34t-34 81v706q0 48 34 81.5t85 33.5q49 0 83 -33.5t34 -81.5v-151zM367 205h104q178 0 178 137q0 139 -176 139h-106v-276z" />
    <glyph glyph-name="afii10095" unicode="&#x44d;" horiz-adv-x="972" 
d="M156 242q26 0 65 -17q88 -43 185 -43q106 0 175 52.5t87 152.5h-320q-45 0 -67.5 22.5t-22.5 57.5q0 31 23 54.5t67 23.5h318q-22 96 -94 145t-171 49q-98 0 -190 -45q-24 -12 -53 -12q-56 0 -82 45q-15 24 -15 47q0 55 58 88q136 82 291 82q228 0 364.5 -131t136.5 -352
q0 -208 -132.5 -346t-358.5 -138q-99 0 -172 20t-142 66q-43 29 -43 84q0 33 17 56q26 39 76 39z" />
    <glyph glyph-name="afii10096" unicode="&#x44e;" horiz-adv-x="1581" 
d="M381 352v-248q0 -50 -36.5 -85t-88.5 -35t-88.5 35t-36.5 85v711q0 50 36.5 85.5t88.5 35.5t88.5 -35.5t36.5 -85.5v-227h164q36 161 160 258.5t307 97.5q221 0 358 -136.5t137 -346.5q0 -209 -138 -346.5t-357 -137.5q-188 0 -313 103t-158 272h-160zM797 461
q0 -116 61.5 -182t159.5 -66q100 0 161.5 66.5t61.5 181.5q0 114 -60 181t-163 67q-98 0 -159.5 -67.5t-61.5 -180.5z" />
    <glyph glyph-name="afii10097" unicode="&#x44f;" horiz-adv-x="972" 
d="M139 166l121 162q-71 26 -124.5 94t-53.5 172q0 69 25.5 126.5t78.5 103.5t143.5 72t211.5 26h186q47 0 81 -34t34 -81v-709q0 -47 -34 -80.5t-83 -33.5q-51 0 -85 33t-34 81v178h-131l-160 -231q-43 -61 -104 -61q-48 0 -76.5 27.5t-28.5 68.5q0 44 33 86zM606 451v266
h-104q-81 0 -124.5 -41t-43.5 -98q0 -55 45.5 -91t103.5 -36h123z" />
    <glyph glyph-name="afii10071" unicode="&#x451;" horiz-adv-x="1071" 
d="M762 551q0 86 -57 141.5t-154 55.5q-102 0 -162 -53t-80 -148h453v4zM317 389q15 -102 90.5 -158.5t186.5 -56.5q97 0 172 35q32 14 53 14q47 0 74 -43q14 -24 14 -45q0 -53 -47 -80q-132 -78 -291 -78q-223 0 -359 133t-136 351q0 100 34 188.5t95.5 153.5t154 103
t203.5 38q183 0 309.5 -119.5t126.5 -308.5v-43q-4 -40 -29 -62t-63 -22h-588zM356 1090q-56 0 -94.5 36.5t-38.5 100.5q0 60 38.5 95.5t94.5 35.5q49 0 86 -36t37 -95q0 -63 -37 -100t-86 -37zM762 1090q-55 0 -93 37t-38 100q0 59 38 95t93 36q50 0 86.5 -36t36.5 -95
q0 -63 -36.5 -100t-86.5 -37z" />
    <glyph glyph-name="afii10099" unicode="&#x452;" horiz-adv-x="1208" 
d="M256 1075v266q0 48 34 81.5t85 33.5q49 0 83 -33.5t34 -81.5v-266h231q38 0 65 -27t27 -67q0 -41 -26.5 -68.5t-65.5 -27.5h-231v-242q46 44 116.5 72t147.5 28q177 0 278 -96.5t101 -298.5q0 -243 -87 -426.5t-276 -359.5q-30 -27 -70 -27q-38 0 -65 27q-25 25 -25 59
q0 40 33 78q147 151 199.5 281t52.5 311q0 115 -52 173t-149 58q-120 0 -204 -84v-340q0 -47 -34 -80.5t-83 -33.5q-51 0 -85 33t-34 81v787h-150q-39 0 -65.5 27.5t-26.5 68.5q0 40 27 67t65 27h150z" />
    <glyph glyph-name="afii10100" unicode="&#x453;" horiz-adv-x="765" 
d="M367 700v-602q0 -47 -34 -80.5t-83 -33.5q-51 0 -85 33t-34 81v709q0 47 34 81t81 34h389q47 0 81 -33t34 -78t-34 -78t-81 -33h-268zM385 1229l125 194q21 35 65 35q28 0 48 -14l49 -37q30 -21 30 -64q0 -30 -18 -51l-147 -170q-27 -30 -70 -30q-29 0 -55 16
q-39 26 -39 76q0 24 12 45z" />
    <glyph glyph-name="afii10101" unicode="&#x454;" horiz-adv-x="997" 
d="M580 182q96 0 184 43q39 17 65 17q50 0 76 -39q17 -23 17 -56q0 -55 -43 -84q-69 -46 -142 -66t-172 -20q-226 0 -358.5 138t-132.5 346q0 221 136.5 352t364.5 131q155 0 291 -82q58 -33 58 -88q0 -23 -15 -47q-26 -45 -82 -45q-29 0 -53 12q-92 45 -190 45
q-99 0 -171 -49t-94 -145h318q44 0 67 -23.5t23 -54.5q0 -35 -22.5 -57.5t-67.5 -22.5h-320q18 -100 87.5 -152.5t175.5 -52.5z" />
    <glyph glyph-name="afii10102" unicode="&#x455;" horiz-adv-x="868" 
d="M70 162q0 34 20 57q30 37 74 37q29 0 67 -23q92 -59 213 -59q53 0 87 22.5t34 63.5q0 34 -37 58.5t-92 38t-119.5 36t-119.5 50.5t-92 85t-37 136q0 131 95 205.5t243 74.5q162 0 280 -70q49 -30 49 -79q0 -26 -12 -47q-26 -48 -82 -48q-26 0 -55 13q-78 35 -168 35
q-52 0 -83.5 -24t-31.5 -56q0 -31 27.5 -53t71.5 -36t97 -28t106 -35t97 -49.5t71.5 -78.5t27.5 -116q0 -136 -101.5 -215.5t-271.5 -79.5q-192 0 -319 105q-39 33 -39 80z" />
    <glyph glyph-name="afii10103" unicode="&#x456;" horiz-adv-x="567" 
d="M401 821v-723q0 -48 -33.5 -81t-82.5 -33q-51 0 -85 33t-34 81v723q0 48 34 81.5t85 33.5q49 0 82.5 -33.5t33.5 -81.5zM289 1391q54 0 94.5 -38.5t40.5 -99.5q0 -67 -40.5 -107t-94.5 -40q-63 0 -105.5 39.5t-42.5 107.5q0 61 43 99.5t105 38.5z" />
    <glyph glyph-name="afii10104" unicode="&#x457;" horiz-adv-x="645" 
d="M51 1223q0 53 34 83.5t87 30.5q44 0 77.5 -31.5t33.5 -82.5q0 -56 -33.5 -88.5t-77.5 -32.5q-53 0 -87 32t-34 89zM362 1223q0 52 35 83t86 31q45 0 78 -31t33 -83q0 -56 -33 -88.5t-78 -32.5q-52 0 -86.5 32.5t-34.5 88.5zM436 821v-723q0 -47 -34 -80.5t-83 -33.5
q-51 0 -84.5 33t-33.5 81v723q0 48 34 81.5t84 33.5q49 0 83 -33.5t34 -81.5z" />
    <glyph glyph-name="afii10105" unicode="&#x458;" horiz-adv-x="606" 
d="M203 -47v868q0 48 34 81.5t85 33.5q49 0 82.5 -33.5t33.5 -81.5v-889q0 -358 -288 -358q-83 0 -140 30.5t-57 96.5t57 84q16 6 45 6h35q113 0 113 162zM328 1391q54 0 94.5 -38.5t40.5 -99.5q0 -67 -40.5 -107t-94.5 -40q-63 0 -105.5 39.5t-42.5 107.5q0 61 43 99.5
t105 38.5z" />
    <glyph glyph-name="afii10106" unicode="&#x459;" horiz-adv-x="1482" 
d="M952 205h64q176 0 176 137q0 139 -174 139h-66v-276zM240 635l8 172q3 47 38.5 81t82.5 34h469q47 0 80.5 -34t33.5 -81v-137h86q113 0 195 -26.5t126.5 -73t64.5 -101t20 -119.5q0 -69 -23 -129.5t-71 -111t-132.5 -80t-197.5 -29.5h-189q-47 0 -80.5 34t-33.5 81v571
h-244l-6 -98q-39 -604 -303 -604q-55 0 -90 30.5t-35 85.5q0 44 19 72t61 55q54 34 83 126t38 282z" />
    <glyph glyph-name="afii10107" unicode="&#x45a;" horiz-adv-x="1554" 
d="M1006 659h86q113 0 194.5 -25t126 -70.5t64.5 -99t20 -118.5q0 -70 -23 -129.5t-71 -109.5t-132.5 -78.5t-197.5 -28.5h-188q-47 0 -81 34t-34 81v247h-403v-264q0 -47 -34 -80.5t-83 -33.5q-51 0 -85 33t-34 81v723q0 48 34 81.5t85 33.5q49 0 83 -33.5t34 -81.5v-237
h403v237q0 48 34 81.5t85 33.5q49 0 83 -33.5t34 -81.5v-162zM1006 205h63q93 0 135.5 33.5t42.5 99.5q0 133 -176 133h-65v-266z" />
    <glyph glyph-name="afii10108" unicode="&#x45b;" horiz-adv-x="1208" 
d="M256 885h-150q-39 0 -65.5 27.5t-26.5 68.5q0 40 27 67t65 27h150v244q0 48 34 81.5t85 33.5q49 0 83 -33.5t34 -81.5v-244h231q38 0 65 -27t27 -67q0 -41 -26.5 -68.5t-65.5 -27.5h-231v-242q46 44 116.5 72t147.5 28q178 0 278.5 -97.5t100.5 -305.5v-242
q0 -47 -34 -80.5t-83 -33.5q-51 0 -85 33t-34 81v211q0 102 -53.5 157.5t-149.5 55.5q-120 0 -204 -84v-340q0 -47 -34 -80.5t-83 -33.5q-51 0 -85 33t-34 81v787z" />
    <glyph glyph-name="afii10109" unicode="&#x45c;" horiz-adv-x="1013" 
d="M702 45l-278 358q-23 30 -23 64t21 61l248 344q48 64 114 64q50 0 79.5 -31.5t29.5 -75.5q0 -43 -27 -77l-217 -269l250 -303q31 -39 31 -86q0 -46 -30.5 -78t-88.5 -32q-61 0 -109 61zM367 821v-723q0 -47 -34 -80.5t-83 -33.5q-51 0 -85 33t-34 81v723q0 48 34 81.5
t85 33.5q49 0 83 -33.5t34 -81.5zM432 1229l125 194q21 35 66 35q27 0 47 -14l49 -37q31 -22 31 -64q0 -29 -19 -51l-147 -170q-27 -30 -70 -30q-29 0 -55 16q-39 26 -39 76q0 24 12 45z" />
    <glyph glyph-name="afii10110" unicode="&#x45e;" horiz-adv-x="993" 
d="M483 418q16 -41 45 -133q16 84 33 135l141 428q29 88 119 88q58 0 90.5 -32t32.5 -81q0 -29 -12 -63l-299 -760q-66 -169 -123.5 -259.5t-109.5 -120.5t-124 -30q-69 0 -120 23q-66 28 -66 100q0 40 25 69.5t71 29.5q12 0 34 -2.5t32 -2.5h12q71 3 127 144l21 49
l-349 752q-14 32 -14 59q0 52 37 88.5t102 36.5q34 0 64.5 -24.5t46.5 -61.5zM713 1454q51 0 79.5 -30t28.5 -81q0 -122 -81.5 -200t-231.5 -78q-164 0 -243 76t-79 202q0 51 26.5 81t76.5 30q54 0 83 -30t29 -81q0 -47 26 -78.5t81 -31.5q49 0 73.5 31.5t24.5 78.5
q0 51 27 81t80 30z" />
    <glyph glyph-name="afii10193" unicode="&#x45f;" horiz-adv-x="1105" 
d="M664 -133q0 -46 -33 -77.5t-78 -31.5t-78 31.5t-33 77.5v133h-196q-47 0 -81 34t-34 81v706q0 48 34 81.5t85 33.5q49 0 83 -33.5t34 -81.5v-602h372v602q0 48 34 81.5t85 33.5q49 0 83 -33.5t34 -81.5v-706q0 -47 -34 -81t-81 -34h-196v-133z" />
    <glyph glyph-name="afii10146" unicode="&#x462;" horiz-adv-x="1327" 
d="M279 1270v49q0 53 36 89t88 36q53 0 89 -36t36 -89v-49h179q52 0 88 -35t36 -82q0 -48 -36 -83.5t-88 -35.5h-179v-153q82 10 166 10q541 0 541 -432q0 -226 -153.5 -344.5t-442.5 -118.5q-42 0 -121.5 1t-114.5 1q-53 2 -88.5 38.5t-35.5 88.5v909h-123
q-52 0 -88.5 35.5t-36.5 83.5q0 47 36.5 82t88.5 35h123zM528 645v-407q11 0 62 -3.5t80 -3.5q149 0 224 48.5t75 173.5q0 114 -75 158t-220 44q-51 0 -146 -10z" />
    </font>
</defs>
</svg>
