<?xml version="1.0" standalone="no"?>
<!DOCTYPE svg PUBLIC "-//W3C//DTD SVG 1.1//EN" "http://www.w3.org/Graphics/SVG/1.1/DTD/svg11.dtd" >
<svg xmlns="http://www.w3.org/2000/svg" xmlns:xlink="http://www.w3.org/1999/xlink" version="1.1">
<metadata>
Created by FontForge 20170731 at Wed Mar 15 10:29:47 2023
 By Aleksey,,,
Copyright (c) 2011 Paratype, Inc., ParaType Ltd. All rights reserved.
</metadata>
<defs>
<font id="Circe-ThinItalic" horiz-adv-x="1196" >
  <font-face 
    font-family="Circe Thin"
    font-weight="250"
    font-style="italic"
    font-stretch="normal"
    units-per-em="2048"
    panose-1="2 11 2 2 2 2 3 9 2 3"
    ascent="1583"
    descent="-465"
    x-height="922"
    cap-height="1434"
    bbox="-997 -676 3250 2028"
    underline-thickness="102"
    underline-position="-307"
    slope="-10"
    unicode-range="U+0020-FEFF"
  />
<missing-glyph horiz-adv-x="512" 
 />
    <glyph glyph-name="uniF350.var.accented" unicode="&#xf350;`" horiz-adv-x="1124" 
d="M49 0l703 1087h8l313 -1087h-20l-121 422h-588l-272 -422h-23zM750 1049l-394 -609h570zM995 1516l-223 -289l-16 10l225 291z" />
    <glyph glyph-name="uniF355.var.accented" unicode="&#xf355;`" horiz-adv-x="960" 
d="M197 0l190 1075h617l-5 -20h-596l-88 -496h547l-4 -20h-547l-90 -519h613l-5 -20h-632zM954 1516l-223 -289l-16 10l225 291z" />
    <glyph glyph-name="uniF358.var.accented" unicode="&#xf358;`" horiz-adv-x="1312" 
d="M219 0h-22l190 1075h21l-185 -1040l1063 1040h21l-191 -1075h-20l184 1040zM1077 1516l-223 -289l-16 10l225 291z" />
    <glyph glyph-name="uniF35E.var.accented" unicode="&#xf35e;`" horiz-adv-x="1310" 
d="M176 469q0 279 178.5 448.5t458.5 169.5q139 0 255 -63.5t182.5 -174t66.5 -243.5q0 -125 -42 -236t-120 -196.5t-201 -135.5t-274 -50q-139 0 -255 63.5t-182.5 174t-66.5 243.5zM197 469q0 -194 142 -327.5t345 -133.5q185 0 325 78.5t213.5 214t73.5 307.5
q0 127 -66 233t-176.5 166t-240.5 60q-275 0 -445.5 -164t-170.5 -434zM1090 1516l-224 -289l-16 10l225 291z" />
    <glyph glyph-name="uniF363.var.accented" unicode="&#xf363;`" horiz-adv-x="1013" 
d="M1171 1075l-553 -837q-40 -60 -65 -94t-61 -72t-73 -55t-79 -17q-54 0 -102 29l10 18q44 -29 94 -29q110 0 223 175l33 49l-397 833h22l387 -813l537 813h24zM932 1516l-223 -289l-17 10l226 291z" />
    <glyph glyph-name="uniF36B.var.accented" unicode="&#xf36b;`" horiz-adv-x="1323" 
d="M1106 0l190 1075h21l-191 -1075h-20zM530 604q-96 0 -208 -8l-101 -576q27 0 100 -2t117 -2q222 0 336.5 89t114.5 260q0 125 -97 182t-262 57zM408 1075l-82 -459q126 9 204 9q178 0 279.5 -63.5t101.5 -196.5q0 -183 -124 -276t-351 -93q-43 0 -125 2t-114 2l190 1075
h21zM1057 1516l-223 -289l-17 10l225 291z" />
    <glyph glyph-name="uniF36D.var.accented" unicode="&#xf36d;`" horiz-adv-x="1122" 
d="M436 539v20h674q12 508 -471 508q-207 0 -363 -100l-10 16q74 51 174.5 77.5t198.5 26.5q491 0 491 -497q0 -131 -43 -241.5t-122 -190.5t-197.5 -125t-263.5 -45q-133 0 -221 31t-164 96l14 16q79 -65 161.5 -94t209.5 -29q142 0 256.5 44.5t187.5 119.5t114 169t46 198
h-672zM918 1516l-224 -289l-16 10l225 291z" />
    <glyph glyph-name="uniF36E.var.accented" unicode="&#xf36e;`" horiz-adv-x="1757" 
d="M197 0l190 1075h21l-93 -516h349q23 166 112.5 287.5t219 181t284.5 59.5q213 0 348 -131.5t135 -332.5q0 -284 -172 -459.5t-461 -175.5q-119 0 -214.5 44t-155 118.5t-86 175.5t-12.5 213h-351l-94 -539h-20zM678 463q0 -200 126 -327.5t326 -127.5q278 0 445.5 167.5
t167.5 447.5q0 193 -130.5 318.5t-332.5 125.5q-181 0 -319 -79.5t-210.5 -216t-72.5 -308.5zM1161 1516l-223 -289l-16 10l225 291z" />
    <glyph glyph-name="uniF36F.var.accented" unicode="&#xf36f;`" horiz-adv-x="991" 
d="M774 0l80 451h-309l-453 -451h-26l454 453q-108 19 -170.5 89t-62.5 175q0 170 126 266t339 96q42 0 121 -2t112 -2l-190 -1075h-21zM539 471h319l103 584q-27 0 -99.5 2t-116.5 2q-194 0 -316 -88.5t-122 -251.5q0 -99 61 -166t171 -82zM995 1516l-223 -289l-16 10
l225 291z" />
    <glyph glyph-name="uniF371.var.accented" unicode="&#xf371;`" horiz-adv-x="960" 
d="M197 0l190 1075h617l-5 -20h-596l-88 -496h547l-4 -20h-547l-90 -519h613l-5 -20h-632zM539 1374q0 9 8 17t18 8q9 0 17 -8t8 -17q0 -10 -8 -18t-17 -8q-11 0 -18.5 8t-7.5 18zM895 1374q0 9 8.5 17t18.5 8q9 0 16.5 -8t7.5 -17q0 -10 -7.5 -18t-16.5 -8q-11 0 -19 8
t-8 18zM872 1516l-223 -289l-16 10l225 291z" />
    <glyph glyph-name="uni0410.var.accented" unicode="&#x410;`" horiz-adv-x="1402" 
d="M61 0l893 1450h7l380 -1450h-20l-150 567h-737l-350 -567h-23zM950 1409l-504 -821h719zM1266 1704l-316 -184l-10 14l317 186z" />
    <glyph glyph-name="uni0415.var.accented" unicode="&#x415;`" horiz-adv-x="1177" 
d="M246 0l252 1434h768l-2 -21h-748l-119 -672h686l-4 -20h-686l-123 -701h768l-4 -20h-788zM1122 1704l-315 -184l-10 14l317 186z" />
    <glyph glyph-name="uni0418.var.accented" unicode="&#x418;`" horiz-adv-x="1638" 
d="M266 0h-20l252 1434h20l-246 -1399l1352 1399h21l-252 -1434h-21l248 1401zM1307 1704l-316 -184l-10 14l317 186z" />
    <glyph glyph-name="uni041E.var.accented" unicode="&#x41e;`" horiz-adv-x="1646" 
d="M238 645q0 174 59.5 324t163 255.5t246.5 165.5t305 60q154 0 277.5 -47t205 -132.5t125 -204t43.5 -261.5q0 -175 -57 -327.5t-157.5 -261t-244 -170.5t-309.5 -62q-318 0 -487.5 178t-169.5 483zM258 647q0 -300 167.5 -471.5t471.5 -171.5q154 0 290.5 58t237 160
t159 252t58.5 325q0 288 -167.5 459.5t-464.5 171.5q-152 0 -289.5 -57t-240 -157.5t-162.5 -248.5t-60 -320zM1327 1704l-315 -184l-11 14l318 186z" />
    <glyph glyph-name="uni0423.var.accented" unicode="&#x423;`" horiz-adv-x="1282" 
d="M1493 1434l-705 -1119q-38 -60 -59 -92t-60 -82t-70 -75.5t-73.5 -45.5t-85.5 -20q-78 0 -127 39l13 16q47 -37 114 -37q44 0 88 23t81 61t64 74.5t50 75.5l43 67l-483 1115h22l475 -1094l686 1094h27zM1194 1704l-315 -184l-11 14l318 186z" />
    <glyph glyph-name="uni042B.var.accented" unicode="&#x42b;`" horiz-adv-x="1648" 
d="M1382 0l252 1434h21l-252 -1434h-21zM702 809q-169 0 -294 -12l-138 -777q29 0 117.5 -2t163.5 -2q269 0 420 126.5t151 349.5q0 151 -106.5 234t-313.5 83zM518 1434l-108 -617q159 12 295 12q213 0 325.5 -88.5t112.5 -244.5q0 -162 -75.5 -276t-207.5 -169t-309 -55
q-75 0 -172.5 2t-132.5 2l252 1434h20zM1307 1704l-316 -184l-10 14l317 186z" />
    <glyph glyph-name="uni042D.var.accented" unicode="&#x42d;`" horiz-adv-x="1400" 
d="M547 721l2 20h846q11 154 -21 280t-103.5 217.5t-187.5 141.5t-268 50q-126 0 -258.5 -34t-226.5 -102l-11 19q88 67 230.5 102t265.5 35q287 0 444.5 -165.5t157.5 -473.5q0 -253 -103 -441.5t-286.5 -287t-423.5 -98.5q-295 0 -479 172l14 14q190 -166 465 -166
q175 0 319.5 55t243 151.5t156.5 227t70 283.5h-846zM1120 1704l-315 -184l-10 14l317 186z" />
    <glyph glyph-name="uni042E.var.accented" unicode="&#x42e;`" horiz-adv-x="2195" 
d="M246 0l252 1434h20l-121 -693h447q11 140 71.5 268.5t156.5 226t232.5 156t288.5 58.5q188 0 330 -84.5t215.5 -231t73.5 -333.5q0 -170 -57.5 -321.5t-156.5 -260t-238.5 -172t-297.5 -63.5q-127 0 -232 36.5t-176.5 99.5t-121 148t-72 180t-22.5 199q0 47 2 70v4h-447
l-127 -721h-20zM858 647q0 -130 38 -244.5t111 -204t191 -142t266 -52.5q154 0 289.5 62t231 168.5t151 253.5t55.5 311q0 280 -166.5 455.5t-433.5 175.5q-145 0 -278.5 -57.5t-234 -158t-160.5 -248.5t-60 -319zM1573 1704l-316 -184l-10 14l318 186z" />
    <glyph glyph-name="uni042F.var.accented" unicode="&#x42f;`" horiz-adv-x="1234" 
d="M969 0l106 604h-395l-574 -604h-24l577 606q-124 21 -207 114t-83 234q0 101 36.5 187.5t106.5 153.5t183 105t255 38q54 0 153 -2t138 -2l-252 -1434h-20zM676 625h403l140 788q-33 0 -125 2t-146 2q-143 0 -254 -39.5t-175.5 -106t-97 -146.5t-32.5 -169
q0 -135 81 -223t206 -108zM1225 1704l-316 -184l-10 14l318 186z" />
    <glyph glyph-name="uni0401.var.accented" unicode="&#x401;`" horiz-adv-x="1177" 
d="M246 0l252 1434h768l-2 -21h-748l-119 -672h686l-4 -20h-686l-123 -701h768l-4 -20h-788zM1139 1704l-348 -184l-9 14l348 186zM1128 1618q0 9 7.5 16.5t19.5 7.5q10 0 17.5 -7.5t7.5 -16.5q0 -11 -7.5 -19t-17.5 -8q-13 0 -20 8t-7 19zM649 1618q0 9 7.5 16.5t19.5 7.5
q10 0 17 -7.5t7 -16.5q0 -11 -7 -19t-17 -8q-13 0 -20 8t-7 19z" />
    <glyph glyph-name="uni0430.var.accented" unicode="&#x430;`" horiz-adv-x="966" 
d="M965 885l-146 -885h-20l69 424q-97 -164 -149 -232q-154 -200 -307 -200q-112 0 -170 86.5t-58 224.5q0 139 44 258.5t118.5 201.5t175.5 128.5t213 46.5q118 0 230 -53zM414 12q34 0 66.5 9.5t64 30t58.5 41.5t56.5 56.5t50 60t48.5 68t41.5 65t40 65.5t34.5 57l68 407
q-61 25 -104 35.5t-105 10.5q-105 0 -200.5 -43.5t-168 -121t-116 -193.5t-43.5 -253q0 -132 52 -213.5t157 -81.5zM940 1434l-223 -289l-17 10l226 291z" />
    <glyph glyph-name="uni0435.var.accented" unicode="&#x435;`" horiz-adv-x="884" 
d="M836 147l12 -14q-162 -149 -354 -149q-79 0 -139.5 30.5t-97 83t-55 118.5t-18.5 142q0 110 39 216t103.5 186t154 129t185.5 49q114 0 181.5 -52t67.5 -153q0 -89 -60.5 -156t-162.5 -103t-225 -51t-260 -9q-2 -16 -2 -52q-2 -73 15 -136.5t51.5 -113.5t92.5 -79
t132 -29q98 0 185.5 39.5t154.5 103.5zM666 918q-111 0 -210.5 -67t-164 -177t-82.5 -240q134 -6 255 8.5t218 48.5t154 95t57 141q0 94 -58.5 142.5t-168.5 48.5zM969 1434l-224 -289l-16 10l225 291z" />
    <glyph glyph-name="uni0438.var.accented" unicode="&#x438;`" horiz-adv-x="970" 
d="M969 922l-162 -922h-21l72 410q-262 -426 -461 -426q-180 0 -180 211q0 42 21 174l116 553h21l-117 -547q-20 -122 -20 -176q2 -91 36 -143t123 -52q62 0 127.5 39.5t132.5 119t102 128.5t93 137l12 18l84 476h21zM926 1434l-224 -289l-16 10l225 291z" />
    <glyph glyph-name="uni043E.var.accented" unicode="&#x43e;`" horiz-adv-x="966" 
d="M184 365q0 79 15 156.5t50 153.5t86 134t129 93.5t173 35.5q68 0 122.5 -22t88.5 -58t57 -85.5t32 -101t9 -108.5q0 -95 -19 -182t-56.5 -159.5t-91 -126t-127 -83.5t-158.5 -30q-107 0 -178 52t-101.5 135.5t-30.5 195.5zM205 367q0 -169 72 -267t217 -98
q104 0 188 45.5t136.5 123t80 177t27.5 211.5q0 162 -72 260.5t-217 98.5q-89 0 -163 -33.5t-123 -88t-82.5 -127t-48.5 -148.5t-15 -154zM881 1434l-224 -289l-16 10l225 291z" />
    <glyph glyph-name="uni0443.var.accented" unicode="&#x443;`" horiz-adv-x="776" 
d="M819 922h23q-90 -302 -169 -519.5t-186 -412.5q-9 -16 -30 -55.5t-31 -57.5t-30.5 -54t-33 -54t-34 -47t-37.5 -44.5t-39 -35t-43.5 -29t-46 -16.5t-51.5 -7q-65 0 -123 37l12 19q53 -35 111 -35q31 0 60 10t52 24t48.5 41t42.5 49t40.5 60t36.5 62t36.5 68t35.5 65
q-122 506 -305 932h22q191 -450 297 -910q101 188 176.5 399t165.5 511zM805 1434l-223 -289l-17 10l226 291z" />
    <glyph glyph-name="uni044B.var.accented" unicode="&#x44b;`" horiz-adv-x="1173" 
d="M217 205q0 59 29.5 189t78.5 310t58 218h20q-5 -21 -67 -253.5t-86 -349.5q84 125 203.5 212t236.5 87q73 0 115.5 -56t42.5 -126q0 -53 -24.5 -113.5t-70 -117t-103 -103t-130 -74.5t-145.5 -28q-158 0 -158 205zM688 598q-114 0 -230 -85.5t-210 -221.5
q-10 -72 -10 -82q0 -189 139 -189q108 0 214.5 66t171 162.5t64.5 185.5q0 66 -37.5 115t-101.5 49zM989 0l162 922h20l-161 -922h-21zM1036 1434l-223 -289l-16 10l225 291z" />
    <glyph glyph-name="uni044D.var.accented" unicode="&#x44d;`" horiz-adv-x="839" 
d="M379 461l4 20h412q9 98 -4 176t-48.5 137.5t-101.5 91.5t-158 32q-87 0 -147 -19.5t-137 -69.5l-11 17q74 50 141.5 71t153.5 21q336 0 336 -385q0 -159 -62 -290t-167.5 -205t-231.5 -74q-86 0 -143 24.5t-117 73.5l13 16q58 -47 111.5 -70.5t135.5 -23.5
q168 0 287.5 129.5t147.5 327.5h-414zM799 1434l-224 -289l-16 10l225 291z" />
    <glyph glyph-name="uni044E.var.accented" unicode="&#x44e;`" horiz-adv-x="1345" 
d="M563 365q0 47 6 96h-282l-82 -461h-21l162 922h21l-78 -441h282q14 88 46 166t84 145t133.5 106.5t181.5 39.5q68 0 122.5 -22t88.5 -58t57 -85.5t32 -101t9 -108.5q0 -161 -51.5 -291t-156 -210t-245.5 -80q-157 0 -233 105t-76 278zM584 367q0 -169 71.5 -267
t216.5 -98q104 0 188 45.5t136.5 123t80.5 177t28 211.5q0 162 -72 260.5t-217 98.5q-89 0 -163 -33.5t-123 -88t-82.5 -127t-48.5 -148.5t-15 -154zM1096 1434l-224 -289l-16 10l225 291z" />
    <glyph glyph-name="uni044F.var.accented" unicode="&#x44f;`" horiz-adv-x="804" 
d="M600 922h203l-162 -922h-20l69 399h-237l-373 -399h-31l375 399q-97 6 -155 65.5t-58 153.5q0 59 18.5 109.5t60 96t121 72t189.5 26.5zM233 621q0 -94 57.5 -147.5t158.5 -53.5h245l86 481h-186q-97 0 -169.5 -23t-113 -63.5t-59.5 -89t-19 -104.5zM827 1434l-223 -289
l-16 10l225 291z" />
    <glyph glyph-name="uni0451.var.accented" unicode="&#x451;`" horiz-adv-x="884" 
d="M836 147l12 -14q-162 -149 -354 -149q-79 0 -139.5 30.5t-97 83t-55 118.5t-18.5 142q0 110 39 216t103.5 186t154 129t185.5 49q114 0 181.5 -52t67.5 -153q0 -89 -60.5 -156t-162.5 -103t-225 -51t-260 -9q-2 -16 -2 -52q-2 -73 15 -136.5t51.5 -113.5t92.5 -79
t132 -29q98 0 185.5 39.5t154.5 103.5zM666 918q-111 0 -210.5 -67t-164 -177t-82.5 -240q134 -6 255 8.5t218 48.5t154 95t57 141q0 94 -58.5 142.5t-168.5 48.5zM932 1434l-275 -289l-14 10l277 291zM965 1292q0 10 7.5 17.5t18.5 7.5q10 0 17.5 -8t7.5 -17
q0 -11 -7.5 -18.5t-17.5 -7.5q-26 0 -26 26zM526 1292q0 10 8 17.5t19 7.5q10 0 17.5 -8t7.5 -17q0 -11 -7.5 -18.5t-17.5 -7.5q-27 0 -27 26z" />
    <glyph glyph-name="fi" unicode="fi" horiz-adv-x="913" 
d="M365 901l-168 -944q-11 -60 -22.5 -104.5t-34 -100.5t-50.5 -92t-73.5 -61t-102.5 -25q-72 0 -137 35l12 18q62 -33 127 -33q51 0 92.5 23.5t67.5 58t47 87t32 96t21 100.5l197 1112q33 187 135 283t262 96q124 0 209 -74l-12 -16q-82 70 -201 70q-149 0 -245.5 -91
t-127.5 -278l-24 -139h528l-162 -922h-20l159 901h-509z" />
    <glyph glyph-name="fl" unicode="fl" horiz-adv-x="1069" 
d="M369 922h256l-4 -21h-256l-168 -944q-11 -60 -22.5 -104.5t-34 -100.5t-50.5 -92t-73.5 -61t-102.5 -25q-72 0 -137 35l12 18q62 -33 127 -33q51 0 92.5 23.5t67.5 58t47 87t32 96t21 100.5l197 1112q68 379 375 379q136 0 217 -74l-197 -1118q-22 -127 5 -185.5
t118 -58.5q87 0 160 49l10 -18q-77 -51 -174 -51q-99 0 -132.5 57t-11.5 176l199 1139q-76 64 -194 64q-147 0 -235 -89.5t-120 -279.5z" />
    <glyph glyph-name=".notdef" horiz-adv-x="512" 
 />
    <glyph glyph-name=".null" horiz-adv-x="0" 
 />
    <glyph glyph-name="nonmarkingreturn" horiz-adv-x="682" 
 />
    <glyph glyph-name="space" unicode=" " horiz-adv-x="512" 
 />
    <glyph glyph-name="exclam" unicode="!" horiz-adv-x="634" 
d="M365 328l194 1106h21l-195 -1106h-20zM295 27q0 9 8.5 16.5t18.5 7.5q9 0 16.5 -7.5t7.5 -16.5q0 -10 -7.5 -18.5t-16.5 -8.5q-10 0 -18.5 8t-8.5 19z" />
    <glyph glyph-name="quotedbl" unicode="&#x22;" horiz-adv-x="778" 
d="M698 1055l68 379h20l-67 -379h-21zM432 1055l68 379h20l-67 -379h-21z" />
    <glyph glyph-name="numbersign" unicode="#" horiz-adv-x="1359" 
d="M768 -8l174 469h-510l-176 -477l-20 8l174 469h-226v20h232l176 471h-408v21h416l178 477l19 -6l-174 -471h510l178 477l18 -6l-174 -471h225v-21h-233l-174 -471h407v-20h-415l-177 -477zM614 952l-174 -471h508l176 471h-510z" />
    <glyph glyph-name="dollar" unicode="$" 
d="M1077 397q0 80 -37.5 139.5t-97.5 96t-132.5 66l-145 59t-132.5 66t-97.5 96t-37.5 139.5q0 167 126 278.5t335 112.5l31 168h20l-30 -168q107 -3 197 -41t134 -100l-16 -15q-53 67 -141 101.5t-197 34.5q-193 0 -314.5 -102.5t-121.5 -262.5q0 -61 23 -110t62.5 -82
t90.5 -60t107 -49l112 -44t107 -50.5t90.5 -63.5t62.5 -87t23 -118q0 -124 -66 -217.5t-172.5 -142.5t-238.5 -55l-33 -191h-21l33 189h-14q-119 0 -228.5 55t-156.5 141l16 13q51 -86 156 -137.5t215 -51.5q90 0 175.5 25t156 72.5t114 124.5t43.5 171z" />
    <glyph glyph-name="percent" unicode="%" horiz-adv-x="1656" 
d="M399 -2l1088 1452l16 -10l-1087 -1456zM236 1075q0 163 100 261t270 98q119 0 197 -75.5t78 -193.5q0 -67 -22 -129t-65 -113t-114 -81.5t-160 -30.5q-129 0 -206.5 73.5t-77.5 190.5zM256 1079q0 -111 72.5 -179.5t195.5 -68.5q83 0 149 28.5t105.5 76t60.5 105.5
t21 120q0 112 -70.5 182t-187.5 70q-158 0 -252 -91t-94 -243zM1012 264q0 163 100 261t270 98q119 0 197 -75.5t78 -193.5q0 -67 -22 -129t-65 -113t-114 -81.5t-160 -30.5q-129 0 -206.5 73.5t-77.5 190.5zM1032 268q0 -111 72.5 -179.5t195.5 -68.5q83 0 149 28.5
t105.5 76t60.5 105.5t21 120q0 112 -70.5 182t-187.5 70q-158 0 -252 -91t-94 -243z" />
    <glyph glyph-name="ampersand" unicode="&#x26;" horiz-adv-x="1486" 
d="M1296 0l-161 264q-232 -280 -531 -280q-157 0 -257.5 96t-100.5 248q0 309 483 592q-36 27 -51.5 39.5t-49 44t-49.5 56.5t-30 62t-14 76q0 108 78.5 180t205.5 72q113 0 179.5 -64.5t66.5 -162.5q0 -108 -77.5 -178t-227.5 -130l379 -616q100 130 170 294.5t98 328.5h20
q-30 -173 -102 -341.5t-176 -299.5l174 -281h-27zM606 4q149 0 281 74.5t237 204.5l-383 622q-73 -44 -132 -85t-126 -99.5t-112 -115.5t-75 -128.5t-30 -144.5q0 -147 99 -237.5t241 -90.5zM555 1200q0 -44 16 -83.5t48 -73.5t55.5 -53.5t64.5 -49.5q2 -2 3.5 -3t3.5 -2.5
t4 -2.5q51 21 88 39t78.5 45t67.5 55t43 66.5t17 81.5q0 91 -60 151t-165 60q-118 0 -191 -65.5t-73 -164.5z" />
    <glyph glyph-name="quotesingle" unicode="'" horiz-adv-x="512" 
d="M432 1055l68 379h20l-67 -379h-21z" />
    <glyph glyph-name="parenleft" unicode="(" horiz-adv-x="512" 
d="M438 -408l-18 -14q-143 145 -210 331.5t-67 377.5q0 109 15 205.5t55 205.5t105 210.5t170 213t245 221.5l12 -14q-140 -110 -244 -222t-167.5 -212t-102.5 -206t-53 -198.5t-14 -195.5q0 -193 67 -377t207 -326z" />
    <glyph glyph-name="parenright" unicode=")" horiz-adv-x="512" 
d="M-59 -422l-13 14q582 434 582 1037q0 190 -65 371t-209 329l18 14q276 -287 276 -712q0 -613 -589 -1053z" />
    <glyph glyph-name="asterisk" unicode="*" horiz-adv-x="884" 
d="M635 1423q0 11 8.5 19t18.5 8t18 -8t8 -19q0 -10 -7.5 -17t-18.5 -7t-19 7t-8 17zM633 946q0 11 8 19t18 8t17.5 -8t7.5 -19q0 -10 -7 -17t-18 -7t-18.5 7t-7.5 17zM838 1305q0 11 7 18.5t17 7.5q11 0 19 -8t8 -18q0 -11 -8.5 -19t-18.5 -8t-17 8t-7 19zM838 1081
q0 11 7 19t17 8t18.5 -8t8.5 -19q0 -10 -8 -17t-19 -7q-10 0 -17 6.5t-7 17.5zM422 1081q0 11 8 19t19 8q10 0 17 -8t7 -19t-6.5 -17.5t-17.5 -6.5t-19 7t-8 17zM422 1305q0 10 8 18t19 8q10 0 17 -7.5t7 -18.5t-7 -19t-17 -8q-11 0 -19 8t-8 19z" />
    <glyph glyph-name="plus" unicode="+" 
d="M283 727v21h432v432h20v-432h436v-21h-436v-436h-20v436h-432z" />
    <glyph glyph-name="comma" unicode="," horiz-adv-x="339" 
d="M145 23q0 11 9.5 19.5t25.5 8.5q27 0 48.5 -30t21.5 -80q0 -93 -61 -158t-144 -86l-4 16q71 18 129.5 77.5t58.5 146.5q0 35 -10.5 57t-23.5 29q-7 -23 -27 -23q-10 0 -16.5 7t-6.5 16z" />
    <glyph glyph-name="hyphen" unicode="-" horiz-adv-x="847" 
d="M303 543l4 20h438l-4 -20h-438z" />
    <glyph glyph-name="period" unicode="." horiz-adv-x="296" 
d="M123 27q0 9 8.5 16.5t18.5 7.5q9 0 16.5 -7.5t7.5 -16.5q0 -10 -7.5 -18.5t-16.5 -8.5q-10 0 -18.5 8t-8.5 19z" />
    <glyph glyph-name="slash" unicode="/" horiz-adv-x="591" 
d="M10 -418l697 1868l18 -6l-694 -1870z" />
    <glyph glyph-name="zero" unicode="0" 
d="M264 489q0 95 8 187.5t27 189t47.5 181t73 159.5t100 128.5t131 84.5t164.5 31q177 0 274 -139.5t97 -362.5q0 -94 -7 -184.5t-25 -187.5t-46 -181.5t-71.5 -161t-99.5 -131t-133 -86.5t-169 -32q-175 0 -273 140.5t-98 364.5zM285 489q0 -140 41.5 -249.5t122 -172.5
t188.5 -63q91 0 167 34t129.5 90t95 134.5t67 162.5t41.5 179t22 178t6 166q0 213 -93 347.5t-257 134.5q-88 0 -163 -33t-128.5 -88t-95.5 -132t-68.5 -160.5t-43.5 -178t-24 -179.5t-7 -170z" />
    <glyph glyph-name="one" unicode="1" horiz-adv-x="739" 
d="M336 1202l342 248h10l-256 -1450h-20l250 1413l-314 -227z" />
    <glyph glyph-name="two" unicode="2" horiz-adv-x="1089" 
d="M123 0l4 20q22 18 72 60q72 59 112.5 93t120 103t129.5 116t122.5 119t119 127t99.5 125t83.5 128t51 121t20.5 118q0 134 -78 217t-221 83q-141 0 -246 -83t-152 -231l-16 8q41 143 152.5 234.5t261.5 91.5q84 0 147 -25.5t99.5 -70.5t54.5 -100.5t18 -120.5
q0 -72 -34 -156.5t-76 -155.5t-128 -168.5t-141 -155t-166 -157t-151.5 -134t-147.5 -123.5q-52 -44 -75 -63h792l-4 -20h-823z" />
    <glyph glyph-name="three" unicode="3" horiz-adv-x="1095" 
d="M526 -16q-139 0 -236 60t-126 194l20 8q29 -128 121.5 -185t220.5 -57q195 0 326 126.5t131 303.5q0 127 -80.5 208t-204.5 81h-137l4 20h123q61 0 126 30t119 81t89 127.5t35 161.5q0 130 -83 208.5t-212 78.5q-123 0 -218.5 -61t-152.5 -167l-18 4q54 114 157 179
t232 65q147 0 230 -84.5t83 -222.5q0 -135 -82 -250t-221 -158v-2q110 -23 171 -104.5t61 -192.5q0 -129 -66 -233.5t-175 -161.5t-237 -57z" />
    <glyph glyph-name="four" unicode="4" horiz-adv-x="1064" 
d="M733 0l72 410h-672v4l856 1020h25l-842 -1004h637l86 492h20l-86 -492h230l-4 -20h-230l-71 -410h-21z" />
    <glyph glyph-name="five" unicode="5" horiz-adv-x="1044" 
d="M395 795l195 639h586l-5 -21h-567l-180 -590q89 29 184 29q179 0 283 -98.5t104 -264.5q0 -109 -39 -204.5t-105 -160.5t-154 -102.5t-185 -37.5q-82 0 -153 23t-131 79t-87 139l19 8q41 -114 137.5 -171.5t214.5 -57.5q130 0 237 65t166.5 176t59.5 244
q0 151 -97.5 246.5t-271.5 95.5q-101 0 -211 -36z" />
    <glyph glyph-name="six" unicode="6" horiz-adv-x="1095" 
d="M201 406q0 161 53 314t140.5 273t199.5 217.5t231.5 157.5t233.5 82l6 -18q-96 -19 -198 -66.5t-204.5 -126t-188.5 -177.5t-151 -231.5t-90 -277.5q73 144 197.5 231.5t286.5 87.5q171 0 264.5 -99.5t93.5 -264.5q0 -94 -34 -186.5t-95 -168t-155 -122.5t-203 -47
q-79 0 -143.5 22t-109.5 61t-75.5 92.5t-44.5 115.5t-14 131zM225 494q-4 -29 -4 -86q0 -81 22 -152.5t65 -128.5t114.5 -90t163.5 -33q105 0 195.5 44.5t149 117t91.5 161.5t33 181q0 151 -87 247.5t-253 96.5q-89 0 -171 -31.5t-143 -84t-105.5 -114.5t-70.5 -128z" />
    <glyph glyph-name="seven" unicode="7" horiz-adv-x="921" 
d="M311 1413l2 21h779v-4l-824 -1430h-22l813 1413h-748z" />
    <glyph glyph-name="eight" unicode="8" horiz-adv-x="1198" 
d="M690 748h80q92 0 179.5 47t146.5 138t59 204q0 135 -89.5 214t-217.5 79q-101 0 -196.5 -45.5t-160.5 -137.5t-65 -209q0 -116 73 -203t191 -87zM764 727h-66q-209 0 -331.5 -114t-122.5 -296q0 -142 104.5 -227.5t265.5 -85.5q131 0 237 48.5t170 146t64 227.5
q0 141 -85 221t-236 80zM614 -16q-167 0 -279 88t-112 245q0 173 105.5 285.5t275.5 136.5v4q-95 26 -146.5 109.5t-51.5 185.5q0 116 62.5 211.5t164 148t217.5 52.5q143 0 234.5 -86t91.5 -227q0 -133 -84 -245.5t-234 -150.5v-4q117 -17 182.5 -100.5t65.5 -208.5
q0 -86 -27 -159t-73.5 -125t-109.5 -88.5t-134.5 -54t-147.5 -17.5z" />
    <glyph glyph-name="nine" unicode="9" horiz-adv-x="1081" 
d="M1135 1016q0 -190 -68.5 -369t-184.5 -315.5t-274 -229t-332 -118.5l-6 18q114 18 226 68t213 129.5t182.5 180.5t137 230.5t73.5 270.5q-65 -132 -195.5 -215.5t-290.5 -83.5q-167 0 -260.5 104t-93.5 260q0 130 67.5 246.5t182 187t244.5 70.5q88 0 156 -26.5
t109.5 -68.5t67.5 -100.5t36 -116.5t10 -122zM1110 938q8 58 2.5 117t-17.5 114t-40.5 102.5t-67.5 82.5t-98.5 55.5t-132.5 20.5q-123 0 -233 -67.5t-175 -179t-65 -235.5q0 -145 88 -245.5t252 -100.5q169 0 300 99t187 237z" />
    <glyph glyph-name="colon" unicode=":" horiz-adv-x="665" 
d="M467 913q0 9 8.5 17t18.5 8q9 0 16.5 -8t7.5 -17q0 -10 -7.5 -18t-16.5 -8q-11 0 -19 8t-8 18zM311 27q0 9 8.5 16.5t18.5 7.5q9 0 16.5 -7.5t7.5 -16.5q0 -10 -7.5 -18.5t-16.5 -8.5q-10 0 -18.5 8t-8.5 19z" />
    <glyph glyph-name="semicolon" unicode=";" horiz-adv-x="667" 
d="M467 913q0 9 8.5 17t18.5 8q9 0 16.5 -8t7.5 -17q0 -10 -7.5 -18t-16.5 -8q-11 0 -19 8t-8 18zM309 23q0 11 9.5 19.5t25.5 8.5q27 0 48.5 -30t21.5 -80q0 -93 -61 -158t-144 -86l-4 16q71 18 129.5 77.5t58.5 146.5q0 66 -35 86q-7 -23 -26 -23q-10 0 -16.5 7t-6.5 16z
" />
    <glyph glyph-name="less" unicode="&#x3c;" 
d="M1079 213l-796 524v8l796 521v-25l-766 -500l766 -503v-25z" />
    <glyph glyph-name="equal" unicode="=" 
d="M283 891v20h888v-20h-888zM283 563v21h888v-21h-888z" />
    <glyph glyph-name="greater" unicode="&#x3e;" 
d="M1171 737l-796 -524v25l766 503l-766 500v25l796 -521v-8z" />
    <glyph glyph-name="question" unicode="?" horiz-adv-x="919" 
d="M1016 1153q0 123 -82 200t-225 77q-114 0 -220 -51t-180 -144l-12 12q69 93 181 148t233 55q156 0 241.5 -82.5t85.5 -208.5q0 -75 -19.5 -136.5t-52.5 -103.5t-75.5 -77.5t-90 -64t-94.5 -56t-89.5 -60t-75.5 -70t-52.5 -92t-19.5 -120.5v-25l-20 -2v39q0 83 31.5 147.5
t81.5 106.5t110 79t120.5 75t110.5 83t81.5 114t31.5 157zM365 27q0 9 8 16.5t18 7.5q9 0 17 -7.5t8 -16.5q0 -10 -8 -18.5t-17 -8.5q-10 0 -18 8t-8 19z" />
    <glyph glyph-name="at" unicode="@" horiz-adv-x="2101" 
d="M1331 0l70 424q-29 -50 -48.5 -82.5t-52.5 -82.5t-60 -83t-64.5 -71t-72 -60.5t-76.5 -37.5t-85 -15q-106 0 -165.5 83t-59.5 232q0 136 42 253.5t115.5 200t177 130t222.5 47.5q70 0 109.5 -10t113.5 -43l-141 -865h86q256 0 406.5 156.5t150.5 425.5q0 325 -225 525
t-590 200q-152 0 -293.5 -46t-253.5 -129.5t-196.5 -194t-129.5 -244.5t-45 -275q0 -178 58.5 -333.5t164.5 -269.5t264.5 -179.5t348.5 -65.5q60 0 143 13.5t135 31.5l4 -20q-57 -20 -138.5 -32.5t-143.5 -12.5q-195 0 -357 67t-270.5 183.5t-168.5 275.5t-60 342
q0 181 73 348t197 290.5t299 197.5t369 74q378 0 606.5 -204t228.5 -538q0 -129 -36 -238t-105.5 -192t-181 -129.5t-254.5 -46.5h-111zM942 12q57 0 114.5 30.5t98 66.5t93 107.5t77 111t71.5 118.5l9 15l72 411q-41 17 -59.5 23.5t-59 14.5t-84.5 8q-231 0 -384 -171
t-153 -440q0 -145 57 -220t148 -75z" />
    <glyph glyph-name="A" unicode="A" horiz-adv-x="1402" 
d="M61 0l893 1450h7l380 -1450h-20l-150 567h-737l-350 -567h-23zM950 1409l-504 -821h719z" />
    <glyph glyph-name="B" unicode="B" horiz-adv-x="1263" 
d="M246 0l252 1434q36 0 165.5 2t188.5 2q207 0 296 -78t89 -221q0 -151 -106.5 -264.5t-272.5 -135.5v-2q155 -15 236.5 -96t81.5 -207q0 -111 -44.5 -196.5t-123 -137.5t-180.5 -78t-224 -26q-61 0 -190.5 2t-167.5 2zM741 727h-346l-125 -707q32 0 155 -2t183 -2
q252 0 398.5 108.5t146.5 307.5q0 143 -104.5 219t-307.5 76zM850 1417q-198 0 -334 -4l-119 -665h353q206 0 336.5 113.5t130.5 275.5q0 141 -88 210.5t-279 69.5z" />
    <glyph glyph-name="C" unicode="C" horiz-adv-x="1345" 
d="M1337 129l9 -16q-84 -65 -209 -97t-242 -32q-139 0 -259 43.5t-210 125.5t-141.5 208t-51.5 282q0 159 60 305.5t165.5 257.5t262 177.5t338.5 66.5q270 0 420 -117l-13 -14q-159 111 -407 111q-142 0 -270 -42.5t-224.5 -117.5t-167 -173.5t-107 -214t-36.5 -235.5
q0 -152 50.5 -275.5t138 -203t204 -122t250.5 -42.5q256 0 440 125z" />
    <glyph glyph-name="D" unicode="D" horiz-adv-x="1503" 
d="M246 0l252 1434h20q54 0 146 3t165 3q181 0 317.5 -46.5t217.5 -130.5t120.5 -191t39.5 -238q0 -134 -37 -257t-115.5 -229t-191 -184t-272 -123t-349.5 -45q-60 0 -155.5 2t-147.5 2h-10zM827 1419q-76 0 -170 -3t-141 -3l-246 -1393l293 -4q187 0 343.5 44.5t265 121.5
t184.5 181.5t111.5 222.5t35.5 245q0 99 -22.5 185t-74 161t-128.5 128t-192 83.5t-259 30.5z" />
    <glyph glyph-name="E" unicode="E" horiz-adv-x="1177" 
d="M246 0l252 1434h768l-2 -21h-748l-119 -672h686l-4 -20h-686l-123 -701h768l-4 -20h-788z" />
    <glyph glyph-name="F" unicode="F" horiz-adv-x="1116" 
d="M246 0l252 1434h788l-2 -21h-768l-127 -713h707l-2 -20h-707l-121 -680h-20z" />
    <glyph glyph-name="G" unicode="G" horiz-adv-x="1488" 
d="M965 621l4 20h489l-82 -463q-104 -96 -235.5 -145t-266.5 -49q-188 0 -335 84t-226.5 231.5t-79.5 333.5q0 172 63.5 324t173 260t263 170.5t326.5 62.5q266 0 409 -129l-16 -14q-134 123 -393 123q-135 0 -259 -39t-222.5 -111.5t-171.5 -169.5t-112.5 -219.5
t-39.5 -255.5q0 -183 80.5 -327t222.5 -224t320 -80q133 0 258.5 49t222.5 137l76 431h-469z" />
    <glyph glyph-name="H" unicode="H" horiz-adv-x="1566" 
d="M1300 0l127 721h-1034l-127 -721h-20l252 1434h20l-121 -693h1035l120 693h21l-252 -1434h-21z" />
    <glyph glyph-name="I" unicode="I" horiz-adv-x="552" 
d="M287 0l252 1434h20l-252 -1434h-20z" />
    <glyph glyph-name="J" unicode="J" horiz-adv-x="700" 
d="M707 1434l-201 -1133q-27 -153 -95 -235t-202 -82q-97 0 -162 51l14 16q66 -47 150 -47q69 0 119.5 24.5t80.5 70t46 91.5t28 109l201 1135h21z" />
    <glyph glyph-name="K" unicode="K" horiz-adv-x="1257" 
d="M1409 1434l-866 -689l628 -745h-26l-631 748l862 686h33zM246 0l252 1434h20l-252 -1434h-20z" />
    <glyph glyph-name="L" unicode="L" horiz-adv-x="1136" 
d="M246 0l252 1434h20l-248 -1414h830l-4 -20h-850z" />
    <glyph glyph-name="M" unicode="M" horiz-adv-x="1785" 
d="M246 0l252 1434h22l477 -863l772 863h23l-252 -1434h-20l247 1401l-772 -862h-4l-479 862l-246 -1401h-20z" />
    <glyph glyph-name="N" unicode="N" horiz-adv-x="1638" 
d="M1393 0h-17l-864 1397l-246 -1397h-20l252 1434h16l864 -1399l246 1399h21z" />
    <glyph glyph-name="O" unicode="O" horiz-adv-x="1646" 
d="M238 645q0 174 59.5 324t163 255.5t246.5 165.5t305 60q154 0 277.5 -47t205 -132.5t125 -204t43.5 -261.5q0 -175 -57 -327.5t-157.5 -261t-244 -170.5t-309.5 -62q-318 0 -487.5 178t-169.5 483zM258 647q0 -300 167.5 -471.5t471.5 -171.5q154 0 290.5 58t237 160
t159 252t58.5 325q0 288 -167.5 459.5t-464.5 171.5q-152 0 -289.5 -57t-240 -157.5t-162.5 -248.5t-60 -320z" />
    <glyph glyph-name="P" unicode="P" horiz-adv-x="1161" 
d="M266 0h-20l252 1434q43 0 159.5 2t143.5 2q118 0 204.5 -29t133 -79t67.5 -107t21 -123q0 -75 -18.5 -144.5t-62.5 -134.5t-108.5 -112.5t-164 -76t-222.5 -28.5t-276 10zM799 1417q-147 0 -283 -4l-137 -778q153 -10 274 -10q140 0 248 38.5t173.5 104.5t98.5 149
t33 179q0 67 -22 123t-68 101.5t-127 71t-190 25.5z" />
    <glyph glyph-name="Q" unicode="Q" horiz-adv-x="1646" 
d="M1393 0h-25l-63 96q-182 -112 -410 -112q-318 0 -487.5 178t-169.5 483q0 174 59.5 324t163 255.5t246.5 165.5t305 60q154 0 277.5 -47t205 -132.5t125 -204t43.5 -261.5q0 -225 -91 -407t-251 -289zM258 647q0 -300 167.5 -471.5t471.5 -171.5q218 0 395 111l-123 190
l15 12l125 -190q155 102 244 276.5t89 395.5q0 288 -167.5 459.5t-464.5 171.5q-152 0 -289.5 -57t-240 -157.5t-162.5 -248.5t-60 -320z" />
    <glyph glyph-name="R" unicode="R" horiz-adv-x="1243" 
d="M266 0h-20l252 1434q44 0 158.5 2t136.5 2q417 0 417 -322q0 -187 -121 -312.5t-335 -156.5l420 -647h-23l-418 645h-352zM788 1417q-136 0 -272 -4l-133 -747h303q133 0 246 51.5t185.5 155.5t72.5 241q0 303 -402 303z" />
    <glyph glyph-name="S" unicode="S" horiz-adv-x="1116" 
d="M1040 379q0 59 -24 108t-64.5 84t-92.5 65t-110 56t-116 52.5t-110 59t-92.5 71t-64.5 92.5t-24 120q0 154 123 258.5t338 104.5q113 0 206.5 -38.5t147.5 -102.5l-14 -17q-59 66 -147.5 102t-194.5 36q-200 0 -318 -94t-118 -249q0 -78 38.5 -140t100 -102.5t135.5 -76
t148 -70.5t135.5 -75t100 -100.5t38.5 -137.5q0 -125 -60 -217.5t-159.5 -138t-225.5 -45.5q-149 0 -264.5 57.5t-169.5 159.5l17 12q54 -95 160.5 -152t256.5 -57q63 0 123 13.5t115 43.5t96 73t65.5 106.5t24.5 138.5z" />
    <glyph glyph-name="T" unicode="T" horiz-adv-x="1232" 
d="M270 1413l4 21h1168l-4 -21h-574l-250 -1413h-20l250 1413h-574z" />
    <glyph glyph-name="U" unicode="U" horiz-adv-x="1538" 
d="M1565 1434l-146 -830q-55 -310 -206 -463t-427 -153q-227 0 -348 116.5t-121 339.5q0 70 17 174l143 816h21l-144 -818q-16 -98 -16 -167q0 -222 121 -331.5t332 -109.5q139 0 244.5 41t177 121t116 187.5t70.5 252.5l145 824h21z" />
    <glyph glyph-name="V" unicode="V" horiz-adv-x="1343" 
d="M1554 1434l-876 -1450h-6l-379 1450h20l369 -1409l850 1409h22z" />
    <glyph glyph-name="W" unicode="W" horiz-adv-x="1925" 
d="M2136 1434l-676 -1434h-6l-244 1384l-718 -1384h-7l-192 1434h20l187 -1381l714 1381h9l243 -1379l650 1379h20z" />
    <glyph glyph-name="X" unicode="X" horiz-adv-x="1318" 
d="M1481 1434l-678 -705l444 -729h-24l-437 713l-686 -713h-28l704 731l-430 703h25l420 -686l661 686h29z" />
    <glyph glyph-name="Y" unicode="Y" horiz-adv-x="1155" 
d="M1346 1434l-658 -789l-113 -645h-20l113 645l-375 789h20l367 -770l641 770h25z" />
    <glyph glyph-name="Z" unicode="Z" horiz-adv-x="1331" 
d="M403 1413l3 21h1044v-4l-1298 -1410h1071l-4 -20h-1106v4l1298 1409h-1008z" />
    <glyph glyph-name="bracketleft" unicode="[" horiz-adv-x="532" 
d="M51 -410l307 1741h410l-4 -20h-389l-299 -1700h389l-4 -21h-410z" />
    <glyph glyph-name="backslash" unicode="\" horiz-adv-x="591" 
d="M80 1450l696 -1868l-20 -8l-695 1870z" />
    <glyph glyph-name="bracketright" unicode="]" horiz-adv-x="532" 
d="M645 1331l-307 -1741h-410l4 21h390l299 1700h-390l5 20h409z" />
    <glyph glyph-name="asciicircum" unicode="^" horiz-adv-x="946" 
d="M276 922l349 528h8l344 -528h-25l-323 497l-328 -497h-25z" />
    <glyph glyph-name="underscore" unicode="_" horiz-adv-x="512" 
d="M0 -410v21h512v-21h-512z" />
    <glyph glyph-name="grave" unicode="`" horiz-adv-x="485" 
d="M346 1145l-223 289l14 12l225 -291z" />
    <glyph glyph-name="a" unicode="a" horiz-adv-x="966" 
d="M965 885l-146 -885h-20l69 424q-97 -164 -149 -232q-154 -200 -307 -200q-112 0 -170 86.5t-58 224.5q0 139 44 258.5t118.5 201.5t175.5 128.5t213 46.5q118 0 230 -53zM414 12q34 0 66.5 9.5t64 30t58.5 41.5t56.5 56.5t50 60t48.5 68t41.5 65t40 65.5t34.5 57l68 407
q-61 25 -104 35.5t-105 10.5q-105 0 -200.5 -43.5t-168 -121t-116 -193.5t-43.5 -253q0 -132 52 -213.5t157 -81.5z" />
    <glyph glyph-name="b" unicode="b" horiz-adv-x="989" 
d="M195 61l241 1373h21l-158 -899q40 66 86.5 128.5t107 128.5t128.5 106t129 40q53 0 94.5 -20.5t66 -52t40 -75t21 -84t5.5 -83.5q0 -129 -40.5 -246.5t-111.5 -204t-172 -137.5t-217 -51q-128 0 -241 77zM748 918q-59 0 -124.5 -40t-128 -110.5t-108.5 -133t-96 -140.5
l-74 -422q110 -68 221 -68q146 0 265 81.5t186 222t67 308.5q0 85 -17.5 149.5t-66 108.5t-124.5 44z" />
    <glyph glyph-name="c" unicode="c" horiz-adv-x="829" 
d="M791 125l12 -14q-148 -127 -307 -127q-144 0 -228 100t-84 266q0 154 66 290t179 217t243 81q99 0 194 -31l-8 -20q-82 31 -186 31q-94 0 -181 -47t-149.5 -124.5t-99.5 -181t-37 -213.5q0 -162 79 -255t212 -93q89 0 155 31t140 90z" />
    <glyph glyph-name="d" unicode="d" horiz-adv-x="989" 
d="M805 0l76 434q-100 -169 -157 -242q-155 -200 -306 -200q-113 0 -173.5 87t-60.5 224q0 139 45 258.5t120.5 201.5t177.5 128.5t214 46.5q114 0 220 -53l98 549h20l-254 -1434h-20zM889 477l67 387q-60 29 -105.5 41.5t-111.5 12.5q-105 0 -201.5 -43.5t-170.5 -121
t-118 -193.5t-44 -253q0 -131 54.5 -213t160.5 -82q30 0 61 9.5t57.5 23t56 38.5t51.5 46t49.5 56t45 58.5t43 63t38.5 60t36 59t31 51.5z" />
    <glyph glyph-name="e" unicode="e" horiz-adv-x="884" 
d="M836 147l12 -14q-162 -149 -354 -149q-79 0 -139.5 30.5t-97 83t-55 118.5t-18.5 142q0 110 39 216t103.5 186t154 129t185.5 49q114 0 181.5 -52t67.5 -153q0 -89 -60.5 -156t-162.5 -103t-225 -51t-260 -9q-2 -16 -2 -52q-2 -73 15 -136.5t51.5 -113.5t92.5 -79
t132 -29q98 0 185.5 39.5t154.5 103.5zM666 918q-111 0 -210.5 -67t-164 -177t-82.5 -240q134 -6 255 8.5t218 48.5t154 95t57 141q0 94 -58.5 142.5t-168.5 48.5z" />
    <glyph glyph-name="f" unicode="f" horiz-adv-x="473" 
d="M365 901l-168 -944q-11 -60 -22.5 -104.5t-34 -100.5t-50.5 -92t-73.5 -61t-102.5 -25q-72 0 -137 35l12 18q62 -33 127 -33q51 0 92.5 23.5t67.5 58t47 87t32 96t21 100.5l197 1112q11 65 26.5 117.5t41.5 103t60 84t84 54t111 20.5q106 0 166 -37l-12 -18
q-58 35 -154 35q-71 0 -124.5 -27t-88 -79.5t-55.5 -114t-35 -144.5l-24 -143h256l-4 -21h-256z" />
    <glyph glyph-name="g" unicode="g" horiz-adv-x="839" 
d="M0 -178q0 118 93.5 200t250.5 105q-27 34 -27 76q0 67 58 119q-71 31 -111.5 97t-40.5 152q0 97 37 178.5t116.5 135t188.5 53.5q115 0 195 -76l264 76l-2 -20l-248 -72q60 -79 60 -180q0 -163 -95.5 -265t-246.5 -102q-54 0 -101 14q-53 -43 -53 -106q0 -47 29 -76
q46 6 94 6q153 0 247.5 -68.5t94.5 -181.5q0 -147 -122.5 -230t-315.5 -83q-71 0 -133.5 13.5t-116 41t-84.5 77.5t-31 116zM20 -176q0 -62 30.5 -108t81.5 -72t110 -38t125 -12q180 0 297.5 78.5t117.5 212.5q0 106 -91.5 169t-229.5 63q-120 0 -219.5 -34t-160.5 -102
t-61 -157zM244 573q0 -107 66.5 -180.5t183.5 -73.5q144 0 231.5 99.5t87.5 243.5q0 42 -13 84.5t-40.5 82t-78.5 64.5t-118 25q-149 0 -234 -101.5t-85 -243.5z" />
    <glyph glyph-name="h" unicode="h" horiz-adv-x="985" 
d="M184 0l252 1434h21l-162 -922q262 426 465 426q180 0 180 -211q0 -48 -20 -174l-109 -553h-20l108 547q21 128 21 176q-2 91 -36.5 143t-123.5 52q-38 0 -79.5 -18t-75.5 -41.5t-77 -68.5t-68.5 -75t-66.5 -87t-55 -79t-49 -74l-84 -475h-21z" />
    <glyph glyph-name="i" unicode="i" horiz-adv-x="395" 
d="M197 0l161 922h21l-162 -922h-20zM408 1296q0 9 8 17t18 8q9 0 17 -8t8 -17q0 -10 -8 -18t-17 -8q-10 0 -18 8t-8 18z" />
    <glyph glyph-name="j" unicode="j" horiz-adv-x="395" 
d="M379 922l-174 -990q-10 -56 -22 -100.5t-35 -95t-53 -84t-76.5 -56t-104.5 -22.5q-84 0 -141 43l12 16q58 -39 131 -39q52 0 95 21.5t70.5 53.5t49 79.5t33 89t20.5 92.5l174 992h21zM406 1296q0 9 8 17t18 8q9 0 17 -8t8 -17q0 -10 -8 -18t-17 -8q-10 0 -18 8t-8 18z
" />
    <glyph glyph-name="k" unicode="k" horiz-adv-x="821" 
d="M958 922l-542 -445l420 -477h-29l-422 481l541 441h32zM184 0l252 1434h21l-252 -1434h-21z" />
    <glyph glyph-name="l" unicode="l" horiz-adv-x="501" 
d="M227 246l209 1188h21l-207 -1176q-10 -55 -10 -102q-3 -142 122 -142q63 0 123 37l9 -18q-67 -39 -134 -39q-141 0 -141 158q0 53 8 94z" />
    <glyph glyph-name="m" unicode="m" horiz-adv-x="1478" 
d="M719 938q42 0 74 -14t49.5 -34.5t28.5 -47.5t14.5 -47.5t3.5 -40.5q0 -84 -25 -207q32 53 58.5 94.5t71.5 101t85 98.5t90 68t95 29q52 0 88 -20.5t52.5 -53.5t23 -61.5t6.5 -57.5q0 -85 -33 -233l-103 -512h-20l102 514q0 2 6 30.5t11.5 60t10.5 70t5 62.5
q0 181 -151 181q-33 0 -68 -15t-69.5 -45.5t-63 -60.5t-62 -76t-53.5 -75.5t-49.5 -75.5t-38.5 -60l-98 -510h-21l99 512q30 147 30 229q0 47 -11 83.5t-46.5 65t-93.5 28.5q-50 0 -104.5 -35.5t-104 -94.5t-88.5 -114.5t-78 -117t-53 -79.5l-84 -477h-21l162 922h21
l-72 -412q26 45 44.5 75t56.5 88t72.5 98t77 81.5t87 63.5t86.5 22z" />
    <glyph glyph-name="n" unicode="n" horiz-adv-x="999" 
d="M184 0l162 922h21l-72 -410q31 50 65.5 100t86.5 111t102.5 106.5t110 77t112.5 31.5q182 0 182 -211q0 -48 -20 -174l-109 -553h-20l108 547q21 128 21 176q-2 91 -37.5 143t-124.5 52q-52 0 -112 -33t-108 -77.5t-103.5 -112.5t-87.5 -114t-72 -106l-84 -475h-21z" />
    <glyph glyph-name="o" unicode="o" horiz-adv-x="966" 
d="M184 365q0 79 15 156.5t50 153.5t86 134t129 93.5t173 35.5q68 0 122.5 -22t88.5 -58t57 -85.5t32 -101t9 -108.5q0 -95 -19 -182t-56.5 -159.5t-91 -126t-127 -83.5t-158.5 -30q-107 0 -178 52t-101.5 135.5t-30.5 195.5zM205 367q0 -169 72 -267t217 -98
q104 0 188 45.5t136.5 123t80 177t27.5 211.5q0 162 -72 260.5t-217 98.5q-89 0 -163 -33.5t-123 -88t-82.5 -127t-48.5 -148.5t-15 -154z" />
    <glyph glyph-name="p" unicode="p" horiz-adv-x="1007" 
d="M369 922l-76 -412q40 67 88.5 132.5t112.5 136.5t134.5 115t131.5 44q53 0 94.5 -20.5t66 -52t40 -75t21 -84t5.5 -83.5q0 -129 -40.5 -246.5t-111.5 -204t-172 -137.5t-217 -51q-122 0 -231 71l-82 -465h-20l235 1332h21zM287 471l-68 -393q108 -74 230 -74
q146 0 265 81.5t186 222t67 308.5q0 63 -10.5 114.5t-33.5 95t-65 68t-100 24.5q-188 0 -471 -447z" />
    <glyph glyph-name="q" unicode="q" horiz-adv-x="991" 
d="M733 -410l148 844q-100 -169 -157 -242q-155 -200 -306 -200q-113 0 -173.5 87t-60.5 224q0 139 45 258.5t120.5 201.5t177.5 128.5t214 46.5q75 0 127.5 -16t112.5 -48l-227 -1284h-21zM889 477l69 385q-59 30 -105.5 43t-113.5 13q-105 0 -201.5 -43.5t-170.5 -121
t-118 -193.5t-44 -253q0 -131 54.5 -213t160.5 -82q30 0 61 9.5t57.5 23t56 38.5t51.5 46t49.5 56t45 58.5t43 63t38.5 60t36 59t31 51.5z" />
    <glyph glyph-name="r" unicode="r" horiz-adv-x="614" 
d="M184 0l162 922h21l-66 -375q32 65 74.5 129.5t93.5 125t108 98.5t107 38q55 0 94 -20l-10 -19q-42 19 -86 19q-41 0 -88 -29.5t-84.5 -69t-82.5 -102.5t-71.5 -107t-62.5 -106l-88 -504h-21z" />
    <glyph glyph-name="s" unicode="s" horiz-adv-x="641" 
d="M596 225q0 50 -20 90t-52.5 67t-71 51.5t-77.5 50t-71.5 54.5t-52.5 72t-20 97q0 97 73.5 164t205.5 67q152 0 233 -51l-12 -19q-85 50 -221 50q-118 0 -188 -57.5t-70 -151.5q0 -51 20 -91.5t52 -68.5t71 -52.5t78 -49.5t71 -53.5t52 -70t20 -92.5q0 -112 -80 -179.5
t-212 -67.5q-154 0 -258 69l12 19q112 -68 248 -68q110 0 190 60.5t80 160.5z" />
    <glyph glyph-name="t" unicode="t" horiz-adv-x="600" 
d="M244 350l147 828h21l-47 -256h346l-2 -21h-347l-94 -532q-16 -90 -16 -144q-1 -105 45.5 -159t136.5 -54q73 0 150 47l10 -16q-77 -51 -162 -51q-101 0 -152.5 61.5t-48.5 169.5q0 43 13 127z" />
    <glyph glyph-name="u" unicode="u" horiz-adv-x="970" 
d="M969 922l-162 -922h-21l72 410q-262 -426 -461 -426q-180 0 -180 211q0 42 21 174l116 553h21l-117 -547q-20 -122 -20 -176q2 -91 36 -143t123 -52q62 0 127.5 39.5t132.5 119t102 128.5t93 137l12 18l84 476h21z" />
    <glyph glyph-name="v" unicode="v" horiz-adv-x="774" 
d="M805 922h18q-37 -283 -164 -529.5t-301 -408.5h-6q-47 452 -196 938h20q147 -468 191 -908q175 180 288.5 412t149.5 496z" />
    <glyph glyph-name="w" unicode="w" horiz-adv-x="1273" 
d="M1305 922h18q-35 -291 -149.5 -536.5t-282.5 -401.5h-6q-39 373 -131 731q-55 -224 -161 -413.5t-243 -317.5h-6q-51 492 -188 938h20q134 -425 182 -908q281 290 387 740l-49 168h21q135 -439 182 -908q336 353 406 908z" />
    <glyph glyph-name="x" unicode="x" horiz-adv-x="786" 
d="M899 922l-401 -447l264 -475h-23l-256 459l-413 -459h-29l432 477l-252 445h27l239 -428l383 428h29z" />
    <glyph glyph-name="y" unicode="y" horiz-adv-x="776" 
d="M819 922h23q-90 -302 -169 -519.5t-186 -412.5q-9 -16 -30 -55.5t-31 -57.5t-30.5 -54t-33 -54t-34 -47t-37.5 -44.5t-39 -35t-43.5 -29t-46 -16.5t-51.5 -7q-65 0 -123 37l12 19q53 -35 111 -35q31 0 60 10t52 24t48.5 41t42.5 49t40.5 60t36.5 62t36.5 68t35.5 65
q-122 506 -305 932h22q191 -450 297 -910q101 188 176.5 399t165.5 511z" />
    <glyph glyph-name="z" unicode="z" horiz-adv-x="776" 
d="M244 901l2 21h641v-4l-785 -898h623l-4 -20h-660v4l783 897h-600z" />
    <glyph glyph-name="braceleft" unicode="{" horiz-adv-x="573" 
d="M195 -176l75 426q15 91 -18.5 146.5t-130.5 54.5l4 20q31 0 62 10t64 33.5t59 70t38 111.5l70 396q22 117 77.5 178t163.5 61h109l-4 -20h-105q-96 0 -148 -53t-73 -166l-69 -396q-17 -98 -68 -159.5t-123 -75.5q146 -24 109 -232l-72 -405q-20 -111 19.5 -162t138.5 -51
h92l-4 -21h-94q-214 0 -172 234z" />
    <glyph glyph-name="bar" unicode="|" horiz-adv-x="634" 
d="M430 0v1434h21v-1434h-21z" />
    <glyph glyph-name="braceright" unicode="}" horiz-adv-x="573" 
d="M393 244l-76 -420q-22 -120 -83 -177t-171 -57h-94l4 21h93q99 0 155 50.5t76 162.5l76 426q18 98 69 151.5t121 61.5q-54 16 -83 50t-33 79.5t4 103.5l69 396q21 112 -12.5 165.5t-130.5 53.5h-105l4 20h105q110 0 146 -61.5t14 -177.5l-70 -396q-16 -99 14.5 -155.5
t130.5 -69.5l-4 -20q-184 -3 -219 -207z" />
    <glyph glyph-name="asciitilde" unicode="~" 
d="M279 707l-17 14q116 108 236 108q56 0 121.5 -24t116 -53.5t114.5 -53.5t117 -24q98 0 198 94l15 -14q-106 -101 -215 -101q-55 0 -120 24.5t-116 53.5t-116 53.5t-119 24.5q-110 0 -215 -102z" />
    <glyph glyph-name="uni00A0" unicode="&#xa0;" horiz-adv-x="512" 
 />
    <glyph glyph-name="exclamdown" unicode="&#xa1;" horiz-adv-x="634" 
d="M438 610l-194 -1106h-21l195 1106h20zM508 911q0 -9 -8.5 -16.5t-18.5 -7.5q-9 0 -16.5 7.5t-7.5 16.5q0 10 7.5 18.5t16.5 8.5q11 0 19 -8t8 -19z" />
    <glyph glyph-name="cent" unicode="&#xa2;" 
d="M1020 109l10 -17q-138 -108 -364 -108l-41 -230h-21l41 230q-170 7 -274.5 123t-104.5 292q0 244 152 391.5t395 147.5l39 227h20l-38 -227q207 -7 301 -109l-15 -16q-94 105 -305 105q-111 0 -206.5 -34t-167.5 -97.5t-113 -162.5t-41 -223q0 -177 103.5 -287
t268.5 -110q112 0 196.5 24t164.5 81z" />
    <glyph glyph-name="sterling" unicode="&#xa3;" 
d="M289 604l4 21h156q0 3 -26 130t-26 210q0 137 55 245.5t166.5 174t262.5 65.5q245 0 346 -141l-17 -13q-103 134 -329 134q-211 0 -337 -130t-126 -335q0 -77 25.5 -199.5t27.5 -140.5h383l-4 -21h-377q2 -14 2 -61q0 -133 -47 -245.5t-129 -193.5q53 15 100 15
q51 0 111 -16.5t107 -37t108 -37t113 -16.5q74 0 134.5 28t123.5 77l12 -17q-133 -108 -270 -108q-79 0 -224.5 53t-224.5 53q-129 0 -266 -112l-14 14q85 67 155 94q90 84 139.5 196.5t49.5 241.5q0 56 -2 72h-162z" />
    <glyph glyph-name="currency" unicode="&#xa4;" 
d="M272 717q0 185 117 317l-203 205l15 14l202 -202q128 131 320 131q189 0 317 -131l220 217l14 -15l-217 -219q117 -136 117 -317q0 -185 -117 -318l207 -209l-15 -14l-207 207q-128 -131 -319 -131q-194 0 -320 129l-221 -219l-14 14l221 223q-117 129 -117 318zM293 717
q0 -118 50.5 -218.5t150.5 -163.5t229 -63t229 63t150.5 163.5t50.5 218.5t-50.5 218t-150.5 163t-229 63t-229 -63t-150.5 -163t-50.5 -218z" />
    <glyph glyph-name="yen" unicode="&#xa5;" 
d="M264 643l4 21h422l-366 770h20l367 -770l641 770h24l-641 -770h422l-4 -21h-434l-53 -307h434l-4 -21h-434l-56 -315h-20l55 315h-434l4 21h434l53 307h-434z" />
    <glyph glyph-name="brokenbar" unicode="&#xa6;" horiz-adv-x="634" 
d="M451 901h-21v533h21v-533zM430 532h21v-532h-21v532z" />
    <glyph glyph-name="section" unicode="&#xa7;" horiz-adv-x="1073" 
d="M248 465q0 176 108 287.5t297 121.5q-79 32 -133.5 93.5t-54.5 148.5q0 134 99 226t237 92q90 0 143 -27.5t90 -85.5l-16 -14q-41 58 -86 82t-131 24q-129 0 -221.5 -87t-92.5 -210q0 -88 65.5 -151t170.5 -91q133 -22 208 -105t75 -220q0 -103 -46.5 -192.5t-141 -149
t-218.5 -62.5q82 -34 133 -99.5t51 -149.5q0 -125 -95 -215.5t-234 -90.5q-58 0 -102 10.5t-71.5 31.5t-39.5 34.5t-27 36.5l18 16q16 -22 21 -28.5t26 -26.5t40.5 -28.5t55.5 -16.5t79 -8q128 0 217.5 84t89.5 199q0 85 -60.5 153t-158.5 98q-130 8 -212.5 96t-82.5 224z
M268 465q0 -135 86 -217t228 -82q183 0 293 110t110 271q0 142 -85.5 224.5t-231.5 82.5q-174 0 -287 -108.5t-113 -280.5z" />
    <glyph glyph-name="dieresis" unicode="&#xa8;" horiz-adv-x="735" 
d="M123 1292q0 9 8.5 17t18.5 8q9 0 16.5 -8t7.5 -17q0 -10 -7.5 -18t-16.5 -8q-11 0 -19 8t-8 18zM561 1292q0 9 8.5 17t18.5 8q9 0 16.5 -8t7.5 -17q0 -10 -7.5 -18t-16.5 -8q-11 0 -19 8t-8 18z" />
    <glyph glyph-name="copyright" unicode="&#xa9;" horiz-adv-x="2084" 
d="M246 453q0 240 113 441t315 319t450 118q186 0 350 -69.5t279.5 -187.5t182.5 -279.5t67 -341.5t-67 -342t-182.5 -280t-279.5 -187.5t-350 -69.5t-350 69.5t-279.5 188t-182 280t-66.5 341.5zM266 453q0 -175 65 -333.5t178 -274t273 -183.5t342 -68t342 68t273 183.5
t178 274t65 333.5q0 234 -110.5 430.5t-308 312t-439.5 115.5t-439.5 -115.5t-308 -312t-110.5 -430.5zM1464 141l13 -12q-57 -70 -147.5 -107.5t-186.5 -37.5q-210 0 -344.5 131t-134.5 346q0 132 59 241.5t161.5 172.5t225.5 63q228 0 348 -109l-12 -18q-121 107 -332 107
q-178 0 -304 -132.5t-126 -324.5q0 -208 128.5 -332.5t330.5 -124.5q96 0 181.5 37.5t139.5 99.5z" />
    <glyph glyph-name="ordfeminine" unicode="&#xaa;" horiz-adv-x="788" 
d="M426 1264l-10 16q43 32 100.5 50t108.5 18q118 0 167.5 -61t28.5 -173l-65 -377h-21l19 109q-122 -113 -275 -113q-91 0 -143.5 46.5t-52.5 115.5q0 103 83 159t195 56q138 0 230 -63l10 63q17 102 -21.5 159.5t-154.5 57.5q-102 0 -199 -63zM481 754q90 0 161 36t118 87
l24 149q-36 28 -96.5 46t-126.5 18q-47 0 -91 -11.5t-82.5 -33.5t-61.5 -60.5t-23 -87.5q0 -63 50 -103t128 -40z" />
    <glyph glyph-name="guillemotleft" unicode="&#xab;" horiz-adv-x="960" 
d="M799 98l-279 412l2 6l424 406l15 -15l-416 -397l270 -397zM492 98l-279 412l2 6l424 406l14 -15l-415 -397l270 -397z" />
    <glyph glyph-name="logicalnot" unicode="&#xac;" 
d="M266 727v21h889v-289h-20v268h-869z" />
    <glyph glyph-name="uni00AD" unicode="&#xad;" horiz-adv-x="847" 
d="M303 543l4 20h438l-4 -20h-438z" />
    <glyph glyph-name="registered" unicode="&#xae;" horiz-adv-x="1081" 
d="M266 1016q0 173 122.5 295.5t295.5 122.5t295.5 -122.5t122.5 -295.5t-122.5 -295.5t-295.5 -122.5t-295.5 122.5t-122.5 295.5zM287 1016q0 -164 116.5 -281t280.5 -117t280.5 117t116.5 281t-116.5 280.5t-280.5 116.5t-280.5 -116.5t-116.5 -280.5zM555 737h-20v574
h124q195 0 195 -156q0 -56 -41 -101.5t-111 -58.5l216 -258h-31l-213 258h-119v-258zM659 1290h-104v-274h121q58 0 108 38.5t50 100.5q0 64 -45.5 99.5t-129.5 35.5z" />
    <glyph glyph-name="macron" unicode="&#xaf;" horiz-adv-x="724" 
d="M121 1311l4 20h479l-4 -20h-479z" />
    <glyph glyph-name="degree" unicode="&#xb0;" horiz-adv-x="778" 
d="M307 1167q0 110 78 188.5t188 78.5t188.5 -78.5t78.5 -188.5t-78.5 -188t-188.5 -78t-188 78t-78 188zM328 1167q0 -101 72 -173t173 -72t173.5 72t72.5 173t-72.5 173.5t-173.5 72.5t-173 -72.5t-72 -173.5z" />
    <glyph glyph-name="plusminus" unicode="&#xb1;" 
d="M276 870v21h433v432h20v-432h436v-21h-436v-333h-20v333h-433zM276 379v20h889v-20h-889z" />
    <glyph glyph-name="twosuperior" unicode="&#xb2;" horiz-adv-x="661" 
d="M219 717l4 18q19 13 66 44t82 54.5t86 61t88 68.5t78 72t67 77.5t43 78.5t17 81q0 68 -44 108.5t-135 40.5q-73 0 -131.5 -36.5t-89.5 -110.5l-18 4q25 73 90.5 118.5t148.5 45.5q102 0 150.5 -48t48.5 -122q0 -36 -14.5 -74.5t-34.5 -72.5t-57 -73.5t-65.5 -67.5
t-76.5 -65.5t-74.5 -57t-75.5 -51.5t-62.5 -40.5t-51.5 -32.5h463l-4 -20h-498z" />
    <glyph glyph-name="threesuperior" unicode="&#xb3;" horiz-adv-x="673" 
d="M467 709q-199 0 -238 127l19 10q36 -117 219 -117q115 0 180.5 55t65.5 146q0 68 -45 105.5t-129 37.5h-82l4 21h71q94 0 152.5 54.5t58.5 131.5q0 72 -43.5 106.5t-134.5 34.5q-144 0 -211 -110l-16 10q31 57 91.5 89t135.5 32q98 0 149.5 -40.5t51.5 -119.5
q0 -68 -44.5 -123t-117.5 -74v-2q63 -10 97 -51.5t34 -99.5q0 -102 -75 -162.5t-193 -60.5z" />
    <glyph glyph-name="acute" unicode="&#xb4;" horiz-adv-x="485" 
d="M362 1434l-223 -289l-16 10l225 291z" />
    <glyph glyph-name="mu" unicode="&#xb5;" horiz-adv-x="1126" 
d="M1106 922l-164 -922h-20l30 166q-77 -77 -191 -129.5t-229 -52.5q-146 0 -221 61t-84 186l-114 -641h-21l236 1332h20l-90 -510q-37 -210 29.5 -309t253.5 -99q116 0 234 62t181 133l129 723h21z" />
    <glyph glyph-name="mu" unicode="&#x3bc;" horiz-adv-x="1126" 
d="M1106 922l-164 -922h-20l30 166q-77 -77 -191 -129.5t-229 -52.5q-146 0 -221 61t-84 186l-114 -641h-21l236 1332h20l-90 -510q-37 -210 29.5 -309t253.5 -99q116 0 234 62t181 133l129 723h21z" />
    <glyph glyph-name="paragraph" unicode="&#xb6;" horiz-adv-x="821" 
d="M246 985q0 211 106.5 330t300.5 119h209v-21h-192v-1522q0 -75 -11 -129t-37.5 -98.5t-76.5 -67t-123 -22.5q-94 0 -164 51l12 19q27 -21 68.5 -35.5t83.5 -14.5q70 0 117 22.5t70 66t31.5 91.5t8.5 115v650q-179 2 -291 121t-112 325z" />
    <glyph glyph-name="periodcentered" unicode="&#xb7;" horiz-adv-x="512" 
d="M334 600q0 9 8 17t18 8q9 0 17 -8t8 -17q0 -10 -8 -18.5t-17 -8.5q-10 0 -18 8t-8 19z" />
    <glyph glyph-name="cedilla" unicode="&#xb8;" horiz-adv-x="630" 
d="M123 -369l10 19q62 -39 146 -39q90 0 149 38.5t59 104.5q0 103 -165 103h-13l27 143h20l-22 -123q93 -4 133.5 -35t40.5 -88q0 -72 -65.5 -118t-168.5 -46q-80 0 -151 41z" />
    <glyph glyph-name="onesuperior" unicode="&#xb9;" horiz-adv-x="450" 
d="M303 1317l205 125h12l-129 -725h-20l123 690l-181 -109z" />
    <glyph glyph-name="ordmasculine" unicode="&#xba;" horiz-adv-x="907" 
d="M301 989q0 162 100 260.5t271 98.5q119 0 196.5 -75.5t77.5 -193.5q0 -67 -22 -129t-64.5 -113t-113.5 -81.5t-160 -30.5q-129 0 -207 73.5t-78 190.5zM322 993q0 -111 72.5 -179.5t195.5 -68.5q83 0 149 28.5t105.5 76t60.5 105.5t21 120q0 112 -70.5 182t-187.5 70
q-158 0 -252 -91t-94 -243z" />
    <glyph glyph-name="guillemotright" unicode="&#xbb;" horiz-adv-x="960" 
d="M926 506l-420 -408l-14 15l411 399l-272 395l16 15l281 -410zM618 506l-419 -408l-15 15l412 399l-272 395l16 15l281 -410z" />
    <glyph glyph-name="onequarter" unicode="&#xbc;" horiz-adv-x="1296" 
d="M344 1317l205 125h12l-129 -725h-20l123 690l-181 -109zM250 -2l1087 1452l17 -10l-1088 -1456zM1100 0l35 201h-404l2 10l490 506h26l-479 -496h369l41 240h20l-41 -240h135l-4 -20h-135l-35 -201h-20z" />
    <glyph glyph-name="onehalf" unicode="&#xbd;" horiz-adv-x="1329" 
d="M344 1317l205 125h12l-129 -725h-20l123 690l-181 -109zM168 -2l1087 1452l17 -10l-1088 -1456zM748 0l4 18q19 13 66 44.5t81.5 54.5t85.5 60.5t88.5 68.5t78 72t66.5 77.5t43 78.5t17 81q0 69 -43.5 109.5t-134.5 40.5q-72 0 -131 -37t-90 -111l-19 4q25 73 91 118.5
t149 45.5q102 0 150 -48t48 -122q0 -36 -14.5 -74.5t-34.5 -72.5t-57 -73.5t-65.5 -67.5t-76.5 -65.5t-74.5 -57t-75.5 -51.5t-62.5 -40.5t-51.5 -32.5h463l-4 -20h-497z" />
    <glyph glyph-name="threequarters" unicode="&#xbe;" horiz-adv-x="1357" 
d="M467 709q-199 0 -238 127l19 10q36 -117 219 -117q115 0 180.5 55t65.5 146q0 68 -45 105.5t-129 37.5h-82l4 21h71q94 0 152.5 54.5t58.5 131.5q0 72 -43.5 106.5t-134.5 34.5q-144 0 -211 -110l-16 10q31 57 91.5 89t135.5 32q98 0 149.5 -40.5t51.5 -119.5
q0 -68 -44.5 -123t-117.5 -74v-2q63 -10 97 -51.5t34 -99.5q0 -102 -75 -162.5t-193 -60.5zM332 -2l1087 1452l17 -10l-1088 -1456zM1161 0l35 201h-403l2 10l489 506h27l-480 -496h369l41 240h21l-41 -240h135l-4 -20h-135l-35 -201h-21z" />
    <glyph glyph-name="questiondown" unicode="&#xbf;" horiz-adv-x="923" 
d="M78 -215q0 -123 82 -200t225 -77q114 0 219.5 51t179.5 144l13 -12q-69 -93 -181 -148t-233 -55q-156 0 -242 82.5t-86 208.5q0 75 19.5 136.5t52.5 103.5t75.5 77.5t90 64t95 56t90 60t75.5 70t52.5 92t19.5 120.5v25l20 2v-39q0 -83 -31.5 -147.5t-81.5 -106.5
t-110 -79t-120.5 -75t-110.5 -83t-81.5 -114t-31.5 -157zM729 911q0 -9 -8.5 -16.5t-18.5 -7.5q-9 0 -16.5 7.5t-7.5 16.5q0 10 7.5 18.5t16.5 8.5q10 0 18.5 -8t8.5 -19z" />
    <glyph glyph-name="Agrave" unicode="&#xc0;" horiz-adv-x="1402" 
d="M61 0l893 1450h7l380 -1450h-20l-150 567h-737l-350 -567h-23zM950 1409l-504 -821h719zM1030 1520l-315 184l8 16l317 -186z" />
    <glyph glyph-name="Aacute" unicode="&#xc1;" horiz-adv-x="1402" 
d="M61 0l893 1450h7l380 -1450h-20l-150 567h-737l-350 -567h-23zM950 1409l-504 -821h719zM1266 1704l-316 -184l-10 14l317 186z" />
    <glyph glyph-name="Acircumflex" unicode="&#xc2;" horiz-adv-x="1402" 
d="M61 0l893 1450h7l380 -1450h-20l-150 567h-737l-350 -567h-23zM950 1409l-504 -821h719zM1006 1720l305 -182l-13 -16l-297 180l-358 -180l-10 16l364 182h9z" />
    <glyph glyph-name="Atilde" unicode="&#xc3;" horiz-adv-x="1402" 
d="M61 0l893 1450h7l380 -1450h-20l-150 567h-737l-350 -567h-23zM950 1409l-504 -821h719zM670 1589l-13 15q75 61 154 61q63 0 173.5 -51t164.5 -51q79 0 147 71l15 -14q-78 -78 -162 -78q-59 0 -172 51.5t-172 51.5q-65 0 -135 -56z" />
    <glyph glyph-name="Adieresis" unicode="&#xc4;" horiz-adv-x="1402" 
d="M61 0l893 1450h7l380 -1450h-20l-150 567h-737l-350 -567h-23zM950 1409l-504 -821h719zM721 1618q0 10 8 17t19 7q9 0 16.5 -7t7.5 -17q0 -12 -7.5 -19.5t-16.5 -7.5q-11 0 -19 7.5t-8 19.5zM1200 1618q0 10 8 17t19 7q10 0 17 -6.5t7 -17.5q0 -12 -7.5 -19.5
t-16.5 -7.5q-11 0 -19 7.5t-8 19.5z" />
    <glyph glyph-name="Aring" unicode="&#xc5;" horiz-adv-x="1402" 
d="M782 1587q0 75 53.5 114.5t135.5 39.5q83 0 136.5 -39.5t53.5 -114.5t-54 -117.5t-136 -42.5h-6l376 -1427h-20l-150 567h-737l-350 -567h-23l879 1430q-70 6 -114 47.5t-44 109.5zM950 1409l-504 -821h719zM803 1587q0 -65 42 -100.5t111 -38.5h15q74 0 122 35.5
t48 103.5q0 67 -47 100t-123 33q-75 0 -121.5 -33t-46.5 -100z" />
    <glyph glyph-name="AE" unicode="&#xc6;" horiz-adv-x="1978" 
d="M1835 0h-788l102 584h-582l-518 -584h-29l1274 1434h772l-2 -21h-747l-119 -672h686l-4 -20h-686l-123 -701h768zM1294 1403l-708 -799h567z" />
    <glyph glyph-name="Ccedilla" unicode="&#xc7;" horiz-adv-x="1345" 
d="M631 -369l12 19q61 -39 143 -39q90 0 149.5 38.5t59.5 104.5q0 103 -166 103h-12l23 129q-129 8 -239 55t-192.5 128.5t-129 203t-46.5 270.5q0 159 60 305.5t165.5 257.5t262 177.5t338.5 66.5q270 0 420 -117l-13 -14q-159 111 -407 111q-142 0 -270 -42.5
t-224.5 -117.5t-167 -173.5t-107 -214t-36.5 -235.5q0 -152 50.5 -275.5t138 -203t204 -122t250.5 -42.5q256 0 440 125l9 -16q-84 -65 -209 -97t-242 -32h-35l-18 -107q86 -1 130 -33t44 -86q0 -75 -65.5 -121.5t-168.5 -46.5q-80 0 -151 41z" />
    <glyph glyph-name="Egrave" unicode="&#xc8;" horiz-adv-x="1177" 
d="M246 0l252 1434h768l-2 -21h-748l-119 -672h686l-4 -20h-686l-123 -701h768l-4 -20h-788zM1010 1520l-316 184l8 16l318 -186z" />
    <glyph glyph-name="Eacute" unicode="&#xc9;" horiz-adv-x="1177" 
d="M246 0l252 1434h768l-2 -21h-748l-119 -672h686l-4 -20h-686l-123 -701h768l-4 -20h-788zM1122 1704l-315 -184l-10 14l317 186z" />
    <glyph glyph-name="Ecircumflex" unicode="&#xca;" horiz-adv-x="1177" 
d="M246 0l252 1434h768l-2 -21h-748l-119 -672h686l-4 -20h-686l-123 -701h768l-4 -20h-788zM938 1720l305 -182l-12 -16l-297 180l-359 -180l-10 16l365 182h8z" />
    <glyph glyph-name="Edieresis" unicode="&#xcb;" horiz-adv-x="1177" 
d="M246 0l252 1434h768l-2 -21h-748l-119 -672h686l-4 -20h-686l-123 -701h768l-4 -20h-788zM653 1618q0 10 8 17t19 7q9 0 17 -7t8 -17q0 -12 -7.5 -19.5t-17.5 -7.5q-11 0 -19 7.5t-8 19.5zM1133 1618q0 10 7.5 17t18.5 7q10 0 17.5 -6.5t7.5 -17.5q0 -12 -8 -19.5
t-17 -7.5q-11 0 -18.5 7.5t-7.5 19.5z" />
    <glyph glyph-name="Igrave" unicode="&#xcc;" horiz-adv-x="552" 
d="M287 0l252 1434h20l-252 -1434h-20zM600 1520l-315 184l8 16l317 -186z" />
    <glyph glyph-name="Iacute" unicode="&#xcd;" horiz-adv-x="552" 
d="M287 0l252 1434h20l-252 -1434h-20zM877 1704l-316 -184l-10 14l317 186z" />
    <glyph glyph-name="Icircumflex" unicode="&#xce;" horiz-adv-x="552" 
d="M287 0l252 1434h20l-252 -1434h-20zM602 1720l305 -182l-12 -16l-297 180l-358 -180l-11 16l365 182h8z" />
    <glyph glyph-name="Idieresis" unicode="&#xcf;" horiz-adv-x="593" 
d="M287 0l252 1434h20l-252 -1434h-20zM385 1618q0 10 8 17t19 7q9 0 16.5 -7t7.5 -17q0 -12 -7.5 -19.5t-16.5 -7.5q-11 0 -19 7.5t-8 19.5zM725 1618q0 10 8 17t19 7q10 0 17 -6.5t7 -17.5q0 -12 -7.5 -19.5t-16.5 -7.5q-11 0 -19 7.5t-8 19.5z" />
    <glyph glyph-name="Eth" unicode="&#xd0;" horiz-adv-x="1564" 
d="M150 727l4 21h284l123 686h21q54 0 145 3t164 3q152 0 272 -33.5t198 -90t129.5 -136t73 -166.5t21.5 -187q0 -175 -64.5 -326t-184 -263.5t-302.5 -177t-407 -64.5q-64 0 -161.5 2t-148.5 2h-10l127 727h-284zM889 1419q-75 0 -169.5 -3t-141.5 -3l-117 -665h436l-4 -21
h-436l-125 -707l295 -4q179 0 331.5 42t263 117t188.5 176.5t116.5 222t38.5 251.5q0 100 -21.5 185.5t-71.5 162t-126.5 130.5t-193 85t-263.5 31z" />
    <glyph glyph-name="Ntilde" unicode="&#xd1;" horiz-adv-x="1638" 
d="M1393 0h-17l-864 1397l-246 -1397h-20l252 1434h16l864 -1399l246 1399h21zM797 1589l-13 15q75 61 154 61q63 0 173.5 -51t164.5 -51q79 0 147 71l15 -14q-78 -78 -162 -78q-58 0 -172 51.5t-172 51.5q-65 0 -135 -56z" />
    <glyph glyph-name="Ograve" unicode="&#xd2;" horiz-adv-x="1646" 
d="M238 645q0 174 59.5 324t163 255.5t246.5 165.5t305 60q154 0 277.5 -47t205 -132.5t125 -204t43.5 -261.5q0 -175 -57 -327.5t-157.5 -261t-244 -170.5t-309.5 -62q-318 0 -487.5 178t-169.5 483zM258 647q0 -300 167.5 -471.5t471.5 -171.5q154 0 290.5 58t237 160
t159 252t58.5 325q0 288 -167.5 459.5t-464.5 171.5q-152 0 -289.5 -57t-240 -157.5t-162.5 -248.5t-60 -320zM1255 1520l-315 184l8 16l318 -186z" />
    <glyph glyph-name="Oacute" unicode="&#xd3;" horiz-adv-x="1646" 
d="M238 645q0 174 59.5 324t163 255.5t246.5 165.5t305 60q154 0 277.5 -47t205 -132.5t125 -204t43.5 -261.5q0 -175 -57 -327.5t-157.5 -261t-244 -170.5t-309.5 -62q-318 0 -487.5 178t-169.5 483zM258 647q0 -300 167.5 -471.5t471.5 -171.5q154 0 290.5 58t237 160
t159 252t58.5 325q0 288 -167.5 459.5t-464.5 171.5q-152 0 -289.5 -57t-240 -157.5t-162.5 -248.5t-60 -320zM1327 1704l-315 -184l-11 14l318 186z" />
    <glyph glyph-name="Ocircumflex" unicode="&#xd4;" horiz-adv-x="1646" 
d="M238 645q0 174 59.5 324t163 255.5t246.5 165.5t305 60q154 0 277.5 -47t205 -132.5t125 -204t43.5 -261.5q0 -175 -57 -327.5t-157.5 -261t-244 -170.5t-309.5 -62q-318 0 -487.5 178t-169.5 483zM258 647q0 -300 167.5 -471.5t471.5 -171.5q154 0 290.5 58t237 160
t159 252t58.5 325q0 288 -167.5 459.5t-464.5 171.5q-152 0 -289.5 -57t-240 -157.5t-162.5 -248.5t-60 -320zM1137 1720l305 -182l-12 -16l-297 180l-359 -180l-10 16l364 182h9z" />
    <glyph glyph-name="Otilde" unicode="&#xd5;" horiz-adv-x="1646" 
d="M238 645q0 174 59.5 324t163 255.5t246.5 165.5t305 60q154 0 277.5 -47t205 -132.5t125 -204t43.5 -261.5q0 -175 -57 -327.5t-157.5 -261t-244 -170.5t-309.5 -62q-318 0 -487.5 178t-169.5 483zM258 647q0 -300 167.5 -471.5t471.5 -171.5q154 0 290.5 58t237 160
t159 252t58.5 325q0 288 -167.5 459.5t-464.5 171.5q-152 0 -289.5 -57t-240 -157.5t-162.5 -248.5t-60 -320zM801 1589l-13 15q75 61 154 61q63 0 173.5 -51t164.5 -51q79 0 147 71l15 -14q-78 -78 -162 -78q-58 0 -172 51.5t-172 51.5q-65 0 -135 -56z" />
    <glyph glyph-name="Odieresis" unicode="&#xd6;" horiz-adv-x="1646" 
d="M238 645q0 174 59.5 324t163 255.5t246.5 165.5t305 60q154 0 277.5 -47t205 -132.5t125 -204t43.5 -261.5q0 -175 -57 -327.5t-157.5 -261t-244 -170.5t-309.5 -62q-318 0 -487.5 178t-169.5 483zM258 647q0 -300 167.5 -471.5t471.5 -171.5q154 0 290.5 58t237 160
t159 252t58.5 325q0 288 -167.5 459.5t-464.5 171.5q-152 0 -289.5 -57t-240 -157.5t-162.5 -248.5t-60 -320zM848 1618q0 10 7.5 17t18.5 7q9 0 17 -7t8 -17q0 -12 -7.5 -19.5t-17.5 -7.5q-11 0 -18.5 7.5t-7.5 19.5zM1327 1618q0 10 8 17t19 7q10 0 17 -6.5t7 -17.5
q0 -12 -7.5 -19.5t-16.5 -7.5q-11 0 -19 7.5t-8 19.5z" />
    <glyph glyph-name="multiply" unicode="&#xd7;" 
d="M401 1044l15 15l305 -307l305 307l14 -15l-305 -307l309 -307l-14 -14l-309 307l-309 -307l-15 14l310 307z" />
    <glyph glyph-name="Oslash" unicode="&#xd8;" horiz-adv-x="1646" 
d="M238 645q0 174 59.5 324t163 255.5t246.5 165.5t305 60q343 0 522 -227l139 116l17 -12l-144 -121q117 -163 117 -401q0 -175 -57 -327.5t-157.5 -261t-244 -170.5t-309.5 -62q-364 0 -537 233l-133 -111l-16 15l137 115q-108 164 -108 409zM1642 799q0 233 -114 393
l-1151 -961q80 -110 212.5 -168.5t307.5 -58.5q154 0 290.5 58t237 160t159 252t58.5 325zM258 647q0 -238 107 -397l1151 958q-81 106 -210 164t-296 58q-152 0 -289.5 -57t-240 -157.5t-162.5 -248.5t-60 -320z" />
    <glyph glyph-name="Ugrave" unicode="&#xd9;" horiz-adv-x="1538" 
d="M1565 1434l-146 -830q-55 -310 -206 -463t-427 -153q-227 0 -348 116.5t-121 339.5q0 70 17 174l143 816h21l-144 -818q-16 -98 -16 -167q0 -222 121 -331.5t332 -109.5q139 0 244.5 41t177 121t116 187.5t70.5 252.5l145 824h21zM1174 1520l-316 184l8 16l318 -186z" />
    <glyph glyph-name="Uacute" unicode="&#xda;" horiz-adv-x="1538" 
d="M1565 1434l-146 -830q-55 -310 -206 -463t-427 -153q-227 0 -348 116.5t-121 339.5q0 70 17 174l143 816h21l-144 -818q-16 -98 -16 -167q0 -222 121 -331.5t332 -109.5q139 0 244.5 41t177 121t116 187.5t70.5 252.5l145 824h21zM1266 1704l-316 -184l-10 14l317 186z
" />
    <glyph glyph-name="Ucircumflex" unicode="&#xdb;" horiz-adv-x="1538" 
d="M1565 1434l-146 -830q-55 -310 -206 -463t-427 -153q-227 0 -348 116.5t-121 339.5q0 70 17 174l143 816h21l-144 -818q-16 -98 -16 -167q0 -222 121 -331.5t332 -109.5q139 0 244.5 41t177 121t116 187.5t70.5 252.5l145 824h21zM1073 1720l305 -182l-12 -16l-297 180
l-358 -180l-11 16l365 182h8z" />
    <glyph glyph-name="Udieresis" unicode="&#xdc;" horiz-adv-x="1538" 
d="M1565 1434l-146 -830q-55 -310 -206 -463t-427 -153q-227 0 -348 116.5t-121 339.5q0 70 17 174l143 816h21l-144 -818q-16 -98 -16 -167q0 -222 121 -331.5t332 -109.5q139 0 244.5 41t177 121t116 187.5t70.5 252.5l145 824h21zM786 1618q0 10 8 17t19 7q9 0 17 -7
t8 -17q0 -12 -8 -19.5t-17 -7.5q-11 0 -19 7.5t-8 19.5zM1266 1618q0 10 7.5 17t18.5 7q10 0 17.5 -6.5t7.5 -17.5q0 -12 -7.5 -19.5t-17.5 -7.5q-11 0 -18.5 7.5t-7.5 19.5z" />
    <glyph glyph-name="Yacute" unicode="&#xdd;" horiz-adv-x="1155" 
d="M1346 1434l-658 -789l-113 -645h-20l113 645l-375 789h20l367 -770l641 770h25zM1081 1704l-315 -184l-10 14l317 186z" />
    <glyph glyph-name="Thorn" unicode="&#xde;" horiz-adv-x="1161" 
d="M266 0h-20l252 1434h20l-39 -226q46 0 149 2t130 2q221 0 324.5 -94t103.5 -252q0 -74 -19 -141.5t-62.5 -131.5t-109 -111t-166 -75t-225.5 -28q-115 0 -268 10zM758 1192q-147 0 -283 -4l-137 -778q172 -11 266 -11q139 0 248.5 37t176.5 101.5t101.5 147.5t34.5 179
q0 71 -22 128.5t-68.5 103.5t-127 71t-189.5 25z" />
    <glyph glyph-name="germandbls" unicode="&#xdf;" horiz-adv-x="1001" 
d="M963 311q0 51 -19 94t-48.5 74t-66 59t-73 54.5t-66 55t-48.5 66t-19 81.5q0 59 33 108.5t79.5 86.5t93.5 74t80 87.5t33 110.5q0 74 -52.5 121t-144.5 47q-147 0 -234 -90.5t-122 -286.5l-186 -1061h-21l191 1079q67 379 372 379q96 0 157 -50.5t61 -133.5
q0 -64 -33 -118t-80 -92.5t-94 -75t-80 -82.5t-33 -99q0 -43 19 -79t48.5 -63.5t66 -53.5t73 -54.5t66 -60.5t48.5 -78t19 -101q0 -145 -91.5 -235t-227.5 -90q-97 0 -164 42t-97 117l19 11q62 -150 242 -150q138 0 218.5 88.5t80.5 218.5z" />
    <glyph glyph-name="agrave" unicode="&#xe0;" horiz-adv-x="966" 
d="M965 885l-146 -885h-20l69 424q-97 -164 -149 -232q-154 -200 -307 -200q-112 0 -170 86.5t-58 224.5q0 139 44 258.5t118.5 201.5t175.5 128.5t213 46.5q118 0 230 -53zM414 12q34 0 66.5 9.5t64 30t58.5 41.5t56.5 56.5t50 60t48.5 68t41.5 65t40 65.5t34.5 57l68 407
q-61 25 -104 35.5t-105 10.5q-105 0 -200.5 -43.5t-168 -121t-116 -193.5t-43.5 -253q0 -132 52 -213.5t157 -81.5zM801 1145l-223 289l14 12l225 -291z" />
    <glyph glyph-name="aacute" unicode="&#xe1;" horiz-adv-x="966" 
d="M965 885l-146 -885h-20l69 424q-97 -164 -149 -232q-154 -200 -307 -200q-112 0 -170 86.5t-58 224.5q0 139 44 258.5t118.5 201.5t175.5 128.5t213 46.5q118 0 230 -53zM414 12q34 0 66.5 9.5t64 30t58.5 41.5t56.5 56.5t50 60t48.5 68t41.5 65t40 65.5t34.5 57l68 407
q-61 25 -104 35.5t-105 10.5q-105 0 -200.5 -43.5t-168 -121t-116 -193.5t-43.5 -253q0 -132 52 -213.5t157 -81.5zM950 1434l-223 -289l-16 10l225 291z" />
    <glyph glyph-name="acircumflex" unicode="&#xe2;" horiz-adv-x="966" 
d="M965 885l-146 -885h-20l69 424q-97 -164 -149 -232q-154 -200 -307 -200q-112 0 -170 86.5t-58 224.5q0 139 44 258.5t118.5 201.5t175.5 128.5t213 46.5q118 0 230 -53zM414 12q34 0 66.5 9.5t64 30t58.5 41.5t56.5 56.5t50 60t48.5 68t41.5 65t40 65.5t34.5 57l68 407
q-61 25 -104 35.5t-105 10.5q-105 0 -200.5 -43.5t-168 -121t-116 -193.5t-43.5 -253q0 -132 52 -213.5t157 -81.5zM772 1450l191 -268l-17 -13l-180 256l-272 -256l-13 15l283 266h8z" />
    <glyph glyph-name="atilde" unicode="&#xe3;" horiz-adv-x="966" 
d="M965 885l-146 -885h-20l69 424q-97 -164 -149 -232q-154 -200 -307 -200q-112 0 -170 86.5t-58 224.5q0 139 44 258.5t118.5 201.5t175.5 128.5t213 46.5q118 0 230 -53zM414 12q34 0 66.5 9.5t64 30t58.5 41.5t56.5 56.5t50 60t48.5 68t41.5 65t40 65.5t34.5 57l68 407
q-61 25 -104 35.5t-105 10.5q-105 0 -200.5 -43.5t-168 -121t-116 -193.5t-43.5 -253q0 -132 52 -213.5t157 -81.5zM459 1221l-13 14q103 84 175 84q43 0 81.5 -25t73.5 -50t70 -25q65 0 158 88l14 -15q-99 -94 -172 -94q-32 0 -63 15.5t-52.5 34.5t-51.5 34.5t-61 15.5
q-65 0 -159 -77z" />
    <glyph glyph-name="adieresis" unicode="&#xe4;" horiz-adv-x="966" 
d="M965 885l-146 -885h-20l69 424q-97 -164 -149 -232q-154 -200 -307 -200q-112 0 -170 86.5t-58 224.5q0 139 44 258.5t118.5 201.5t175.5 128.5t213 46.5q118 0 230 -53zM414 12q34 0 66.5 9.5t64 30t58.5 41.5t56.5 56.5t50 60t48.5 68t41.5 65t40 65.5t34.5 57l68 407
q-61 25 -104 35.5t-105 10.5q-105 0 -200.5 -43.5t-168 -121t-116 -193.5t-43.5 -253q0 -132 52 -213.5t157 -81.5zM516 1292q0 9 8.5 17t18.5 8q9 0 16.5 -8t7.5 -17q0 -10 -7.5 -18t-16.5 -8q-11 0 -19 8t-8 18zM954 1292q0 9 8.5 17t18.5 8q9 0 17 -8t8 -17q0 -10 -8 -18
t-17 -8q-11 0 -19 8t-8 18z" />
    <glyph glyph-name="aring" unicode="&#xe5;" horiz-adv-x="966" 
d="M965 885l-146 -885h-20l69 424q-97 -164 -149 -232q-154 -200 -307 -200q-112 0 -170 86.5t-58 224.5q0 139 44 258.5t118.5 201.5t175.5 128.5t213 46.5q118 0 230 -53zM414 12q34 0 66.5 9.5t64 30t58.5 41.5t56.5 56.5t50 60t48.5 68t41.5 65t40 65.5t34.5 57l68 407
q-61 25 -104 35.5t-105 10.5q-105 0 -200.5 -43.5t-168 -121t-116 -193.5t-43.5 -253q0 -132 52 -213.5t157 -81.5zM563 1260q0 78 55.5 134t133.5 56t134 -56t56 -134t-56 -133.5t-134 -55.5t-133.5 55.5t-55.5 133.5zM584 1260q0 -70 49 -119t119 -49q71 0 120.5 49
t49.5 119t-50 120t-120 50t-119 -49.5t-49 -120.5z" />
    <glyph glyph-name="ae" unicode="&#xe6;" horiz-adv-x="1566" 
d="M1518 147l12 -14q-162 -149 -354 -149q-79 0 -139.5 30.5t-97 83t-55 118.5t-18.5 142q0 20 4 66q-29 -49 -45 -75.5t-50.5 -79t-60.5 -84t-65 -72.5t-73.5 -64.5t-78 -40t-85.5 -16.5q-112 0 -170 86.5t-58 224.5q0 139 44 258.5t118.5 201.5t175.5 128.5t213 46.5
q186 0 322 -127q131 127 291 127q114 0 181.5 -52t67.5 -153q0 -89 -60.5 -156t-162.5 -103t-225 -51t-260 -9q-2 -16 -2 -52q-2 -73 15 -136.5t51.5 -113.5t92.5 -79t132 -29q98 0 185.5 39.5t154.5 103.5zM414 12q34 0 66.5 9.5t64 30t58.5 41.5t56.5 56.5t50 60t48.5 68
t41.5 65t40 65.5t34.5 57q19 103 58.5 178.5t107.5 151.5q-127 123 -307 123q-105 0 -200.5 -43.5t-168 -121t-116 -193.5t-43.5 -253q0 -132 52 -213.5t157 -81.5zM1348 918q-111 0 -210.5 -67t-164 -177t-82.5 -240q134 -6 255 8.5t218 48.5t154 95t57 141
q0 94 -58.5 142.5t-168.5 48.5z" />
    <glyph glyph-name="ccedilla" unicode="&#xe7;" horiz-adv-x="829" 
d="M272 -369l11 19q62 -39 145 -39q90 0 149.5 38.5t59.5 104.5q0 103 -166 103h-12l22 127q-137 4 -217 104t-80 262q0 154 66 290t179 217t243 81q99 0 194 -31l-8 -20q-82 31 -186 31q-94 0 -181 -47t-149.5 -124.5t-99.5 -181t-37 -213.5q0 -162 79 -255t212 -93
q89 0 155 31t140 90l12 -14q-142 -124 -301 -127l-19 -107q93 -4 133.5 -35t40.5 -88q0 -72 -65 -118t-168 -46q-81 0 -152 41z" />
    <glyph glyph-name="egrave" unicode="&#xe8;" horiz-adv-x="884" 
d="M836 147l12 -14q-162 -149 -354 -149q-79 0 -139.5 30.5t-97 83t-55 118.5t-18.5 142q0 110 39 216t103.5 186t154 129t185.5 49q114 0 181.5 -52t67.5 -153q0 -89 -60.5 -156t-162.5 -103t-225 -51t-260 -9q-2 -16 -2 -52q-2 -73 15 -136.5t51.5 -113.5t92.5 -79
t132 -29q98 0 185.5 39.5t154.5 103.5zM666 918q-111 0 -210.5 -67t-164 -177t-82.5 -240q134 -6 255 8.5t218 48.5t154 95t57 141q0 94 -58.5 142.5t-168.5 48.5zM852 1145l-223 289l14 12l225 -291z" />
    <glyph glyph-name="eacute" unicode="&#xe9;" horiz-adv-x="884" 
d="M836 147l12 -14q-162 -149 -354 -149q-79 0 -139.5 30.5t-97 83t-55 118.5t-18.5 142q0 110 39 216t103.5 186t154 129t185.5 49q114 0 181.5 -52t67.5 -153q0 -89 -60.5 -156t-162.5 -103t-225 -51t-260 -9q-2 -16 -2 -52q-2 -73 15 -136.5t51.5 -113.5t92.5 -79
t132 -29q98 0 185.5 39.5t154.5 103.5zM666 918q-111 0 -210.5 -67t-164 -177t-82.5 -240q134 -6 255 8.5t218 48.5t154 95t57 141q0 94 -58.5 142.5t-168.5 48.5zM969 1434l-224 -289l-16 10l225 291z" />
    <glyph glyph-name="ecircumflex" unicode="&#xea;" horiz-adv-x="884" 
d="M836 147l12 -14q-162 -149 -354 -149q-79 0 -139.5 30.5t-97 83t-55 118.5t-18.5 142q0 110 39 216t103.5 186t154 129t185.5 49q114 0 181.5 -52t67.5 -153q0 -89 -60.5 -156t-162.5 -103t-225 -51t-260 -9q-2 -16 -2 -52q-2 -73 15 -136.5t51.5 -113.5t92.5 -79
t132 -29q98 0 185.5 39.5t154.5 103.5zM666 918q-111 0 -210.5 -67t-164 -177t-82.5 -240q134 -6 255 8.5t218 48.5t154 95t57 141q0 94 -58.5 142.5t-168.5 48.5zM795 1450l190 -268l-16 -13l-181 256l-272 -256l-12 15l282 266h9z" />
    <glyph glyph-name="edieresis" unicode="&#xeb;" horiz-adv-x="884" 
d="M836 147l12 -14q-162 -149 -354 -149q-79 0 -139.5 30.5t-97 83t-55 118.5t-18.5 142q0 110 39 216t103.5 186t154 129t185.5 49q114 0 181.5 -52t67.5 -153q0 -89 -60.5 -156t-162.5 -103t-225 -51t-260 -9q-2 -16 -2 -52q-2 -73 15 -136.5t51.5 -113.5t92.5 -79
t132 -29q98 0 185.5 39.5t154.5 103.5zM666 918q-111 0 -210.5 -67t-164 -177t-82.5 -240q134 -6 255 8.5t218 48.5t154 95t57 141q0 94 -58.5 142.5t-168.5 48.5zM522 1292q0 9 8.5 17t18.5 8q9 0 16.5 -8t7.5 -17q0 -10 -7.5 -18t-16.5 -8q-11 0 -19 8t-8 18zM961 1292
q0 9 8 17t18 8q9 0 17 -8t8 -17q0 -10 -8 -18t-17 -8q-11 0 -18.5 8t-7.5 18z" />
    <glyph glyph-name="igrave" unicode="&#xec;" horiz-adv-x="395" 
d="M197 0l161 922h21l-162 -922h-20zM444 1145l-223 289l15 12l225 -291z" />
    <glyph glyph-name="iacute" unicode="&#xed;" horiz-adv-x="395" 
d="M197 0l161 922h21l-162 -922h-20zM635 1434l-223 -289l-17 10l226 291z" />
    <glyph glyph-name="icircumflex" unicode="&#xee;" horiz-adv-x="395" 
d="M197 0l161 922h21l-162 -922h-20zM463 1450l190 -268l-16 -13l-180 256l-273 -256l-12 15l283 266h8z" />
    <glyph glyph-name="idieresis" unicode="&#xef;" horiz-adv-x="391" 
d="M197 0l161 922h21l-162 -922h-20zM524 1292q0 10 8 17.5t19 7.5q10 0 17 -8t7 -17q0 -11 -7 -18.5t-17 -7.5q-27 0 -27 26zM291 1292q0 10 7.5 17.5t18.5 7.5q10 0 17.5 -8t7.5 -17q0 -11 -7.5 -18.5t-17.5 -7.5q-26 0 -26 26z" />
    <glyph glyph-name="eth" unicode="&#xf0;" horiz-adv-x="1028" 
d="M492 1110l-7 14l256 162q-127 103 -227 148l10 16q43 -18 88 -46t71 -47.5t75 -58.5l219 142l10 -15l-213 -139q234 -229 234 -627q0 -302 -138 -488.5t-354 -186.5q-83 0 -147.5 32t-104 88.5t-60 129.5t-20.5 159q0 226 131.5 376.5t321.5 150.5q135 0 231 -88.5
t119 -237.5q3 223 -51 392t-180 288zM205 393q0 -174 80.5 -281.5t232.5 -107.5q185 0 307.5 141.5t147.5 380.5q-2 70 -24 135.5t-62 119t-105 86t-145 32.5q-182 0 -307 -143.5t-125 -362.5z" />
    <glyph glyph-name="ntilde" unicode="&#xf1;" horiz-adv-x="999" 
d="M184 0l162 922h21l-72 -410q31 50 65.5 100t86.5 111t102.5 106.5t110 77t112.5 31.5q182 0 182 -211q0 -48 -20 -174l-109 -553h-20l108 547q21 128 21 176q-2 91 -37.5 143t-124.5 52q-52 0 -112 -33t-108 -77.5t-103.5 -112.5t-87.5 -114t-72 -106l-84 -475h-21z
M467 1221l-12 14q103 84 174 84q43 0 81.5 -25t73.5 -50t70 -25q65 0 158 88l14 -15q-99 -94 -172 -94q-32 0 -63 15.5t-52 34.5t-51 34.5t-61 15.5q-66 0 -160 -77z" />
    <glyph glyph-name="ograve" unicode="&#xf2;" horiz-adv-x="966" 
d="M184 365q0 79 15 156.5t50 153.5t86 134t129 93.5t173 35.5q68 0 122.5 -22t88.5 -58t57 -85.5t32 -101t9 -108.5q0 -95 -19 -182t-56.5 -159.5t-91 -126t-127 -83.5t-158.5 -30q-107 0 -178 52t-101.5 135.5t-30.5 195.5zM205 367q0 -169 72 -267t217 -98
q104 0 188 45.5t136.5 123t80 177t27.5 211.5q0 162 -72 260.5t-217 98.5q-89 0 -163 -33.5t-123 -88t-82.5 -127t-48.5 -148.5t-15 -154zM745 1145l-223 289l15 12l225 -291z" />
    <glyph glyph-name="oacute" unicode="&#xf3;" horiz-adv-x="966" 
d="M184 365q0 79 15 156.5t50 153.5t86 134t129 93.5t173 35.5q68 0 122.5 -22t88.5 -58t57 -85.5t32 -101t9 -108.5q0 -95 -19 -182t-56.5 -159.5t-91 -126t-127 -83.5t-158.5 -30q-107 0 -178 52t-101.5 135.5t-30.5 195.5zM205 367q0 -169 72 -267t217 -98
q104 0 188 45.5t136.5 123t80 177t27.5 211.5q0 162 -72 260.5t-217 98.5q-89 0 -163 -33.5t-123 -88t-82.5 -127t-48.5 -148.5t-15 -154zM885 1434l-223 -289l-17 10l225 291z" />
    <glyph glyph-name="ocircumflex" unicode="&#xf4;" horiz-adv-x="966" 
d="M184 365q0 79 15 156.5t50 153.5t86 134t129 93.5t173 35.5q68 0 122.5 -22t88.5 -58t57 -85.5t32 -101t9 -108.5q0 -95 -19 -182t-56.5 -159.5t-91 -126t-127 -83.5t-158.5 -30q-107 0 -178 52t-101.5 135.5t-30.5 195.5zM205 367q0 -169 72 -267t217 -98
q104 0 188 45.5t136.5 123t80 177t27.5 211.5q0 162 -72 260.5t-217 98.5q-89 0 -163 -33.5t-123 -88t-82.5 -127t-48.5 -148.5t-15 -154zM735 1450l191 -268l-17 -13l-180 256l-272 -256l-13 15l283 266h8z" />
    <glyph glyph-name="otilde" unicode="&#xf5;" horiz-adv-x="966" 
d="M184 365q0 79 15 156.5t50 153.5t86 134t129 93.5t173 35.5q68 0 122.5 -22t88.5 -58t57 -85.5t32 -101t9 -108.5q0 -95 -19 -182t-56.5 -159.5t-91 -126t-127 -83.5t-158.5 -30q-107 0 -178 52t-101.5 135.5t-30.5 195.5zM205 367q0 -169 72 -267t217 -98
q104 0 188 45.5t136.5 123t80 177t27.5 211.5q0 162 -72 260.5t-217 98.5q-89 0 -163 -33.5t-123 -88t-82.5 -127t-48.5 -148.5t-15 -154zM422 1221l-12 14q103 84 174 84q43 0 81.5 -25t73.5 -50t70 -25q65 0 158 88l14 -15q-99 -94 -172 -94q-32 0 -63 15.5t-52 34.5
t-51 34.5t-61 15.5q-66 0 -160 -77z" />
    <glyph glyph-name="odieresis" unicode="&#xf6;" horiz-adv-x="966" 
d="M184 365q0 79 15 156.5t50 153.5t86 134t129 93.5t173 35.5q68 0 122.5 -22t88.5 -58t57 -85.5t32 -101t9 -108.5q0 -95 -19 -182t-56.5 -159.5t-91 -126t-127 -83.5t-158.5 -30q-107 0 -178 52t-101.5 135.5t-30.5 195.5zM205 367q0 -169 72 -267t217 -98
q104 0 188 45.5t136.5 123t80 177t27.5 211.5q0 162 -72 260.5t-217 98.5q-89 0 -163 -33.5t-123 -88t-82.5 -127t-48.5 -148.5t-15 -154zM459 1292q0 9 8 17t18 8q9 0 17 -8t8 -17q0 -10 -8 -18t-17 -8q-11 0 -18.5 8t-7.5 18zM897 1292q0 9 8.5 17t18.5 8q9 0 16.5 -8
t7.5 -17q0 -10 -7.5 -18t-16.5 -8q-11 0 -19 8t-8 18z" />
    <glyph glyph-name="divide" unicode="&#xf7;" 
d="M696 1186q0 9 8.5 16.5t18.5 7.5q9 0 17 -7.5t8 -16.5q0 -10 -8 -18.5t-17 -8.5q-11 0 -19 8.5t-8 18.5zM696 291q0 9 8.5 16.5t18.5 7.5q9 0 17 -7.5t8 -16.5q0 -10 -8 -18.5t-17 -8.5q-11 0 -19 8t-8 19zM276 727v21h889v-21h-889z" />
    <glyph glyph-name="oslash" unicode="&#xf8;" horiz-adv-x="966" 
d="M184 365q0 79 15 156.5t50 153.5t86 134t129 93.5t173 35.5q168 0 248 -129l104 113l17 -13l-111 -118q51 -94 51 -228q0 -95 -19 -182t-56.5 -159.5t-91 -126t-127 -83.5t-158.5 -30q-162 0 -240 112l-113 -121l-14 15l115 125q-58 98 -58 252zM205 367q0 -148 51 -240
l614 666q-72 125 -233 125q-89 0 -163 -33.5t-123 -88t-82.5 -127t-48.5 -148.5t-15 -154zM926 559q0 129 -45 215l-613 -663q75 -109 226 -109q104 0 188 45.5t136.5 123t80 177t27.5 211.5z" />
    <glyph glyph-name="ugrave" unicode="&#xf9;" horiz-adv-x="970" 
d="M969 922l-162 -922h-21l72 410q-262 -426 -461 -426q-180 0 -180 211q0 42 21 174l116 553h21l-117 -547q-20 -122 -20 -176q2 -91 36 -143t123 -52q62 0 127.5 39.5t132.5 119t102 128.5t93 137l12 18l84 476h21zM834 1145l-224 289l15 12l225 -291z" />
    <glyph glyph-name="uacute" unicode="&#xfa;" horiz-adv-x="970" 
d="M969 922l-162 -922h-21l72 410q-262 -426 -461 -426q-180 0 -180 211q0 42 21 174l116 553h21l-117 -547q-20 -122 -20 -176q2 -91 36 -143t123 -52q62 0 127.5 39.5t132.5 119t102 128.5t93 137l12 18l84 476h21zM930 1434l-223 -289l-17 10l225 291z" />
    <glyph glyph-name="ucircumflex" unicode="&#xfb;" horiz-adv-x="970" 
d="M969 922l-162 -922h-21l72 410q-262 -426 -461 -426q-180 0 -180 211q0 42 21 174l116 553h21l-117 -547q-20 -122 -20 -176q2 -91 36 -143t123 -52q62 0 127.5 39.5t132.5 119t102 128.5t93 137l12 18l84 476h21zM762 1450l190 -268l-16 -13l-180 256l-273 -256l-12 15
l283 266h8z" />
    <glyph glyph-name="udieresis" unicode="&#xfc;" horiz-adv-x="970" 
d="M969 922l-162 -922h-21l72 410q-262 -426 -461 -426q-180 0 -180 211q0 42 21 174l116 553h21l-117 -547q-20 -122 -20 -176q2 -91 36 -143t123 -52q62 0 127.5 39.5t132.5 119t102 128.5t93 137l12 18l84 476h21zM483 1292q0 9 8.5 17t18.5 8q9 0 17 -8t8 -17
q0 -10 -8 -18t-17 -8q-11 0 -19 8t-8 18zM922 1292q0 9 8 17t18 8q9 0 17 -8t8 -17q0 -10 -8 -18t-17 -8q-10 0 -18 8t-8 18z" />
    <glyph glyph-name="yacute" unicode="&#xfd;" horiz-adv-x="776" 
d="M819 922h23q-90 -302 -169 -519.5t-186 -412.5q-9 -16 -30 -55.5t-31 -57.5t-30.5 -54t-33 -54t-34 -47t-37.5 -44.5t-39 -35t-43.5 -29t-46 -16.5t-51.5 -7q-65 0 -123 37l12 19q53 -35 111 -35q31 0 60 10t52 24t48.5 41t42.5 49t40.5 60t36.5 62t36.5 68t35.5 65
q-122 506 -305 932h22q191 -450 297 -910q101 188 176.5 399t165.5 511zM805 1434l-223 -289l-17 10l226 291z" />
    <glyph glyph-name="thorn" unicode="&#xfe;" horiz-adv-x="1007" 
d="M459 1434l-166 -924q40 67 88.5 132.5t112.5 136.5t134.5 115t131.5 44q53 0 94.5 -20.5t66 -52t40 -75t21 -84t5.5 -83.5q0 -129 -40.5 -246.5t-111.5 -204t-172 -137.5t-217 -51q-122 0 -231 71l-82 -465h-20l325 1844h21zM287 471l-68 -393q108 -74 230 -74
q146 0 265 81.5t186 222t67 308.5q0 63 -10.5 114.5t-33.5 95t-65 68t-100 24.5q-188 0 -471 -447z" />
    <glyph glyph-name="ydieresis" unicode="&#xff;" horiz-adv-x="776" 
d="M819 922h23q-90 -302 -169 -519.5t-186 -412.5q-9 -16 -30 -55.5t-31 -57.5t-30.5 -54t-33 -54t-34 -47t-37.5 -44.5t-39 -35t-43.5 -29t-46 -16.5t-51.5 -7q-65 0 -123 37l12 19q53 -35 111 -35q31 0 60 10t52 24t48.5 41t42.5 49t40.5 60t36.5 62t36.5 68t35.5 65
q-122 506 -305 932h22q191 -450 297 -910q101 188 176.5 399t165.5 511zM311 1292q0 9 8.5 17t18.5 8q9 0 16.5 -8t7.5 -17q0 -10 -7.5 -18t-16.5 -8q-11 0 -19 8t-8 18zM750 1292q0 9 8 17t18 8q9 0 17 -8t8 -17q0 -10 -8 -18t-17 -8q-10 0 -18 8t-8 18z" />
    <glyph glyph-name="Amacron" unicode="&#x100;" horiz-adv-x="1402" 
d="M61 0l893 1450h7l380 -1450h-20l-150 567h-737l-350 -567h-23zM950 1409l-504 -821h719zM684 1618l4 20h602l-4 -20h-602z" />
    <glyph glyph-name="amacron" unicode="&#x101;" horiz-adv-x="966" 
d="M965 885l-146 -885h-20l69 424q-97 -164 -149 -232q-154 -200 -307 -200q-112 0 -170 86.5t-58 224.5q0 139 44 258.5t118.5 201.5t175.5 128.5t213 46.5q118 0 230 -53zM414 12q34 0 66.5 9.5t64 30t58.5 41.5t56.5 56.5t50 60t48.5 68t41.5 65t40 65.5t34.5 57l68 407
q-61 25 -104 35.5t-105 10.5q-105 0 -200.5 -43.5t-168 -121t-116 -193.5t-43.5 -253q0 -132 52 -213.5t157 -81.5zM506 1311l4 20h479l-4 -20h-479z" />
    <glyph glyph-name="Abreve" unicode="&#x102;" horiz-adv-x="1402" 
d="M61 0l893 1450h7l380 -1450h-20l-150 567h-737l-350 -567h-23zM950 1409l-504 -821h719zM698 1708l17 12q37 -67 107.5 -105t160.5 -38q172 0 311 143l13 -12q-59 -64 -143.5 -108t-184.5 -44q-92 0 -168.5 42t-112.5 110z" />
    <glyph glyph-name="abreve" unicode="&#x103;" horiz-adv-x="966" 
d="M965 885l-146 -885h-20l69 424q-97 -164 -149 -232q-154 -200 -307 -200q-112 0 -170 86.5t-58 224.5q0 139 44 258.5t118.5 201.5t175.5 128.5t213 46.5q118 0 230 -53zM414 12q34 0 66.5 9.5t64 30t58.5 41.5t56.5 56.5t50 60t48.5 68t41.5 65t40 65.5t34.5 57l68 407
q-61 25 -104 35.5t-105 10.5q-105 0 -200.5 -43.5t-168 -121t-116 -193.5t-43.5 -253q0 -132 52 -213.5t157 -81.5zM492 1380l16 13q72 -144 227 -144q78 0 143 39.5t128 104.5l12 -13q-139 -151 -283 -151q-169 0 -243 151z" />
    <glyph glyph-name="Aogonek" unicode="&#x104;" horiz-adv-x="1402" 
d="M1257 -371l7 -18q-58 -21 -107 -21q-81 0 -131.5 40.5t-50.5 115.5q0 76 52 139.5t129 97.5t159 37l-144 547h-737l-350 -567h-23l893 1450h7l380 -1450h-20q-117 0 -221.5 -73t-104.5 -179q0 -69 46.5 -103t115.5 -34q52 0 100 18zM950 1409l-504 -821h719z" />
    <glyph glyph-name="aogonek" unicode="&#x105;" horiz-adv-x="966" 
d="M754 -371l6 -18q-58 -21 -107 -21q-81 0 -131.5 40.5t-50.5 115.5q0 76 50 138t124.5 96t155.5 38l67 406q-97 -164 -149 -232q-154 -200 -307 -200q-112 0 -170 86.5t-58 224.5q0 139 44 258.5t118.5 201.5t175.5 128.5t213 46.5q118 0 230 -53l-148 -885
q-117 0 -221 -73t-104 -179q0 -69 46 -103t115 -34q53 0 101 18zM414 12q34 0 66.5 9.5t64 30t58.5 41.5t56.5 56.5t50 60t48.5 68t41.5 65t40 65.5t34.5 57l68 407q-61 25 -104 35.5t-105 10.5q-105 0 -200.5 -43.5t-168 -121t-116 -193.5t-43.5 -253q0 -132 52 -213.5
t157 -81.5z" />
    <glyph glyph-name="Cacute" unicode="&#x106;" horiz-adv-x="1345" 
d="M1337 129l9 -16q-84 -65 -209 -97t-242 -32q-139 0 -259 43.5t-210 125.5t-141.5 208t-51.5 282q0 159 60 305.5t165.5 257.5t262 177.5t338.5 66.5q270 0 420 -117l-13 -14q-159 111 -407 111q-142 0 -270 -42.5t-224.5 -117.5t-167 -173.5t-107 -214t-36.5 -235.5
q0 -152 50.5 -275.5t138 -203t204 -122t250.5 -42.5q256 0 440 125zM1307 1704l-316 -184l-10 14l317 186z" />
    <glyph glyph-name="cacute" unicode="&#x107;" horiz-adv-x="829" 
d="M791 125l12 -14q-148 -127 -307 -127q-144 0 -228 100t-84 266q0 154 66 290t179 217t243 81q99 0 194 -31l-8 -20q-82 31 -186 31q-94 0 -181 -47t-149.5 -124.5t-99.5 -181t-37 -213.5q0 -162 79 -255t212 -93q89 0 155 31t140 90zM954 1434l-223 -289l-16 10l225 291z
" />
    <glyph glyph-name="Ccircumflex" unicode="&#x108;" horiz-adv-x="1345" 
d="M1337 129l9 -16q-84 -65 -209 -97t-242 -32q-139 0 -259 43.5t-210 125.5t-141.5 208t-51.5 282q0 159 60 305.5t165.5 257.5t262 177.5t338.5 66.5q270 0 420 -117l-13 -14q-159 111 -407 111q-142 0 -270 -42.5t-224.5 -117.5t-167 -173.5t-107 -214t-36.5 -235.5
q0 -152 50.5 -275.5t138 -203t204 -122t250.5 -42.5q256 0 440 125zM1116 1720l305 -182l-12 -16l-297 180l-358 -180l-11 16l365 182h8z" />
    <glyph glyph-name="ccircumflex" unicode="&#x109;" horiz-adv-x="829" 
d="M791 125l12 -14q-148 -127 -307 -127q-144 0 -228 100t-84 266q0 154 66 290t179 217t243 81q99 0 194 -31l-8 -20q-82 31 -186 31q-94 0 -181 -47t-149.5 -124.5t-99.5 -181t-37 -213.5q0 -162 79 -255t212 -93q89 0 155 31t140 90zM782 1450l191 -268l-17 -13l-180 256
l-272 -256l-12 15l282 266h8z" />
    <glyph glyph-name="Cdotaccent" unicode="&#x10a;" horiz-adv-x="1345" 
d="M1337 129l9 -16q-84 -65 -209 -97t-242 -32q-139 0 -259 43.5t-210 125.5t-141.5 208t-51.5 282q0 159 60 305.5t165.5 257.5t262 177.5t338.5 66.5q270 0 420 -117l-13 -14q-159 111 -407 111q-142 0 -270 -42.5t-224.5 -117.5t-167 -173.5t-107 -214t-36.5 -235.5
q0 -152 50.5 -275.5t138 -203t204 -122t250.5 -42.5q256 0 440 125zM1036 1618q0 10 8 17t19 7q9 0 16.5 -7t7.5 -17q0 -12 -7.5 -19.5t-16.5 -7.5q-11 0 -19 7.5t-8 19.5z" />
    <glyph glyph-name="cdotaccent" unicode="&#x10b;" horiz-adv-x="829" 
d="M791 125l12 -14q-148 -127 -307 -127q-144 0 -228 100t-84 266q0 154 66 290t179 217t243 81q99 0 194 -31l-8 -20q-82 31 -186 31q-94 0 -181 -47t-149.5 -124.5t-99.5 -181t-37 -213.5q0 -162 79 -255t212 -93q89 0 155 31t140 90zM725 1296q0 9 8.5 17t18.5 8
q9 0 16.5 -8t7.5 -17q0 -10 -7.5 -18t-16.5 -8q-11 0 -19 8t-8 18z" />
    <glyph glyph-name="Ccaron" unicode="&#x10c;" horiz-adv-x="1345" 
d="M1337 129l9 -16q-84 -65 -209 -97t-242 -32q-139 0 -259 43.5t-210 125.5t-141.5 208t-51.5 282q0 159 60 305.5t165.5 257.5t262 177.5t338.5 66.5q270 0 420 -117l-13 -14q-159 111 -407 111q-142 0 -270 -42.5t-224.5 -117.5t-167 -173.5t-107 -214t-36.5 -235.5
q0 -152 50.5 -275.5t138 -203t204 -122t250.5 -42.5q256 0 440 125zM1077 1522l-305 182l12 16l297 -180l359 180l10 -16l-365 -182h-8z" />
    <glyph glyph-name="ccaron" unicode="&#x10d;" horiz-adv-x="829" 
d="M791 125l12 -14q-148 -127 -307 -127q-144 0 -228 100t-84 266q0 154 66 290t179 217t243 81q99 0 194 -31l-8 -20q-82 31 -186 31q-94 0 -181 -47t-149.5 -124.5t-99.5 -181t-37 -213.5q0 -162 79 -255t212 -93q89 0 155 31t140 90zM725 1169l-190 269l16 12l180 -256
l273 256l12 -14l-283 -267h-8z" />
    <glyph glyph-name="Dcaron" unicode="&#x10e;" horiz-adv-x="1503" 
d="M246 0l252 1434h20q54 0 146 3t165 3q181 0 317.5 -46.5t217.5 -130.5t120.5 -191t39.5 -238q0 -134 -37 -257t-115.5 -229t-191 -184t-272 -123t-349.5 -45q-60 0 -155.5 2t-147.5 2h-10zM827 1419q-76 0 -170 -3t-141 -3l-246 -1393l293 -4q187 0 343.5 44.5t265 121.5
t184.5 181.5t111.5 222.5t35.5 245q0 99 -22.5 185t-74 161t-128.5 128t-192 83.5t-259 30.5zM954 1522l-305 182l13 16l296 -180l359 180l10 -16l-364 -182h-9z" />
    <glyph glyph-name="dcaron" unicode="&#x10f;" horiz-adv-x="989" 
d="M805 0l76 434q-100 -169 -157 -242q-155 -200 -306 -200q-113 0 -173.5 87t-60.5 224q0 139 45 258.5t120.5 201.5t177.5 128.5t214 46.5q114 0 220 -53l98 549h20l-254 -1434h-20zM889 477l67 387q-60 29 -105.5 41.5t-111.5 12.5q-105 0 -201.5 -43.5t-170.5 -121
t-118 -193.5t-44 -253q0 -131 54.5 -213t160.5 -82q30 0 61 9.5t57.5 23t56 38.5t51.5 46t49.5 56t45 58.5t43 63t38.5 60t36 59t31 51.5zM1374 1434h21q8 -16 8 -56q0 -77 -41.5 -153.5t-120.5 -110.5l-6 16q71 38 109 107t38 139q0 42 -8 58z" />
    <glyph glyph-name="Dcroat" unicode="&#x110;" horiz-adv-x="1564" 
d="M150 727l4 21h284l123 686h21q54 0 145 3t164 3q152 0 272 -33.5t198 -90t129.5 -136t73 -166.5t21.5 -187q0 -175 -64.5 -326t-184 -263.5t-302.5 -177t-407 -64.5q-64 0 -161.5 2t-148.5 2h-10l127 727h-284zM889 1419q-75 0 -169.5 -3t-141.5 -3l-117 -665h436l-4 -21
h-436l-125 -707l295 -4q179 0 331.5 42t263 117t188.5 176.5t116.5 222t38.5 251.5q0 100 -21.5 185.5t-71.5 162t-126.5 130.5t-193 85t-263.5 31z" />
    <glyph glyph-name="dcroat" unicode="&#x111;" horiz-adv-x="1048" 
d="M805 0l76 434q-100 -169 -157 -242q-155 -200 -306 -200q-113 0 -173.5 87t-60.5 224q0 139 45 258.5t120.5 201.5t177.5 128.5t214 46.5q114 0 220 -53l47 264h-308l5 20h307l47 265h20l-47 -265h246l-4 -20h-246l-203 -1149h-20zM889 477l67 387q-60 29 -105.5 41.5
t-111.5 12.5q-105 0 -201.5 -43.5t-170.5 -121t-118 -193.5t-44 -253q0 -131 54.5 -213t160.5 -82q30 0 61 9.5t57.5 23t56 38.5t51.5 46t49.5 56t45 58.5t43 63t38.5 60t36 59t31 51.5z" />
    <glyph glyph-name="Emacron" unicode="&#x112;" horiz-adv-x="1177" 
d="M246 0l252 1434h768l-2 -21h-748l-119 -672h686l-4 -20h-686l-123 -701h768l-4 -20h-788zM612 1618l4 20h603l-5 -20h-602z" />
    <glyph glyph-name="emacron" unicode="&#x113;" horiz-adv-x="884" 
d="M836 147l12 -14q-162 -149 -354 -149q-79 0 -139.5 30.5t-97 83t-55 118.5t-18.5 142q0 110 39 216t103.5 186t154 129t185.5 49q114 0 181.5 -52t67.5 -153q0 -89 -60.5 -156t-162.5 -103t-225 -51t-260 -9q-2 -16 -2 -52q-2 -73 15 -136.5t51.5 -113.5t92.5 -79
t132 -29q98 0 185.5 39.5t154.5 103.5zM666 918q-111 0 -210.5 -67t-164 -177t-82.5 -240q134 -6 255 8.5t218 48.5t154 95t57 141q0 94 -58.5 142.5t-168.5 48.5zM528 1311l4 20h480l-4 -20h-480z" />
    <glyph glyph-name="Edotaccent" unicode="&#x116;" horiz-adv-x="1177" 
d="M246 0l252 1434h768l-2 -21h-748l-119 -672h686l-4 -20h-686l-123 -701h768l-4 -20h-788zM893 1618q0 10 8 17t19 7q9 0 16.5 -7t7.5 -17q0 -12 -7.5 -19.5t-16.5 -7.5q-11 0 -19 7.5t-8 19.5z" />
    <glyph glyph-name="edotaccent" unicode="&#x117;" horiz-adv-x="884" 
d="M836 147l12 -14q-162 -149 -354 -149q-79 0 -139.5 30.5t-97 83t-55 118.5t-18.5 142q0 110 39 216t103.5 186t154 129t185.5 49q114 0 181.5 -52t67.5 -153q0 -89 -60.5 -156t-162.5 -103t-225 -51t-260 -9q-2 -16 -2 -52q-2 -73 15 -136.5t51.5 -113.5t92.5 -79
t132 -29q98 0 185.5 39.5t154.5 103.5zM666 918q-111 0 -210.5 -67t-164 -177t-82.5 -240q134 -6 255 8.5t218 48.5t154 95t57 141q0 94 -58.5 142.5t-168.5 48.5zM741 1296q0 9 8.5 17t18.5 8q9 0 17 -8t8 -17q0 -10 -8 -18t-17 -8q-11 0 -19 8t-8 18z" />
    <glyph glyph-name="Eogonek" unicode="&#x118;" horiz-adv-x="1177" 
d="M246 0l252 1434h768l-2 -21h-748l-119 -672h686l-4 -20h-686l-123 -701h768l-4 -20q-74 0 -148.5 -31t-126.5 -90.5t-52 -130.5q0 -69 46 -103t115 -34q53 0 101 18l6 -18q-59 -21 -107 -21q-81 0 -131.5 40.5t-50.5 115.5q0 88 66 155.5t163 98.5h-669z" />
    <glyph glyph-name="eogonek" unicode="&#x119;" horiz-adv-x="884" 
d="M686 -371l6 -18q-59 -21 -106 -21q-81 0 -132 40.5t-51 115.5q0 134 195 252q-46 -14 -104 -14q-79 0 -139.5 30.5t-97 83t-55 118.5t-18.5 142q0 110 39 216t103.5 186t154 129t185.5 49q114 0 181.5 -52t67.5 -153q0 -89 -60.5 -156t-162.5 -103t-225 -51t-260 -9
q-2 -16 -2 -52q-2 -73 15 -136.5t51.5 -113.5t92.5 -79t132 -29q98 0 185.5 39.5t154.5 103.5l12 -14q-86 -80 -195 -123q-229 -130 -229 -262q0 -69 46.5 -103t115.5 -34q52 0 100 18zM666 918q-111 0 -210.5 -67t-164 -177t-82.5 -240q134 -6 255 8.5t218 48.5t154 95
t57 141q0 94 -58.5 142.5t-168.5 48.5z" />
    <glyph glyph-name="Ecaron" unicode="&#x11a;" horiz-adv-x="1177" 
d="M246 0l252 1434h768l-2 -21h-748l-119 -672h686l-4 -20h-686l-123 -701h768l-4 -20h-788zM913 1522l-305 182l13 16l297 -180l358 180l10 -16l-364 -182h-9z" />
    <glyph glyph-name="ecaron" unicode="&#x11b;" horiz-adv-x="884" 
d="M836 147l12 -14q-162 -149 -354 -149q-79 0 -139.5 30.5t-97 83t-55 118.5t-18.5 142q0 110 39 216t103.5 186t154 129t185.5 49q114 0 181.5 -52t67.5 -153q0 -89 -60.5 -156t-162.5 -103t-225 -51t-260 -9q-2 -16 -2 -52q-2 -73 15 -136.5t51.5 -113.5t92.5 -79
t132 -29q98 0 185.5 39.5t154.5 103.5zM666 918q-111 0 -210.5 -67t-164 -177t-82.5 -240q134 -6 255 8.5t218 48.5t154 95t57 141q0 94 -58.5 142.5t-168.5 48.5zM709 1169l-191 269l17 12l180 -256l272 256l12 -14l-282 -267h-8z" />
    <glyph glyph-name="Gcircumflex" unicode="&#x11c;" horiz-adv-x="1488" 
d="M965 621l4 20h489l-82 -463q-104 -96 -235.5 -145t-266.5 -49q-188 0 -335 84t-226.5 231.5t-79.5 333.5q0 172 63.5 324t173 260t263 170.5t326.5 62.5q266 0 409 -129l-16 -14q-134 123 -393 123q-135 0 -259 -39t-222.5 -111.5t-171.5 -169.5t-112.5 -219.5
t-39.5 -255.5q0 -183 80.5 -327t222.5 -224t320 -80q133 0 258.5 49t222.5 137l76 431h-469zM1116 1720l305 -182l-12 -16l-297 180l-358 -180l-11 16l365 182h8z" />
    <glyph glyph-name="gcircumflex" unicode="&#x11d;" horiz-adv-x="839" 
d="M0 -178q0 118 93.5 200t250.5 105q-27 34 -27 76q0 67 58 119q-71 31 -111.5 97t-40.5 152q0 97 37 178.5t116.5 135t188.5 53.5q115 0 195 -76l264 76l-2 -20l-248 -72q60 -79 60 -180q0 -163 -95.5 -265t-246.5 -102q-54 0 -101 14q-53 -43 -53 -106q0 -47 29 -76
q46 6 94 6q153 0 247.5 -68.5t94.5 -181.5q0 -147 -122.5 -230t-315.5 -83q-71 0 -133.5 13.5t-116 41t-84.5 77.5t-31 116zM20 -176q0 -62 30.5 -108t81.5 -72t110 -38t125 -12q180 0 297.5 78.5t117.5 212.5q0 106 -91.5 169t-229.5 63q-120 0 -219.5 -34t-160.5 -102
t-61 -157zM244 573q0 -107 66.5 -180.5t183.5 -73.5q144 0 231.5 99.5t87.5 243.5q0 42 -13 84.5t-40.5 82t-78.5 64.5t-118 25q-149 0 -234 -101.5t-85 -243.5zM657 1450l191 -268l-17 -13l-180 256l-272 -256l-12 15l282 266h8z" />
    <glyph glyph-name="Gbreve" unicode="&#x11e;" horiz-adv-x="1488" 
d="M965 621l4 20h489l-82 -463q-104 -96 -235.5 -145t-266.5 -49q-188 0 -335 84t-226.5 231.5t-79.5 333.5q0 172 63.5 324t173 260t263 170.5t326.5 62.5q266 0 409 -129l-16 -14q-134 123 -393 123q-135 0 -259 -39t-222.5 -111.5t-171.5 -169.5t-112.5 -219.5
t-39.5 -255.5q0 -183 80.5 -327t222.5 -224t320 -80q133 0 258.5 49t222.5 137l76 431h-469zM813 1708l16 12q37 -67 108 -105t161 -38q172 0 311 143l12 -12q-59 -64 -143 -108t-184 -44q-92 0 -168.5 42t-112.5 110z" />
    <glyph glyph-name="gbreve" unicode="&#x11f;" horiz-adv-x="839" 
d="M0 -178q0 118 93.5 200t250.5 105q-27 34 -27 76q0 67 58 119q-71 31 -111.5 97t-40.5 152q0 97 37 178.5t116.5 135t188.5 53.5q115 0 195 -76l264 76l-2 -20l-248 -72q60 -79 60 -180q0 -163 -95.5 -265t-246.5 -102q-54 0 -101 14q-53 -43 -53 -106q0 -47 29 -76
q46 6 94 6q153 0 247.5 -68.5t94.5 -181.5q0 -147 -122.5 -230t-315.5 -83q-71 0 -133.5 13.5t-116 41t-84.5 77.5t-31 116zM20 -176q0 -62 30.5 -108t81.5 -72t110 -38t125 -12q180 0 297.5 78.5t117.5 212.5q0 106 -91.5 169t-229.5 63q-120 0 -219.5 -34t-160.5 -102
t-61 -157zM244 573q0 -107 66.5 -180.5t183.5 -73.5q144 0 231.5 99.5t87.5 243.5q0 42 -13 84.5t-40.5 82t-78.5 64.5t-118 25q-149 0 -234 -101.5t-85 -243.5zM383 1380l16 13q72 -144 228 -144q78 0 142.5 39.5t127.5 104.5l12 -13q-139 -151 -282 -151q-170 0 -244 151z
" />
    <glyph glyph-name="Gdotaccent" unicode="&#x120;" horiz-adv-x="1488" 
d="M965 621l4 20h489l-82 -463q-104 -96 -235.5 -145t-266.5 -49q-188 0 -335 84t-226.5 231.5t-79.5 333.5q0 172 63.5 324t173 260t263 170.5t326.5 62.5q266 0 409 -129l-16 -14q-134 123 -393 123q-135 0 -259 -39t-222.5 -111.5t-171.5 -169.5t-112.5 -219.5
t-39.5 -255.5q0 -183 80.5 -327t222.5 -224t320 -80q133 0 258.5 49t222.5 137l76 431h-469zM1057 1618q0 10 7.5 17t18.5 7q9 0 17 -7t8 -17q0 -12 -8 -19.5t-17 -7.5q-11 0 -18.5 7.5t-7.5 19.5z" />
    <glyph glyph-name="gdotaccent" unicode="&#x121;" horiz-adv-x="839" 
d="M0 -178q0 118 93.5 200t250.5 105q-27 34 -27 76q0 67 58 119q-71 31 -111.5 97t-40.5 152q0 97 37 178.5t116.5 135t188.5 53.5q115 0 195 -76l264 76l-2 -20l-248 -72q60 -79 60 -180q0 -163 -95.5 -265t-246.5 -102q-54 0 -101 14q-53 -43 -53 -106q0 -47 29 -76
q46 6 94 6q153 0 247.5 -68.5t94.5 -181.5q0 -147 -122.5 -230t-315.5 -83q-71 0 -133.5 13.5t-116 41t-84.5 77.5t-31 116zM20 -176q0 -62 30.5 -108t81.5 -72t110 -38t125 -12q180 0 297.5 78.5t117.5 212.5q0 106 -91.5 169t-229.5 63q-120 0 -219.5 -34t-160.5 -102
t-61 -157zM244 573q0 -107 66.5 -180.5t183.5 -73.5q144 0 231.5 99.5t87.5 243.5q0 42 -13 84.5t-40.5 82t-78.5 64.5t-118 25q-149 0 -234 -101.5t-85 -243.5zM625 1296q0 9 8 17t18 8q9 0 17 -8t8 -17q0 -10 -8 -18t-17 -8q-11 0 -18.5 8t-7.5 18z" />
    <glyph glyph-name="uni0122" unicode="&#x122;" horiz-adv-x="1488" 
d="M965 621l4 20h489l-82 -463q-104 -96 -235.5 -145t-266.5 -49q-188 0 -335 84t-226.5 231.5t-79.5 333.5q0 172 63.5 324t173 260t263 170.5t326.5 62.5q266 0 409 -129l-16 -14q-134 123 -393 123q-135 0 -259 -39t-222.5 -111.5t-171.5 -169.5t-112.5 -219.5
t-39.5 -255.5q0 -183 80.5 -327t222.5 -224t320 -80q133 0 258.5 49t222.5 137l76 431h-469zM829 -164l7 21q37 -6 55 -31t18 -62q0 -125 -149 -174l-4 17q133 46 133 157q0 63 -60 72z" />
    <glyph glyph-name="uni0123" unicode="&#x123;" horiz-adv-x="839" 
d="M0 -178q0 118 93.5 200t250.5 105q-27 34 -27 76q0 67 58 119q-71 31 -111.5 97t-40.5 152q0 97 37 178.5t116.5 135t188.5 53.5q115 0 195 -76l264 76l-2 -20l-248 -72q60 -79 60 -180q0 -163 -95.5 -265t-246.5 -102q-54 0 -101 14q-53 -43 -53 -106q0 -47 29 -76
q46 6 94 6q153 0 247.5 -68.5t94.5 -181.5q0 -147 -122.5 -230t-315.5 -83q-71 0 -133.5 13.5t-116 41t-84.5 77.5t-31 116zM20 -176q0 -62 30.5 -108t81.5 -72t110 -38t125 -12q180 0 297.5 78.5t117.5 212.5q0 106 -91.5 169t-229.5 63q-120 0 -219.5 -34t-160.5 -102
t-61 -157zM244 573q0 -107 66.5 -180.5t183.5 -73.5q144 0 231.5 99.5t87.5 243.5q0 42 -13 84.5t-40.5 82t-78.5 64.5t-118 25q-149 0 -234 -101.5t-85 -243.5zM635 1182l-6 -21q-74 12 -74 92q0 125 150 174l4 -16q-134 -46 -134 -158q0 -62 60 -71z" />
    <glyph glyph-name="Hcircumflex" unicode="&#x124;" horiz-adv-x="1566" 
d="M1300 0l127 721h-1034l-127 -721h-20l252 1434h20l-121 -693h1035l120 693h21l-252 -1434h-21zM1085 1720l306 -182l-13 -16l-297 180l-358 -180l-10 16l364 182h8z" />
    <glyph glyph-name="hcircumflex" unicode="&#x125;" horiz-adv-x="985" 
d="M184 0l252 1434h21l-162 -922q262 426 465 426q180 0 180 -211q0 -48 -20 -174l-109 -553h-20l108 547q21 128 21 176q-2 91 -36.5 143t-123.5 52q-38 0 -79.5 -18t-75.5 -41.5t-77 -68.5t-68.5 -75t-66.5 -87t-55 -79t-49 -74l-84 -475h-21zM645 1720l305 -182l-12 -16
l-297 180l-358 -180l-11 16l365 182h8z" />
    <glyph glyph-name="Hbar" unicode="&#x126;" horiz-adv-x="1607" 
d="M254 1090l4 20h195l57 324h20l-57 -324h1055l57 324h21l-58 -324h195l-4 -20h-195l-192 -1090h-21l127 721h-1055l-127 -721h-20l193 1090h-195zM408 741h1054l62 349h-1055z" />
    <glyph glyph-name="hbar" unicode="&#x127;" horiz-adv-x="985" 
d="M184 0l197 1126h-285l4 21h285l51 287h21l-51 -287h389l-4 -21h-390l-106 -614q262 426 465 426q180 0 180 -211q0 -48 -20 -174l-109 -553h-20l108 547q21 128 21 176q-2 91 -36.5 143t-123.5 52q-38 0 -79.5 -18t-75.5 -41.5t-77 -68.5t-68.5 -75t-66.5 -87t-55 -79
t-49 -74l-84 -475h-21z" />
    <glyph glyph-name="Imacron" unicode="&#x12a;" horiz-adv-x="552" 
d="M287 0l252 1434h20l-252 -1434h-20zM281 1618l4 20h602l-4 -20h-602z" />
    <glyph glyph-name="imacron" unicode="&#x12b;" horiz-adv-x="395" 
d="M197 0l161 922h21l-162 -922h-20zM197 1311l4 20h479l-4 -20h-479z" />
    <glyph glyph-name="Iogonek" unicode="&#x12e;" horiz-adv-x="591" 
d="M240 -371l6 -18q-58 -21 -107 -21q-81 0 -131.5 40.5t-50.5 115.5t50.5 137.5t125.5 96.5t156 38l250 1416h20l-252 -1434h-14q-73 -2 -145 -34t-121.5 -90.5t-49.5 -127.5t46.5 -103t115.5 -34q53 0 101 18z" />
    <glyph glyph-name="iogonek" unicode="&#x12f;" horiz-adv-x="444" 
d="M199 -371l6 -18q-59 -21 -107 -21q-81 0 -131.5 40.5t-50.5 115.5t50.5 137.5t125.5 96.5t156 38l160 904h20l-162 -922h-2q-74 0 -148.5 -31t-126.5 -90.5t-52 -130.5q0 -69 46 -103t115 -34q53 0 101 18zM457 1296q0 9 8 17t18 8q9 0 17 -8t8 -17q0 -10 -8 -18t-17 -8
q-11 0 -18.5 8t-7.5 18z" />
    <glyph glyph-name="Idotaccent" unicode="&#x130;" horiz-adv-x="552" 
d="M287 0l252 1434h20l-252 -1434h-20zM557 1618q0 10 8 17t19 7q9 0 16.5 -7t7.5 -17q0 -12 -7.5 -19.5t-16.5 -7.5q-11 0 -19 7.5t-8 19.5z" />
    <glyph glyph-name="dotlessi" unicode="&#x131;" horiz-adv-x="395" 
d="M197 0l161 922h21l-162 -922h-20z" />
    <glyph glyph-name="Jcircumflex" unicode="&#x134;" horiz-adv-x="700" 
d="M707 1434l-201 -1133q-27 -153 -95 -235t-202 -82q-97 0 -162 51l14 16q66 -47 150 -47q69 0 119.5 24.5t80.5 70t46 91.5t28 109l201 1135h21zM750 1720l305 -182l-13 -16l-297 180l-358 -180l-10 16l364 182h9z" />
    <glyph glyph-name="jcircumflex" unicode="&#x135;" horiz-adv-x="395" 
d="M379 922l-174 -990q-10 -56 -22 -100.5t-35 -95t-53 -84t-76.5 -56t-104.5 -22.5q-84 0 -141 43l12 16q58 -39 131 -39q52 0 95 21.5t70.5 53.5t49 79.5t33 89t20.5 92.5l174 992h21zM467 1450l190 -268l-16 -13l-180 256l-273 -256l-12 15l283 266h8z" />
    <glyph glyph-name="uni0136" unicode="&#x136;" horiz-adv-x="1257" 
d="M1409 1434l-866 -689l628 -745h-26l-631 748l862 686h33zM246 0l252 1434h20l-252 -1434h-20zM606 -164l6 21q74 -12 74 -93q0 -125 -149 -174l-5 17q134 46 134 157q0 63 -60 72z" />
    <glyph glyph-name="uni0137" unicode="&#x137;" horiz-adv-x="821" 
d="M958 922l-542 -445l420 -477h-29l-422 481l541 441h32zM184 0l252 1434h21l-252 -1434h-21zM449 -164l6 21q37 -6 55 -31t18 -62q0 -125 -149 -174l-4 17q133 46 133 157q0 63 -59 72z" />
    <glyph glyph-name="Lacute" unicode="&#x139;" horiz-adv-x="1136" 
d="M246 0l252 1434h20l-248 -1414h830l-4 -20h-850zM1122 1704l-315 -184l-10 14l317 186z" />
    <glyph glyph-name="lacute" unicode="&#x13a;" horiz-adv-x="501" 
d="M227 246l209 1188h21l-207 -1176q-10 -55 -10 -102q-3 -142 122 -142q63 0 123 37l9 -18q-67 -39 -134 -39q-141 0 -141 158q0 53 8 94zM778 1704l-315 -184l-10 14l317 186z" />
    <glyph glyph-name="uni013B" unicode="&#x13b;" horiz-adv-x="1136" 
d="M246 0l252 1434h20l-248 -1414h830l-4 -20h-850zM618 -164l7 21q37 -6 55 -31t18 -62q0 -125 -149 -174l-4 17q133 46 133 157q0 63 -60 72z" />
    <glyph glyph-name="uni013C" unicode="&#x13c;" horiz-adv-x="501" 
d="M227 246l209 1188h21l-207 -1176q-10 -55 -10 -102q-3 -142 122 -142q63 0 123 37l9 -18q-67 -39 -134 -39q-141 0 -141 158q0 53 8 94zM293 -164l6 21q74 -12 74 -93q0 -124 -150 -174l-4 17q133 46 133 157q0 63 -59 72z" />
    <glyph glyph-name="Lcaron" unicode="&#x13d;" horiz-adv-x="1136" 
d="M246 0l252 1434h20l-248 -1414h830l-4 -20h-850zM1079 1434h21q8 -16 8 -56q0 -77 -41.5 -153.5t-120.5 -110.5l-6 16q71 38 109 107t38 139q0 42 -8 58z" />
    <glyph glyph-name="lcaron" unicode="&#x13e;" horiz-adv-x="555" 
d="M227 246l209 1188h21l-207 -1176q-10 -55 -10 -102q-3 -142 122 -142q63 0 123 37l9 -18q-67 -39 -134 -39q-141 0 -141 158q0 53 8 94zM758 1434h20q8 -16 8 -56q0 -49 -16 -98.5t-53.5 -96t-91.5 -69.5l-7 16q71 38 109.5 107t38.5 139q0 42 -8 58z" />
    <glyph glyph-name="Ldot" unicode="&#x13f;" horiz-adv-x="1136" 
d="M246 0l252 1434h20l-248 -1414h830l-4 -20h-850zM938 764q0 9 8.5 16.5t18.5 7.5q9 0 16.5 -7.5t7.5 -16.5q0 -10 -7.5 -18.5t-16.5 -8.5q-11 0 -19 8.5t-8 18.5z" />
    <glyph glyph-name="ldot" unicode="&#x140;" horiz-adv-x="555" 
d="M227 246l209 1188h21l-207 -1176q-10 -55 -10 -102q-3 -142 122 -142q63 0 123 37l9 -18q-67 -39 -134 -39q-141 0 -141 158q0 53 8 94zM563 618q0 9 8.5 17t18.5 8q9 0 16.5 -8t7.5 -17q0 -10 -7.5 -18t-16.5 -8q-11 0 -19 8t-8 18z" />
    <glyph glyph-name="Lslash" unicode="&#x141;" horiz-adv-x="1157" 
d="M152 510l4 25l223 108l139 791h21l-138 -779l457 224l-2 -23l-459 -225l-106 -611h829l-4 -20h-850l109 618z" />
    <glyph glyph-name="lslash" unicode="&#x142;" horiz-adv-x="559" 
d="M268 246l68 391l-201 -100l4 24l201 98l137 775h21l-136 -762l238 116l-2 -22l-240 -119l-67 -389q-10 -55 -10 -102q-3 -142 122 -142q63 0 123 37l9 -18q-67 -39 -134 -39q-141 0 -141 158q0 53 8 94z" />
    <glyph glyph-name="Nacute" unicode="&#x143;" horiz-adv-x="1638" 
d="M1393 0h-17l-864 1397l-246 -1397h-20l252 1434h16l864 -1399l246 1399h21zM1368 1704l-315 -184l-11 14l318 186z" />
    <glyph glyph-name="nacute" unicode="&#x144;" horiz-adv-x="999" 
d="M184 0l162 922h21l-72 -410q31 50 65.5 100t86.5 111t102.5 106.5t110 77t112.5 31.5q182 0 182 -211q0 -48 -20 -174l-109 -553h-20l108 547q21 128 21 176q-2 91 -37.5 143t-124.5 52q-52 0 -112 -33t-108 -77.5t-103.5 -112.5t-87.5 -114t-72 -106l-84 -475h-21z
M952 1434l-223 -289l-16 10l225 291z" />
    <glyph glyph-name="uni0145" unicode="&#x145;" horiz-adv-x="1638" 
d="M1393 0h-17l-864 1397l-246 -1397h-20l252 1434h16l864 -1399l246 1399h21zM743 -164l7 21q37 -6 55 -31t18 -62q0 -125 -149 -174l-4 17q133 46 133 157q0 63 -60 72z" />
    <glyph glyph-name="uni0146" unicode="&#x146;" horiz-adv-x="999" 
d="M184 0l162 922h21l-72 -410q31 50 65.5 100t86.5 111t102.5 106.5t110 77t112.5 31.5q182 0 182 -211q0 -48 -20 -174l-109 -553h-20l108 547q21 128 21 176q-2 91 -37.5 143t-124.5 52q-52 0 -112 -33t-108 -77.5t-103.5 -112.5t-87.5 -114t-72 -106l-84 -475h-21z
M485 -164l7 21q37 -6 55 -31t18 -62q0 -125 -149 -174l-4 17q133 46 133 157q0 63 -60 72z" />
    <glyph glyph-name="Ncaron" unicode="&#x147;" horiz-adv-x="1638" 
d="M1393 0h-17l-864 1397l-246 -1397h-20l252 1434h16l864 -1399l246 1399h21zM1081 1522l-305 182l12 16l297 -180l359 180l10 -16l-364 -182h-9z" />
    <glyph glyph-name="ncaron" unicode="&#x148;" horiz-adv-x="999" 
d="M184 0l162 922h21l-72 -410q31 50 65.5 100t86.5 111t102.5 106.5t110 77t112.5 31.5q182 0 182 -211q0 -48 -20 -174l-109 -553h-20l108 547q21 128 21 176q-2 91 -37.5 143t-124.5 52q-52 0 -112 -33t-108 -77.5t-103.5 -112.5t-87.5 -114t-72 -106l-84 -475h-21z
M719 1169l-191 269l17 12l180 -256l272 256l13 -14l-283 -267h-8z" />
    <glyph glyph-name="Eng" unicode="&#x14a;" horiz-adv-x="1638" 
d="M1645 1434l-271 -1545q-27 -152 -96 -233.5t-203 -81.5q-97 0 -162 51l15 17q68 -48 149 -48q56 0 100.5 17t73 43.5t50 67t33 79t20.5 86.5l20 113l-862 1397l-246 -1397h-20l252 1434h16l864 -1405l246 1405h21z" />
    <glyph glyph-name="eng" unicode="&#x14b;" horiz-adv-x="999" 
d="M528 -406q52 0 95 21.5t70 53.5t49 80t33.5 89t21.5 92l116 617q21 128 21 176q-2 91 -37.5 143t-124.5 52q-52 0 -112 -33t-108 -77.5t-103.5 -112.5t-87.5 -114t-72 -106l-84 -475h-21l162 922h21l-72 -410q31 50 65.5 100t86.5 111t102.5 106.5t110 77t112.5 31.5
q182 0 182 -211q0 -48 -20 -174l-117 -621q-11 -57 -23 -100.5t-35 -94.5t-52.5 -84.5t-76 -56t-104.5 -22.5q-78 0 -135 43l6 16q58 -39 131 -39z" />
    <glyph glyph-name="Omacron" unicode="&#x14c;" horiz-adv-x="1646" 
d="M238 645q0 174 59.5 324t163 255.5t246.5 165.5t305 60q154 0 277.5 -47t205 -132.5t125 -204t43.5 -261.5q0 -175 -57 -327.5t-157.5 -261t-244 -170.5t-309.5 -62q-318 0 -487.5 178t-169.5 483zM258 647q0 -300 167.5 -471.5t471.5 -171.5q154 0 290.5 58t237 160
t159 252t58.5 325q0 288 -167.5 459.5t-464.5 171.5q-152 0 -289.5 -57t-240 -157.5t-162.5 -248.5t-60 -320zM801 1618l4 20h602l-4 -20h-602z" />
    <glyph glyph-name="omacron" unicode="&#x14d;" horiz-adv-x="966" 
d="M184 365q0 79 15 156.5t50 153.5t86 134t129 93.5t173 35.5q68 0 122.5 -22t88.5 -58t57 -85.5t32 -101t9 -108.5q0 -95 -19 -182t-56.5 -159.5t-91 -126t-127 -83.5t-158.5 -30q-107 0 -178 52t-101.5 135.5t-30.5 195.5zM205 367q0 -169 72 -267t217 -98
q104 0 188 45.5t136.5 123t80 177t27.5 211.5q0 162 -72 260.5t-217 98.5q-89 0 -163 -33.5t-123 -88t-82.5 -127t-48.5 -148.5t-15 -154zM471 1311l4 20h479l-4 -20h-479z" />
    <glyph glyph-name="Ohungarumlaut" unicode="&#x150;" horiz-adv-x="1646" 
d="M238 645q0 174 59.5 324t163 255.5t246.5 165.5t305 60q154 0 277.5 -47t205 -132.5t125 -204t43.5 -261.5q0 -175 -57 -327.5t-157.5 -261t-244 -170.5t-309.5 -62q-318 0 -487.5 178t-169.5 483zM258 647q0 -300 167.5 -471.5t471.5 -171.5q154 0 290.5 58t237 160
t159 252t58.5 325q0 288 -167.5 459.5t-464.5 171.5q-152 0 -289.5 -57t-240 -157.5t-162.5 -248.5t-60 -320zM1573 1704l-316 -184l-10 14l318 186zM1225 1704l-316 -184l-10 14l318 186z" />
    <glyph glyph-name="ohungarumlaut" unicode="&#x151;" horiz-adv-x="966" 
d="M184 365q0 79 15 156.5t50 153.5t86 134t129 93.5t173 35.5q68 0 122.5 -22t88.5 -58t57 -85.5t32 -101t9 -108.5q0 -95 -19 -182t-56.5 -159.5t-91 -126t-127 -83.5t-158.5 -30q-107 0 -178 52t-101.5 135.5t-30.5 195.5zM205 367q0 -169 72 -267t217 -98
q104 0 188 45.5t136.5 123t80 177t27.5 211.5q0 162 -72 260.5t-217 98.5q-89 0 -163 -33.5t-123 -88t-82.5 -127t-48.5 -148.5t-15 -154zM1055 1434l-224 -289l-16 10l225 291zM768 1434l-223 -289l-17 10l226 291z" />
    <glyph glyph-name="OE" unicode="&#x152;" horiz-adv-x="2150" 
d="M1219 0l16 100q-179 -116 -381 -116q-195 0 -335 84t-210.5 232t-70.5 345q0 232 101.5 416t281 286.5t403.5 102.5q266 0 430 -117l16 101h768l-4 -21h-747l-119 -672h686l-2 -20h-686l-125 -701h768l-2 -20h-788zM858 4q188 0 383 125l207 1180q-161 121 -424 121
q-164 0 -306.5 -59t-243.5 -162t-158.5 -247.5t-57.5 -310.5q0 -192 67.5 -336.5t204.5 -227.5t328 -83z" />
    <glyph glyph-name="oe" unicode="&#x153;" horiz-adv-x="1519" 
d="M1470 147l13 -14q-162 -149 -355 -149q-106 0 -177 52.5t-103 143.5q-59 -94 -149 -146t-205 -52q-107 0 -178 52t-101.5 135.5t-30.5 195.5q0 79 15 156.5t50 153.5t86 134t129 93.5t173 35.5q225 0 289 -227q70 105 167.5 166t206.5 61q115 0 182.5 -52t67.5 -153
q0 -89 -60.5 -156t-162.5 -103t-225 -51t-260 -9q-2 -16 -2 -52q-2 -73 15 -136.5t51.5 -113.5t92 -79t131.5 -29q98 0 185.5 39.5t154.5 103.5zM494 2q226 0 346 205q-21 71 -21 151q0 175 92 330q-25 107 -92.5 168.5t-181.5 61.5q-89 0 -163 -33.5t-123 -88t-82.5 -127
t-48.5 -148.5t-15 -154q0 -169 72 -267t217 -98zM1300 918q-111 0 -210.5 -67t-163.5 -177t-82 -240q134 -6 255 8.5t218 48.5t154 95t57 141q0 94 -59 142.5t-169 48.5z" />
    <glyph glyph-name="Racute" unicode="&#x154;" horiz-adv-x="1243" 
d="M266 0h-20l252 1434q44 0 158.5 2t136.5 2q417 0 417 -322q0 -187 -121 -312.5t-335 -156.5l420 -647h-23l-418 645h-352zM788 1417q-136 0 -272 -4l-133 -747h303q133 0 246 51.5t185.5 155.5t72.5 241q0 303 -402 303zM1040 1704l-315 -184l-10 14l317 186z" />
    <glyph glyph-name="racute" unicode="&#x155;" horiz-adv-x="614" 
d="M184 0l162 922h21l-66 -375q32 65 74.5 129.5t93.5 125t108 98.5t107 38q55 0 94 -20l-10 -19q-42 19 -86 19q-41 0 -88 -29.5t-84.5 -69t-82.5 -102.5t-71.5 -107t-62.5 -106l-88 -504h-21zM811 1434l-223 -289l-17 10l226 291z" />
    <glyph glyph-name="uni0156" unicode="&#x156;" horiz-adv-x="1243" 
d="M266 0h-20l252 1434q44 0 158.5 2t136.5 2q417 0 417 -322q0 -187 -121 -312.5t-335 -156.5l420 -647h-23l-418 645h-352zM788 1417q-136 0 -272 -4l-133 -747h303q133 0 246 51.5t185.5 155.5t72.5 241q0 303 -402 303zM623 -164l6 21q37 -6 55 -31t18 -62
q0 -125 -149 -174l-4 17q133 46 133 157q0 63 -59 72z" />
    <glyph glyph-name="uni0157" unicode="&#x157;" horiz-adv-x="614" 
d="M184 0l162 922h21l-66 -375q32 65 74.5 129.5t93.5 125t108 98.5t107 38q55 0 94 -20l-10 -19q-42 19 -86 19q-41 0 -88 -29.5t-84.5 -69t-82.5 -102.5t-71.5 -107t-62.5 -106l-88 -504h-21zM162 -164l6 21q74 -12 74 -93q0 -124 -150 -174l-4 17q133 46 133 157
q0 63 -59 72z" />
    <glyph glyph-name="Rcaron" unicode="&#x158;" horiz-adv-x="1243" 
d="M266 0h-20l252 1434q44 0 158.5 2t136.5 2q417 0 417 -322q0 -187 -121 -312.5t-335 -156.5l420 -647h-23l-418 645h-352zM788 1417q-136 0 -272 -4l-133 -747h303q133 0 246 51.5t185.5 155.5t72.5 241q0 303 -402 303zM811 1522l-305 182l12 16l297 -180l359 180
l10 -16l-365 -182h-8z" />
    <glyph glyph-name="rcaron" unicode="&#x159;" horiz-adv-x="614" 
d="M184 0l162 922h21l-66 -375q32 65 74.5 129.5t93.5 125t108 98.5t107 38q55 0 94 -20l-10 -19q-42 19 -86 19q-41 0 -88 -29.5t-84.5 -69t-82.5 -102.5t-71.5 -107t-62.5 -106l-88 -504h-21zM586 1169l-191 269l17 12l180 -256l272 256l13 -14l-283 -267h-8z" />
    <glyph glyph-name="Sacute" unicode="&#x15a;" horiz-adv-x="1116" 
d="M1040 379q0 59 -24 108t-64.5 84t-92.5 65t-110 56t-116 52.5t-110 59t-92.5 71t-64.5 92.5t-24 120q0 154 123 258.5t338 104.5q113 0 206.5 -38.5t147.5 -102.5l-14 -17q-59 66 -147.5 102t-194.5 36q-200 0 -318 -94t-118 -249q0 -78 38.5 -140t100 -102.5t135.5 -76
t148 -70.5t135.5 -75t100 -100.5t38.5 -137.5q0 -125 -60 -217.5t-159.5 -138t-225.5 -45.5q-149 0 -264.5 57.5t-169.5 159.5l17 12q54 -95 160.5 -152t256.5 -57q63 0 123 13.5t115 43.5t96 73t65.5 106.5t24.5 138.5zM1071 1704l-315 -184l-11 14l318 186z" />
    <glyph glyph-name="sacute" unicode="&#x15b;" horiz-adv-x="641" 
d="M596 225q0 50 -20 90t-52.5 67t-71 51.5t-77.5 50t-71.5 54.5t-52.5 72t-20 97q0 97 73.5 164t205.5 67q152 0 233 -51l-12 -19q-85 50 -221 50q-118 0 -188 -57.5t-70 -151.5q0 -51 20 -91.5t52 -68.5t71 -52.5t78 -49.5t71 -53.5t52 -70t20 -92.5q0 -112 -80 -179.5
t-212 -67.5q-154 0 -258 69l12 19q112 -68 248 -68q110 0 190 60.5t80 160.5zM754 1434l-224 -289l-16 10l225 291z" />
    <glyph glyph-name="Scircumflex" unicode="&#x15c;" horiz-adv-x="1116" 
d="M1040 379q0 59 -24 108t-64.5 84t-92.5 65t-110 56t-116 52.5t-110 59t-92.5 71t-64.5 92.5t-24 120q0 154 123 258.5t338 104.5q113 0 206.5 -38.5t147.5 -102.5l-14 -17q-59 66 -147.5 102t-194.5 36q-200 0 -318 -94t-118 -249q0 -78 38.5 -140t100 -102.5t135.5 -76
t148 -70.5t135.5 -75t100 -100.5t38.5 -137.5q0 -125 -60 -217.5t-159.5 -138t-225.5 -45.5q-149 0 -264.5 57.5t-169.5 159.5l17 12q54 -95 160.5 -152t256.5 -57q63 0 123 13.5t115 43.5t96 73t65.5 106.5t24.5 138.5zM848 1720l305 -182l-12 -16l-297 180l-359 -180
l-10 16l365 182h8z" />
    <glyph glyph-name="scircumflex" unicode="&#x15d;" horiz-adv-x="641" 
d="M596 225q0 50 -20 90t-52.5 67t-71 51.5t-77.5 50t-71.5 54.5t-52.5 72t-20 97q0 97 73.5 164t205.5 67q152 0 233 -51l-12 -19q-85 50 -221 50q-118 0 -188 -57.5t-70 -151.5q0 -51 20 -91.5t52 -68.5t71 -52.5t78 -49.5t71 -53.5t52 -70t20 -92.5q0 -112 -80 -179.5
t-212 -67.5q-154 0 -258 69l12 19q112 -68 248 -68q110 0 190 60.5t80 160.5zM608 1450l191 -268l-17 -13l-180 256l-272 -256l-13 15l283 266h8z" />
    <glyph glyph-name="Scedilla" unicode="&#x15e;" horiz-adv-x="1116" 
d="M381 -369l12 19q61 -39 144 -39q90 0 149 38.5t59 104.5q0 103 -165 103h-13l23 127q-140 6 -249 63t-159 154l17 12q54 -95 160.5 -152t256.5 -57q63 0 123 13.5t115 43.5t96 73t65.5 106.5t24.5 138.5q0 59 -24 108t-64.5 84t-92.5 65t-110 56t-116 52.5t-110 59
t-92.5 71t-64.5 92.5t-24 120q0 154 123 258.5t338 104.5q113 0 206.5 -38.5t147.5 -102.5l-14 -17q-59 66 -147.5 102t-194.5 36q-200 0 -318 -94t-118 -249q0 -78 38.5 -140t100 -102.5t135.5 -76t148 -70.5t135.5 -75t100 -100.5t38.5 -137.5q0 -125 -60 -217.5
t-159.5 -138t-225.5 -45.5h-6l-18 -107q86 -1 130 -33t44 -86q0 -75 -65.5 -121.5t-168.5 -46.5q-80 0 -151 41z" />
    <glyph glyph-name="scedilla" unicode="&#x15f;" horiz-adv-x="641" 
d="M88 -369l10 19q62 -39 146 -39q90 0 149.5 38.5t59.5 104.5q0 103 -166 103h-13l23 127q-136 6 -231 69l12 19q112 -68 248 -68q110 0 190 60.5t80 160.5q0 50 -20 90t-52.5 67t-71 51.5t-77.5 50t-71.5 54.5t-52.5 72t-20 97q0 97 73.5 164t205.5 67q152 0 233 -51
l-12 -19q-85 50 -221 50q-118 0 -188 -57.5t-70 -151.5q0 -51 20 -91.5t52 -68.5t71 -52.5t78 -49.5t71 -53.5t52 -70t20 -92.5q0 -112 -80 -179.5t-212 -67.5h-7l-18 -107q93 -4 133.5 -35t40.5 -88q0 -72 -65 -118t-168 -46q-81 0 -152 41z" />
    <glyph glyph-name="Scaron" unicode="&#x160;" horiz-adv-x="1116" 
d="M1040 379q0 59 -24 108t-64.5 84t-92.5 65t-110 56t-116 52.5t-110 59t-92.5 71t-64.5 92.5t-24 120q0 154 123 258.5t338 104.5q113 0 206.5 -38.5t147.5 -102.5l-14 -17q-59 66 -147.5 102t-194.5 36q-200 0 -318 -94t-118 -249q0 -78 38.5 -140t100 -102.5t135.5 -76
t148 -70.5t135.5 -75t100 -100.5t38.5 -137.5q0 -125 -60 -217.5t-159.5 -138t-225.5 -45.5q-149 0 -264.5 57.5t-169.5 159.5l17 12q54 -95 160.5 -152t256.5 -57q63 0 123 13.5t115 43.5t96 73t65.5 106.5t24.5 138.5zM821 1522l-305 182l12 16l297 -180l359 180l10 -16
l-365 -182h-8z" />
    <glyph glyph-name="scaron" unicode="&#x161;" horiz-adv-x="641" 
d="M596 225q0 50 -20 90t-52.5 67t-71 51.5t-77.5 50t-71.5 54.5t-52.5 72t-20 97q0 97 73.5 164t205.5 67q152 0 233 -51l-12 -19q-85 50 -221 50q-118 0 -188 -57.5t-70 -151.5q0 -51 20 -91.5t52 -68.5t71 -52.5t78 -49.5t71 -53.5t52 -70t20 -92.5q0 -112 -80 -179.5
t-212 -67.5q-154 0 -258 69l12 19q112 -68 248 -68q110 0 190 60.5t80 160.5zM522 1169l-190 269l16 12l180 -256l273 256l12 -14l-283 -267h-8z" />
    <glyph glyph-name="uni0162" unicode="&#x162;" horiz-adv-x="1208" 
d="M383 -369l12 19q61 -39 144 -39q89 0 149 38.5t60 104.5q0 103 -166 103h-13l275 1556h-574l4 21h1168l-4 -21h-574l-270 -1536q174 -3 174 -123q0 -71 -65.5 -117.5t-167.5 -46.5q-78 0 -152 41z" />
    <glyph glyph-name="uni0163" unicode="&#x163;" horiz-adv-x="600" 
d="M147 -369l11 19q62 -39 145 -39q90 0 149.5 38.5t59.5 104.5q0 103 -166 103h-12l26 143q-129 39 -129 223q0 43 13 127l147 828h21l-47 -256h346l-2 -21h-347l-94 -532q-16 -90 -16 -144q-1 -105 45.5 -159t136.5 -54q73 0 150 47l10 -16q-77 -51 -162 -51q-30 0 -51 6
l-23 -121q93 -4 133.5 -35t40.5 -88q0 -72 -65 -118t-168 -46q-81 0 -152 41z" />
    <glyph glyph-name="Tcaron" unicode="&#x164;" horiz-adv-x="1232" 
d="M270 1413l4 21h1168l-4 -21h-574l-250 -1413h-20l250 1413h-574zM870 1522l-305 182l13 16l296 -180l359 180l10 -16l-364 -182h-9z" />
    <glyph glyph-name="tcaron" unicode="&#x165;" horiz-adv-x="600" 
d="M244 350l147 828h21l-47 -256h346l-2 -21h-347l-94 -532q-16 -90 -16 -144q-1 -105 45.5 -159t136.5 -54q73 0 150 47l10 -16q-77 -51 -162 -51q-101 0 -152.5 61.5t-48.5 169.5q0 43 13 127zM737 1434h21q8 -16 8 -56q0 -77 -41.5 -153.5t-120.5 -110.5l-6 16
q71 38 109 107t38 139q0 42 -8 58z" />
    <glyph glyph-name="Umacron" unicode="&#x16a;" horiz-adv-x="1538" 
d="M1565 1434l-146 -830q-55 -310 -206 -463t-427 -153q-227 0 -348 116.5t-121 339.5q0 70 17 174l143 816h21l-144 -818q-16 -98 -16 -167q0 -222 121 -331.5t332 -109.5q139 0 244.5 41t177 121t116 187.5t70.5 252.5l145 824h21zM752 1618l4 20h602l-4 -20h-602z" />
    <glyph glyph-name="umacron" unicode="&#x16b;" horiz-adv-x="970" 
d="M969 922l-162 -922h-21l72 410q-262 -426 -461 -426q-180 0 -180 211q0 42 21 174l116 553h21l-117 -547q-20 -122 -20 -176q2 -91 36 -143t123 -52q62 0 127.5 39.5t132.5 119t102 128.5t93 137l12 18l84 476h21zM504 1311l4 20h479l-4 -20h-479z" />
    <glyph glyph-name="Ubreve" unicode="&#x16c;" horiz-adv-x="1538" 
d="M1565 1434l-146 -830q-55 -310 -206 -463t-427 -153q-227 0 -348 116.5t-121 339.5q0 70 17 174l143 816h21l-144 -818q-16 -98 -16 -167q0 -222 121 -331.5t332 -109.5q139 0 244.5 41t177 121t116 187.5t70.5 252.5l145 824h21zM766 1708l16 12q37 -67 108 -105
t161 -38q172 0 311 143l12 -12q-59 -64 -143 -108t-184 -44q-92 0 -168.5 42t-112.5 110z" />
    <glyph glyph-name="ubreve" unicode="&#x16d;" horiz-adv-x="970" 
d="M969 922l-162 -922h-21l72 410q-262 -426 -461 -426q-180 0 -180 211q0 42 21 174l116 553h21l-117 -547q-20 -122 -20 -176q2 -91 36 -143t123 -52q62 0 127.5 39.5t132.5 119t102 128.5t93 137l12 18l84 476h21zM461 1380l16 13q72 -144 228 -144q78 0 142.5 39.5
t127.5 104.5l12 -13q-139 -151 -282 -151q-170 0 -244 151z" />
    <glyph glyph-name="Uring" unicode="&#x16e;" horiz-adv-x="1538" 
d="M1565 1434l-146 -830q-55 -310 -206 -463t-427 -153q-227 0 -348 116.5t-121 339.5q0 70 17 174l143 816h21l-144 -818q-16 -98 -16 -167q0 -222 121 -331.5t332 -109.5q139 0 244.5 41t177 121t116 187.5t70.5 252.5l145 824h21zM858 1587q0 75 53.5 114.5t135.5 39.5
q83 0 136.5 -39.5t53.5 -114.5t-54 -117.5t-136 -42.5q-81 0 -135 42.5t-54 117.5zM879 1587q0 -68 47 -103.5t121 -35.5t122 35.5t48 103.5q0 67 -47 100t-123 33q-75 0 -121.5 -33t-46.5 -100z" />
    <glyph glyph-name="uring" unicode="&#x16f;" horiz-adv-x="970" 
d="M969 922l-162 -922h-21l72 410q-262 -426 -461 -426q-180 0 -180 211q0 42 21 174l116 553h21l-117 -547q-20 -122 -20 -176q2 -91 36 -143t123 -52q62 0 127.5 39.5t132.5 119t102 128.5t93 137l12 18l84 476h21zM537 1260q0 78 55 134t133 56t134 -56t56 -134
t-56 -133.5t-134 -55.5t-133 55.5t-55 133.5zM557 1260q0 -70 48.5 -119t119.5 -49t120.5 49t49.5 119t-49.5 120t-120.5 50q-70 0 -119 -49.5t-49 -120.5z" />
    <glyph glyph-name="Uhungarumlaut" unicode="&#x170;" horiz-adv-x="1538" 
d="M1565 1434l-146 -830q-55 -310 -206 -463t-427 -153q-227 0 -348 116.5t-121 339.5q0 70 17 174l143 816h21l-144 -818q-16 -98 -16 -167q0 -222 121 -331.5t332 -109.5q139 0 244.5 41t177 121t116 187.5t70.5 252.5l145 824h21zM1491 1704l-315 -184l-11 14l318 186z
M1143 1704l-316 -184l-10 14l318 186z" />
    <glyph glyph-name="uhungarumlaut" unicode="&#x171;" horiz-adv-x="970" 
d="M969 922l-162 -922h-21l72 410q-262 -426 -461 -426q-180 0 -180 211q0 42 21 174l116 553h21l-117 -547q-20 -122 -20 -176q2 -91 36 -143t123 -52q62 0 127.5 39.5t132.5 119t102 128.5t93 137l12 18l84 476h21zM1057 1434l-223 -289l-17 10l225 291zM770 1434
l-223 -289l-17 10l226 291z" />
    <glyph glyph-name="Uogonek" unicode="&#x172;" horiz-adv-x="1538" 
d="M924 -371l6 -18q-59 -21 -107 -21q-81 0 -131.5 40.5t-50.5 115.5q0 83 58.5 147t148.5 97q-10 0 -31 -1t-31 -1q-227 0 -348 116.5t-121 339.5q0 70 17 174l143 816h21l-144 -818q-16 -98 -16 -167q0 -222 121 -331.5t332 -109.5q139 0 244.5 41t177 121t116 187.5
t70.5 252.5l145 824h21l-146 -830q-49 -273 -170 -424t-336 -182q-109 -31 -180 -97t-71 -153q0 -69 46 -103t115 -34q53 0 101 18z" />
    <glyph glyph-name="uogonek" unicode="&#x173;" horiz-adv-x="970" 
d="M739 -371l6 -18q-58 -21 -106 -21q-81 0 -131.5 40.5t-50.5 115.5t50.5 137.5t125 96.5t155.5 38l70 392q-262 -426 -461 -426q-180 0 -180 211q0 42 21 174l116 553h21l-117 -547q-20 -122 -20 -176q2 -91 36 -143t123 -52q62 0 127.5 39.5t132.5 119t102 128.5t93 137
l12 18l84 476h21l-162 -922q-80 0 -155.5 -32t-125 -91t-49.5 -129q0 -69 46.5 -103t115.5 -34q52 0 100 18z" />
    <glyph glyph-name="Ydieresis" unicode="&#x178;" horiz-adv-x="1155" 
d="M1346 1434l-658 -789l-113 -645h-20l113 645l-375 789h20l367 -770l641 770h25zM588 1618q0 10 7.5 17t18.5 7q9 0 17 -7t8 -17q0 -12 -7.5 -19.5t-17.5 -7.5q-11 0 -18.5 7.5t-7.5 19.5zM1067 1618q0 10 8 17t19 7q10 0 17 -6.5t7 -17.5q0 -12 -7.5 -19.5t-16.5 -7.5
q-11 0 -19 7.5t-8 19.5z" />
    <glyph glyph-name="Zacute" unicode="&#x179;" horiz-adv-x="1331" 
d="M403 1413l3 21h1044v-4l-1298 -1410h1071l-4 -20h-1106v4l1298 1409h-1008zM1194 1704l-315 -184l-11 14l318 186z" />
    <glyph glyph-name="zacute" unicode="&#x17a;" horiz-adv-x="776" 
d="M244 901l2 21h641v-4l-785 -898h623l-4 -20h-660v4l783 897h-600zM823 1434l-223 -289l-16 10l225 291z" />
    <glyph glyph-name="Zdotaccent" unicode="&#x17b;" horiz-adv-x="1331" 
d="M403 1413l3 21h1044v-4l-1298 -1410h1071l-4 -20h-1106v4l1298 1409h-1008zM903 1618q0 10 8 17t19 7q9 0 16.5 -7t7.5 -17q0 -12 -7.5 -19.5t-16.5 -7.5q-11 0 -19 7.5t-8 19.5z" />
    <glyph glyph-name="zdotaccent" unicode="&#x17c;" horiz-adv-x="776" 
d="M244 901l2 21h641v-4l-785 -898h623l-4 -20h-660v4l783 897h-600zM616 1296q0 9 8.5 17t18.5 8q9 0 17 -8t8 -17q0 -10 -8 -18t-17 -8q-11 0 -19 8t-8 18z" />
    <glyph glyph-name="Zcaron" unicode="&#x17d;" horiz-adv-x="1331" 
d="M403 1413l3 21h1044v-4l-1298 -1410h1071l-4 -20h-1106v4l1298 1409h-1008zM924 1522l-306 182l13 16l297 -180l358 180l10 -16l-364 -182h-8z" />
    <glyph glyph-name="zcaron" unicode="&#x17e;" horiz-adv-x="776" 
d="M244 901l2 21h641v-4l-785 -898h623l-4 -20h-660v4l783 897h-600zM621 1169l-191 269l16 12l181 -256l272 256l12 -14l-282 -267h-8z" />
    <glyph glyph-name="longs" unicode="&#x17f;" horiz-adv-x="528" 
d="M184 0l187 1057q68 393 374 393q131 0 213 -74l-12 -16q-42 35 -87 52.5t-114 17.5q-146 0 -232.5 -90.5t-121.5 -286.5l-186 -1053h-21z" />
    <glyph glyph-name="uni018F" unicode="&#x18f;" horiz-adv-x="1611" 
d="M252 741h1354q13 137 -18.5 260t-102 219t-190.5 153t-273 57q-245 0 -434 -130l-13 17q186 133 447 133q189 0 327 -80.5t208.5 -223t70.5 -329.5q0 -235 -97.5 -424t-280.5 -299t-419 -110q-207 0 -352.5 100t-204.5 272.5t-22 384.5zM834 4q314 0 527.5 199t244.5 518
h-1338q-31 -198 28 -361.5t200.5 -259.5t337.5 -96z" />
    <glyph glyph-name="florin" unicode="&#x192;" 
d="M762 1053l-25 -131h404v-21h-408l-176 -969q-16 -89 -40.5 -152.5t-63 -111t-94.5 -71t-132 -23.5q-94 0 -164 51l13 19q66 -50 151 -50q139 0 208.5 83.5t101.5 259.5l174 964h-375v21h379l26 149q36 196 118 287.5t233 91.5q132 0 225 -72l-12 -18q-95 70 -213 70
q-143 0 -218 -87.5t-112 -289.5z" />
    <glyph glyph-name="uni01DD" unicode="&#x1dd;" horiz-adv-x="872" 
d="M201 774l-13 14q163 150 355 150q79 0 139.5 -30.5t97 -83.5t54.5 -119t18 -142q0 -147 -65 -280.5t-176.5 -216t-239.5 -82.5q-115 0 -182.5 51.5t-67.5 152.5q0 89 60.5 156t162.5 103.5t225 51.5t260 9q2 16 2 51q2 99 -27 178t-97 130t-166 51t-185.5 -40
t-154.5 -104zM371 4q111 0 210 66.5t163.5 176.5t82.5 240q-135 6 -255.5 -8.5t-217.5 -48.5t-154 -94.5t-57 -140.5q0 -94 59 -142.5t169 -48.5z" />
    <glyph glyph-name="uni0218" unicode="&#x218;" horiz-adv-x="1116" 
d="M1040 379q0 59 -24 108t-64.5 84t-92.5 65t-110 56t-116 52.5t-110 59t-92.5 71t-64.5 92.5t-24 120q0 154 123 258.5t338 104.5q113 0 206.5 -38.5t147.5 -102.5l-14 -17q-59 66 -147.5 102t-194.5 36q-200 0 -318 -94t-118 -249q0 -78 38.5 -140t100 -102.5t135.5 -76
t148 -70.5t135.5 -75t100 -100.5t38.5 -137.5q0 -125 -60 -217.5t-159.5 -138t-225.5 -45.5q-149 0 -264.5 57.5t-169.5 159.5l17 12q54 -95 160.5 -152t256.5 -57q63 0 123 13.5t115 43.5t96 73t65.5 106.5t24.5 138.5zM565 -164l6 21q74 -12 74 -93q0 -125 -149 -174
l-4 17q133 46 133 157q0 63 -60 72z" />
    <glyph glyph-name="uni0219" unicode="&#x219;" horiz-adv-x="641" 
d="M596 225q0 50 -20 90t-52.5 67t-71 51.5t-77.5 50t-71.5 54.5t-52.5 72t-20 97q0 97 73.5 164t205.5 67q152 0 233 -51l-12 -19q-85 50 -221 50q-118 0 -188 -57.5t-70 -151.5q0 -51 20 -91.5t52 -68.5t71 -52.5t78 -49.5t71 -53.5t52 -70t20 -92.5q0 -112 -80 -179.5
t-212 -67.5q-154 0 -258 69l12 19q112 -68 248 -68q110 0 190 60.5t80 160.5zM272 -164l7 21q37 -6 55 -31t18 -62q0 -125 -149 -174l-4 17q133 46 133 157q0 63 -60 72z" />
    <glyph glyph-name="uni021A" unicode="&#x21a;" horiz-adv-x="1232" 
d="M270 1413l4 21h1168l-4 -21h-574l-250 -1413h-20l250 1413h-574zM549 -164l6 21q74 -12 74 -93q0 -124 -150 -174l-4 17q133 46 133 157q0 63 -59 72z" />
    <glyph glyph-name="uni021B" unicode="&#x21b;" horiz-adv-x="600" 
d="M244 350l147 828h21l-47 -256h346l-2 -21h-347l-94 -532q-16 -90 -16 -144q-1 -105 45.5 -159t136.5 -54q73 0 150 47l10 -16q-77 -51 -162 -51q-101 0 -152.5 61.5t-48.5 169.5q0 43 13 127zM360 -164l7 21q37 -6 55 -31t18 -62q0 -125 -149 -174l-4 17q133 46 133 157
q0 63 -60 72z" />
    <glyph glyph-name="uni0237" unicode="&#x237;" horiz-adv-x="395" 
d="M379 922l-174 -990q-10 -56 -22 -100.5t-35 -95t-53 -84t-76.5 -56t-104.5 -22.5q-84 0 -141 43l12 16q58 -39 131 -39q52 0 95 21.5t70.5 53.5t49 79.5t33 89t20.5 92.5l174 992h21z" />
    <glyph glyph-name="uni0259" unicode="&#x259;" horiz-adv-x="872" 
d="M201 774l-13 14q163 150 355 150q79 0 139.5 -30.5t97 -83.5t54.5 -119t18 -142q0 -147 -65 -280.5t-176.5 -216t-239.5 -82.5q-115 0 -182.5 51.5t-67.5 152.5q0 89 60.5 156t162.5 103.5t225 51.5t260 9q2 16 2 51q2 99 -27 178t-97 130t-166 51t-185.5 -40
t-154.5 -104zM371 4q111 0 210 66.5t163.5 176.5t82.5 240q-135 6 -255.5 -8.5t-217.5 -48.5t-154 -94.5t-57 -140.5q0 -94 59 -142.5t169 -48.5z" />
    <glyph glyph-name="uni02BC" unicode="&#x2bc;" horiz-adv-x="413" 
d="M246 1296l20 17q25 -37 25 -94q0 -167 -160 -242l-8 16q145 79 145 224q0 51 -22 79z" />
    <glyph glyph-name="circumflex" unicode="&#x2c6;" horiz-adv-x="727" 
d="M414 1450l190 -268l-16 -13l-180 256l-273 -256l-12 15l283 266h8z" />
    <glyph glyph-name="caron" unicode="&#x2c7;" horiz-adv-x="727" 
d="M313 1169l-190 269l16 12l180 -256l273 256l12 -14l-282 -267h-9z" />
    <glyph glyph-name="breve" unicode="&#x2d8;" horiz-adv-x="772" 
d="M123 1380l16 13q72 -144 228 -144q78 0 142.5 39.5t127.5 104.5l12 -13q-139 -151 -282 -151q-170 0 -244 151z" />
    <glyph glyph-name="dotaccent" unicode="&#x2d9;" horiz-adv-x="296" 
d="M123 1296q0 9 8.5 17t18.5 8q9 0 16.5 -8t7.5 -17q0 -10 -7.5 -18t-16.5 -8q-11 0 -19 8t-8 18z" />
    <glyph glyph-name="ring" unicode="&#x2da;" horiz-adv-x="624" 
d="M123 1260q0 78 55 134t133 56t134.5 -56t56.5 -134t-56.5 -133.5t-134.5 -55.5t-133 55.5t-55 133.5zM143 1260q0 -70 48.5 -119t119.5 -49t120.5 49t49.5 119t-49.5 120t-120.5 50q-70 0 -119 -49.5t-49 -120.5z" />
    <glyph glyph-name="ogonek" unicode="&#x2db;" horiz-adv-x="598" 
d="M406 -371l6 -18q-58 -21 -107 -21q-81 0 -131.5 40.5t-50.5 115.5q0 78 54 142.5t134 98t164 33.5l-4 -20q-74 0 -149 -31t-127 -90.5t-52 -130.5q0 -69 46.5 -103t115.5 -34q53 0 101 18z" />
    <glyph glyph-name="tilde" unicode="&#x2dc;" horiz-adv-x="817" 
d="M135 1221l-12 14q103 84 174 84q43 0 81.5 -25t73.5 -50t70 -25q65 0 158 88l14 -15q-99 -94 -172 -94q-32 0 -63 15.5t-52 34.5t-51 34.5t-61 15.5q-66 0 -160 -77z" />
    <glyph glyph-name="hungarumlaut" unicode="&#x2dd;" horiz-adv-x="772" 
d="M649 1434l-223 -289l-16 10l225 291zM362 1434l-223 -289l-16 10l225 291z" />
    <glyph glyph-name="gravecomb" unicode="&#x300;" horiz-adv-x="0" 
d="M-324 1145l-223 289l15 12l225 -291z" />
    <glyph glyph-name="acutecomb" unicode="&#x301;" horiz-adv-x="0" 
d="M-76 1434l-223 -289l-16 10l225 291z" />
    <glyph glyph-name="Delta" unicode="&#x394;" horiz-adv-x="1425" 
d="M102 0l877 1450h6l379 -1450h-1262zM973 1409l-836 -1389h1198z" />
    <glyph glyph-name="Delta" unicode="&#x2206;" horiz-adv-x="1425" 
d="M102 0l877 1450h6l379 -1450h-1262zM973 1409l-836 -1389h1198z" />
    <glyph glyph-name="uni03A9" unicode="&#x3a9;" horiz-adv-x="1646" 
d="M199 0l4 20h397q-167 60 -265.5 217.5t-98.5 362.5q0 172 70 330.5t185.5 271.5t270 180.5t317.5 67.5q171 0 305 -80.5t206.5 -220.5t72.5 -315q0 -141 -47.5 -273t-129.5 -237t-193.5 -184t-239.5 -120h397l-4 -20h-473l4 20q183 39 334 153.5t241 287.5t90 370
q0 170 -70 306t-200 214.5t-297 78.5q-160 0 -309.5 -65.5t-261 -175.5t-179 -264.5t-67.5 -322.5q0 -221 113.5 -380t304.5 -202l-4 -20h-473z" />
    <glyph glyph-name="uni03A9" unicode="&#x2126;" horiz-adv-x="1646" 
d="M199 0l4 20h397q-167 60 -265.5 217.5t-98.5 362.5q0 172 70 330.5t185.5 271.5t270 180.5t317.5 67.5q171 0 305 -80.5t206.5 -220.5t72.5 -315q0 -141 -47.5 -273t-129.5 -237t-193.5 -184t-239.5 -120h397l-4 -20h-473l4 20q183 39 334 153.5t241 287.5t90 370
q0 170 -70 306t-200 214.5t-297 78.5q-160 0 -309.5 -65.5t-261 -175.5t-179 -264.5t-67.5 -322.5q0 -221 113.5 -380t304.5 -202l-4 -20h-473z" />
    <glyph glyph-name="pi" unicode="&#x3c0;" horiz-adv-x="1333" 
d="M274 901l2 21h1104l-2 -21h-235l-125 -713q-19 -86 -1.5 -130t85.5 -44q75 0 149 49l9 -18q-32 -21 -77 -36t-83 -15q-74 0 -99 45.5t-6 146.5l127 715h-594l-32 -188q-29 -171 -65.5 -297.5t-74.5 -205.5t-84 -126.5t-91 -65.5t-99 -18l4 20q65 0 118 32t102 107
t90.5 208.5t76.5 326.5l37 207h-236z" />
    <glyph glyph-name="uni0401" unicode="&#x401;" horiz-adv-x="1177" 
d="M246 0l252 1434h768l-2 -21h-748l-119 -672h686l-4 -20h-686l-123 -701h768l-4 -20h-788zM645 1618q0 10 8 17t19 7q9 0 16.5 -7t7.5 -17q0 -12 -7.5 -19.5t-16.5 -7.5q-11 0 -19 7.5t-8 19.5zM1124 1618q0 10 8 17t19 7q10 0 17.5 -6.5t7.5 -17.5q0 -12 -8 -19.5
t-17 -7.5q-11 0 -19 7.5t-8 19.5z" />
    <glyph glyph-name="uni0402" unicode="&#x402;" horiz-adv-x="1570" 
d="M1513 512q0 -109 -24.5 -202.5t-73.5 -167t-130 -116t-185 -42.5q-98 0 -172 51l12 18q73 -49 160 -49q98 0 174.5 40.5t123.5 111.5t71 161.5t24 194.5q0 165 -92 249.5t-260 84.5q-57 0 -107 -8.5t-96.5 -28t-72 -32.5t-71 -41t-55.5 -34l-125 -702h-20l250 1413h-574
l4 21h1168l-4 -21h-574l-121 -688q54 34 80.5 49.5t82.5 42t113.5 38t121.5 11.5q172 0 272 -87.5t100 -266.5z" />
    <glyph glyph-name="uni0403" unicode="&#x403;" horiz-adv-x="1071" 
d="M246 0l252 1434h778l-2 -21h-758l-250 -1413h-20zM1163 1704l-315 -184l-10 14l317 186z" />
    <glyph glyph-name="uni0404" unicode="&#x404;" horiz-adv-x="1314" 
d="M1108 741l-2 -20h-850q-22 -321 154.5 -519t486.5 -198q221 0 410 107l10 -19q-170 -108 -420 -108q-143 0 -264 44.5t-210 127t-139.5 209.5t-50.5 284q0 156 59.5 300.5t165 256t262 178t337.5 66.5q243 0 391 -96l-12 -17q-162 93 -381 93q-205 0 -377 -88
t-281.5 -244.5t-136.5 -356.5h848z" />
    <glyph glyph-name="uni0405" unicode="&#x405;" horiz-adv-x="1116" 
d="M1040 379q0 59 -24 108t-64.5 84t-92.5 65t-110 56t-116 52.5t-110 59t-92.5 71t-64.5 92.5t-24 120q0 154 123 258.5t338 104.5q113 0 206.5 -38.5t147.5 -102.5l-14 -17q-59 66 -147.5 102t-194.5 36q-200 0 -318 -94t-118 -249q0 -78 38.5 -140t100 -102.5t135.5 -76
t148 -70.5t135.5 -75t100 -100.5t38.5 -137.5q0 -125 -60 -217.5t-159.5 -138t-225.5 -45.5q-149 0 -264.5 57.5t-169.5 159.5l17 12q54 -95 160.5 -152t256.5 -57q63 0 123 13.5t115 43.5t96 73t65.5 106.5t24.5 138.5z" />
    <glyph glyph-name="uni0406" unicode="&#x406;" horiz-adv-x="552" 
d="M287 0l252 1434h20l-252 -1434h-20z" />
    <glyph glyph-name="uni0407" unicode="&#x407;" horiz-adv-x="593" 
d="M287 0l252 1434h20l-252 -1434h-20zM416 1618q0 10 7 17t19 7q10 0 17.5 -7.5t7.5 -16.5q0 -11 -7.5 -19t-17.5 -8q-26 0 -26 27zM692 1618q0 9 7.5 16.5t19.5 7.5q10 0 17 -7.5t7 -16.5q0 -11 -7 -19t-17 -8q-13 0 -20 8t-7 19z" />
    <glyph glyph-name="uni0408" unicode="&#x408;" horiz-adv-x="700" 
d="M707 1434l-201 -1133q-27 -153 -95 -235t-202 -82q-97 0 -162 51l14 16q66 -47 150 -47q69 0 119.5 24.5t80.5 70t46 91.5t28 109l201 1135h21z" />
    <glyph glyph-name="uni0409" unicode="&#x409;" horiz-adv-x="2144" 
d="M1208 0l250 1413h-727l-67 -270q-55 -221 -111 -399t-104 -295t-97.5 -203.5t-87.5 -132.5t-79 -72.5t-67.5 -33.5t-56.5 -7l5 20q23 0 45 5.5t60.5 31.5t75 69.5t86 128.5t97 200.5t104 293.5t111.5 398l72 287h764l-109 -617q159 12 295 12q210 0 324 -87t114 -246
q0 -243 -160.5 -371.5t-447.5 -128.5q-52 0 -150.5 2t-138.5 2zM1669 809q-174 0 -299 -12l-137 -777q33 0 123 -2t145 -2q281 0 432.5 126.5t151.5 349.5q0 152 -107.5 234.5t-308.5 82.5z" />
    <glyph glyph-name="uni040A" unicode="&#x40a;" horiz-adv-x="2234" 
d="M246 0l252 1434h20l-110 -637h1034l110 637h21l-111 -637q156 12 281 12q217 0 334.5 -82.5t117.5 -243.5q0 -121 -45.5 -215t-128.5 -153t-194.5 -89t-247.5 -30q-52 0 -145.5 2t-133.5 2l138 776h-1035l-137 -776h-20zM1458 776l-133 -756q33 0 118 -2t140 -2
q274 0 433 122t159 343q0 151 -113.5 229t-318.5 78q-158 0 -285 -12z" />
    <glyph glyph-name="uni040B" unicode="&#x40b;" horiz-adv-x="1572" 
d="M270 1413l4 21h1168l-4 -21h-574l-121 -690q216 143 441 143q86 0 152 -26t112 -80.5t59 -140t-6 -205.5l-74 -414h-20l74 414q38 212 -40.5 322t-258.5 110q-90 0 -178.5 -24.5t-138.5 -49.5t-110 -60q-11 -7 -16 -10l-125 -702h-20l250 1413h-574z" />
    <glyph glyph-name="uni040C" unicode="&#x40c;" horiz-adv-x="1257" 
d="M1409 1434l-866 -689l628 -745h-26l-631 748l862 686h33zM246 0l252 1434h20l-252 -1434h-20zM1163 1704l-315 -184l-10 14l317 186z" />
    <glyph glyph-name="uni040E" unicode="&#x40e;" horiz-adv-x="1282" 
d="M1493 1434l-705 -1119q-38 -60 -59 -92t-60 -82t-70 -75.5t-73.5 -45.5t-85.5 -20q-78 0 -127 39l13 16q47 -37 114 -37q44 0 88 23t81 61t64 74.5t50 75.5l43 67l-483 1115h22l475 -1094l686 1094h27zM629 1720h20q41 -164 283 -164q109 0 195.5 45t134.5 119h20
q-47 -82 -141 -133t-209 -51q-266 0 -303 184z" />
    <glyph glyph-name="uni040F" unicode="&#x40f;" horiz-adv-x="1566" 
d="M246 0l252 1434h20l-248 -1414h1035l247 1414h21l-252 -1434h-528l-58 -328h-20l57 328h-526z" />
    <glyph glyph-name="uni0410" unicode="&#x410;" horiz-adv-x="1402" 
d="M61 0l893 1450h7l380 -1450h-20l-150 567h-737l-350 -567h-23zM950 1409l-504 -821h719z" />
    <glyph glyph-name="uni0411" unicode="&#x411;" horiz-adv-x="1230" 
d="M1255 1434l-2 -21h-737l-106 -596q159 12 278 12q475 0 475 -333q0 -252 -166 -376t-462 -124q-52 0 -150.5 2t-138.5 2l252 1434h757zM690 809q-157 0 -282 -12l-138 -777q34 0 124 -2t145 -2q294 0 448 122.5t154 353.5q0 155 -106.5 236t-344.5 81z" />
    <glyph glyph-name="uni0412" unicode="&#x412;" horiz-adv-x="1263" 
d="M246 0l252 1434q36 0 165.5 2t188.5 2q207 0 296 -78t89 -221q0 -151 -106.5 -264.5t-272.5 -135.5v-2q155 -15 236.5 -96t81.5 -207q0 -111 -44.5 -196.5t-123 -137.5t-180.5 -78t-224 -26q-61 0 -190.5 2t-167.5 2zM741 727h-346l-125 -707q32 0 155 -2t183 -2
q252 0 398.5 108.5t146.5 307.5q0 143 -104.5 219t-307.5 76zM850 1417q-198 0 -334 -4l-119 -665h353q206 0 336.5 113.5t130.5 275.5q0 141 -88 210.5t-279 69.5z" />
    <glyph glyph-name="uni0413" unicode="&#x413;" horiz-adv-x="1071" 
d="M246 0l252 1434h778l-2 -21h-758l-250 -1413h-20z" />
    <glyph glyph-name="uni0414" unicode="&#x414;" horiz-adv-x="1503" 
d="M-10 -287l53 307h154q35 35 82 110t111.5 205t136.5 343t132 469l68 287h752l-250 -1414h194l-53 -307h-20l51 287h-1340l-51 -287h-20zM680 1143q-49 -209 -107.5 -392t-108.5 -303t-100 -214.5t-83 -142t-58 -71.5h985l246 1393h-711z" />
    <glyph glyph-name="uni0415" unicode="&#x415;" horiz-adv-x="1177" 
d="M246 0l252 1434h768l-2 -21h-748l-119 -672h686l-4 -20h-686l-123 -701h768l-4 -20h-788z" />
    <glyph glyph-name="uni0416" unicode="&#x416;" horiz-adv-x="1812" 
d="M1970 1434l-784 -689l553 -745h-23l-557 748l780 686h31zM895 0l252 1434h20l-252 -1434h-20zM885 750l-539 684h25l542 -686l-813 -748h-28z" />
    <glyph glyph-name="uni0417" unicode="&#x417;" horiz-adv-x="1163" 
d="M582 -16q-146 0 -266 57t-183 156l14 12q68 -97 182.5 -151t254.5 -54q213 0 339 119.5t126 318.5q0 132 -79 206.5t-210 74.5h-199l4 20h185q100 0 185.5 56.5t133 143t47.5 177.5q0 148 -89.5 229t-260.5 81q-217 0 -408 -148l-10 14q179 154 418 154
q180 0 275.5 -83.5t95.5 -246.5q0 -134 -87.5 -244.5t-213.5 -140.5v-2q114 -17 173.5 -95t59.5 -196q0 -207 -132 -332.5t-355 -125.5z" />
    <glyph glyph-name="uni0418" unicode="&#x418;" horiz-adv-x="1638" 
d="M266 0h-20l252 1434h20l-246 -1399l1352 1399h21l-252 -1434h-21l248 1401z" />
    <glyph glyph-name="uni0419" unicode="&#x419;" horiz-adv-x="1638" 
d="M266 0h-20l252 1434h20l-246 -1399l1352 1399h21l-252 -1434h-21l248 1401zM782 1720h21q41 -164 282 -164q109 0 195.5 45t134.5 119h21q-47 -82 -141 -133t-210 -51q-266 0 -303 184z" />
    <glyph glyph-name="uni041A" unicode="&#x41a;" horiz-adv-x="1257" 
d="M1409 1434l-866 -689l628 -745h-26l-631 748l862 686h33zM246 0l252 1434h20l-252 -1434h-20z" />
    <glyph glyph-name="uni041B" unicode="&#x41b;" horiz-adv-x="1474" 
d="M1208 0l250 1413h-727l-67 -270q-55 -221 -111 -399t-104 -295t-97.5 -203.5t-87.5 -132.5t-79 -72.5t-67.5 -33.5t-56.5 -7l5 20q23 0 45 5.5t60.5 31.5t75 69.5t86 128.5t97 200.5t104 293.5t111.5 398l72 287h764l-252 -1434h-21z" />
    <glyph glyph-name="uni041C" unicode="&#x41c;" horiz-adv-x="1785" 
d="M246 0l252 1434h22l477 -863l772 863h23l-252 -1434h-20l247 1401l-772 -862h-4l-479 862l-246 -1401h-20z" />
    <glyph glyph-name="uni041D" unicode="&#x41d;" horiz-adv-x="1566" 
d="M1300 0l127 721h-1034l-127 -721h-20l252 1434h20l-121 -693h1035l120 693h21l-252 -1434h-21z" />
    <glyph glyph-name="uni041E" unicode="&#x41e;" horiz-adv-x="1646" 
d="M238 645q0 174 59.5 324t163 255.5t246.5 165.5t305 60q154 0 277.5 -47t205 -132.5t125 -204t43.5 -261.5q0 -175 -57 -327.5t-157.5 -261t-244 -170.5t-309.5 -62q-318 0 -487.5 178t-169.5 483zM258 647q0 -300 167.5 -471.5t471.5 -171.5q154 0 290.5 58t237 160
t159 252t58.5 325q0 288 -167.5 459.5t-464.5 171.5q-152 0 -289.5 -57t-240 -157.5t-162.5 -248.5t-60 -320z" />
    <glyph glyph-name="uni041F" unicode="&#x41f;" horiz-adv-x="1587" 
d="M1321 0l250 1413h-1055l-250 -1413h-20l252 1434h1095l-252 -1434h-20z" />
    <glyph glyph-name="uni0420" unicode="&#x420;" horiz-adv-x="1161" 
d="M266 0h-20l252 1434q43 0 159.5 2t143.5 2q118 0 204.5 -29t133 -79t67.5 -107t21 -123q0 -75 -18.5 -144.5t-62.5 -134.5t-108.5 -112.5t-164 -76t-222.5 -28.5t-276 10zM799 1417q-147 0 -283 -4l-137 -778q153 -10 274 -10q140 0 248 38.5t173.5 104.5t98.5 149
t33 179q0 67 -22 123t-68 101.5t-127 71t-190 25.5z" />
    <glyph glyph-name="uni0421" unicode="&#x421;" horiz-adv-x="1345" 
d="M1337 129l9 -16q-84 -65 -209 -97t-242 -32q-139 0 -259 43.5t-210 125.5t-141.5 208t-51.5 282q0 159 60 305.5t165.5 257.5t262 177.5t338.5 66.5q270 0 420 -117l-13 -14q-159 111 -407 111q-142 0 -270 -42.5t-224.5 -117.5t-167 -173.5t-107 -214t-36.5 -235.5
q0 -152 50.5 -275.5t138 -203t204 -122t250.5 -42.5q256 0 440 125z" />
    <glyph glyph-name="uni0422" unicode="&#x422;" horiz-adv-x="1232" 
d="M270 1413l4 21h1168l-4 -21h-574l-250 -1413h-20l250 1413h-574z" />
    <glyph glyph-name="uni0423" unicode="&#x423;" horiz-adv-x="1282" 
d="M1493 1434l-705 -1119q-38 -60 -59 -92t-60 -82t-70 -75.5t-73.5 -45.5t-85.5 -20q-78 0 -127 39l13 16q47 -37 114 -37q44 0 88 23t81 61t64 74.5t50 75.5l43 67l-483 1115h22l475 -1094l686 1094h27z" />
    <glyph glyph-name="uni0424" unicode="&#x424;" horiz-adv-x="1685" 
d="M827 -16l31 184h-22q-283 0 -449 127.5t-166 353.5q0 151 60.5 275t169 208t260.5 129.5t333 45.5h15l26 143h21l-27 -143h15q298 0 463 -127t165 -353q0 -151 -63 -276t-172.5 -208.5t-259 -129t-322.5 -45.5h-26l-31 -184h-21zM1094 1286h-17l-194 -1098h26
q128 0 245 25.5t217 78t174 127.5t115.5 179t41.5 227q0 224 -160.5 342.5t-447.5 118.5zM242 653q0 -221 161 -343t439 -122h20l195 1098h-15q-170 0 -315.5 -42t-253.5 -120.5t-169.5 -199.5t-61.5 -271z" />
    <glyph glyph-name="uni0425" unicode="&#x425;" horiz-adv-x="1318" 
d="M1481 1434l-678 -705l444 -729h-24l-437 713l-686 -713h-28l704 731l-430 703h25l420 -686l661 686h29z" />
    <glyph glyph-name="uni0426" unicode="&#x426;" horiz-adv-x="1607" 
d="M246 0l252 1434h20l-248 -1414h1045l248 1414h20l-248 -1414h195l-55 -307h-21l51 287h-1259z" />
    <glyph glyph-name="uni0427" unicode="&#x427;" horiz-adv-x="1261" 
d="M1268 1434l-254 -1434h-21l125 705q-87 -52 -212 -95t-230 -43q-386 0 -383 340q0 55 12 119l72 408h20l-73 -414q-11 -72 -11 -111q-2 -161 88.5 -241t276.5 -80q192 0 444 139l125 707h21z" />
    <glyph glyph-name="uni0428" unicode="&#x428;" horiz-adv-x="2027" 
d="M246 0l252 1434h20l-248 -1414h738l247 1414h21l-248 -1414h737l248 1414h21l-252 -1434h-1536z" />
    <glyph glyph-name="uni0429" unicode="&#x429;" horiz-adv-x="2058" 
d="M246 0l252 1434h20l-248 -1414h738l247 1414h21l-248 -1414h737l248 1414h21l-248 -1414h194l-55 -307h-20l51 287h-1710z" />
    <glyph glyph-name="uni042A" unicode="&#x42a;" horiz-adv-x="1349" 
d="M246 1413l4 21h418l-109 -617q156 12 320 12q209 0 320.5 -88.5t111.5 -244.5q0 -242 -160.5 -371t-431.5 -129q-75 0 -183 2t-143 2l250 1413h-397zM879 809q-197 0 -324 -12l-137 -777q29 0 129 -2t176 -2q269 0 418 127.5t149 348.5q0 150 -106 233.5t-305 83.5z" />
    <glyph glyph-name="uni042B" unicode="&#x42b;" horiz-adv-x="1648" 
d="M1382 0l252 1434h21l-252 -1434h-21zM702 809q-169 0 -294 -12l-138 -777q29 0 117.5 -2t163.5 -2q269 0 420 126.5t151 349.5q0 151 -106.5 234t-313.5 83zM518 1434l-108 -617q159 12 295 12q213 0 325.5 -88.5t112.5 -244.5q0 -162 -75.5 -276t-207.5 -169t-309 -55
q-75 0 -172.5 2t-132.5 2l252 1434h20z" />
    <glyph glyph-name="uni042C" unicode="&#x42c;" horiz-adv-x="1202" 
d="M727 809q-194 0 -319 -12l-138 -777q30 0 127 -2t170 -2q274 0 425 126t151 350q0 147 -105 232t-311 85zM518 1434l-108 -617q159 12 319 12q211 0 322.5 -88.5t111.5 -244.5q0 -163 -76.5 -277t-209 -168.5t-312.5 -54.5q-71 0 -177 2t-142 2l252 1434h20z" />
    <glyph glyph-name="uni042D" unicode="&#x42d;" horiz-adv-x="1400" 
d="M547 721l2 20h846q11 154 -21 280t-103.5 217.5t-187.5 141.5t-268 50q-126 0 -258.5 -34t-226.5 -102l-11 19q88 67 230.5 102t265.5 35q287 0 444.5 -165.5t157.5 -473.5q0 -253 -103 -441.5t-286.5 -287t-423.5 -98.5q-295 0 -479 172l14 14q190 -166 465 -166
q175 0 319.5 55t243 151.5t156.5 227t70 283.5h-846z" />
    <glyph glyph-name="uni042E" unicode="&#x42e;" horiz-adv-x="2195" 
d="M246 0l252 1434h20l-121 -693h447q11 140 71.5 268.5t156.5 226t232.5 156t288.5 58.5q188 0 330 -84.5t215.5 -231t73.5 -333.5q0 -170 -57.5 -321.5t-156.5 -260t-238.5 -172t-297.5 -63.5q-127 0 -232 36.5t-176.5 99.5t-121 148t-72 180t-22.5 199q0 47 2 70v4h-447
l-127 -721h-20zM858 647q0 -130 38 -244.5t111 -204t191 -142t266 -52.5q154 0 289.5 62t231 168.5t151 253.5t55.5 311q0 280 -166.5 455.5t-433.5 175.5q-145 0 -278.5 -57.5t-234 -158t-160.5 -248.5t-60 -319z" />
    <glyph glyph-name="uni042F" unicode="&#x42f;" horiz-adv-x="1234" 
d="M969 0l106 604h-395l-574 -604h-24l577 606q-124 21 -207 114t-83 234q0 101 36.5 187.5t106.5 153.5t183 105t255 38q54 0 153 -2t138 -2l-252 -1434h-20zM676 625h403l140 788q-33 0 -125 2t-146 2q-143 0 -254 -39.5t-175.5 -106t-97 -146.5t-32.5 -169
q0 -135 81 -223t206 -108z" />
    <glyph glyph-name="uni0430" unicode="&#x430;" horiz-adv-x="966" 
d="M965 885l-146 -885h-20l69 424q-97 -164 -149 -232q-154 -200 -307 -200q-112 0 -170 86.5t-58 224.5q0 139 44 258.5t118.5 201.5t175.5 128.5t213 46.5q118 0 230 -53zM414 12q34 0 66.5 9.5t64 30t58.5 41.5t56.5 56.5t50 60t48.5 68t41.5 65t40 65.5t34.5 57l68 407
q-61 25 -104 35.5t-105 10.5q-105 0 -200.5 -43.5t-168 -121t-116 -193.5t-43.5 -253q0 -132 52 -213.5t157 -81.5z" />
    <glyph glyph-name="uni0431" unicode="&#x431;" horiz-adv-x="1013" 
d="M1079 1452l13 -6q-40 -54 -88 -85t-89.5 -41t-116 -28.5t-136.5 -42.5q-110 -43 -195.5 -134.5t-137.5 -212.5t-77.5 -260t-20.5 -284h2q40 122 129.5 245.5t201 205.5t202.5 82q61 0 106.5 -25t70.5 -68t36.5 -92t11.5 -104q0 -79 -16.5 -162t-53 -165t-88.5 -146.5
t-130 -104.5t-171 -40q-147 0 -234 117t-87 321q0 128 26 254.5t78.5 245.5t143 212t207.5 138q68 26 160 45t145.5 44.5t107.5 90.5zM238 311q22 -137 96 -222t198 -85q87 0 161.5 37.5t124.5 99t85.5 140t51.5 159t16 158.5q0 53 -10.5 99t-33 86.5t-64.5 63.5t-99 23
q-91 0 -201.5 -84t-200 -214.5t-124.5 -260.5z" />
    <glyph glyph-name="uni0432" unicode="&#x432;" horiz-adv-x="952" 
d="M950 739q0 -166 -241 -250q93 -7 143.5 -53t50.5 -114q0 -133 -112 -235.5t-269 -102.5t-247.5 106t-90.5 268q0 116 41 224t109 185.5t160.5 124t191.5 46.5q115 0 189.5 -52.5t74.5 -146.5zM881 322q0 68 -54.5 109.5t-158.5 45.5q-169 -48 -461 -63q-2 -16 -2 -52
q-3 -155 83.5 -256.5t233.5 -101.5q150 0 254.5 97t104.5 221zM686 918q-177 0 -309.5 -135t-167.5 -349q93 5 171 13t164 22.5t151.5 37t120 53.5t83.5 75.5t29 99.5q0 86 -65.5 134.5t-176.5 48.5z" />
    <glyph glyph-name="uni0433" unicode="&#x433;" horiz-adv-x="755" 
d="M797 748q0 -64 -36 -114.5t-93.5 -83t-127 -60.5t-139 -54t-127 -56t-93.5 -75t-36 -102q0 -95 65.5 -147t176.5 -52q173 0 326 117l12 -17q-155 -120 -338 -120q-116 0 -190 55t-74 158q0 62 36 111t93.5 81t126.5 59.5t138.5 54t127 57t93.5 77t36 104.5
q0 86 -59 131.5t-168 45.5q-133 0 -275 -74l-8 18q75 39 140 57.5t143 18.5q114 0 182 -48.5t68 -141.5z" />
    <glyph glyph-name="uni0434" unicode="&#x434;" horiz-adv-x="1003" 
d="M639 938q203 0 334 -233q6 56 6 104q0 178 -50 309.5t-159 214.5t-270 97l4 20q245 -20 370 -188t125 -449q0 -69 -8.5 -144.5t-28 -156.5t-47.5 -156t-69.5 -143t-91.5 -118t-117 -79.5t-143 -29.5q-138 0 -224 106t-86 264q0 104 33 207.5t91 187t145 135.5t186 52z
M496 6q87 0 162 42.5t126.5 110t91 157.5t62 178.5t33.5 179.5q-30 52 -57.5 89t-68 75.5t-93 59t-113.5 20.5q-95 0 -178.5 -50.5t-138 -131t-86 -180.5t-31.5 -200q0 -90 32 -168t100 -130t159 -52z" />
    <glyph glyph-name="uni0435" unicode="&#x435;" horiz-adv-x="884" 
d="M836 147l12 -14q-162 -149 -354 -149q-79 0 -139.5 30.5t-97 83t-55 118.5t-18.5 142q0 110 39 216t103.5 186t154 129t185.5 49q114 0 181.5 -52t67.5 -153q0 -89 -60.5 -156t-162.5 -103t-225 -51t-260 -9q-2 -16 -2 -52q-2 -73 15 -136.5t51.5 -113.5t92.5 -79
t132 -29q98 0 185.5 39.5t154.5 103.5zM666 918q-111 0 -210.5 -67t-164 -177t-82.5 -240q134 -6 255 8.5t218 48.5t154 95t57 141q0 94 -58.5 142.5t-168.5 48.5z" />
    <glyph glyph-name="uni0436" unicode="&#x436;" horiz-adv-x="1105" 
d="M1251 922l-469 -445l340 -477h-26l-340 481l465 441h30zM549 0l162 922h20l-162 -922h-20zM504 483l-320 439h25l321 -441l-487 -481h-31z" />
    <glyph glyph-name="uni0437" unicode="&#x437;" horiz-adv-x="776" 
d="M371 -16q-173 0 -301 88l12 18q124 -86 291 -86q155 0 248.5 80t93.5 203q0 83 -61 128.5t-169 45.5h-114l2 20h104q111 0 194 68t83 178q0 88 -62 139.5t-182 51.5q-85 0 -152 -18t-147 -60l-10 18q147 80 311 80q124 0 193 -57t69 -152q0 -96 -58 -163.5t-159 -92.5v-2
q86 -10 132 -60t46 -122q0 -134 -100.5 -219.5t-263.5 -85.5z" />
    <glyph glyph-name="uni0438" unicode="&#x438;" horiz-adv-x="970" 
d="M969 922l-162 -922h-21l72 410q-262 -426 -461 -426q-180 0 -180 211q0 42 21 174l116 553h21l-117 -547q-20 -122 -20 -176q2 -91 36 -143t123 -52q62 0 127.5 39.5t132.5 119t102 128.5t93 137l12 18l84 476h21z" />
    <glyph glyph-name="uni0439" unicode="&#x439;" horiz-adv-x="970" 
d="M969 922l-162 -922h-21l72 410q-262 -426 -461 -426q-180 0 -180 211q0 42 21 174l116 553h21l-117 -547q-20 -122 -20 -176q2 -91 36 -143t123 -52q62 0 127.5 39.5t132.5 119t102 128.5t93 137l12 18l84 476h21zM475 1413h21q-12 -95 38 -150t152 -55q96 0 168.5 57
t91.5 148h21q-17 -98 -97.5 -161.5t-185.5 -63.5q-112 0 -169 63t-40 162z" />
    <glyph glyph-name="uni043A" unicode="&#x43a;" horiz-adv-x="821" 
d="M958 922l-542 -445l424 -477h-27l-428 479l539 443h34zM184 0l162 922h21l-162 -922h-21z" />
    <glyph glyph-name="uni043B" unicode="&#x43b;" horiz-adv-x="921" 
d="M737 0l160 901h-442l-64 -270q-27 -117 -59 -213t-62 -160t-62.5 -113t-59.5 -75.5t-55 -43t-47.5 -21.5t-37.5 -5l4 20q20 0 44 8.5t66 45.5t81 98.5t85.5 182t84.5 280.5l67 287h480l-162 -922h-21z" />
    <glyph glyph-name="uni043C" unicode="&#x43c;" horiz-adv-x="1165" 
d="M184 0l162 922h23l284 -596l482 596h28l-162 -922h-20l158 893l-488 -602h-4l-287 600l-155 -891h-21z" />
    <glyph glyph-name="uni043D" unicode="&#x43d;" horiz-adv-x="997" 
d="M813 0l82 461h-608l-82 -461h-21l162 922h21l-78 -441h608l78 441h20l-161 -922h-21z" />
    <glyph glyph-name="uni043E" unicode="&#x43e;" horiz-adv-x="966" 
d="M184 365q0 79 15 156.5t50 153.5t86 134t129 93.5t173 35.5q68 0 122.5 -22t88.5 -58t57 -85.5t32 -101t9 -108.5q0 -95 -19 -182t-56.5 -159.5t-91 -126t-127 -83.5t-158.5 -30q-107 0 -178 52t-101.5 135.5t-30.5 195.5zM205 367q0 -169 72 -267t217 -98
q104 0 188 45.5t136.5 123t80 177t27.5 211.5q0 162 -72 260.5t-217 98.5q-89 0 -163 -33.5t-123 -88t-82.5 -127t-48.5 -148.5t-15 -154z" />
    <glyph glyph-name="uni043F" unicode="&#x43f;" horiz-adv-x="999" 
d="M184 0l162 922h21l-72 -410q31 50 65.5 100t86.5 111t102.5 106.5t110 77t112.5 31.5q182 0 182 -211q0 -48 -20 -174l-109 -553h-20l108 547q21 128 21 176q-2 91 -37.5 143t-124.5 52q-52 0 -112 -33t-108 -77.5t-103.5 -112.5t-87.5 -114t-72 -106l-84 -475h-21z" />
    <glyph glyph-name="uni0440" unicode="&#x440;" horiz-adv-x="1007" 
d="M369 922l-76 -412q40 67 88.5 132.5t112.5 136.5t134.5 115t131.5 44q53 0 94.5 -20.5t66 -52t40 -75t21 -84t5.5 -83.5q0 -129 -40.5 -246.5t-111.5 -204t-172 -137.5t-217 -51q-122 0 -231 71l-82 -465h-20l235 1332h21zM287 471l-68 -393q108 -74 230 -74
q146 0 265 81.5t186 222t67 308.5q0 63 -10.5 114.5t-33.5 95t-65 68t-100 24.5q-188 0 -471 -447z" />
    <glyph glyph-name="uni0441" unicode="&#x441;" horiz-adv-x="829" 
d="M791 125l12 -14q-148 -127 -307 -127q-144 0 -228 100t-84 266q0 154 66 290t179 217t243 81q99 0 194 -31l-8 -20q-82 31 -186 31q-94 0 -181 -47t-149.5 -124.5t-99.5 -181t-37 -213.5q0 -162 79 -255t212 -93q89 0 155 31t140 90z" />
    <glyph glyph-name="uni0442" unicode="&#x442;" horiz-adv-x="1478" 
d="M719 938q42 0 74 -14t49.5 -34.5t28.5 -47.5t14.5 -47.5t3.5 -40.5q0 -84 -25 -207q32 53 58.5 94.5t71.5 101t85 98.5t90 68t95 29q52 0 88 -20.5t52.5 -53.5t23 -61.5t6.5 -57.5q0 -85 -33 -233l-103 -512h-20l102 514q0 2 6 30.5t11.5 60t10.5 70t5 62.5
q0 181 -151 181q-33 0 -68 -15t-69.5 -45.5t-63 -60.5t-62 -76t-53.5 -75.5t-49.5 -75.5t-38.5 -60l-98 -510h-21l99 512q30 147 30 229q0 47 -11 83.5t-46.5 65t-93.5 28.5q-50 0 -104.5 -35.5t-104 -94.5t-88.5 -114.5t-78 -117t-53 -79.5l-84 -477h-21l162 922h21
l-72 -412q26 45 44.5 75t56.5 88t72.5 98t77 81.5t87 63.5t86.5 22z" />
    <glyph glyph-name="uni0443" unicode="&#x443;" horiz-adv-x="776" 
d="M819 922h23q-90 -302 -169 -519.5t-186 -412.5q-9 -16 -30 -55.5t-31 -57.5t-30.5 -54t-33 -54t-34 -47t-37.5 -44.5t-39 -35t-43.5 -29t-46 -16.5t-51.5 -7q-65 0 -123 37l12 19q53 -35 111 -35q31 0 60 10t52 24t48.5 41t42.5 49t40.5 60t36.5 62t36.5 68t35.5 65
q-122 506 -305 932h22q191 -450 297 -910q101 188 176.5 399t165.5 511z" />
    <glyph glyph-name="uni0444" unicode="&#x444;" horiz-adv-x="1280" 
d="M559 -410l72 400q-37 -6 -78 -6q-186 0 -277.5 108t-91.5 287q0 106 36 206t102 179t168.5 126.5t224.5 47.5q43 0 80 -6l88 502h20l-88 -502q30 6 78 6q178 0 272.5 -103.5t94.5 -277.5q0 -114 -37.5 -217.5t-104.5 -182.5t-168 -126t-221 -47q-31 0 -78 6l-71 -400h-21
zM205 381q0 -175 85.5 -276t266.5 -101q41 0 76 6l158 901q-47 7 -82 7q-110 0 -205 -43.5t-160 -117t-102 -171.5t-37 -205zM891 918q-43 0 -78 -7l-160 -901q35 -6 76 -6q121 0 220.5 48t161.5 126.5t95 175t33 199.5q0 163 -86.5 264t-261.5 101z" />
    <glyph glyph-name="uni0445" unicode="&#x445;" horiz-adv-x="786" 
d="M899 922l-401 -447l264 -475h-23l-256 459l-413 -459h-29l432 477l-252 445h27l239 -428l383 428h29z" />
    <glyph glyph-name="uni0446" unicode="&#x446;" horiz-adv-x="1001" 
d="M969 922l-138 -781q-20 -121 72 -121h62l-47 -266h-21l43 246h-39q-57 0 -79 38t-11 103l47 269q-262 -426 -461 -426q-180 0 -180 211q0 42 21 174l116 553h21l-117 -547q-20 -122 -20 -176q2 -91 36 -143t123 -52q62 0 127.5 39.5t132.5 119t102 128.5t93 137l12 18
l84 476h21z" />
    <glyph glyph-name="uni0447" unicode="&#x447;" horiz-adv-x="825" 
d="M823 922l-161 -922h-21l125 713q-23 -43 -46.5 -83t-66 -95.5t-85.5 -95.5t-100.5 -68.5t-115.5 -28.5q-85 0 -120 46t-33 138q0 59 22 152l62 244h22l-63 -250q-23 -102 -23 -146q-3 -164 135 -164q60 0 120.5 33.5t104.5 78.5t87 107t65.5 103t42.5 82l29 156h20z" />
    <glyph glyph-name="uni0448" unicode="&#x448;" horiz-adv-x="1392" 
d="M901 -16q-42 0 -74 14t-49.5 34.5t-28.5 47.5t-14.5 47.5t-3.5 40.5q0 85 25 207q-29 -56 -52 -96.5t-63.5 -100.5t-77 -98.5t-84 -67t-92.5 -28.5q-52 0 -88 20.5t-52.5 53t-23 61t-6.5 57.5q0 83 33 234l121 512h20l-121 -514q-32 -130 -32 -224q0 -180 151 -180
q43 0 88.5 28.5t81.5 68.5t74.5 98t63.5 103.5t52 96.5q10 20 15 29l115 494h20l-117 -512q-30 -148 -30 -230q0 -34 6.5 -62.5t22.5 -55.5t47 -42.5t75 -15.5q37 0 73 17t70 52t61 68.5t57.5 87t48 86t44.5 87t35 69.5l78 451h21l-156 -922h-21l68 403q-23 -47 -34.5 -69
t-40.5 -74.5t-49.5 -82t-54 -71.5t-63 -65t-66.5 -40t-73 -17z" />
    <glyph glyph-name="uni0449" unicode="&#x449;" horiz-adv-x="1425" 
d="M1239 141l43 262q-23 -47 -34.5 -69t-40.5 -74.5t-49.5 -82t-54 -71.5t-63 -65t-66.5 -40t-73 -17q-42 0 -74 14t-49.5 34.5t-28.5 47.5t-14.5 47.5t-3.5 40.5q0 85 25 207q-29 -56 -52 -96.5t-63.5 -100.5t-77 -98.5t-84 -67t-92.5 -28.5q-52 0 -88 20.5t-52.5 53
t-23 61t-6.5 57.5q0 85 33 234l121 512h20l-121 -514q-32 -125 -32 -224q0 -180 151 -180q43 0 88.5 28.5t81.5 68.5t74.5 98t63.5 103.5t52 96.5q10 20 15 29l115 494h20l-117 -512q-30 -148 -30 -230q0 -34 6.5 -62.5t22.5 -55.5t47 -42.5t75 -15.5q37 0 73 17t70 52
t61 68.5t57.5 87t48 86t44.5 87t35 69.5l78 451h21l-131 -781q-20 -121 71 -121h62l-47 -266h-21l43 246h-39q-57 0 -79 38t-11 103z" />
    <glyph glyph-name="uni044A" unicode="&#x44a;" horiz-adv-x="845" 
d="M197 215q0 83 28.5 172t89 188t96 150t106.5 144q16 22 24 32h-379l2 21h405l-4 -21q-69 -89 -112.5 -149.5t-99.5 -149t-89 -172t-43 -162.5q83 124 225 227t259 103q73 0 115 -56t42 -126q0 -66 -40.5 -140t-105 -135t-154.5 -101t-181 -40q-89 0 -136.5 60t-47.5 155z
M702 578q-114 0 -251.5 -101.5t-231.5 -236.5q-3 -37 3.5 -73.5t23.5 -70.5t52.5 -55t84.5 -21q109 0 217 60.5t175 153t67 180.5q0 66 -38 115t-102 49z" />
    <glyph glyph-name="uni044B" unicode="&#x44b;" horiz-adv-x="1173" 
d="M217 205q0 59 29.5 189t78.5 310t58 218h20q-5 -21 -67 -253.5t-86 -349.5q84 125 203.5 212t236.5 87q73 0 115.5 -56t42.5 -126q0 -53 -24.5 -113.5t-70 -117t-103 -103t-130 -74.5t-145.5 -28q-158 0 -158 205zM688 598q-114 0 -230 -85.5t-210 -221.5
q-10 -72 -10 -82q0 -189 139 -189q108 0 214.5 66t171 162.5t64.5 185.5q0 66 -37.5 115t-101.5 49zM989 0l162 922h20l-161 -922h-21z" />
    <glyph glyph-name="uni044C" unicode="&#x44c;" horiz-adv-x="819" 
d="M217 205q0 59 29.5 189t78.5 310t58 218h20q-5 -21 -67 -253.5t-86 -349.5q85 127 198.5 213t229.5 86q73 0 115.5 -56t42.5 -126q0 -67 -37.5 -143.5t-98 -141.5t-148 -108t-177.5 -43q-158 0 -158 205zM676 598q-113 0 -222.5 -84.5t-205.5 -222.5q-10 -72 -10 -82
q0 -189 139 -189q81 0 162.5 39.5t141 100t97 134t37.5 140.5q0 66 -37.5 115t-101.5 49z" />
    <glyph glyph-name="uni044D" unicode="&#x44d;" horiz-adv-x="839" 
d="M379 461l4 20h412q9 98 -4 176t-48.5 137.5t-101.5 91.5t-158 32q-87 0 -147 -19.5t-137 -69.5l-11 17q74 50 141.5 71t153.5 21q336 0 336 -385q0 -159 -62 -290t-167.5 -205t-231.5 -74q-86 0 -143 24.5t-117 73.5l13 16q58 -47 111.5 -70.5t135.5 -23.5
q168 0 287.5 129.5t147.5 327.5h-414z" />
    <glyph glyph-name="uni044E" unicode="&#x44e;" horiz-adv-x="1345" 
d="M563 365q0 47 6 96h-282l-82 -461h-21l162 922h21l-78 -441h282q14 88 46 166t84 145t133.5 106.5t181.5 39.5q68 0 122.5 -22t88.5 -58t57 -85.5t32 -101t9 -108.5q0 -161 -51.5 -291t-156 -210t-245.5 -80q-157 0 -233 105t-76 278zM584 367q0 -169 71.5 -267
t216.5 -98q104 0 188 45.5t136.5 123t80.5 177t28 211.5q0 162 -72 260.5t-217 98.5q-89 0 -163 -33.5t-123 -88t-82.5 -127t-48.5 -148.5t-15 -154z" />
    <glyph glyph-name="uni044F" unicode="&#x44f;" horiz-adv-x="804" 
d="M600 922h203l-162 -922h-20l69 399h-237l-373 -399h-31l375 399q-97 6 -155 65.5t-58 153.5q0 59 18.5 109.5t60 96t121 72t189.5 26.5zM233 621q0 -94 57.5 -147.5t158.5 -53.5h245l86 481h-186q-97 0 -169.5 -23t-113 -63.5t-59.5 -89t-19 -104.5z" />
    <glyph glyph-name="uni0451" unicode="&#x451;" horiz-adv-x="884" 
d="M836 147l12 -14q-162 -149 -354 -149q-79 0 -139.5 30.5t-97 83t-55 118.5t-18.5 142q0 110 39 216t103.5 186t154 129t185.5 49q114 0 181.5 -52t67.5 -153q0 -89 -60.5 -156t-162.5 -103t-225 -51t-260 -9q-2 -16 -2 -52q-2 -73 15 -136.5t51.5 -113.5t92.5 -79
t132 -29q98 0 185.5 39.5t154.5 103.5zM666 918q-111 0 -210.5 -67t-164 -177t-82.5 -240q134 -6 255 8.5t218 48.5t154 95t57 141q0 94 -58.5 142.5t-168.5 48.5zM526 1292q0 9 8.5 17t18.5 8q9 0 17 -8t8 -17q0 -10 -8 -18t-17 -8q-11 0 -19 8t-8 18zM965 1292q0 9 8 17
t18 8q9 0 17 -8t8 -17q0 -10 -8 -18t-17 -8q-11 0 -18.5 8t-7.5 18z" />
    <glyph glyph-name="uni0452" unicode="&#x452;" horiz-adv-x="1032" 
d="M139 1055l4 20h318l63 359h21l-64 -359h461l-4 -20h-461l-112 -637q230 356 432 356q111 0 160 -77.5t49 -243.5t-65.5 -334.5t-187.5 -310t-278 -218.5h-33q247 126 395 365.5t148 495.5q0 157 -43.5 230t-146.5 73q-57 0 -116.5 -30.5t-116.5 -87t-104.5 -116.5
t-99.5 -139l-67 -381h-21l187 1055h-318z" />
    <glyph glyph-name="uni0453" unicode="&#x453;" horiz-adv-x="755" 
d="M797 748q0 -64 -36 -114.5t-93.5 -83t-127 -60.5t-139 -54t-127 -56t-93.5 -75t-36 -102q0 -95 65.5 -147t176.5 -52q173 0 326 117l12 -17q-155 -120 -338 -120q-116 0 -190 55t-74 158q0 62 36 111t93.5 81t126.5 59.5t138.5 54t127 57t93.5 77t36 104.5
q0 86 -59 131.5t-168 45.5q-133 0 -275 -74l-8 18q75 39 140 57.5t143 18.5q114 0 182 -48.5t68 -141.5zM807 1434l-223 -289l-17 10l226 291z" />
    <glyph glyph-name="uni0454" unicode="&#x454;" horiz-adv-x="878" 
d="M915 879l-12 -19q-85 58 -219 58q-176 0 -299.5 -124t-167.5 -313h428l-2 -20h-430q-30 -207 47.5 -332t259.5 -125q133 0 273 78l8 -19q-139 -79 -281 -79q-171 0 -253.5 103t-82.5 278q0 102 36.5 203.5t100 184t160 134t205.5 51.5q143 0 229 -59z" />
    <glyph glyph-name="uni0455" unicode="&#x455;" horiz-adv-x="641" 
d="M596 225q0 50 -20 90t-52.5 67t-71 51.5t-77.5 50t-71.5 54.5t-52.5 72t-20 97q0 97 73.5 164t205.5 67q152 0 233 -51l-12 -19q-85 50 -221 50q-118 0 -188 -57.5t-70 -151.5q0 -51 20 -91.5t52 -68.5t71 -52.5t78 -49.5t71 -53.5t52 -70t20 -92.5q0 -112 -80 -179.5
t-212 -67.5q-154 0 -258 69l12 19q112 -68 248 -68q110 0 190 60.5t80 160.5z" />
    <glyph glyph-name="uni0456" unicode="&#x456;" horiz-adv-x="395" 
d="M197 0l161 922h21l-162 -922h-20zM408 1296q0 9 8 17t18 8q9 0 17 -8t8 -17q0 -10 -8 -18t-17 -8q-10 0 -18 8t-8 18z" />
    <glyph glyph-name="uni0457" unicode="&#x457;" horiz-adv-x="391" 
d="M197 0l161 922h21l-162 -922h-20zM524 1292q0 10 8 17.5t19 7.5q10 0 17 -8t7 -17q0 -11 -7 -18.5t-17 -7.5q-27 0 -27 26zM291 1292q0 10 7.5 17.5t18.5 7.5q10 0 17.5 -8t7.5 -17q0 -11 -7.5 -18.5t-17.5 -7.5q-26 0 -26 26z" />
    <glyph glyph-name="uni0458" unicode="&#x458;" horiz-adv-x="395" 
d="M379 922l-174 -990q-10 -56 -22 -100.5t-35 -95t-53 -84t-76.5 -56t-104.5 -22.5q-84 0 -141 43l12 16q58 -39 131 -39q52 0 95 21.5t70.5 53.5t49 79.5t33 89t20.5 92.5l174 992h21zM406 1296q0 9 8 17t18 8q9 0 17 -8t8 -17q0 -10 -8 -18t-17 -8q-10 0 -18 8t-8 18z
" />
    <glyph glyph-name="uni0459" unicode="&#x459;" horiz-adv-x="1339" 
d="M899 901h-440l-64 -270q-19 -81 -41 -155.5t-58.5 -165.5t-76.5 -156t-95.5 -109.5t-115.5 -44.5l4 20q46 2 90 32.5t79.5 83.5t66 113.5t55.5 133t42 132t32 120.5l67 287h480q-7 -30 -68.5 -258.5t-85.5 -344.5q85 127 198.5 213t229.5 86q73 0 115.5 -56t42.5 -126
q0 -67 -37.5 -143.5t-98 -141.5t-148 -108t-177.5 -43q-158 0 -158 205q0 59 28.5 184.5t76 297.5t57.5 214zM1196 598q-113 0 -222.5 -84.5t-205.5 -222.5q-10 -72 -10 -82q0 -189 139 -189q81 0 162.5 39.5t141 100t97 134t37.5 140.5q0 66 -37.5 115t-101.5 49z" />
    <glyph glyph-name="uni045A" unicode="&#x45a;" horiz-adv-x="1425" 
d="M289 481h583q21 85 63.5 240.5t53.5 200.5h21q-7 -30 -68.5 -258.5t-85.5 -344.5q85 127 198.5 213t229.5 86q73 0 115.5 -56t42.5 -126q0 -67 -37.5 -143.5t-98 -141.5t-148 -108t-177.5 -43q-158 0 -158 205q0 74 45 256h-581l-82 -461h-21l162 922h21zM1282 598
q-113 0 -222.5 -84.5t-205.5 -222.5q-10 -72 -10 -82q0 -189 139 -189q81 0 162.5 39.5t141 100t97 134t37.5 140.5q0 66 -37.5 115t-101.5 49z" />
    <glyph glyph-name="uni045B" unicode="&#x45b;" horiz-adv-x="1028" 
d="M139 1055l4 20h318l63 359h21l-64 -359h461l-4 -20h-461l-112 -637q27 43 55.5 83t74 92t89.5 90t98.5 64.5t105.5 26.5q50 0 87 -14t58.5 -35.5t33 -56.5t15 -66t-0.5 -77t-8.5 -76t-12.5 -75q-3 -15 -4 -22l-69 -352h-21l70 352q26 143 27 195q6 191 -147 206
q-13 1 -28 1q-41 0 -83.5 -17t-83 -50t-75 -66.5t-73 -82.5t-61.5 -81t-54 -78l-67 -379h-21l187 1055h-318z" />
    <glyph glyph-name="uni045C" unicode="&#x45c;" horiz-adv-x="821" 
d="M958 922l-542 -445l424 -477h-27l-428 479l539 443h34zM184 0l162 922h21l-162 -922h-21zM903 1434l-223 -289l-16 10l225 291z" />
    <glyph glyph-name="uni045E" unicode="&#x45e;" horiz-adv-x="776" 
d="M819 922h23q-90 -302 -169 -519.5t-186 -412.5q-9 -16 -30 -55.5t-31 -57.5t-30.5 -54t-33 -54t-34 -47t-37.5 -44.5t-39 -35t-43.5 -29t-46 -16.5t-51.5 -7q-65 0 -123 37l12 19q53 -35 111 -35q31 0 60 10t52 24t48.5 41t42.5 49t40.5 60t36.5 62t36.5 68t35.5 65
q-122 506 -305 932h22q191 -450 297 -910q101 188 176.5 399t165.5 511zM354 1413h21q-12 -95 38 -150t152 -55q96 0 168.5 57t91.5 148h21q-17 -98 -97.5 -161.5t-185.5 -63.5q-112 0 -169 63t-40 162z" />
    <glyph glyph-name="uni045F" unicode="&#x45f;" horiz-adv-x="1011" 
d="M184 0l162 922h21l-158 -902h622l158 902h21l-162 -922h-322l-51 -287h-20l51 287h-322z" />
    <glyph glyph-name="uni0462" unicode="&#x462;" horiz-adv-x="1271" 
d="M199 1126l4 21h313l51 287h21l-51 -287h366l-4 -21h-367l-53 -309q159 12 320 12q211 0 322.5 -88.5t111.5 -244.5q0 -163 -76.5 -277t-209 -168.5t-312.5 -54.5q-71 0 -177.5 2t-142.5 2l197 1126h-313zM797 809q-195 0 -320 -12l-137 -777q30 0 127 -2t170 -2
q274 0 424.5 126t150.5 350q0 147 -104.5 232t-310.5 85z" />
    <glyph glyph-name="uni0463" unicode="&#x463;" horiz-adv-x="886" 
d="M436 901h-305l4 21h305l97 512h20l-96 -512h368l-4 -21h-368l-109 -582q43 63 83 111.5t90.5 93.5t107 69.5t116.5 24.5q73 0 115.5 -56t42.5 -126q0 -54 -19 -114t-56.5 -117t-87 -103t-115.5 -74t-136 -28q-87 0 -130.5 57.5t-43.5 147.5q0 30 15 124.5t32 184.5
t42 219.5t32 167.5zM743 598q-109 0 -206.5 -84t-192.5 -231q-8 -58 -8 -74q0 -78 38 -133.5t118 -55.5q103 0 195.5 66t144 161.5t51.5 186.5q0 66 -38 115t-102 49z" />
    <glyph glyph-name="uni0472" unicode="&#x472;" horiz-adv-x="1646" 
d="M238 645q0 174 59.5 324t163 255.5t246.5 165.5t305 60q154 0 277.5 -47t205 -132.5t125 -204t43.5 -261.5q0 -175 -57 -327.5t-157.5 -261t-244 -170.5t-309.5 -62q-318 0 -487.5 178t-169.5 483zM258 647q0 -300 167.5 -471.5t471.5 -171.5q149 0 282.5 55t233.5 152.5
t160.5 240t66.5 310.5q-197 -150 -385 -150q-70 0 -133 20.5t-111 49t-96 57.5t-110.5 49.5t-132.5 20.5q-194 0 -414 -162zM1255 633q105 0 206.5 45.5t180.5 107.5v13q0 288 -167.5 459.5t-464.5 171.5q-150 0 -285 -55t-237 -152.5t-164 -241t-66 -311.5q213 159 414 159
q73 0 137 -20t112 -49t95.5 -58t108.5 -49t130 -20z" />
    <glyph glyph-name="uni0473" unicode="&#x473;" horiz-adv-x="966" 
d="M184 365q0 79 15 156.5t50 153.5t86 134t129 93.5t173 35.5q68 0 122.5 -22t88.5 -58t57 -85.5t32 -101t9 -108.5q0 -95 -19 -182t-56.5 -159.5t-91 -126t-127 -83.5t-158.5 -30q-107 0 -178 52t-101.5 135.5t-30.5 195.5zM205 367q0 -169 72 -267t217 -98
q124 0 217.5 64t144 166.5t64.5 234.5q-80 -59 -164 -59q-46 0 -97 20t-88.5 43.5t-86.5 43.5t-93 20q-90 0 -180 -72q-6 -49 -6 -96zM756 426q81 0 168 63q2 23 2 70q0 162 -72 260.5t-217 98.5q-76 0 -141 -24t-111.5 -65t-82.5 -97t-57 -117.5t-32 -129.5q96 66 178 66
q47 0 98.5 -19.5t89 -43t86 -43t91.5 -19.5z" />
    <glyph glyph-name="uni0474" unicode="&#x474;" horiz-adv-x="1339" 
d="M1266 1092l-588 -1108h-6l-379 1450h22l365 -1411l567 1077q29 54 46 85t42.5 74t43.5 66t42.5 50.5t46 39.5t48 20.5t55 5.5t59.5 -16l-10 -18q-32 13 -61 13t-53.5 -8t-51 -32.5t-46.5 -48.5t-46.5 -67.5t-46 -78.5t-49.5 -93z" />
    <glyph glyph-name="uni0475" unicode="&#x475;" horiz-adv-x="964" 
d="M887 672l-385 -688h-6l-293 938h20l221 -707l60 -188q14 22 112 198l256 461q74 133 114 179q86 99 179 50l-10 -18q-85 48 -171 -65q-31 -41 -97 -160z" />
    <glyph glyph-name="uni0490" unicode="&#x490;" horiz-adv-x="1024" 
d="M246 0l252 1434h757l52 286h20l-53 -307h-758l-250 -1413h-20z" />
    <glyph glyph-name="uni0491" unicode="&#x491;" horiz-adv-x="696" 
d="M184 0l162 922h430l45 245h21l-47 -266h-430l-160 -901h-21z" />
    <glyph glyph-name="uni0492" unicode="&#x492;" horiz-adv-x="1132" 
d="M307 0l119 680h-276l4 20h276l129 734h778l-2 -21h-757l-127 -713h481l-4 -20h-482l-118 -680h-21z" />
    <glyph glyph-name="uni0493" unicode="&#x493;" horiz-adv-x="735" 
d="M225 0l76 432h-225l2 21h227l82 469h512l-4 -21h-492l-79 -448h358l-2 -21h-358l-76 -432h-21z" />
    <glyph glyph-name="uni0494" unicode="&#x494;" horiz-adv-x="1220" 
d="M246 0l252 1434h778l-2 -21h-758l-123 -688q48 31 77 47.5t83.5 42.5t114 38.5t123.5 12.5q154 0 257 -80.5t103 -218.5q0 -87 -21 -229l-40 -229q-11 -65 -23.5 -118t-31.5 -110t-41.5 -100.5t-54.5 -83.5t-70.5 -66t-89.5 -41.5t-111 -15.5q-98 0 -172 51l12 19
q74 -50 160 -50q78 0 140.5 28.5t103.5 73.5t73 115t50 138t34 157l41 230q20 125 20 225q0 133 -94.5 209t-244.5 76q-48 0 -95 -8.5t-79.5 -18t-74.5 -29.5t-59 -29.5t-53.5 -33t-40.5 -25.5l-123 -702h-20z" />
    <glyph glyph-name="uni0495" unicode="&#x495;" horiz-adv-x="897" 
d="M184 0l162 922h512l-4 -21h-492l-102 -582q92 107 201 178.5t209 71.5q89 0 144.5 -59t55.5 -176q0 -219 -134 -429.5t-335 -314.5h-32q200 101 339.5 308t139.5 434q0 217 -182 217q-56 0 -117.5 -25.5t-116 -67t-97 -82t-79.5 -83.5l-51 -291h-21z" />
    <glyph glyph-name="uni0496" unicode="&#x496;" horiz-adv-x="1867" 
d="M1970 1434l-784 -689l508 -725h174l-56 -307h-20l51 287h-157l-527 748l780 686h31zM885 750l-539 684h25l542 -686l-813 -748h-28zM895 0l252 1434h20l-252 -1434h-20z" />
    <glyph glyph-name="uni0497" unicode="&#x497;" horiz-adv-x="1169" 
d="M1251 922l-469 -445l287 -432q19 -25 61 -25h62l-47 -266h-21l43 246h-39q-30 0 -48.5 9.5t-35.5 33.5l-288 438l465 441h30zM504 483l-320 439h25l321 -441l-487 -481h-31zM549 0l162 922h20l-162 -922h-20z" />
    <glyph glyph-name="uni0498" unicode="&#x498;" horiz-adv-x="1163" 
d="M532 -328h-20l53 312q-141 3 -255.5 59.5t-176.5 153.5l14 12q68 -97 182.5 -151t254.5 -54q213 0 339 119.5t126 318.5q0 132 -79 206.5t-210 74.5h-199l4 20h185q100 0 185.5 56.5t133 143t47.5 177.5q0 148 -89.5 229t-260.5 81q-217 0 -408 -148l-10 14
q179 154 418 154q180 0 275.5 -83.5t95.5 -246.5q0 -134 -87.5 -244.5t-213.5 -140.5v-2q114 -17 173.5 -95t59.5 -196q0 -205 -131 -331t-352 -127z" />
    <glyph glyph-name="uni0499" unicode="&#x499;" horiz-adv-x="776" 
d="M332 -287h-21l47 271q-163 3 -288 88l12 18q124 -86 291 -86q155 0 248.5 80t93.5 203q0 83 -61 128.5t-169 45.5h-114l2 20h104q111 0 194 68t83 178q0 88 -62 139.5t-182 51.5q-85 0 -152 -18t-147 -60l-10 18q147 80 311 80q124 0 193 -57t69 -152q0 -96 -58 -163.5
t-159 -92.5v-2q86 -10 132 -60t46 -122q0 -133 -98 -217.5t-258 -87.5z" />
    <glyph glyph-name="uni049A" unicode="&#x49a;" horiz-adv-x="1286" 
d="M1409 1434l-866 -689l592 -725h174l-56 -307h-20l51 287h-160l-610 748l862 686h33zM246 0l252 1434h20l-252 -1434h-20z" />
    <glyph glyph-name="uni049B" unicode="&#x49b;" horiz-adv-x="876" 
d="M958 922l-542 -445l348 -426q28 -31 67 -31h62l-47 -266h-21l43 246h-39q-46 0 -79 37l-365 442l539 443h34zM184 0l162 922h21l-162 -922h-21z" />
    <glyph glyph-name="uni049C" unicode="&#x49c;" horiz-adv-x="1277" 
d="M1430 1434l-867 -689l629 -745h-27l-608 719l-61 -350h-21l131 737h21l-60 -332l830 660h33zM246 0l252 1434h20l-252 -1434h-20z" />
    <glyph glyph-name="uni049D" unicode="&#x49d;" horiz-adv-x="841" 
d="M979 922l-543 -445l424 -477h-26l-410 457l-47 -273h-21l99 553h20l-43 -235l512 420h35zM184 0l162 922h21l-162 -922h-21z" />
    <glyph glyph-name="uni04A0" unicode="&#x4a0;" horiz-adv-x="1499" 
d="M1651 1434l-867 -689l629 -745h-27l-630 748l862 686h33zM246 1413l4 21h510l-252 -1434h-21l248 1413h-489z" />
    <glyph glyph-name="uni04A1" unicode="&#x4a1;" horiz-adv-x="1005" 
d="M1143 922l-543 -445l424 -477h-27l-428 479l539 443h35zM369 0l157 901h-362l2 21h385l-162 -922h-20z" />
    <glyph glyph-name="uni04A2" unicode="&#x4a2;" horiz-adv-x="1597" 
d="M1300 0l127 721h-1034l-127 -721h-20l252 1434h20l-121 -693h1035l120 693h21l-250 -1414h197l-56 -307h-20l51 287h-195z" />
    <glyph glyph-name="uni04A3" unicode="&#x4a3;" horiz-adv-x="1028" 
d="M928 0q-57 0 -79 38t-11 103l57 320h-608l-82 -461h-21l162 922h21l-78 -441h608l78 441h20l-137 -781q-20 -121 72 -121h61l-47 -266h-20l43 246h-39z" />
    <glyph glyph-name="uni04A4" unicode="&#x4a4;" horiz-adv-x="2084" 
d="M1280 0l127 721h-1014l-127 -721h-20l252 1434h20l-121 -693h1014l121 693h758l-2 -21h-738l-250 -1413h-20z" />
    <glyph glyph-name="uni04A5" unicode="&#x4a5;" horiz-adv-x="1292" 
d="M367 922l-78 -441h598l78 441h481l-4 -21h-461l-158 -901h-20l80 461h-596l-82 -461h-21l162 922h21z" />
    <glyph glyph-name="uni04AA" unicode="&#x4aa;" horiz-adv-x="1345" 
d="M1337 129l9 -16q-83 -64 -205.5 -95.5t-239.5 -33.5l-53 -312h-21l54 312q-109 2 -206.5 30t-178 83.5t-139.5 133t-91.5 183t-32.5 229.5q0 159 60 305.5t165.5 257.5t262 177.5t338.5 66.5q270 0 420 -117l-13 -14q-159 111 -407 111q-142 0 -270 -42.5t-224.5 -117.5
t-167 -173.5t-107 -214t-36.5 -235.5q0 -152 50.5 -275.5t138 -203t204 -122t250.5 -42.5q256 0 440 125z" />
    <glyph glyph-name="uni04AB" unicode="&#x4ab;" horiz-adv-x="829" 
d="M791 125l12 -14q-143 -122 -297 -127l-47 -271h-21l47 271q-139 4 -220 103.5t-81 262.5q0 154 66 290t179 217t243 81q99 0 194 -31l-8 -20q-82 31 -186 31q-94 0 -181 -47t-149.5 -124.5t-99.5 -181t-37 -213.5q0 -162 79 -255t212 -93q89 0 155 31t140 90z" />
    <glyph glyph-name="uni04AE" unicode="&#x4ae;" horiz-adv-x="1155" 
d="M1346 1434l-658 -789l-113 -645h-20l113 645l-375 789h20l367 -770l641 770h25z" />
    <glyph glyph-name="uni04AF" unicode="&#x4af;" horiz-adv-x="774" 
d="M805 922h18q-37 -280 -160.5 -523.5t-293.5 -404.5l-70 -404h-20l71 412q-50 448 -194 920h20q147 -468 191 -908q175 180 288.5 412t149.5 496z" />
    <glyph glyph-name="uni04B0" unicode="&#x4b0;" horiz-adv-x="1155" 
d="M1346 1434l-650 -779h410l-4 -20h-416l-111 -635h-20l111 635h-412l4 20h404l-369 779h20l367 -770l641 770h25z" />
    <glyph glyph-name="uni04B1" unicode="&#x4b1;" horiz-adv-x="774" 
d="M805 922h18q-35 -269 -152.5 -504.5t-279.5 -397.5h283l-2 -20h-301l-72 -410h-20l71 410h-264l2 20h260q-49 429 -192 902h20q148 -470 191 -902q176 181 289 410t149 492z" />
    <glyph glyph-name="uni04B2" unicode="&#x4b2;" horiz-adv-x="1357" 
d="M1481 1434l-678 -705l432 -709h184l-55 -307h-21l52 287h-172l-437 713l-686 -713h-28l704 731l-430 703h25l420 -686l661 686h29z" />
    <glyph glyph-name="uni04B3" unicode="&#x4b3;" horiz-adv-x="806" 
d="M899 922l-401 -447l239 -432q13 -23 62 -23h61l-47 -266h-20l43 246h-39q-60 0 -84 47l-230 412l-413 -459h-29l432 477l-252 445h27l239 -428l383 428h29z" />
    <glyph glyph-name="uni04B6" unicode="&#x4b6;" horiz-adv-x="1292" 
d="M1268 1434l-252 -1414h196l-55 -307h-20l51 287h-195l125 705q-87 -52 -212 -95t-230 -43q-386 0 -383 340q0 55 12 119l72 408h20l-73 -414q-11 -72 -11 -111q-2 -161 88.5 -241t276.5 -80q192 0 444 139l125 707h21z" />
    <glyph glyph-name="uni04B7" unicode="&#x4b7;" horiz-adv-x="856" 
d="M752 0q-57 0 -79 38t-11 103l104 572q-23 -43 -46.5 -83t-66 -95.5t-85.5 -95.5t-100.5 -68.5t-115.5 -28.5q-85 0 -120 46t-33 138q0 59 22 152l62 244h22l-63 -250q-23 -102 -23 -146q-3 -164 135 -164q60 0 120.5 33.5t104.5 78.5t87 107t65.5 103t42.5 82l29 156h20
l-141 -781q-20 -121 72 -121h61l-47 -266h-20l43 246h-39z" />
    <glyph glyph-name="uni04B8" unicode="&#x4b8;" horiz-adv-x="1261" 
d="M1268 1434l-254 -1434h-21l125 705q-79 -49 -200.5 -88t-227.5 -42l-57 -323h-21l58 323q-187 2 -282.5 82t-94.5 250q0 55 12 119l72 408h20l-73 -414q-11 -72 -11 -111q-2 -160 86.5 -236.5t274.5 -76.5l69 393h21l-70 -393q205 5 428 131l125 707h21z" />
    <glyph glyph-name="uni04B9" unicode="&#x4b9;" horiz-adv-x="825" 
d="M823 922l-161 -922h-21l125 713q-184 -343 -381 -369l-43 -242h-20l43 240h-13q-82 0 -118.5 46.5t-34.5 137.5q0 59 22 152l62 244h22l-63 -250q-23 -102 -23 -146q-3 -164 135 -164h15l51 293h20l-51 -290q55 9 110 45.5t95 80.5t80 102.5t60.5 96t39.5 76.5l29 156h20
z" />
    <glyph glyph-name="uni04BA" unicode="&#x4ba;" horiz-adv-x="1280" 
d="M500 1434h20l-125 -711q86 57 206.5 100t250.5 43q69 0 129 -16.5t110.5 -51t82 -87.5t43 -127.5t-6.5 -169.5l-73 -414h-21l74 414q37 207 -59 319.5t-281 112.5q-73 0 -143 -13.5t-133 -40t-98.5 -44.5t-84.5 -46l-125 -702h-20z" />
    <glyph glyph-name="uni04BB" unicode="&#x4bb;" horiz-adv-x="985" 
d="M184 0l252 1434h21l-162 -922q262 426 465 426q180 0 180 -211q0 -48 -20 -174l-109 -553h-20l108 547q21 128 21 176q-2 91 -36.5 143t-123.5 52q-38 0 -79.5 -18t-75.5 -41.5t-77 -68.5t-68.5 -75t-66.5 -87t-55 -79t-49 -74l-84 -475h-21z" />
    <glyph glyph-name="uni04C0" unicode="&#x4c0;" horiz-adv-x="552" 
d="M287 0l252 1434h20l-252 -1434h-20z" />
    <glyph glyph-name="uni04CB" unicode="&#x4cb;" horiz-adv-x="1261" 
d="M1268 1434l-254 -1434h-195l-51 -287h-20l53 307h196l121 685q-87 -52 -212 -95t-230 -43q-386 0 -383 340q0 55 12 119l72 408h20l-73 -414q-11 -72 -11 -111q-2 -161 88.5 -241t276.5 -80q192 0 444 139l125 707h21z" />
    <glyph glyph-name="uni04CC" unicode="&#x4cc;" horiz-adv-x="825" 
d="M545 0h-39l-45 -246h-21l47 266h62q97 0 117 121l100 572q-23 -43 -46.5 -83t-66 -95.5t-85.5 -95.5t-100.5 -68.5t-115.5 -28.5q-85 0 -120 46t-33 138q0 59 22 152l62 244h22l-63 -250q-23 -102 -23 -146q-3 -164 135 -164q60 0 120.5 33.5t104.5 78.5t87 107t65.5 103
t42.5 82l29 156h20l-137 -781q-11 -65 -47.5 -103t-93.5 -38z" />
    <glyph glyph-name="uni04CF" unicode="&#x4cf;" horiz-adv-x="552" 
d="M287 0l252 1434h20l-252 -1434h-20z" />
    <glyph glyph-name="uni04D0" unicode="&#x4d0;" horiz-adv-x="1402" 
d="M61 0l893 1450h7l380 -1450h-20l-150 567h-737l-350 -567h-23zM950 1409l-504 -821h719zM666 1720h20q41 -164 283 -164q109 0 195 45t134 119h21q-47 -82 -141 -133t-209 -51q-266 0 -303 184z" />
    <glyph glyph-name="uni04D1" unicode="&#x4d1;" horiz-adv-x="966" 
d="M965 885l-146 -885h-20l69 424q-97 -164 -149 -232q-154 -200 -307 -200q-112 0 -170 86.5t-58 224.5q0 139 44 258.5t118.5 201.5t175.5 128.5t213 46.5q118 0 230 -53zM414 12q34 0 66.5 9.5t64 30t58.5 41.5t56.5 56.5t50 60t48.5 68t41.5 65t40 65.5t34.5 57l68 407
q-61 25 -104 35.5t-105 10.5q-105 0 -200.5 -43.5t-168 -121t-116 -193.5t-43.5 -253q0 -132 52 -213.5t157 -81.5zM537 1413h20q-12 -95 38.5 -150t152.5 -55q96 0 168.5 57t91.5 148h20q-17 -98 -97.5 -161.5t-185.5 -63.5q-111 0 -168 63t-40 162z" />
    <glyph glyph-name="uni04D2" unicode="&#x4d2;" horiz-adv-x="1402" 
d="M61 0l893 1450h7l380 -1450h-20l-150 567h-737l-350 -567h-23zM950 1409l-504 -821h719zM705 1618q0 10 7.5 17t18.5 7q9 0 17 -7t8 -17q0 -12 -8 -19.5t-17 -7.5q-11 0 -18.5 7.5t-7.5 19.5zM1184 1618q0 10 7.5 17t18.5 7q10 0 17.5 -6.5t7.5 -17.5q0 -12 -7.5 -19.5
t-17.5 -7.5q-11 0 -18.5 7.5t-7.5 19.5z" />
    <glyph glyph-name="uni04D3" unicode="&#x4d3;" horiz-adv-x="966" 
d="M965 885l-146 -885h-20l69 424q-97 -164 -149 -232q-154 -200 -307 -200q-112 0 -170 86.5t-58 224.5q0 139 44 258.5t118.5 201.5t175.5 128.5t213 46.5q118 0 230 -53zM414 12q34 0 66.5 9.5t64 30t58.5 41.5t56.5 56.5t50 60t48.5 68t41.5 65t40 65.5t34.5 57l68 407
q-61 25 -104 35.5t-105 10.5q-105 0 -200.5 -43.5t-168 -121t-116 -193.5t-43.5 -253q0 -132 52 -213.5t157 -81.5zM508 1251q0 9 8.5 17t18.5 8q9 0 16.5 -8t7.5 -17q0 -10 -7.5 -18t-16.5 -8q-11 0 -19 8t-8 18zM946 1251q0 9 8.5 17t18.5 8q9 0 16.5 -8t7.5 -17
q0 -10 -7.5 -18t-16.5 -8q-11 0 -19 8t-8 18z" />
    <glyph glyph-name="uni04D4" unicode="&#x4d4;" horiz-adv-x="1978" 
d="M1835 0h-788l102 584h-582l-518 -584h-29l1274 1434h772l-2 -21h-747l-119 -672h686l-4 -20h-686l-123 -701h768zM1294 1403l-708 -799h567z" />
    <glyph glyph-name="uni04D5" unicode="&#x4d5;" horiz-adv-x="1566" 
d="M1518 147l12 -14q-162 -149 -354 -149q-79 0 -139.5 30.5t-97 83t-55 118.5t-18.5 142q0 20 4 66q-29 -49 -45 -75.5t-50.5 -79t-60.5 -84t-65 -72.5t-73.5 -64.5t-78 -40t-85.5 -16.5q-112 0 -170 86.5t-58 224.5q0 139 44 258.5t118.5 201.5t175.5 128.5t213 46.5
q186 0 322 -127q131 127 291 127q114 0 181.5 -52t67.5 -153q0 -89 -60.5 -156t-162.5 -103t-225 -51t-260 -9q-2 -16 -2 -52q-2 -73 15 -136.5t51.5 -113.5t92.5 -79t132 -29q98 0 185.5 39.5t154.5 103.5zM414 12q34 0 66.5 9.5t64 30t58.5 41.5t56.5 56.5t50 60t48.5 68
t41.5 65t40 65.5t34.5 57q19 103 58.5 178.5t107.5 151.5q-127 123 -307 123q-105 0 -200.5 -43.5t-168 -121t-116 -193.5t-43.5 -253q0 -132 52 -213.5t157 -81.5zM1348 918q-111 0 -210.5 -67t-164 -177t-82.5 -240q134 -6 255 8.5t218 48.5t154 95t57 141
q0 94 -58.5 142.5t-168.5 48.5z" />
    <glyph glyph-name="uni04D6" unicode="&#x4d6;" horiz-adv-x="1177" 
d="M246 0l252 1434h768l-2 -21h-748l-119 -672h686l-4 -20h-686l-123 -701h768l-4 -20h-788zM598 1720h20q41 -164 283 -164q109 0 195.5 45t134.5 119h20q-47 -82 -141 -133t-209 -51q-266 0 -303 184z" />
    <glyph glyph-name="uni04D7" unicode="&#x4d7;" horiz-adv-x="884" 
d="M836 147l12 -14q-162 -149 -354 -149q-79 0 -139.5 30.5t-97 83t-55 118.5t-18.5 142q0 110 39 216t103.5 186t154 129t185.5 49q114 0 181.5 -52t67.5 -153q0 -89 -60.5 -156t-162.5 -103t-225 -51t-260 -9q-2 -16 -2 -52q-2 -73 15 -136.5t51.5 -113.5t92.5 -79
t132 -29q98 0 185.5 39.5t154.5 103.5zM666 918q-111 0 -210.5 -67t-164 -177t-82.5 -240q134 -6 255 8.5t218 48.5t154 95t57 141q0 94 -58.5 142.5t-168.5 48.5zM500 1413h20q-12 -95 38.5 -150t152.5 -55q96 0 168.5 57t91.5 148h20q-17 -98 -97 -161.5t-185 -63.5
q-112 0 -169 63t-40 162z" />
    <glyph glyph-name="uni04D8" unicode="&#x4d8;" horiz-adv-x="1611" 
d="M252 741h1354q13 137 -18.5 260t-102 219t-190.5 153t-273 57q-245 0 -434 -130l-13 17q186 133 447 133q189 0 327 -80.5t208.5 -223t70.5 -329.5q0 -235 -97.5 -424t-280.5 -299t-419 -110q-207 0 -352.5 100t-204.5 272.5t-22 384.5zM834 4q314 0 527.5 199t244.5 518
h-1338q-31 -198 28 -361.5t200.5 -259.5t337.5 -96z" />
    <glyph glyph-name="uni04D9" unicode="&#x4d9;" horiz-adv-x="872" 
d="M201 774l-13 14q163 150 355 150q79 0 139.5 -30.5t97 -83.5t54.5 -119t18 -142q0 -147 -65 -280.5t-176.5 -216t-239.5 -82.5q-115 0 -182.5 51.5t-67.5 152.5q0 89 60.5 156t162.5 103.5t225 51.5t260 9q2 16 2 51q2 99 -27 178t-97 130t-166 51t-185.5 -40
t-154.5 -104zM371 4q111 0 210 66.5t163.5 176.5t82.5 240q-135 6 -255.5 -8.5t-217.5 -48.5t-154 -94.5t-57 -140.5q0 -94 59 -142.5t169 -48.5z" />
    <glyph glyph-name="uni04DC" unicode="&#x4dc;" horiz-adv-x="1812" 
d="M1970 1434l-784 -689l553 -745h-23l-557 748l780 686h31zM895 0l252 1434h20l-252 -1434h-20zM885 750l-539 684h25l542 -686l-813 -748h-28zM901 1618q0 10 8 17t19 7q9 0 16.5 -7t7.5 -17q0 -12 -7.5 -19.5t-16.5 -7.5q-11 0 -19 7.5t-8 19.5zM1380 1618q0 10 8 17
t19 7q10 0 17.5 -6.5t7.5 -17.5q0 -12 -8 -19.5t-17 -7.5q-11 0 -19 7.5t-8 19.5z" />
    <glyph glyph-name="uni04DD" unicode="&#x4dd;" horiz-adv-x="1105" 
d="M1251 922l-469 -445l340 -477h-26l-340 481l465 441h30zM549 0l162 922h20l-162 -922h-20zM504 483l-320 439h25l321 -441l-487 -481h-31zM514 1251q0 9 8.5 17t18.5 8q9 0 16.5 -8t7.5 -17q0 -10 -7.5 -18t-16.5 -8q-11 0 -19 8t-8 18zM952 1251q0 9 8.5 17t18.5 8
q9 0 17 -8t8 -17q0 -10 -8 -18t-17 -8q-11 0 -19 8t-8 18z" />
    <glyph glyph-name="uni04DE" unicode="&#x4de;" horiz-adv-x="1163" 
d="M582 -16q-146 0 -266 57t-183 156l14 12q68 -97 182.5 -151t254.5 -54q213 0 339 119.5t126 318.5q0 132 -79 206.5t-210 74.5h-199l4 20h185q100 0 185.5 56.5t133 143t47.5 177.5q0 148 -89.5 229t-260.5 81q-217 0 -408 -148l-10 14q179 154 418 154
q180 0 275.5 -83.5t95.5 -246.5q0 -134 -87.5 -244.5t-213.5 -140.5v-2q114 -17 173.5 -95t59.5 -196q0 -207 -132 -332.5t-355 -125.5zM528 1618q0 10 8 17t19 7q9 0 17 -7t8 -17q0 -12 -8 -19.5t-17 -7.5q-11 0 -19 7.5t-8 19.5zM1008 1618q0 10 7.5 17t18.5 7
q10 0 17.5 -6.5t7.5 -17.5q0 -12 -7.5 -19.5t-17.5 -7.5q-11 0 -18.5 7.5t-7.5 19.5z" />
    <glyph glyph-name="uni04DF" unicode="&#x4df;" horiz-adv-x="776" 
d="M371 -16q-173 0 -301 88l12 18q124 -86 291 -86q155 0 248.5 80t93.5 203q0 83 -61 128.5t-169 45.5h-114l2 20h104q111 0 194 68t83 178q0 88 -62 139.5t-182 51.5q-85 0 -152 -18t-147 -60l-10 18q147 80 311 80q124 0 193 -57t69 -152q0 -96 -58 -163.5t-159 -92.5v-2
q86 -10 132 -60t46 -122q0 -134 -100.5 -219.5t-263.5 -85.5zM295 1251q0 9 8.5 17t18.5 8q9 0 16.5 -8t7.5 -17q0 -10 -7.5 -18t-16.5 -8q-11 0 -19 8t-8 18zM733 1251q0 9 8.5 17t18.5 8q9 0 16.5 -8t7.5 -17q0 -10 -7.5 -18t-16.5 -8q-11 0 -19 8t-8 18z" />
    <glyph glyph-name="uni04E2" unicode="&#x4e2;" horiz-adv-x="1638" 
d="M266 0h-20l252 1434h20l-246 -1399l1352 1399h21l-252 -1434h-21l248 1401zM797 1618l4 20h602l-4 -20h-602z" />
    <glyph glyph-name="uni04E3" unicode="&#x4e3;" horiz-adv-x="970" 
d="M969 922l-162 -922h-21l72 410q-262 -426 -461 -426q-180 0 -180 211q0 42 21 174l116 553h21l-117 -547q-20 -122 -20 -176q2 -91 36 -143t123 -52q62 0 127.5 39.5t132.5 119t102 128.5t93 137l12 18l84 476h21zM494 1311l4 20h479l-4 -20h-479z" />
    <glyph glyph-name="uni04E4" unicode="&#x4e4;" horiz-adv-x="1638" 
d="M266 0h-20l252 1434h20l-246 -1399l1352 1399h21l-252 -1434h-21l248 1401zM846 1618q0 10 7.5 17t18.5 7q9 0 17 -7t8 -17q0 -12 -7.5 -19.5t-17.5 -7.5q-11 0 -18.5 7.5t-7.5 19.5zM1325 1618q0 10 8 17t19 7q10 0 17 -6.5t7 -17.5q0 -12 -7.5 -19.5t-16.5 -7.5
q-11 0 -19 7.5t-8 19.5z" />
    <glyph glyph-name="uni04E5" unicode="&#x4e5;" horiz-adv-x="970" 
d="M969 922l-162 -922h-21l72 410q-262 -426 -461 -426q-180 0 -180 211q0 42 21 174l116 553h21l-117 -547q-20 -122 -20 -176q2 -91 36 -143t123 -52q62 0 127.5 39.5t132.5 119t102 128.5t93 137l12 18l84 476h21zM475 1292q0 9 8.5 17t18.5 8q9 0 16.5 -8t7.5 -17
q0 -10 -7.5 -18t-16.5 -8q-11 0 -19 8t-8 18zM913 1292q0 9 8.5 17t18.5 8q9 0 17 -8t8 -17q0 -10 -8 -18t-17 -8q-11 0 -19 8t-8 18z" />
    <glyph glyph-name="uni04E6" unicode="&#x4e6;" horiz-adv-x="1646" 
d="M238 645q0 174 59.5 324t163 255.5t246.5 165.5t305 60q154 0 277.5 -47t205 -132.5t125 -204t43.5 -261.5q0 -175 -57 -327.5t-157.5 -261t-244 -170.5t-309.5 -62q-318 0 -487.5 178t-169.5 483zM258 647q0 -300 167.5 -471.5t471.5 -171.5q154 0 290.5 58t237 160
t159 252t58.5 325q0 288 -167.5 459.5t-464.5 171.5q-152 0 -289.5 -57t-240 -157.5t-162.5 -248.5t-60 -320zM758 1618q0 10 7.5 17t18.5 7q9 0 17 -7t8 -17q0 -12 -7.5 -19.5t-17.5 -7.5q-11 0 -18.5 7.5t-7.5 19.5zM1237 1618q0 10 8 17t19 7q10 0 17 -6.5t7 -17.5
q0 -12 -7.5 -19.5t-16.5 -7.5q-11 0 -19 7.5t-8 19.5z" />
    <glyph glyph-name="uni04E7" unicode="&#x4e7;" horiz-adv-x="966" 
d="M184 365q0 79 15 156.5t50 153.5t86 134t129 93.5t173 35.5q68 0 122.5 -22t88.5 -58t57 -85.5t32 -101t9 -108.5q0 -95 -19 -182t-56.5 -159.5t-91 -126t-127 -83.5t-158.5 -30q-107 0 -178 52t-101.5 135.5t-30.5 195.5zM205 367q0 -169 72 -267t217 -98
q104 0 188 45.5t136.5 123t80 177t27.5 211.5q0 162 -72 260.5t-217 98.5q-89 0 -163 -33.5t-123 -88t-82.5 -127t-48.5 -148.5t-15 -154zM426 1251q0 9 8.5 17t18.5 8q9 0 16.5 -8t7.5 -17q0 -10 -7.5 -18t-16.5 -8q-11 0 -19 8t-8 18zM864 1251q0 9 8.5 17t18.5 8
q9 0 16.5 -8t7.5 -17q0 -10 -7.5 -18t-16.5 -8q-11 0 -19 8t-8 18z" />
    <glyph glyph-name="uni04E8" unicode="&#x4e8;" horiz-adv-x="1646" 
d="M238 645q0 174 59.5 324t163 255.5t246.5 165.5t305 60q154 0 277.5 -47t205 -132.5t125 -204t43.5 -261.5q0 -175 -57 -327.5t-157.5 -261t-244 -170.5t-309.5 -62q-318 0 -487.5 178t-169.5 483zM1010 1430q-193 0 -357.5 -86.5t-270.5 -249.5t-122 -373h1378
q4 50 4 78q0 288 -167.5 459.5t-464.5 171.5zM258 647q0 -300 167.5 -471.5t471.5 -171.5q191 0 351.5 85t264.5 244.5t125 366.5h-1378q-2 -18 -2 -53z" />
    <glyph glyph-name="uni04E9" unicode="&#x4e9;" horiz-adv-x="966" 
d="M184 365q0 79 15 156.5t50 153.5t86 134t129 93.5t173 35.5q68 0 122.5 -22t88.5 -58t57 -85.5t32 -101t9 -108.5q0 -95 -19 -182t-56.5 -159.5t-91 -126t-127 -83.5t-158.5 -30q-107 0 -178 52t-101.5 135.5t-30.5 195.5zM205 367q0 -169 72 -267t217 -98q179 0 289 126
t135 323h-709q-4 -58 -4 -84zM637 918q-97 0 -174.5 -38t-128 -103t-81 -141.5t-42.5 -164.5h711q4 58 4 88q0 162 -72 260.5t-217 98.5z" />
    <glyph glyph-name="uni04EE" unicode="&#x4ee;" horiz-adv-x="1282" 
d="M1493 1434l-705 -1119q-38 -60 -59 -92t-60 -82t-70 -75.5t-73.5 -45.5t-85.5 -20q-78 0 -127 39l13 16q47 -37 114 -37q44 0 88 23t81 61t64 74.5t50 75.5l43 67l-483 1115h22l475 -1094l686 1094h27zM614 1618l4 20h603l-4 -20h-603z" />
    <glyph glyph-name="uni04EF" unicode="&#x4ef;" horiz-adv-x="776" 
d="M819 922h23q-90 -302 -169 -519.5t-186 -412.5q-9 -16 -30 -55.5t-31 -57.5t-30.5 -54t-33 -54t-34 -47t-37.5 -44.5t-39 -35t-43.5 -29t-46 -16.5t-51.5 -7q-65 0 -123 37l12 19q53 -35 111 -35q31 0 60 10t52 24t48.5 41t42.5 49t40.5 60t36.5 62t36.5 68t35.5 65
q-122 506 -305 932h22q191 -450 297 -910q101 188 176.5 399t165.5 511zM293 1311l4 20h479l-4 -20h-479z" />
    <glyph glyph-name="uni04F0" unicode="&#x4f0;" horiz-adv-x="1282" 
d="M1493 1434l-705 -1119q-38 -60 -59 -92t-60 -82t-70 -75.5t-73.5 -45.5t-85.5 -20q-78 0 -127 39l13 16q47 -37 114 -37q44 0 88 23t81 61t64 74.5t50 75.5l43 67l-483 1115h22l475 -1094l686 1094h27zM655 1618q0 10 8 17t19 7q9 0 17 -7t8 -17q0 -12 -7.5 -19.5
t-17.5 -7.5q-11 0 -19 7.5t-8 19.5zM1135 1618q0 10 7.5 17t18.5 7q10 0 17.5 -6.5t7.5 -17.5q0 -12 -8 -19.5t-17 -7.5q-11 0 -18.5 7.5t-7.5 19.5z" />
    <glyph glyph-name="uni04F1" unicode="&#x4f1;" horiz-adv-x="776" 
d="M819 922h23q-90 -302 -169 -519.5t-186 -412.5q-9 -16 -30 -55.5t-31 -57.5t-30.5 -54t-33 -54t-34 -47t-37.5 -44.5t-39 -35t-43.5 -29t-46 -16.5t-51.5 -7q-65 0 -123 37l12 19q53 -35 111 -35q31 0 60 10t52 24t48.5 41t42.5 49t40.5 60t36.5 62t36.5 68t35.5 65
q-122 506 -305 932h22q191 -450 297 -910q101 188 176.5 399t165.5 511zM274 1251q0 9 8.5 17t18.5 8q9 0 17 -8t8 -17q0 -10 -8 -18t-17 -8q-11 0 -19 8t-8 18zM713 1251q0 9 8 17t18 8q9 0 17 -8t8 -17q0 -10 -8 -18t-17 -8q-11 0 -18.5 7.5t-7.5 18.5z" />
    <glyph glyph-name="uni04F2" unicode="&#x4f2;" horiz-adv-x="1282" 
d="M1493 1434l-705 -1119q-38 -60 -59 -92t-60 -82t-70 -75.5t-73.5 -45.5t-85.5 -20q-78 0 -127 39l13 16q47 -37 114 -37q44 0 88 23t81 61t64 74.5t50 75.5l43 67l-483 1115h22l475 -1094l686 1094h27zM1303 1704l-316 -184l-10 14l317 186zM954 1704l-315 -184l-10 14
l317 186z" />
    <glyph glyph-name="uni04F3" unicode="&#x4f3;" horiz-adv-x="776" 
d="M819 922h23q-90 -302 -169 -519.5t-186 -412.5q-9 -16 -30 -55.5t-31 -57.5t-30.5 -54t-33 -54t-34 -47t-37.5 -44.5t-39 -35t-43.5 -29t-46 -16.5t-51.5 -7q-65 0 -123 37l12 19q53 -35 111 -35q31 0 60 10t52 24t48.5 41t42.5 49t40.5 60t36.5 62t36.5 68t35.5 65
q-122 506 -305 932h22q191 -450 297 -910q101 188 176.5 399t165.5 511zM864 1434l-223 -289l-16 10l225 291zM578 1434l-224 -289l-16 10l225 291z" />
    <glyph glyph-name="uni04F4" unicode="&#x4f4;" horiz-adv-x="1261" 
d="M1268 1434l-254 -1434h-21l125 705q-87 -52 -212 -95t-230 -43q-386 0 -383 340q0 55 12 119l72 408h20l-73 -414q-11 -72 -11 -111q-2 -161 88.5 -241t276.5 -80q192 0 444 139l125 707h21zM590 1618q0 10 7.5 17t18.5 7q9 0 17 -7t8 -17q0 -12 -7.5 -19.5t-17.5 -7.5
q-11 0 -18.5 7.5t-7.5 19.5zM1069 1618q0 10 8 17t19 7q10 0 17 -6.5t7 -17.5q0 -12 -7.5 -19.5t-16.5 -7.5q-11 0 -19 7.5t-8 19.5z" />
    <glyph glyph-name="uni04F5" unicode="&#x4f5;" horiz-adv-x="825" 
d="M823 922l-161 -922h-21l125 713q-23 -43 -46.5 -83t-66 -95.5t-85.5 -95.5t-100.5 -68.5t-115.5 -28.5q-85 0 -120 46t-33 138q0 59 22 152l62 244h22l-63 -250q-23 -102 -23 -146q-3 -164 135 -164q60 0 120.5 33.5t104.5 78.5t87 107t65.5 103t42.5 82l29 156h20z
M362 1251q0 9 8.5 17t18.5 8q9 0 17 -8t8 -17q0 -10 -8 -18t-17 -8q-11 0 -19 8t-8 18zM801 1251q0 9 8 17t18 8q9 0 17 -8t8 -17q0 -10 -8 -18t-17 -8q-11 0 -18.5 7.5t-7.5 18.5z" />
    <glyph glyph-name="uni04F6" unicode="&#x4f6;" horiz-adv-x="1024" 
d="M246 0l252 1434h778l-2 -21h-758l-248 -1393h197l-55 -307h-21l51 287h-194z" />
    <glyph glyph-name="uni04F7" unicode="&#x4f7;" horiz-adv-x="735" 
d="M299 0q-57 0 -79 38t-11 103l137 781h512l-4 -21h-492l-133 -760q-20 -121 72 -121h61l-47 -266h-20l43 246h-39z" />
    <glyph glyph-name="uni04F8" unicode="&#x4f8;" horiz-adv-x="1648" 
d="M1382 0l252 1434h21l-252 -1434h-21zM702 809q-169 0 -294 -12l-138 -777q29 0 117.5 -2t163.5 -2q269 0 420 126.5t151 349.5q0 151 -106.5 234t-313.5 83zM518 1434l-108 -617q159 12 295 12q213 0 325.5 -88.5t112.5 -244.5q0 -162 -75.5 -276t-207.5 -169t-309 -55
q-75 0 -172.5 2t-132.5 2l252 1434h20zM829 1618q0 10 8 17t19 7q9 0 17 -7t8 -17q0 -12 -7.5 -19.5t-17.5 -7.5q-11 0 -19 7.5t-8 19.5zM1309 1618q0 10 7.5 17t18.5 7q10 0 17.5 -6.5t7.5 -17.5q0 -12 -8 -19.5t-17 -7.5q-11 0 -18.5 7.5t-7.5 19.5z" />
    <glyph glyph-name="uni04F9" unicode="&#x4f9;" horiz-adv-x="1173" 
d="M217 205q0 59 29.5 189t78.5 310t58 218h20q-5 -21 -67 -253.5t-86 -349.5q84 125 203.5 212t236.5 87q73 0 115.5 -56t42.5 -126q0 -53 -24.5 -113.5t-70 -117t-103 -103t-130 -74.5t-145.5 -28q-158 0 -158 205zM688 598q-114 0 -230 -85.5t-210 -221.5
q-10 -72 -10 -82q0 -189 139 -189q108 0 214.5 66t171 162.5t64.5 185.5q0 66 -37.5 115t-101.5 49zM989 0l162 922h20l-161 -922h-21zM586 1251q0 9 8 17t18 8q9 0 17 -8t8 -17q0 -10 -8 -18t-17 -8q-10 0 -18 7.5t-8 18.5zM1024 1251q0 9 8.5 17t18.5 8q9 0 16.5 -8
t7.5 -17q0 -10 -7.5 -18t-16.5 -8q-11 0 -19 8t-8 18z" />
    <glyph glyph-name="uni1E9E" unicode="&#x1e9e;" horiz-adv-x="1171" 
d="M1110 344q0 47 -11 92.5t-26 82.5t-45.5 81t-54.5 73.5t-69 74.5t-72 70t-80 73l372 448q-105 91 -258 91q-170 0 -277.5 -101.5t-139.5 -275.5l-187 -1061h-20l190 1079q30 171 143.5 275t290.5 104q91 0 157.5 -26t127.5 -81l-375 -450q142 -131 188 -181
q146 -158 163 -313q3 -24 3 -49q0 -157 -103 -261.5t-273 -104.5q-153 0 -260 118l16 15q101 -113 244 -113q159 0 257.5 95.5t98.5 244.5z" />
    <glyph glyph-name="uni2010" unicode="&#x2010;" horiz-adv-x="847" 
d="M303 543l4 20h438l-4 -20h-438z" />
    <glyph glyph-name="uni2011" unicode="&#x2011;" horiz-adv-x="847" 
d="M303 543l4 20h438l-4 -20h-438z" />
    <glyph glyph-name="figuredash" unicode="&#x2012;" horiz-adv-x="1060" 
d="M309 715l4 20h697l-4 -20h-697z" />
    <glyph glyph-name="endash" unicode="&#x2013;" 
d="M301 543l4 20h787l-5 -20h-786z" />
    <glyph glyph-name="emdash" unicode="&#x2014;" horiz-adv-x="1605" 
d="M301 543l4 20h1196l-4 -20h-1196z" />
    <glyph glyph-name="uni2015" unicode="&#x2015;" horiz-adv-x="1605" 
d="M301 543l4 20h1196l-4 -20h-1196z" />
    <glyph glyph-name="quoteleft" unicode="&#x2018;" horiz-adv-x="483" 
d="M463 1137l-19 -17q-26 39 -26 94q0 167 160 242l8 -16q-146 -80 -146 -223q0 -51 23 -80z" />
    <glyph glyph-name="quoteright" unicode="&#x2019;" horiz-adv-x="483" 
d="M473 1440l21 16q24 -36 24 -94q0 -167 -160 -242l-8 17q146 80 146 223q0 51 -23 80z" />
    <glyph glyph-name="quotesinglbase" unicode="&#x201a;" horiz-adv-x="483" 
d="M233 78l21 16q25 -37 25 -94q0 -167 -160 -242l-8 17q145 79 145 223q0 51 -23 80z" />
    <glyph glyph-name="quotedblleft" unicode="&#x201c;" horiz-adv-x="708" 
d="M688 1137l-18 -17q-27 40 -27 94q0 167 160 242l8 -16q-145 -79 -145 -223q0 -52 22 -80zM463 1137l-19 -17q-26 39 -26 94q0 167 160 242l8 -16q-146 -80 -146 -223q0 -51 23 -80z" />
    <glyph glyph-name="quotedblright" unicode="&#x201d;" horiz-adv-x="708" 
d="M698 1440l21 16q24 -36 24 -94q0 -167 -159 -242l-9 17q146 80 146 223q0 51 -23 80zM473 1440l21 16q24 -36 24 -94q0 -167 -160 -242l-8 17q146 80 146 223q0 51 -23 80z" />
    <glyph glyph-name="quotedblbase" unicode="&#x201e;" horiz-adv-x="708" 
d="M459 78l20 16q25 -38 25 -94q0 -167 -160 -242l-8 17q145 79 145 223q0 52 -22 80zM233 78l21 16q25 -37 25 -94q0 -167 -160 -242l-8 17q145 79 145 223q0 51 -23 80z" />
    <glyph glyph-name="dagger" unicode="&#x2020;" horiz-adv-x="806" 
d="M205 901v21h311v512h21v-512h311v-21h-311v-1106h-21v1106h-311z" />
    <glyph glyph-name="daggerdbl" unicode="&#x2021;" horiz-adv-x="806" 
d="M205 901v21h311v512h21v-512h311v-21h-311v-512h311v-20h-311v-574h-21v574h-311v20h311v512h-311z" />
    <glyph glyph-name="bullet" unicode="&#x2022;" horiz-adv-x="245" 
d="M184 532q0 17 12 29t29 12t29 -12t12 -29t-12 -28.5t-29 -11.5t-29 11.5t-12 28.5z" />
    <glyph glyph-name="ellipsis" unicode="&#x2026;" horiz-adv-x="1689" 
d="M1434 27q0 9 8 16.5t18 7.5q9 0 17 -7.5t8 -16.5q0 -10 -8 -18.5t-17 -8.5q-10 0 -18 8t-8 19zM819 27q0 9 8.5 16.5t18.5 7.5q9 0 16.5 -7.5t7.5 -16.5q0 -10 -7.5 -18.5t-16.5 -8.5q-10 0 -18.5 8t-8.5 19zM205 27q0 9 8 16.5t18 7.5q9 0 17 -7.5t8 -16.5
q0 -10 -8 -18.5t-17 -8.5q-10 0 -18 8t-8 19z" />
    <glyph glyph-name="perthousand" unicode="&#x2030;" horiz-adv-x="2476" 
d="M1831 264q0 162 100 260.5t271 98.5q119 0 196.5 -75.5t77.5 -193.5q0 -67 -22 -129t-64.5 -113t-113.5 -81.5t-160 -30.5q-129 0 -207 73.5t-78 190.5zM1851 268q0 -111 73 -179.5t196 -68.5q83 0 149 28.5t105.5 76t60.5 105.5t21 120q0 112 -70.5 182t-187.5 70
q-158 0 -252.5 -91t-94.5 -243zM399 -2l1088 1452l16 -10l-1087 -1456zM236 1075q0 163 100 261t270 98q119 0 197 -75.5t78 -193.5q0 -67 -22 -129t-65 -113t-114 -81.5t-160 -30.5q-129 0 -206.5 73.5t-77.5 190.5zM256 1079q0 -111 72.5 -179.5t195.5 -68.5
q83 0 149 28.5t105.5 76t60.5 105.5t21 120q0 112 -70.5 182t-187.5 70q-158 0 -252 -91t-94 -243zM1012 264q0 163 100 261t270 98q119 0 197 -75.5t78 -193.5q0 -67 -22 -129t-65 -113t-114 -81.5t-160 -30.5q-129 0 -206.5 73.5t-77.5 190.5zM1032 268
q0 -111 72.5 -179.5t195.5 -68.5q83 0 149 28.5t105.5 76t60.5 105.5t21 120q0 112 -70.5 182t-187.5 70q-158 0 -252 -91t-94 -243z" />
    <glyph glyph-name="guilsinglleft" unicode="&#x2039;" horiz-adv-x="653" 
d="M492 98l-279 412l2 6l424 406l14 -15l-415 -397l270 -397z" />
    <glyph glyph-name="guilsinglright" unicode="&#x203a;" horiz-adv-x="653" 
d="M618 506l-419 -408l-15 15l412 399l-272 395l16 15l281 -410z" />
    <glyph glyph-name="fraction" unicode="&#x2044;" horiz-adv-x="366" 
d="M-246 -2l1088 1452l16 -10l-1087 -1456z" />
    <glyph glyph-name="zerosuperior" unicode="&#x2070;" horiz-adv-x="729" 
d="M283 985q0 122 38.5 225t115.5 167.5t179 64.5q105 0 158 -75.5t53 -201.5q0 -121 -38 -223.5t-114.5 -167.5t-178.5 -65q-106 0 -159.5 75t-53.5 201zM303 987q0 -118 48 -188t145 -70q99 0 171.5 65t106 161.5t33.5 207.5q0 110 -45.5 184t-145.5 74
q-96 0 -168.5 -61.5t-108.5 -159t-36 -213.5z" />
    <glyph glyph-name="foursuperior" unicode="&#x2074;" horiz-adv-x="641" 
d="M571 717l35 201h-403l2 10l489 506h27l-479 -496h368l41 240h21l-41 -240h135l-4 -20h-135l-35 -201h-21z" />
    <glyph glyph-name="fivesuperior" unicode="&#x2075;" horiz-adv-x="649" 
d="M358 1110l107 324h354l-4 -21h-338l-90 -276q48 10 113 10q115 0 172 -51.5t57 -137.5q0 -114 -82.5 -181.5t-193.5 -67.5q-182 0 -236 120l19 11q50 -111 217 -111q109 0 181.5 63t72.5 166q0 83 -55.5 125.5t-153.5 42.5q-81 0 -140 -16z" />
    <glyph glyph-name="sixsuperior" unicode="&#x2076;" horiz-adv-x="718" 
d="M268 928q0 177 146 328.5t350 185.5l4 -19q-172 -35 -299 -140.5t-170 -264.5q37 60 109 98.5t161 38.5q108 0 166 -52t58 -140q0 -113 -84 -183.5t-201 -70.5q-120 0 -180 61.5t-60 157.5zM291 971q-15 -111 42.5 -176.5t176.5 -65.5q107 0 184.5 64t77.5 170
q0 79 -51.5 125.5t-151.5 46.5t-175.5 -51t-102.5 -113z" />
    <glyph glyph-name="sevensuperior" unicode="&#x2077;" horiz-adv-x="573" 
d="M301 1413l4 21h471l-2 -11l-465 -706h-24l458 696h-442z" />
    <glyph glyph-name="eightsuperior" unicode="&#x2078;" horiz-adv-x="731" 
d="M537 1096h47q75 0 146 53.5t71 128.5q0 65 -55 104t-130 39q-93 0 -166 -50t-73 -132q0 -61 49 -102t111 -41zM578 1075h-39q-100 0 -179 -56.5t-79 -131.5q0 -69 62.5 -113.5t150.5 -44.5q109 0 193.5 55.5t84.5 143.5q0 67 -55 107t-139 40zM494 709q-97 0 -165.5 46.5
t-68.5 125.5q0 71 63 129t162 73v4q-58 12 -93.5 56t-35.5 96q0 88 79.5 145.5t185.5 57.5q88 0 144 -44t56 -116q0 -63 -52 -118.5t-138 -76.5v-2q73 -6 117.5 -49.5t44.5 -107.5q0 -66 -45 -117t-112.5 -76.5t-141.5 -25.5z" />
    <glyph glyph-name="ninesuperior" unicode="&#x2079;" horiz-adv-x="718" 
d="M829 1223q0 -98 -42 -189.5t-112 -159.5t-165.5 -112t-198.5 -53v18q183 20 321.5 134.5t166.5 271.5q-36 -58 -109.5 -98t-161.5 -40q-108 0 -165.5 52.5t-57.5 142.5q0 107 83 179.5t200 72.5q121 0 181 -61.5t60 -157.5zM809 1180q10 105 -43.5 173t-179.5 68
q-113 0 -186.5 -67t-73.5 -166q0 -77 50.5 -124.5t149.5 -47.5q101 0 175.5 48.5t107.5 115.5z" />
    <glyph glyph-name="uni207A" unicode="&#x207a;" horiz-adv-x="737" 
d="M297 1075v21h256v254h20v-254h256v-21h-256v-256h-20v256h-256z" />
    <glyph glyph-name="uni207B" unicode="&#x207b;" horiz-adv-x="737" 
d="M297 1075v21h532v-21h-532z" />
    <glyph glyph-name="uni207C" unicode="&#x207c;" horiz-adv-x="737" 
d="M297 952v21h532v-21h-532zM297 1198v21h532v-21h-532z" />
    <glyph glyph-name="uni207D" unicode="&#x207d;" horiz-adv-x="344" 
d="M432 645l-12 -16q-91 60 -134.5 160.5t-43.5 207.5q0 320 336 514l10 -18q-326 -185 -326 -494q0 -102 42 -196.5t128 -157.5z" />
    <glyph glyph-name="uni207E" unicode="&#x207e;" horiz-adv-x="344" 
d="M289 1495l12 16q91 -60 134.5 -160.5t43.5 -207.5q0 -320 -336 -514l-10 18q326 185 326 494q0 102 -42 196.5t-128 157.5z" />
    <glyph glyph-name="zeroinferior" unicode="&#x2080;" horiz-adv-x="729" 
d="M156 268q0 122 38.5 225t115.5 167.5t179 64.5q105 0 158 -75t53 -201q0 -121 -38 -224t-114.5 -168t-178.5 -65q-106 0 -159.5 75t-53.5 201zM176 270q0 -118 48 -188t145 -70q99 0 171.5 65t106 161.5t33.5 207.5q0 110 -45.5 184.5t-145.5 74.5q-96 0 -168.5 -62
t-108.5 -159.5t-36 -213.5z" />
    <glyph glyph-name="oneinferior" unicode="&#x2081;" horiz-adv-x="450" 
d="M178 600l205 125h12l-129 -725h-20l123 690l-181 -108z" />
    <glyph glyph-name="twoinferior" unicode="&#x2082;" horiz-adv-x="661" 
d="M92 0l4 18q19 13 66 44t82 54.5t86 61t88 68.5t78 72t67 77.5t43 78.5t17 81q0 68 -44 109t-135 41q-72 0 -131 -37t-90 -111l-18 4q25 73 90.5 118.5t148.5 45.5q102 0 150.5 -48t48.5 -122q0 -36 -14.5 -74.5t-34.5 -72.5t-57 -73.5t-65.5 -67.5t-76.5 -65.5t-74.5 -57
t-75.5 -51.5t-62.5 -40.5t-51.5 -32.5h463l-4 -20h-498z" />
    <glyph glyph-name="threeinferior" unicode="&#x2083;" horiz-adv-x="673" 
d="M340 -8q-199 0 -238 127l19 10q36 -117 219 -117q115 0 180.5 55t65.5 146q0 68 -45 105.5t-129 37.5h-82l4 21h72q94 0 152 54t58 132q0 142 -178 142q-144 0 -211 -111l-16 10q31 57 91.5 89t135.5 32q98 0 149.5 -40.5t51.5 -119.5q0 -68 -44.5 -122.5t-117.5 -73.5
v-2q62 -10 96.5 -52t34.5 -100q0 -102 -75 -162.5t-193 -60.5z" />
    <glyph glyph-name="fourinferior" unicode="&#x2084;" horiz-adv-x="641" 
d="M444 0l35 201h-403l2 10l489 506h27l-479 -496h368l41 240h21l-41 -240h135l-4 -20h-135l-35 -201h-21z" />
    <glyph glyph-name="fiveinferior" unicode="&#x2085;" horiz-adv-x="649" 
d="M233 393l107 324h354l-4 -21h-338l-90 -276q48 10 113 10q115 0 172 -51t57 -137q0 -114 -82.5 -182t-193.5 -68q-181 0 -236 121l19 10q50 -111 217 -111q108 0 181 63.5t73 166.5q0 83 -55.5 125.5t-153.5 42.5q-77 0 -140 -17z" />
    <glyph glyph-name="sixinferior" unicode="&#x2086;" horiz-adv-x="718" 
d="M143 211q0 177 146 328.5t350 185.5l4 -18q-172 -35 -299 -141t-170 -265q37 60 109 98.5t161 38.5q108 0 166 -52t58 -140q0 -113 -84 -183.5t-201 -70.5q-120 0 -180 61.5t-60 157.5zM166 254q-15 -111 42.5 -176.5t176.5 -65.5q107 0 184.5 64t77.5 170
q0 79 -51.5 125.5t-151.5 46.5t-175.5 -51t-102.5 -113z" />
    <glyph glyph-name="seveninferior" unicode="&#x2087;" horiz-adv-x="573" 
d="M174 696l4 21h471l-2 -10l-465 -707h-24l458 696h-442z" />
    <glyph glyph-name="eightinferior" unicode="&#x2088;" horiz-adv-x="731" 
d="M412 379h47q75 0 146 53.5t71 128.5q0 65 -55 104.5t-129 39.5q-93 0 -166.5 -50.5t-73.5 -132.5q0 -61 49 -102t111 -41zM453 358h-39q-100 0 -179 -56.5t-79 -131.5q0 -69 62.5 -113.5t150.5 -44.5q109 0 193.5 55.5t84.5 143.5q0 67 -55 107t-139 40zM369 -8
q-97 0 -165.5 46.5t-68.5 125.5q0 71 63 129.5t162 73.5v4q-58 12 -93.5 55.5t-35.5 95.5q0 88 79.5 145.5t185.5 57.5q88 0 144 -44t56 -116q0 -63 -52 -118t-138 -76v-2q73 -6 117.5 -50t44.5 -108q0 -66 -45 -117t-112.5 -76.5t-141.5 -25.5z" />
    <glyph glyph-name="nineinferior" unicode="&#x2089;" horiz-adv-x="718" 
d="M702 506q0 -98 -42 -189.5t-112 -159.5t-165.5 -112t-198.5 -53v18q183 20 321.5 134.5t166.5 271.5q-36 -58 -109.5 -97.5t-161.5 -39.5q-108 0 -165.5 52t-57.5 142q0 107 83 179.5t200 72.5q121 0 181 -61.5t60 -157.5zM682 463q10 105 -43.5 173.5t-179.5 68.5
q-113 0 -186.5 -67.5t-73.5 -166.5q0 -77 50.5 -124.5t149.5 -47.5q101 0 175.5 48.5t107.5 115.5z" />
    <glyph glyph-name="uni208A" unicode="&#x208a;" horiz-adv-x="737" 
d="M170 358v21h256v254h20v-254h256v-21h-256v-256h-20v256h-256z" />
    <glyph glyph-name="uni208B" unicode="&#x208b;" horiz-adv-x="737" 
d="M170 358v21h532v-21h-532z" />
    <glyph glyph-name="uni208C" unicode="&#x208c;" horiz-adv-x="737" 
d="M170 236v20h532v-20h-532zM170 481v21h532v-21h-532z" />
    <glyph glyph-name="uni208D" unicode="&#x208d;" horiz-adv-x="344" 
d="M307 -72l-12 -16q-90 60 -134 161t-44 208q0 320 336 514l10 -19q-326 -185 -326 -493q0 -103 42 -197.5t128 -157.5z" />
    <glyph glyph-name="uni208E" unicode="&#x208e;" horiz-adv-x="344" 
d="M162 778l12 17q90 -60 134 -161t44 -208q0 -320 -336 -514l-10 18q326 185 326 494q0 102 -42 196.5t-128 157.5z" />
    <glyph glyph-name="Euro" unicode="&#x20ac;" 
d="M174 891l14 20h140q78 249 276.5 394t466.5 145q196 0 318 -61l-11 -19q-130 60 -307 60q-257 0 -449 -138t-274 -381h799l-10 -20h-795q-25 -79 -31 -174q-3 -68 0 -133h697l-11 -21h-684q9 -114 51.5 -214.5t114 -177.5t178.5 -122t236 -45q157 0 262 51l4 -20
q-108 -51 -268 -51q-135 0 -246.5 47t-185.5 127.5t-116.5 184t-49.5 220.5h-176l14 21h160q-4 86 0 133q6 95 31 174h-148z" />
    <glyph glyph-name="uni20AE" unicode="&#x20ae;" 
d="M252 1413l4 21h1167l-4 -21h-573l-98 -559l339 168l-2 -23l-342 -168l-55 -307l342 168l-4 -22l-342 -168l-88 -502h-21l87 489l-340 -165l4 24l340 166l55 305l-340 -166l4 25l340 166l100 569h-573z" />
    <glyph glyph-name="uni20B4" unicode="&#x20b4;" horiz-adv-x="1228" 
d="M326 891l4 20h678q76 68 112.5 135.5t36.5 157.5q0 102 -74 164t-200 62q-209 0 -363 -136l-12 15q153 141 375 141q134 0 214.5 -67.5t80.5 -178.5q0 -87 -35.5 -157t-106.5 -136h183l-5 -20h-204q-76 -65 -255.5 -158.5t-250.5 -148.5h657l-4 -21h-680
q-162 -142 -162 -305q0 -121 88 -187.5t230 -66.5q109 0 215 50t174 141l16 -15q-72 -94 -180.5 -145t-224.5 -51q-149 0 -243.5 71.5t-94.5 198.5q0 169 156 309h-183l4 21h203q76 63 254.5 157.5t249.5 149.5h-653z" />
    <glyph glyph-name="uni20B8" unicode="&#x20b8;" 
d="M193 1085l4 21h1167l-4 -21h-574l-190 -1085h-21l191 1085h-573zM1417 1413h-1167l4 21h1167z" />
    <glyph glyph-name="uni20BA" unicode="&#x20ba;" 
d="M168 879l4 24l268 131l72 400h20l-69 -390l414 203l-5 -22l-413 -203l-53 -307l411 203l-2 -23l-414 -205l-118 -670q50 -4 168 -4q111 0 205 20t165.5 54.5t130 87t100 112t74.5 135.5t54 151t37 165h20q-17 -94 -38.5 -172t-55 -156.5t-76 -139t-103 -114t-134 -88.5
t-170 -55t-211.5 -20q-67 0 -116 2t-63 2h-10l119 680l-268 -131l4 24l268 132l53 305z" />
    <glyph glyph-name="uni20BD" unicode="&#x20bd;" horiz-adv-x="1228" 
d="M184 676l4 20h248l129 738q41 0 167.5 2t160.5 2q89 0 159 -16t116 -43.5t76 -67.5t43 -85.5t13 -99.5q0 -96 -33 -176.5t-98 -142t-170.5 -96.5t-242.5 -35h-303l-54 -307h396l-4 -21h-396l-61 -348h-21l62 348h-248l4 21h248l53 307h-248zM891 1417q-171 0 -307 -4
l-127 -717h301q249 0 385.5 118t136.5 312q0 139 -96 215t-293 76z" />
    <glyph glyph-name="uni20BF" unicode="&#x20bf;" 
d="M205 0l252 1434q92 0 151 2l33 182h21l-33 -182q33 0 95 1t87 1q57 0 125 -11l33 191h20l-35 -195q242 -48 242 -284q0 -151 -106.5 -264.5t-272.5 -135.5v-2q155 -15 236.5 -96t81.5 -207q0 -185 -116.5 -293t-313.5 -137l-37 -209h-21l37 207q-58 -6 -121 -6
q-28 0 -92 1t-96 1l-35 -203h-21l35 203q-57 2 -149 2zM700 727h-346l-125 -707q32 0 155 -2t183 -2q252 0 398.5 108.5t146.5 307.5q0 143 -104.5 219t-307.5 76zM809 1417q-198 0 -334 -4l-119 -665h353q206 0 336.5 113.5t130.5 275.5q0 141 -88 210.5t-279 69.5z" />
    <glyph glyph-name="uni20C0" unicode="&#x20c0;" 
d="M1161 0h-1100l2 20h1100zM1120 365l8 -17q-152 -121 -401 -121q-230 0 -375 144t-147 364q0 139 49.5 267.5t138 228t222.5 159.5t292 60q106 0 205 -30t160 -81l-17 -14q-58 49 -153 77t-195 28q-198 0 -355 -93.5t-242 -252t-85 -351.5q3 -212 143 -348.5t363 -136.5
q235 0 389 117z" />
    <glyph glyph-name="uni2116" unicode="&#x2116;" horiz-adv-x="2355" 
d="M1735 989q0 163 100 261t270 98q119 0 197 -75.5t78 -193.5q0 -67 -22 -129t-65 -113t-114 -81.5t-160 -30.5q-129 0 -206.5 73.5t-77.5 190.5zM1755 993q0 -111 72.5 -179.5t195.5 -68.5q83 0 149 28.5t105.5 76t60.5 105.5t21 120q0 112 -70.5 182t-187.5 70
q-158 0 -252 -91t-94 -243zM1352 0h-17l-823 1397l-246 -1397h-20l252 1434h16l823 -1397l246 1397h21zM1714 543l2 20h512l-2 -20h-512z" />
    <glyph glyph-name="trademark" unicode="&#x2122;" horiz-adv-x="1658" 
d="M950 788v646h23l327 -414l318 414h20v-646h-20v615l-318 -414h-4l-325 414v-615h-21zM184 1413v21h631v-21h-305v-625h-21v625h-305z" />
    <glyph glyph-name="arrowleft" unicode="&#x2190;" horiz-adv-x="1316" 
d="M764 1137l14 -15l-553 -551h1112v-20h-1116l557 -557l-14 -14l-580 579z" />
    <glyph glyph-name="arrowup" unicode="&#x2191;" horiz-adv-x="1320" 
d="M199 559l-15 14l578 580l579 -580l-14 -14l-557 557v-1116h-20v1112z" />
    <glyph glyph-name="arrowright" unicode="&#x2192;" horiz-adv-x="1316" 
d="M743 1122l15 15l579 -578l-579 -579l-15 14l557 557h-1116v20h1112z" />
    <glyph glyph-name="arrowdown" unicode="&#x2193;" horiz-adv-x="1320" 
d="M184 539l15 14l551 -553v1112h20v-1116l557 557l14 -14l-579 -580z" />
    <glyph glyph-name="partialdiff" unicode="&#x2202;" horiz-adv-x="1177" 
d="M236 420q0 136 65 255.5t178.5 191t247.5 71.5q94 0 173.5 -27t132 -71.5t86 -93t48.5 -99.5q0 110 -18 211.5t-63 202t-114.5 176.5t-180 128.5t-250.5 64.5l4 20q305 -23 474 -237.5t169 -561.5q0 -119 -37 -236.5t-103 -214t-169 -156.5t-224 -60q-179 0 -299 123
t-120 313zM256 420q0 -174 112.5 -295t288.5 -121q111 0 206.5 55t158.5 143t100.5 193t44.5 211q-17 47 -40.5 89t-61.5 84t-84.5 72t-112 48.5t-141.5 18.5q-129 0 -238 -68.5t-171 -183t-62 -246.5z" />
    <glyph glyph-name="product" unicode="&#x220f;" horiz-adv-x="1792" 
d="M1669 -410v1823h-1259v-1823h-21v1844h1301v-1844h-21z" />
    <glyph glyph-name="summation" unicode="&#x2211;" horiz-adv-x="1269" 
d="M887 512l-682 918v4h1106v-21h-1069l671 -901l-671 -901h1069v-21h-1106v4z" />
    <glyph glyph-name="minus" unicode="&#x2212;" 
d="M276 727v21h889v-21h-889z" />
    <glyph glyph-name="uni2215" unicode="&#x2215;" horiz-adv-x="591" 
d="M-20 -418l696 1868l18 -6l-694 -1870z" />
    <glyph glyph-name="radical" unicode="&#x221a;" horiz-adv-x="1153" 
d="M61 901v21h258l414 -887l301 1399h508v-21h-489l-312 -1429h-6l-430 917h-244z" />
    <glyph glyph-name="infinity" unicode="&#x221e;" horiz-adv-x="1486" 
d="M1223 436q-56 0 -106.5 19.5t-96.5 59.5t-78.5 75.5t-77.5 93.5l-39 -54t-38.5 -49.5t-43 -47.5t-45 -38t-52 -32.5t-56 -18.5t-64.5 -8q-65 0 -128 29t-107.5 91t-44.5 142q0 109 81.5 188t204.5 79q40 0 79.5 -15t69 -34.5t66 -57t58.5 -64t59 -73.5q33 46 54.5 74
t57.5 64t69 56.5t79 35t97 14.5q124 0 195 -76.5t71 -198.5q0 -44 -16 -87.5t-47 -81.5t-83.5 -61.5t-117.5 -23.5zM1219 944q-47 0 -90.5 -14t-75 -33.5t-66 -55t-56.5 -63.5t-54 -73q46 -59 77 -93.5t77 -75.5t95 -60t103 -19q59 0 106 22t74.5 57t42 74.5t14.5 77.5
q0 110 -65 183t-182 73zM524 457q45 0 86.5 15t70.5 34t63 57t53 64t53 75q-32 41 -49 61.5t-47 54.5t-52 52t-51.5 37.5t-60 28t-62.5 8.5q-114 0 -188 -73t-74 -173q0 -57 25.5 -104.5t65 -76.5t83 -44.5t84.5 -15.5z" />
    </font>
</defs>
</svg>
