<?xml version="1.0" standalone="no"?>
<!DOCTYPE svg PUBLIC "-//W3C//DTD SVG 1.1//EN" "http://www.w3.org/Graphics/SVG/1.1/DTD/svg11.dtd" >
<svg xmlns="http://www.w3.org/2000/svg" xmlns:xlink="http://www.w3.org/1999/xlink" version="1.1">
<metadata>
Created by FontForge 20170731 at Wed Mar 15 10:30:00 2023
 By Aleksey,,,
Copyright (c) 2011 Paratype, Inc., ParaType Ltd. All rights reserved.
</metadata>
<defs>
<font id="Circe-Thin" horiz-adv-x="1312" >
  <font-face 
    font-family="Circe Thin"
    font-weight="250"
    font-stretch="normal"
    units-per-em="2048"
    panose-1="2 11 2 2 2 2 3 2 2 3"
    ascent="1583"
    descent="-465"
    x-height="922"
    cap-height="1434"
    bbox="-983 -676 3478 2028"
    underline-thickness="102"
    underline-position="-307"
    unicode-range="U+0020-FEFF"
  />
<missing-glyph horiz-adv-x="512" 
 />
    <glyph glyph-name="uniF350.var.accented" unicode="&#xf350;`" horiz-adv-x="1124" 
d="M49 0l510 1087h8l508 -1087h-22l-199 422h-586l-196 -422h-23zM561 1051l-285 -611h570zM752 1516l-224 -289l-16 10l225 291z" />
    <glyph glyph-name="uniF355.var.accented" unicode="&#xf355;`" horiz-adv-x="960" 
d="M197 0v1075h616v-20h-596v-496h547v-20h-547v-519h612v-20h-632zM711 1516l-224 -289l-16 10l225 291z" />
    <glyph glyph-name="uniF358.var.accented" unicode="&#xf358;`" 
d="M217 0h-20v1075h20v-1044l879 1044h20v-1075h-20v1044zM834 1516l-224 -289l-16 10l225 291z" />
    <glyph glyph-name="uniF35E.var.accented" unicode="&#xf35e;`" horiz-adv-x="1318" 
d="M98 539q0 115 43.5 216.5t118 174.5t178.5 115t221 42q156 0 285 -71.5t203 -197.5t74 -279q0 -234 -162 -392.5t-400 -158.5t-399.5 158.5t-161.5 392.5zM119 539q0 -149 71 -271t194.5 -191t274.5 -69t275 69t195 191t71 271q0 225 -156 376.5t-385 151.5
t-384.5 -151.5t-155.5 -376.5zM854 1516l-223 -289l-17 10l226 291z" />
    <glyph glyph-name="uniF363.var.accented" unicode="&#xf363;`" horiz-adv-x="1036" 
d="M1004 1075l-406 -837q-62 -128 -115 -183t-121 -55q-69 0 -108 29l8 18q50 -29 98 -29q60 0 105.5 46t87.5 126l25 48l-545 837h22l533 -817l393 817h23zM711 1516l-224 -289l-16 10l225 291z" />
    <glyph glyph-name="uniF36B.var.accented" unicode="&#xf36b;`" horiz-adv-x="1323" 
d="M1106 0v1075h20v-1075h-20zM424 604q-98 0 -207 -8v-576q27 0 91 -2t108 -2q200 0 306.5 79t106.5 229q0 133 -103 206.5t-302 73.5zM217 1075v-459q123 9 203 9q215 0 322.5 -79t107.5 -224q0 -160 -116.5 -243t-319.5 -83q-43 0 -114 2t-103 2v1075h20zM813 1516
l-223 -289l-17 10l226 291z" />
    <glyph glyph-name="uniF36D.var.accented" unicode="&#xf36d;`" horiz-adv-x="1122" 
d="M338 539v20h666q-6 233 -155 370.5t-398 137.5q-203 0 -330 -94l-12 14q64 51 155.5 75.5t186.5 24.5q263 0 418 -146.5t155 -397.5q0 -155 -68.5 -280.5t-198 -200t-296.5 -74.5q-214 0 -379 112l12 15q165 -107 365 -107q163 0 288 72t190.5 192t66.5 267h-666z
M690 1516l-223 -289l-16 10l225 291z" />
    <glyph glyph-name="uniF36E.var.accented" unicode="&#xf36e;`" horiz-adv-x="1757" 
d="M197 0v1075h20v-516h354q6 227 159.5 377.5t383.5 150.5q236 0 390.5 -156.5t154.5 -391.5q0 -236 -154.5 -393.5t-390.5 -157.5q-235 0 -389 157.5t-154 393.5h-354v-539h-20zM592 539q0 -150 66.5 -271t186 -190.5t269.5 -69.5q151 0 271 69.5t186.5 190.5t66.5 271
q0 227 -147.5 377.5t-376.5 150.5q-227 0 -374.5 -150.5t-147.5 -377.5zM918 1516l-224 -289l-16 10l225 291z" />
    <glyph glyph-name="uniF36F.var.accented" unicode="&#xf36f;`" horiz-adv-x="991" 
d="M774 0v451h-311l-371 -451h-26l374 453q-113 20 -197.5 104.5t-84.5 196.5q0 145 105 235t298 90q41 0 121 -2t113 -2v-1075h-21zM455 471h319v584q-27 0 -99 2t-116 2q-97 0 -171.5 -24.5t-119.5 -67.5t-67.5 -97.5t-22.5 -117.5q0 -104 84 -184.5t193 -96.5zM752 1516
l-224 -289l-16 10l225 291z" />
    <glyph glyph-name="uniF371.var.accented" unicode="&#xf371;`" horiz-adv-x="960" 
d="M197 0v1075h616v-20h-596v-496h547v-20h-547v-519h612v-20h-632zM297 1374q0 9 8.5 17t18.5 8q9 0 16.5 -8t7.5 -17q0 -10 -7.5 -18t-16.5 -8q-11 0 -19 8t-8 18zM653 1374q0 9 8.5 17t18.5 8q9 0 17 -8t8 -17q0 -10 -8 -18t-17 -8q-11 0 -19 8t-8 18zM629 1516
l-223 -289l-17 10l225 291z" />
    <glyph glyph-name="uni0410.var.accented" unicode="&#x410;`" horiz-adv-x="1402" 
d="M61 0l637 1450h7l636 -1450h-22l-250 567h-737l-248 -567h-23zM700 1409l-360 -821h721zM981 1704l-315 -184l-11 14l318 186z" />
    <glyph glyph-name="uni0415.var.accented" unicode="&#x415;`" horiz-adv-x="1177" 
d="M246 0v1434h768v-21h-748v-672h686v-20h-686v-701h768v-20h-788zM838 1704l-316 -184l-10 14l317 186z" />
    <glyph glyph-name="uni0418.var.accented" unicode="&#x418;`" horiz-adv-x="1638" 
d="M266 0h-20v1434h20v-1403l1106 1403h21v-1434h-21v1403zM1022 1704l-315 -184l-11 14l318 186z" />
    <glyph glyph-name="uni041E.var.accented" unicode="&#x41e;`" horiz-adv-x="1646" 
d="M123 717q0 205 92 373t252.5 264t355.5 96t355.5 -96t253 -264t92.5 -373t-92.5 -373t-253 -264t-355.5 -96t-355.5 96t-252.5 264t-92 373zM143 717q0 -150 52.5 -282.5t143 -227t216.5 -149t268 -54.5t268 54.5t216.5 149t143 227t52.5 282.5t-52.5 282.5t-143 227
t-216.5 149t-268 54.5t-268 -54.5t-216.5 -149t-143 -227t-52.5 -282.5zM1042 1704l-315 -184l-10 14l317 186z" />
    <glyph glyph-name="uni0423.var.accented" unicode="&#x423;`" horiz-adv-x="1292" 
d="M1251 1434l-508 -1119q-76 -169 -141.5 -242t-150.5 -73t-134 39l9 18q56 -39 123 -39q76 0 133.5 62.5t109.5 171.5l31 63l-682 1119h22l670 -1098l496 1098h22zM920 1704l-316 -184l-10 14l317 186z" />
    <glyph glyph-name="uni042B.var.accented" unicode="&#x42b;`" horiz-adv-x="1648" 
d="M1382 0v1434h21v-1434h-21zM526 809q-135 0 -260 -12v-777q34 0 115 -2t135 -2q254 0 388 106t134 308q0 180 -130 279.5t-382 99.5zM266 1434v-617q156 12 256 12q269 0 403 -105t134 -296q0 -214 -144.5 -323t-400.5 -109q-52 0 -140 2t-128 2v1434h20zM1022 1704
l-315 -184l-11 14l318 186z" />
    <glyph glyph-name="uni042D.var.accented" unicode="&#x42d;`" horiz-adv-x="1400" 
d="M422 721v20h835q-6 316 -193.5 502.5t-500.5 186.5q-251 0 -413 -127l-13 14q78 68 192.5 100.5t233.5 32.5q329 0 522 -195.5t193 -529.5q0 -154 -50.5 -289.5t-140.5 -235.5t-223 -158t-289 -58q-264 0 -473 149l15 14q207 -143 456 -143q154 0 283.5 56.5t216 154
t135 228t49.5 278.5h-835zM838 1704l-316 -184l-10 14l317 186z" />
    <glyph glyph-name="uni042E.var.accented" unicode="&#x42e;`" horiz-adv-x="2195" 
d="M246 0v1434h20v-693h447q6 200 94 361.5t242 254.5t344 93q194 0 350 -96t243 -263.5t87 -373.5t-87 -373.5t-243 -263.5t-350 -96t-350 96t-243 263.5t-87 373.5v4h-447v-721h-20zM733 717q0 -201 84 -364t235.5 -256t340.5 -93q142 0 265 54.5t209.5 149.5t135.5 227
t49 282t-49 282t-135.5 227t-209.5 149.5t-265 54.5q-189 0 -340.5 -93t-235.5 -256t-84 -364zM1350 1704l-316 -184l-10 14l317 186z" />
    <glyph glyph-name="uni042F.var.accented" unicode="&#x42f;`" horiz-adv-x="1234" 
d="M969 0v604h-394l-464 -604h-29l471 606q-142 24 -249 137.5t-107 262.5q0 193 131 312.5t372 119.5q52 0 150.5 -2t138.5 -2v-1434h-20zM565 625h404v788q-33 0 -125 2t-146 2q-123 0 -217 -33t-150.5 -91t-85 -131t-28.5 -158q0 -94 51 -177.5t130 -135.5t167 -66z
M981 1704l-315 -184l-11 14l318 186z" />
    <glyph glyph-name="uni0401.var.accented" unicode="&#x401;`" horiz-adv-x="1177" 
d="M365 1618q0 9 8 16.5t18 7.5q9 0 17 -7.5t8 -16.5q0 -10 -8 -18.5t-17 -8.5q-10 0 -18 8t-8 19zM844 1618q0 9 8 16.5t18 7.5q9 0 17 -7.5t8 -16.5q0 -10 -8 -18.5t-17 -8.5q-10 0 -18 8t-8 19zM838 1704l-316 -184l-10 14l317 186zM246 0v1434h768v-21h-748v-672h686
v-20h-686v-701h768v-20h-788z" />
    <glyph glyph-name="uni0430.var.accented" unicode="&#x430;`" horiz-adv-x="933" 
d="M182 838l-10 16q136 84 274 84q176 0 250 -90.5t74 -269.5v-578h-20v174q-130 -182 -361 -182q-130 0 -208.5 70t-78.5 186q0 132 98 204t253 72q184 0 297 -82q0 88 -2 136.5t-11 113t-28.5 98t-52.5 67.5t-86.5 47.5t-127.5 13.5t-131 -18.5t-129 -61.5zM387 12
q73 0 133 17.5t103.5 49t71 60.5t55.5 68v209q-125 88 -301 88q-61 0 -117.5 -15t-104 -44.5t-76 -80t-28.5 -114.5q0 -111 75 -174.5t189 -63.5zM670 1434l-224 -289l-16 10l225 291z" />
    <glyph glyph-name="uni0435.var.accented" unicode="&#x435;`" horiz-adv-x="1083" 
d="M913 141l13 -12q-57 -70 -147.5 -107.5t-186.5 -37.5q-210 0 -344.5 131t-134.5 346q0 102 28 188t82.5 151t141.5 101.5t198 36.5q180 0 294 -113t114 -297q0 -8 -1 -23.5t-1 -23.5h-836q0 -220 124 -348.5t335 -128.5q96 0 181.5 37.5t139.5 99.5zM555 918
q-190 0 -300.5 -115.5t-121.5 -300.5h817q3 191 -105.5 303.5t-289.5 112.5zM741 1434l-223 -289l-16 10l225 291z" />
    <glyph glyph-name="uni0438.var.accented" unicode="&#x438;`" horiz-adv-x="1146" 
d="M205 0h-21v922h21v-891l737 891h21v-922h-21v891zM752 1434l-224 -289l-16 10l225 291z" />
    <glyph glyph-name="uni043E.var.accented" unicode="&#x43e;`" horiz-adv-x="1167" 
d="M113 461q0 207 133 342t338 135t338 -135t133 -342t-133 -342t-338 -135t-338 135t-133 342zM133 461q0 -200 126.5 -328.5t324.5 -128.5t324 128.5t126 328.5t-126 328.5t-324 128.5t-324.5 -128.5t-126.5 -328.5zM762 1434l-223 -289l-17 10l226 291z" />
    <glyph glyph-name="uni0443.var.accented" unicode="&#x443;`" horiz-adv-x="954" 
d="M913 922l-378 -922q-67 -163 -123 -253.5t-105 -123.5t-112 -33q-59 0 -132 31l9 19q74 -31 118 -31q87 0 157.5 78.5t146.5 263.5l20 49l-473 922h22l383 -750l78 -152l64 156l303 746h22zM711 1434l-224 -289l-16 10l225 291z" />
    <glyph glyph-name="uni044B.var.accented" unicode="&#x44b;`" horiz-adv-x="1208" 
d="M184 0v922h21v-359h172q103 0 175.5 -20.5t113 -59.5t58 -88t17.5 -114q0 -64 -18.5 -113t-60 -88t-115 -59.5t-176.5 -20.5h-187zM377 543h-172v-523h170q186 0 266 67.5t80 195.5q0 126 -81 193t-263 67zM1004 0v922h20v-922h-20zM772 1434l-223 -289l-17 10l226 291z
" />
    <glyph glyph-name="uni044D.var.accented" unicode="&#x44d;`" horiz-adv-x="1007" 
d="M340 461v20h534q-7 199 -134.5 318t-323.5 119q-96 0 -182 -38t-140 -100l-12 13q57 70 147.5 107.5t186.5 37.5q210 0 344.5 -131t134.5 -346q0 -132 -59 -241.5t-161.5 -172.5t-225.5 -63q-230 0 -349 108l13 19q121 -107 331 -107q178 0 304 132.5t126 324.5h-534z
M635 1434l-223 -289l-17 10l226 291z" />
    <glyph glyph-name="uni044E.var.accented" unicode="&#x44e;`" horiz-adv-x="1505" 
d="M184 0v922h21v-441h287q6 200 131.5 328.5t318.5 128.5q197 0 324 -134.5t127 -342.5t-127 -342.5t-324 -134.5t-323.5 134.5t-126.5 342.5h-287v-461h-21zM512 461q0 -200 120 -328.5t310 -128.5t310 128.5t120 328.5t-120 328.5t-310 128.5t-310 -128.5t-120 -328.5z
M936 1434l-223 -289l-17 10l226 291z" />
    <glyph glyph-name="uni044F.var.accented" unicode="&#x44f;`" horiz-adv-x="964" 
d="M524 922h256v-922h-20v399h-305l-324 -399h-29l326 399q-102 10 -178 80t-76 174q0 120 82.5 194.5t267.5 74.5zM195 655q0 -103 80 -169t161 -66h324v481h-240q-167 0 -246 -68t-79 -178zM772 1434l-223 -289l-17 10l226 291z" />
    <glyph glyph-name="uni0451.var.accented" unicode="&#x451;`" horiz-adv-x="1083" 
d="M299 1292q0 9 8.5 17t18.5 8q9 0 16.5 -8t7.5 -17q0 -10 -7.5 -18t-16.5 -8q-11 0 -19 8t-8 18zM737 1292q0 9 8.5 17t18.5 8q9 0 16.5 -8t7.5 -17q0 -10 -7.5 -18t-16.5 -8q-11 0 -19 8t-8 18zM680 1434l-223 -289l-17 10l226 291zM913 141l13 -12
q-57 -70 -147.5 -107.5t-186.5 -37.5q-210 0 -344.5 131t-134.5 346q0 102 28 188t82.5 151t141.5 101.5t198 36.5q180 0 294 -113t114 -297q0 -8 -1 -23.5t-1 -23.5h-836q0 -220 124 -348.5t335 -128.5q96 0 181.5 37.5t139.5 99.5zM555 918q-190 0 -300.5 -115.5
t-121.5 -300.5h817q3 191 -105.5 303.5t-289.5 112.5z" />
    <glyph glyph-name="fi" unicode="fi" horiz-adv-x="985" 
d="M756 0v901h-510v-901h-21v1071q0 188 86.5 283.5t243.5 95.5q132 0 225 -72l-12 -18q-95 70 -213 70q-309 0 -309 -377v-131h530v-922h-20z" />
    <glyph glyph-name="fl" unicode="fl" horiz-adv-x="1114" 
d="M743 227v1135q-92 68 -208 68q-147 0 -218 -90.5t-71 -286.5v-131h297v-21h-297v-901h-21v1071q0 379 310 379q132 0 225 -72h4v-1120q0 -127 37.5 -185.5t128.5 -58.5q86 0 151 49l13 -18q-70 -51 -164 -51q-99 0 -143 57t-44 176z" />
    <glyph glyph-name=".notdef" horiz-adv-x="512" 
 />
    <glyph glyph-name=".null" horiz-adv-x="0" 
 />
    <glyph glyph-name="nonmarkingreturn" horiz-adv-x="682" 
 />
    <glyph glyph-name="space" unicode=" " horiz-adv-x="512" 
 />
    <glyph glyph-name="exclam" unicode="!" horiz-adv-x="634" 
d="M307 328v1106h21v-1106h-21zM291 27q0 9 8 16.5t18 7.5q9 0 17 -7.5t8 -16.5q0 -10 -8 -18.5t-17 -8.5q-10 0 -18 8t-8 19z" />
    <glyph glyph-name="quotedbl" unicode="&#x22;" horiz-adv-x="778" 
d="M512 1055v379h20v-379h-20zM246 1055v379h20v-379h-20z" />
    <glyph glyph-name="numbersign" unicode="#" horiz-adv-x="1359" 
d="M666 -8l174 469h-510l-176 -477l-21 8l174 469h-225v20h231l176 471h-407v21h416l178 477l18 -6l-174 -471h510l178 477l19 -6l-174 -471h225v-21h-234l-174 -471h408v-20h-416l-176 -477zM512 952l-174 -471h508l176 471h-510z" />
    <glyph glyph-name="dollar" unicode="$" horiz-adv-x="1196" 
d="M1010 342q0 98 -44.5 169t-115 112t-156 73t-171.5 64t-156.5 73t-115 112t-44.5 169q0 147 104.5 241t290.5 95v168h21v-168q107 -3 204 -41.5t152 -99.5l-14 -15q-64 67 -159 101.5t-204 34.5q-171 0 -273 -86.5t-102 -227.5q0 -76 27.5 -134t74 -96t106.5 -67.5
t126.5 -52.5t133.5 -46.5t127 -55.5t106.5 -73t74 -104.5t27.5 -144.5q0 -154 -115 -250.5t-292 -105.5v-191h-21v189h-14q-123 0 -244.5 54.5t-175.5 141.5l16 15q62 -86 176 -138.5t224 -52.5q111 0 206 36.5t157.5 115t62.5 186.5z" />
    <glyph glyph-name="percent" unicode="%" horiz-adv-x="1656" 
d="M285 -2l1087 1452l17 -10l-1088 -1456zM123 1122q0 134 91.5 223t225.5 89t226 -89t92 -223t-91.5 -222.5t-226.5 -88.5q-134 0 -225.5 88.5t-91.5 222.5zM143 1122q0 -126 90 -208.5t207 -82.5q121 0 209 82t88 209t-88.5 209t-208.5 82t-208.5 -82t-88.5 -209zM899 311
q0 134 92 223t226 89t225.5 -89t91.5 -223t-91.5 -222.5t-225.5 -88.5q-135 0 -226.5 88.5t-91.5 222.5zM920 311q0 -126 90 -208.5t207 -82.5q121 0 208.5 82t87.5 209t-88 209t-208 82t-208.5 -82t-88.5 -209z" />
    <glyph glyph-name="ampersand" unicode="&#x26;" horiz-adv-x="1486" 
d="M1296 0l-209 264q-85 -132 -206.5 -206t-272.5 -74q-179 0 -301.5 114.5t-122.5 290.5q0 280 383 531q-102 11 -169.5 85.5t-67.5 178.5q0 110 78 188t188 78t188 -78t78 -188t-78 -188t-188 -78l489 -619q78 131 119 295t41 328h21q0 -175 -42.5 -343t-123.5 -298
l223 -281h-27zM606 4q149 0 267 74t200 203l-495 624q-74 -50 -132.5 -99.5t-117 -115t-91 -142.5t-32.5 -157q0 -115 57.5 -205t148 -136t195.5 -46zM350 1184q0 -101 72.5 -173.5t173.5 -72.5t173.5 72.5t72.5 173.5t-72.5 173.5t-173.5 72.5t-173.5 -72.5t-72.5 -173.5z
" />
    <glyph glyph-name="quotesingle" unicode="'" horiz-adv-x="512" 
d="M246 1055v379h20v-379h-20z" />
    <glyph glyph-name="parenleft" unicode="(" horiz-adv-x="512" 
d="M512 -410l-16 -12q-414 357 -414 883q0 242 96.5 461t319.5 421l14 -12q-221 -202 -315.5 -416t-94.5 -454q0 -241 98.5 -464.5t311.5 -406.5z" />
    <glyph glyph-name="parenright" unicode=")" horiz-adv-x="512" 
d="M16 -422l-16 12q213 183 311.5 406.5t98.5 464.5q0 240 -94.5 454t-315.5 416l14 12q223 -202 319.5 -421t96.5 -461q0 -526 -414 -883z" />
    <glyph glyph-name="asterisk" unicode="*" horiz-adv-x="884" 
d="M422 1423q0 11 8 19t19 8q10 0 18 -8t8 -19q0 -10 -7.5 -17t-18.5 -7t-19 7t-8 17zM420 946q0 11 8 19t18 8t17.5 -8t7.5 -19q0 -10 -7 -17t-18 -7t-18.5 7t-7.5 17zM625 1305q0 11 7 18.5t17 7.5q11 0 19 -8t8 -18q0 -11 -8 -19t-19 -8q-10 0 -17 8t-7 19zM625 1081
q0 11 7 19t17 8q11 0 19 -8t8 -19q0 -10 -8 -17t-19 -7t-17.5 6.5t-6.5 17.5zM209 1081q0 11 8.5 19t18.5 8t17 -8t7 -19t-7 -17.5t-17 -6.5q-11 0 -19 7t-8 17zM209 1305q0 10 8 18t19 8q10 0 17 -7.5t7 -18.5t-7 -19t-17 -8t-18.5 8t-8.5 19z" />
    <glyph glyph-name="plus" unicode="+" horiz-adv-x="1196" 
d="M154 727v21h432v432h20v-432h436v-21h-436v-436h-20v436h-432z" />
    <glyph glyph-name="comma" unicode="," horiz-adv-x="339" 
d="M141 25q0 11 10 18.5t23 7.5q31 0 57.5 -37.5t26.5 -101.5q0 -82 -48 -140.5t-112 -74.5l-6 16q54 14 100 68t46 127q0 88 -48 115q-3 -23 -24 -23q-10 0 -17.5 8t-7.5 17z" />
    <glyph glyph-name="hyphen" unicode="-" horiz-adv-x="847" 
d="M205 543v20h438v-20h-438z" />
    <glyph glyph-name="period" unicode="." horiz-adv-x="296" 
d="M123 27q0 9 8.5 16.5t18.5 7.5q9 0 16.5 -7.5t7.5 -16.5q0 -10 -7.5 -18.5t-16.5 -8.5q-10 0 -18.5 8t-8.5 19z" />
    <glyph glyph-name="slash" unicode="/" horiz-adv-x="591" 
d="M-61 -418l696 1868l18 -6l-694 -1870z" />
    <glyph glyph-name="zero" unicode="0" horiz-adv-x="1196" 
d="M164 717q0 161 24.5 291t75 231t135.5 156t199 55t199 -55t135.5 -156t75 -231t24.5 -291t-23.5 -291t-73.5 -231t-134.5 -156t-198.5 -55t-200 55.5t-137 156t-76 231t-25 290.5zM184 717q0 -125 14 -230.5t46 -195.5t80 -153t118.5 -98.5t159.5 -35.5q110 0 191 53.5
t128 152t69 224t22 283.5q0 157 -22.5 283.5t-70.5 224.5t-129 151.5t-192 53.5t-192 -53.5t-129 -151.5t-70.5 -224.5t-22.5 -283.5z" />
    <glyph glyph-name="one" unicode="1" horiz-adv-x="739" 
d="M123 1202l299 248h10v-1450h-20v1415l-275 -227z" />
    <glyph glyph-name="two" unicode="2" horiz-adv-x="1089" 
d="M123 0v20q66 65 115 114.5t131 137.5t142 161t129 168t113 176.5t73.5 170t29.5 162.5q0 59 -21 114.5t-60.5 102t-106 75t-148.5 28.5q-44 0 -88 -10t-89 -33.5t-80.5 -58t-62 -87.5t-34.5 -117h-21q7 64 33.5 119t64 92.5t84 64t94 38.5t93.5 12q92 0 164.5 -30.5
t114.5 -81t63 -107.5t21 -117q0 -82 -35.5 -181.5t-84.5 -187t-128 -193t-137.5 -175.5t-143 -158.5t-115 -119t-81.5 -79.5h794v-20h-823z" />
    <glyph glyph-name="three" unicode="3" horiz-adv-x="1095" 
d="M518 -16q-131 0 -237 60.5t-158 193.5l18 8q27 -66 70.5 -115t96.5 -75.5t107 -39t111 -12.5q173 0 279 107t106 272q0 147 -99.5 243.5t-240.5 96.5h-137v20h123q113 0 206 105t93 250q0 161 -91.5 246.5t-244.5 85.5q-258 0 -340 -228l-18 4q34 113 130 178.5t226 65.5
q170 0 264.5 -94.5t94.5 -263.5q0 -110 -63 -210t-171 -141v-6q130 -17 209.5 -120t79.5 -232q0 -180 -116.5 -289.5t-297.5 -109.5z" />
    <glyph glyph-name="four" unicode="4" horiz-adv-x="1064" 
d="M733 0v410h-672v4l676 1020h25l-666 -1004h637v492h21v-492h229v-20h-229v-410h-21z" />
    <glyph glyph-name="five" unicode="5" horiz-adv-x="1067" 
d="M276 795l82 639h586v-21h-569l-76 -590q93 29 180 29q203 0 329 -116.5t126 -305.5q0 -100 -34 -185t-91 -141.5t-131 -88t-154 -31.5q-126 0 -232 58.5t-169 182.5l18 8q59 -114 164 -171.5t219 -57.5q164 0 276.5 121.5t112.5 304.5q0 172 -121 286.5t-311 114.5
q-102 0 -205 -36z" />
    <glyph glyph-name="six" unicode="6" horiz-adv-x="1114" 
d="M123 508q0 153 40 293.5t107 248t154.5 192.5t184 137t194.5 71l10 -16q-91 -19 -179.5 -63.5t-171.5 -119.5t-149 -172t-111.5 -228t-58.5 -280q43 128 155 214.5t269 86.5q196 0 310 -123t114 -321q0 -182 -120.5 -313t-280.5 -131q-93 0 -170.5 28t-132 77t-92 115.5
t-55 143t-17.5 160.5zM143 510q0 -98 27.5 -187t80.5 -161t139.5 -115t195.5 -43q155 0 270 124.5t115 297.5q0 119 -44.5 214t-138 153.5t-223.5 58.5q-89 0 -165.5 -32t-127.5 -83.5t-84 -109.5t-45 -117z" />
    <glyph glyph-name="seven" unicode="7" horiz-adv-x="942" 
d="M82 1413v21h778v-4l-571 -1430h-25l565 1413h-747z" />
    <glyph glyph-name="eight" unicode="8" horiz-adv-x="1198" 
d="M559 748h80q74 0 146.5 41.5t122.5 121t50 174.5q0 106 -54.5 186.5t-135.5 119.5t-172 39q-90 0 -170 -39t-133 -119.5t-53 -186.5q0 -95 50 -174.5t122.5 -121t146.5 -41.5zM635 727h-66q-158 0 -271.5 -104t-113.5 -252q0 -79 35 -148.5t92.5 -117t132 -74.5
t154.5 -27q108 0 202 43t154 128.5t60 195.5q0 81 -30.5 149t-83 113t-121 69.5t-144.5 24.5zM600 -16q-82 0 -159.5 26.5t-139.5 75t-99.5 123t-37.5 162.5q0 128 87 231.5t234 130.5v6q-113 27 -189.5 129.5t-76.5 210.5q0 165 110 268t269 103q160 0 270.5 -103
t110.5 -268q0 -109 -72 -205t-194 -133v-6q142 -13 231.5 -115.5t89.5 -248.5q0 -88 -37 -162.5t-98.5 -123t-139 -75t-159.5 -26.5z" />
    <glyph glyph-name="nine" unicode="9" horiz-adv-x="1114" 
d="M991 926q0 -193 -51.5 -360t-142 -287t-215.5 -196.5t-271 -98.5l-10 16q138 23 256 92.5t207 177.5t143.5 260t63.5 332q-42 -124 -153 -202t-271 -78q-129 0 -227 60.5t-147.5 158.5t-49.5 215q0 90 36.5 171.5t95.5 138.5t135.5 90.5t154.5 33.5q93 0 168.5 -28
t126.5 -76.5t85.5 -116t50 -143t15.5 -160.5zM971 924q0 78 -14.5 150t-47.5 137.5t-81 113.5t-119.5 76.5t-159.5 28.5q-102 0 -195.5 -53.5t-152 -149.5t-58.5 -209q0 -81 26.5 -154.5t75.5 -132.5t128 -94t176 -35q89 0 165.5 29t127.5 76.5t84 103t45 113.5z" />
    <glyph glyph-name="colon" unicode=":" horiz-adv-x="665" 
d="M307 913q0 9 8.5 17t18.5 8q9 0 16.5 -8t7.5 -17q0 -10 -7.5 -18t-16.5 -8q-11 0 -19 8t-8 18zM307 27q0 9 8.5 16.5t18.5 7.5q9 0 16.5 -7.5t7.5 -16.5q0 -10 -7.5 -18.5t-16.5 -8.5q-10 0 -18.5 8t-8.5 19z" />
    <glyph glyph-name="semicolon" unicode=";" horiz-adv-x="667" 
d="M307 913q0 9 8.5 17t18.5 8q9 0 16.5 -8t7.5 -17q0 -10 -7.5 -18t-16.5 -8q-11 0 -19 8t-8 18zM305 25q0 11 10 18.5t23 7.5q31 0 57.5 -37.5t26.5 -101.5q0 -82 -48 -140.5t-112 -74.5l-6 16q54 14 99.5 67.5t45.5 127.5q0 89 -47 115q-3 -23 -24 -23q-10 0 -17.5 8
t-7.5 17z" />
    <glyph glyph-name="less" unicode="&#x3c;" horiz-adv-x="1196" 
d="M950 213l-796 524v8l796 521v-25l-766 -500l766 -503v-25z" />
    <glyph glyph-name="equal" unicode="=" horiz-adv-x="1196" 
d="M154 891v20h888v-20h-888zM154 563v21h888v-21h-888z" />
    <glyph glyph-name="greater" unicode="&#x3e;" horiz-adv-x="1196" 
d="M1042 737l-796 -524v25l766 503l-766 500v25l796 -521v-8z" />
    <glyph glyph-name="question" unicode="?" horiz-adv-x="923" 
d="M821 1106q0 140 -102 232t-262 92q-105 0 -199.5 -50.5t-159.5 -140.5l-16 8q56 91 159 147t220 56q177 0 279 -98.5t102 -243.5q0 -77 -24.5 -139t-63.5 -103.5t-86.5 -77t-94.5 -68.5t-86 -68.5t-63.5 -87t-24.5 -115.5q0 -31 11 -91l-19 -6q-12 56 -12 99
q0 64 24.5 116.5t63.5 90t86 71.5t94 69.5t86 76t63.5 99.5t24.5 132zM365 27q0 9 8 16.5t18 7.5q9 0 17 -7.5t8 -16.5q0 -10 -8 -18.5t-17 -8.5q-10 0 -18 8t-8 19z" />
    <glyph glyph-name="at" unicode="@" horiz-adv-x="2101" 
d="M1411 0v154q-57 -71 -154.5 -120.5t-197.5 -49.5q-208 0 -334.5 130t-126.5 347q0 201 143.5 339t354.5 138q189 0 336 -94v-824h45q83 0 155 29t123.5 79.5t88.5 117t55 141.5t18 154q0 227 -111 407t-304 279.5t-431 99.5q-190 0 -356.5 -68.5t-282 -185.5t-182 -276
t-66.5 -336q0 -142 42 -273t121.5 -238.5t187 -187.5t246 -124t290.5 -44q112 0 221 25l11 -18q-125 -27 -232 -27q-156 0 -297.5 45t-251.5 127t-191 191.5t-124 244t-43 279.5t43 279.5t124 244t191 191.5t251.5 127t297.5 45q185 0 346 -60t275 -165.5t179.5 -255
t65.5 -322.5q0 -103 -28.5 -198.5t-83.5 -174t-145 -125.5t-203 -47h-66zM1059 4q106 0 207.5 57t144.5 121v649q-140 87 -317 87q-128 0 -237 -60t-174 -165.5t-65 -231.5q0 -210 120.5 -333.5t320.5 -123.5z" />
    <glyph glyph-name="A" unicode="A" horiz-adv-x="1402" 
d="M61 0l637 1450h7l636 -1450h-22l-250 567h-737l-248 -567h-23zM700 1409l-360 -821h721z" />
    <glyph glyph-name="B" unicode="B" horiz-adv-x="1263" 
d="M246 0v1434q36 0 164.5 2t187.5 2q124 0 212 -26.5t136.5 -76t70 -110.5t21.5 -140q0 -148 -95.5 -237.5t-231.5 -104.5v-4q189 -15 289 -106t100 -246q0 -83 -24.5 -148.5t-68.5 -110.5t-106.5 -75t-136 -43.5t-160.5 -13.5q-61 0 -190.5 2t-167.5 2zM602 727h-336v-707
q34 0 156 -2t176 -2q229 0 355 93.5t126 279.5q0 161 -124 249.5t-353 88.5zM594 1417q-192 0 -328 -4v-665h352q168 0 284 94t116 245q0 164 -101.5 247t-322.5 83z" />
    <glyph glyph-name="C" unicode="C" horiz-adv-x="1345" 
d="M1251 154l13 -17q-76 -72 -195 -112.5t-242 -40.5q-155 0 -286 52t-223 146.5t-143.5 232t-51.5 302.5q0 205 85 372t241.5 264t355.5 97q268 0 432 -129l-14 -14q-152 123 -416 123q-196 0 -348.5 -95.5t-234 -257.5t-81.5 -360q0 -212 86.5 -374.5t242 -250.5
t355.5 -88q126 0 235 40.5t189 109.5z" />
    <glyph glyph-name="D" unicode="D" horiz-adv-x="1503" 
d="M246 0v1434h20q54 0 145 3t164 3q167 0 303 -37.5t228.5 -102t155 -154t90.5 -191t28 -214.5q0 -157 -52 -291.5t-152.5 -236t-258.5 -159.5t-358 -58q-60 0 -155.5 2t-147.5 2h-10zM571 1419q-73 0 -165 -3t-140 -3v-1393l295 -4q157 0 288.5 37.5t225 104t158.5 158
t96 198.5t31 227q0 111 -27 209t-88 185t-151 149.5t-224 98.5t-299 36z" />
    <glyph glyph-name="E" unicode="E" horiz-adv-x="1177" 
d="M246 0v1434h768v-21h-748v-672h686v-20h-686v-701h768v-20h-788z" />
    <glyph glyph-name="F" unicode="F" horiz-adv-x="1116" 
d="M246 0v1434h788v-21h-768v-713h707v-20h-707v-680h-20z" />
    <glyph glyph-name="G" unicode="G" horiz-adv-x="1488" 
d="M856 621v20h490v-463q-91 -91 -243 -142.5t-294 -51.5q-149 0 -275.5 52.5t-217 146.5t-142 231.5t-51.5 302.5q0 205 85 372t241.5 264t355.5 97q268 0 432 -129l-14 -14q-152 123 -416 123q-196 0 -348.5 -95.5t-234 -257.5t-81.5 -360q0 -212 85 -374.5t237 -250.5
t348 -88q142 0 284 49t228 133v435h-469z" />
    <glyph glyph-name="H" unicode="H" horiz-adv-x="1587" 
d="M1321 0v721h-1055v-721h-20v1434h20v-693h1055v693h20v-1434h-20z" />
    <glyph glyph-name="I" unicode="I" horiz-adv-x="634" 
d="M307 0v1434h21v-1434h-21z" />
    <glyph glyph-name="J" unicode="J" horiz-adv-x="698" 
d="M453 1434v-1133q0 -75 -11 -129t-37.5 -98.5t-76.5 -67t-123 -22.5q-94 0 -164 51l12 18q65 -49 152 -49q70 0 117 22.5t70 66t31.5 91.5t8.5 115v1135h21z" />
    <glyph glyph-name="K" unicode="K" horiz-adv-x="1257" 
d="M1153 1434l-739 -686l762 -748h-31l-762 748l741 686h29zM246 0v1434h20v-1434h-20z" />
    <glyph glyph-name="L" unicode="L" horiz-adv-x="1136" 
d="M246 0v1434h20v-1414h830v-20h-850z" />
    <glyph glyph-name="M" unicode="M" horiz-adv-x="1785" 
d="M246 0v1434h22l635 -865l615 865h22v-1434h-20v1405l-615 -866h-6l-633 860v-1399h-20z" />
    <glyph glyph-name="N" unicode="N" horiz-adv-x="1638" 
d="M1393 0h-17l-1110 1393v-1393h-20v1434h16l1110 -1397v1397h21v-1434z" />
    <glyph glyph-name="O" unicode="O" horiz-adv-x="1646" 
d="M123 717q0 205 92 373t252.5 264t355.5 96t355.5 -96t253 -264t92.5 -373t-92.5 -373t-253 -264t-355.5 -96t-355.5 96t-252.5 264t-92 373zM143 717q0 -150 52.5 -282.5t143 -227t216.5 -149t268 -54.5t268 54.5t216.5 149t143 227t52.5 282.5t-52.5 282.5t-143 227
t-216.5 149t-268 54.5t-268 -54.5t-216.5 -149t-143 -227t-52.5 -282.5z" />
    <glyph glyph-name="P" unicode="P" horiz-adv-x="1161" 
d="M266 0h-20v1434q41 0 159 2t152 2q111 0 197 -24.5t138.5 -63.5t86 -94.5t46.5 -111.5t13 -120q0 -82 -27.5 -154.5t-84 -133.5t-156.5 -96.5t-233 -35.5q-114 0 -271 10v-614zM559 1417q-157 0 -293 -4v-778q157 -10 269 -10q122 0 216.5 31.5t151.5 86.5t86 126.5
t29 156.5q0 83 -25 151.5t-77.5 123.5t-143.5 85.5t-213 30.5z" />
    <glyph glyph-name="Q" unicode="Q" horiz-adv-x="1646" 
d="M123 717q0 205 92 373t252.5 264t355.5 96t355.5 -96t253 -264t92.5 -373q0 -174 -67.5 -322t-186.5 -250l123 -145h-31l-109 131q-190 -147 -430 -147q-195 0 -355.5 96t-252.5 264t-92 373zM143 717q0 -150 52.5 -282.5t143 -227t216.5 -149t268 -54.5q239 0 418 143
l-127 156l14 14l129 -155q116 98 181 242t65 313q0 150 -52.5 282.5t-143 227t-216.5 149t-268 54.5t-268 -54.5t-216.5 -149t-143 -227t-52.5 -282.5z" />
    <glyph glyph-name="R" unicode="R" horiz-adv-x="1255" 
d="M266 0h-20v1434q45 0 155.5 2t126.5 2q113 0 200.5 -22.5t141.5 -58.5t88 -88.5t47 -106.5t13 -118q0 -140 -103 -252t-278 -143l537 -649h-29l-533 645h-346v-645zM526 1417q-124 0 -260 -4v-747h303q104 0 202 48t162 137.5t64 195.5q0 83 -25 148.5t-79 116t-147 78
t-220 27.5z" />
    <glyph glyph-name="S" unicode="S" horiz-adv-x="1107" 
d="M965 342q0 98 -44.5 169t-115 112t-156 73t-171.5 64t-156.5 73t-115 112t-44.5 169q0 149 106 242.5t295 93.5q113 0 213.5 -38.5t157.5 -102.5l-14 -15q-64 67 -159 101.5t-204 34.5q-171 0 -273 -86.5t-102 -227.5q0 -76 27.5 -134t74 -96t106.5 -67.5t127 -52.5
t133.5 -46.5t126.5 -55.5t106.5 -73t74 -104.5t27.5 -144.5q0 -162 -126.5 -260t-315.5 -98q-123 0 -244.5 54.5t-175.5 141.5l16 15q62 -86 176 -138.5t224 -52.5q111 0 206 36.5t157.5 115t62.5 186.5z" />
    <glyph glyph-name="T" unicode="T" horiz-adv-x="1208" 
d="M20 1413v21h1168v-21h-574v-1413h-20v1413h-574z" />
    <glyph glyph-name="U" unicode="U" horiz-adv-x="1538" 
d="M1313 1434v-830q0 -159 -42 -280t-115.5 -193t-166 -107.5t-201.5 -35.5q-120 0 -222 40t-178.5 117t-119.5 198t-43 275v816h21v-818q0 -147 41.5 -263.5t115 -191.5t172 -114t213.5 -39q84 0 158 21.5t138 68.5t110 116.5t72 170.5t26 225v824h21z" />
    <glyph glyph-name="V" unicode="V" horiz-adv-x="1343" 
d="M1303 1434l-621 -1450h-6l-635 1450h22l617 -1414l600 1414h23z" />
    <glyph glyph-name="W" unicode="W" horiz-adv-x="1925" 
d="M1884 1434l-424 -1434h-6l-487 1384l-475 -1384h-7l-444 1434h22l426 -1375l474 1375h8l485 -1377l406 1377h22z" />
    <glyph glyph-name="X" unicode="X" horiz-adv-x="1339" 
d="M1239 1434l-555 -705l573 -729h-26l-561 713l-561 -713h-27l575 729l-553 705h27l539 -686l542 686h27z" />
    <glyph glyph-name="Y" unicode="Y" horiz-adv-x="1134" 
d="M1094 1434l-519 -789v-645h-20v645l-514 789h27l497 -768l502 768h27z" />
    <glyph glyph-name="Z" unicode="Z" horiz-adv-x="1269" 
d="M123 1413v21h1044v-4l-1048 -1410h1069v-20h-1106v4l1046 1409h-1005z" />
    <glyph glyph-name="bracketleft" unicode="[" horiz-adv-x="532" 
d="M123 -410v1741h409v-20h-389v-1700h389v-21h-409z" />
    <glyph glyph-name="backslash" unicode="\" horiz-adv-x="591" 
d="M-43 1450l696 -1868l-20 -8l-694 1870z" />
    <glyph glyph-name="bracketright" unicode="]" horiz-adv-x="532" 
d="M410 1331v-1741h-410v21h389v1700h-389v20h410z" />
    <glyph glyph-name="asciicircum" unicode="^" horiz-adv-x="946" 
d="M123 922l348 528h8l344 -528h-24l-324 497l-328 -497h-24z" />
    <glyph glyph-name="underscore" unicode="_" horiz-adv-x="512" 
d="M0 -410v21h512v-21h-512z" />
    <glyph glyph-name="grave" unicode="`" horiz-adv-x="485" 
d="M346 1145l-223 289l14 12l225 -291z" />
    <glyph glyph-name="a" unicode="a" horiz-adv-x="933" 
d="M182 838l-10 16q136 84 274 84q176 0 250 -90.5t74 -269.5v-578h-20v174q-130 -182 -361 -182q-130 0 -208.5 70t-78.5 186q0 132 98 204t253 72q184 0 297 -82q0 88 -2 136.5t-11 113t-28.5 98t-52.5 67.5t-86.5 47.5t-127.5 13.5t-131 -18.5t-129 -61.5zM387 12
q73 0 133 17.5t103.5 49t71 60.5t55.5 68v209q-125 88 -301 88q-61 0 -117.5 -15t-104 -44.5t-76 -80t-28.5 -114.5q0 -111 75 -174.5t189 -63.5z" />
    <glyph glyph-name="b" unicode="b" horiz-adv-x="1128" 
d="M184 98v1336h21v-664q60 72 163.5 120t206.5 48q204 0 322.5 -128t118.5 -335q0 -224 -136 -357.5t-350 -133.5q-215 0 -346 114zM575 918q-112 0 -217 -55t-153 -122v-635q81 -58 158.5 -80t168.5 -22q130 0 235 55.5t166.5 162.5t61.5 247q0 204 -111.5 326.5
t-308.5 122.5z" />
    <glyph glyph-name="c" unicode="c" horiz-adv-x="1007" 
d="M913 141l13 -12q-57 -70 -147.5 -107.5t-186.5 -37.5q-210 0 -344.5 131t-134.5 346q0 132 59 241.5t161.5 172.5t225.5 63q228 0 348 -109l-12 -18q-121 107 -332 107q-178 0 -304 -132.5t-126 -324.5q0 -208 128.5 -332.5t330.5 -124.5q96 0 181.5 37.5t139.5 99.5z
" />
    <glyph glyph-name="d" unicode="d" horiz-adv-x="1130" 
d="M926 0v156q-57 -72 -154.5 -122t-198.5 -50q-208 0 -334 130t-126 347q0 209 142 343t355 134q187 0 316 -98v594h20v-1434h-20zM573 4q105 0 207 58.5t146 123.5v629q-146 103 -318 103q-203 0 -339 -129t-136 -328q0 -210 120 -333.5t320 -123.5z" />
    <glyph glyph-name="e" unicode="e" horiz-adv-x="1083" 
d="M913 141l13 -12q-57 -70 -147.5 -107.5t-186.5 -37.5q-210 0 -344.5 131t-134.5 346q0 102 28 188t82.5 151t141.5 101.5t198 36.5q180 0 294 -113t114 -297q0 -8 -1 -23.5t-1 -23.5h-836q0 -220 124 -348.5t335 -128.5q96 0 181.5 37.5t139.5 99.5zM555 918
q-190 0 -300.5 -115.5t-121.5 -300.5h817q3 191 -105.5 303.5t-289.5 112.5z" />
    <glyph glyph-name="f" unicode="f" horiz-adv-x="698" 
d="M225 0v1071q0 379 310 379q132 0 225 -72l-12 -18q-95 70 -213 70q-147 0 -218 -90.5t-71 -286.5v-131h420v-21h-420v-901h-21z" />
    <glyph glyph-name="g" unicode="g" horiz-adv-x="991" 
d="M41 -145q0 105 76.5 174t212.5 94q-37 37 -37 100q0 61 41 105q-90 37 -141.5 114t-51.5 176q0 139 96.5 229.5t249.5 90.5q137 0 232 -76l252 76v-20l-236 -70q99 -93 99 -230q0 -139 -97 -229t-250 -90q-76 0 -135 20q-39 -36 -39 -96q0 -59 43 -96q68 10 133 10
q206 0 327.5 -73.5t121.5 -208.5q0 -134 -122 -207.5t-327 -73.5q-206 0 -327 73t-121 208zM61 -145q0 -122 118 -191.5t310 -69.5t310.5 69t118.5 192q0 122 -119 192t-310 70t-309.5 -70t-118.5 -192zM162 618q0 -129 91.5 -214t233.5 -85t234 85t92 214q0 128 -92 214
t-234 86t-233.5 -85t-91.5 -215z" />
    <glyph glyph-name="h" unicode="h" horiz-adv-x="1134" 
d="M184 0v1434h21v-664q59 71 165.5 119.5t209.5 48.5q200 0 295.5 -103t95.5 -319v-516h-21v510q0 208 -90 308t-280 100q-112 0 -220 -55.5t-155 -121.5v-741h-21z" />
    <glyph glyph-name="i" unicode="i" horiz-adv-x="512" 
d="M246 0v922h20v-922h-20zM231 1296q0 9 8.5 17t18.5 8q9 0 17 -8t8 -17q0 -10 -8 -18t-17 -8q-11 0 -19 8t-8 18z" />
    <glyph glyph-name="j" unicode="j" horiz-adv-x="514" 
d="M268 922v-990q0 -358 -288 -358q-94 0 -164 51l12 19q27 -21 68.5 -35.5t83.5 -14.5q141 0 204.5 84.5t63.5 251.5v992h20zM229 1296q0 9 8.5 17t18.5 8q9 0 17 -8t8 -17q0 -10 -8 -18t-17 -8q-11 0 -19 8t-8 18z" />
    <glyph glyph-name="k" unicode="k" horiz-adv-x="911" 
d="M817 922l-485 -441l522 -481h-35l-518 481l483 441h33zM184 0v1434h21v-1434h-21z" />
    <glyph glyph-name="l" unicode="l" horiz-adv-x="555" 
d="M184 227v1207h21v-1176q0 -127 37.5 -185.5t128.5 -58.5q86 0 151 49l13 -18q-70 -51 -164 -51q-99 0 -143 57t-44 176z" />
    <glyph glyph-name="m" unicode="m" horiz-adv-x="1654" 
d="M1491 606v-606h-21v600q0 318 -284 318q-113 0 -201.5 -51.5t-142.5 -135.5q6 -24 6 -61v-670h-21v666q0 113 -75 182.5t-209 69.5q-108 0 -199 -53t-139 -124v-741h-21v922h21v-148q53 72 146.5 118t191.5 46q111 0 189 -48t104 -136q50 83 149 133.5t201 50.5
q144 0 224.5 -76.5t80.5 -255.5z" />
    <glyph glyph-name="n" unicode="n" horiz-adv-x="1134" 
d="M184 0v922h21v-152q59 71 165.5 119.5t209.5 48.5q200 0 295.5 -103t95.5 -319v-516h-21v510q0 208 -90 308t-280 100q-112 0 -220 -55.5t-155 -121.5v-741h-21z" />
    <glyph glyph-name="o" unicode="o" horiz-adv-x="1167" 
d="M113 461q0 207 133 342t338 135t338 -135t133 -342t-133 -342t-338 -135t-338 135t-133 342zM133 461q0 -200 126.5 -328.5t324.5 -128.5t324 128.5t126 328.5t-126 328.5t-324 128.5t-324.5 -128.5t-126.5 -328.5z" />
    <glyph glyph-name="p" unicode="p" horiz-adv-x="1128" 
d="M184 -410v1332h21v-146q59 71 162.5 116.5t207.5 45.5q204 0 322.5 -128t118.5 -335q0 -214 -128.5 -352.5t-336.5 -138.5q-215 0 -346 102v-496h-21zM575 918q-113 0 -218 -52.5t-152 -117.5v-635q149 -109 348 -109q195 0 318.5 130t123.5 335q0 204 -111.5 326.5
t-308.5 122.5z" />
    <glyph glyph-name="q" unicode="q" horiz-adv-x="1130" 
d="M926 -410v557q-56 -69 -154 -116t-199 -47q-208 0 -334 130t-126 347q0 201 143.5 339t353.5 138q189 0 336 -94v-1254h-20zM573 4q106 0 208.5 54.5t144.5 117.5v655q-140 87 -318 87q-128 0 -237 -60t-173.5 -165.5t-64.5 -231.5q0 -210 120 -333.5t320 -123.5z" />
    <glyph glyph-name="r" unicode="r" horiz-adv-x="641" 
d="M184 0v922h21v-144q44 71 113.5 115.5t158.5 44.5q97 0 144 -35l-7 -20q-35 21 -61 28t-76 7q-52 0 -95.5 -15.5t-77 -44t-55 -55t-44.5 -62.5v-741h-21z" />
    <glyph glyph-name="s" unicode="s" horiz-adv-x="821" 
d="M678 227q0 61 -29 104t-75.5 66.5t-103 42.5t-113 39t-103 47t-75.5 76t-29 117q0 96 72.5 157.5t195.5 61.5q72 0 140.5 -25.5t105.5 -66.5l-15 -17q-86 89 -235 89q-109 0 -176.5 -58t-67.5 -139q0 -65 29 -110.5t75.5 -71t103 -45l113 -39t103 -45t75.5 -71t29 -110.5
q0 -119 -83.5 -182t-211.5 -63q-79 0 -163.5 35t-116.5 83l18 13q35 -49 111.5 -80t148.5 -31q114 0 195.5 58t81.5 165z" />
    <glyph glyph-name="t" unicode="t" horiz-adv-x="698" 
d="M164 350v828h20v-256h420v-21h-420v-532q0 -181 63.5 -269t205.5 -88q86 0 151 49l12 -18q-70 -51 -163 -51q-151 0 -220 89t-69 269z" />
    <glyph glyph-name="u" unicode="u" horiz-adv-x="1126" 
d="M942 922v-922h-20v170q-64 -76 -172 -131t-215 -55q-191 0 -281 102.5t-90 319.5v516h20v-510q0 -208 86 -308t269 -100q116 0 225 62t158 133v723h20z" />
    <glyph glyph-name="v" unicode="v" horiz-adv-x="954" 
d="M913 922l-428 -938h-6l-438 938h22l328 -705l92 -197l92 205l316 697h22z" />
    <glyph glyph-name="w" unicode="w" horiz-adv-x="1384" 
d="M1343 922l-305 -938h-6l-293 774l-45 121l-47 -129l-285 -766h-6l-315 938h22l250 -742l47 -141l54 141l276 742h8l281 -738l55 -147l51 158l236 727h22z" />
    <glyph glyph-name="x" unicode="x" horiz-adv-x="976" 
d="M874 922l-372 -449l393 -473h-27l-381 457l-378 -457h-27l393 473l-373 449h27l358 -433l361 433h26z" />
    <glyph glyph-name="y" unicode="y" horiz-adv-x="954" 
d="M913 922l-378 -922q-67 -163 -123 -253.5t-105 -123.5t-112 -33q-59 0 -132 31l9 19q74 -31 118 -31q87 0 157.5 78.5t146.5 263.5l20 49l-473 922h22l383 -750l78 -152l64 156l303 746h22z" />
    <glyph glyph-name="z" unicode="z" horiz-adv-x="972" 
d="M133 901v21h737v-4l-731 -898h721v-20h-758v4l729 897h-698z" />
    <glyph glyph-name="braceleft" unicode="{" horiz-adv-x="573" 
d="M225 -176v426q0 58 -16.5 99.5t-45 63t-58.5 30.5t-64 8v20q31 0 60.5 10t58.5 33.5t47 70t18 111.5v396q0 116 46.5 177.5t156.5 61.5h104v-20h-104q-97 0 -139.5 -53.5t-42.5 -165.5v-396q0 -99 -42 -161.5t-112 -71.5q70 -8 112 -65t42 -169v-405q0 -213 194 -213h92
v-21h-94q-213 0 -213 234z" />
    <glyph glyph-name="bar" unicode="|" horiz-adv-x="634" 
d="M307 0v1434h21v-1434h-21z" />
    <glyph glyph-name="braceright" unicode="}" horiz-adv-x="573" 
d="M348 250v-426q0 -234 -213 -234h-94v21h92q195 0 195 213v405q0 112 41.5 169t111.5 65q-70 9 -111.5 71.5t-41.5 161.5v396q0 112 -43 165.5t-140 53.5h-104v20h104q110 0 156.5 -61.5t46.5 -177.5v-396q0 -65 18 -111.5t47 -70t58.5 -33.5t60.5 -10v-20q-34 1 -64 -8
t-58.5 -30.5t-45 -63t-16.5 -99.5z" />
    <glyph glyph-name="asciitilde" unicode="~" horiz-adv-x="1196" 
d="M156 707l-17 14q116 108 236 108q56 0 121.5 -24t116 -53.5t114.5 -53.5t117 -24q98 0 198 94l15 -14q-106 -101 -215 -101q-55 0 -120 24.5t-116 53.5t-116 53.5t-119 24.5q-110 0 -215 -102z" />
    <glyph glyph-name="uni00A0" unicode="&#xa0;" horiz-adv-x="512" 
 />
    <glyph glyph-name="exclamdown" unicode="&#xa1;" horiz-adv-x="634" 
d="M330 610v-1106h-21v1106h21zM346 911q0 -9 -8.5 -16.5t-18.5 -7.5q-9 0 -16.5 7.5t-7.5 16.5q0 10 7.5 18.5t16.5 8.5q11 0 19 -8t8 -19z" />
    <glyph glyph-name="cent" unicode="&#xa2;" horiz-adv-x="1196" 
d="M995 141l13 -12q-57 -70 -147.5 -107.5t-186.5 -37.5h-6v-230h-21v230q-201 9 -326.5 138.5t-125.5 338.5q0 132 59 241.5t161.5 172.5t225.5 63h6v227h21v-227q208 -7 321 -109l-12 -18q-121 107 -332 107q-178 0 -304 -132.5t-126 -324.5q0 -208 128.5 -332.5
t330.5 -124.5q96 0 181.5 37.5t139.5 99.5z" />
    <glyph glyph-name="sterling" unicode="&#xa3;" horiz-adv-x="1196" 
d="M182 604v21h156q-11 35 -45 111.5t-52 148.5t-18 168q0 73 27 143.5t76.5 127.5t127.5 91.5t171 34.5q112 0 212.5 -38t157.5 -103l-14 -15q-64 67 -159 101.5t-204 34.5q-110 0 -197.5 -55.5t-132 -140.5t-44.5 -179t18.5 -166t52 -148t45.5 -116h383v-21h-376
q18 -77 18 -151q0 -216 -104 -349q49 15 98 15q82 0 235.5 -53.5t229.5 -53.5q123 0 231 103l15 -15q-113 -108 -250 -108q-79 0 -233.5 53t-233.5 53q-131 0 -248 -112l-16 14q74 68 139 94q117 130 117 361q0 74 -21 149h-162z" />
    <glyph glyph-name="currency" unicode="&#xa4;" horiz-adv-x="1196" 
d="M150 717q0 186 116 317l-203 205l15 14l203 -202q128 131 319 131q190 0 318 -131l219 217l14 -15l-217 -219q117 -136 117 -317q0 -185 -117 -318l207 -209l-15 -14l-206 207q-128 -131 -320 -131q-193 0 -319 129l-222 -219l-14 14l221 223q-116 128 -116 318zM170 717
q0 -118 50.5 -218.5t150.5 -163.5t229 -63t229 63t150.5 163.5t50.5 218.5t-50.5 218t-150.5 163t-229 63t-229 -63t-150.5 -163t-50.5 -218z" />
    <glyph glyph-name="yen" unicode="&#xa5;" horiz-adv-x="1196" 
d="M152 643v21h421l-501 770h26l498 -768l502 768h26l-506 -770h422v-21h-434v-307h434v-21h-434v-315h-20v315h-434v21h434v307h-434z" />
    <glyph glyph-name="brokenbar" unicode="&#xa6;" horiz-adv-x="634" 
d="M328 901h-21v533h21v-533zM307 532h21v-532h-21v532z" />
    <glyph glyph-name="section" unicode="&#xa7;" horiz-adv-x="1073" 
d="M164 510q0 149 96 250.5t240 113.5q-97 36 -165.5 107t-68.5 172q0 124 81.5 202.5t207.5 78.5q54 0 97 -11t72.5 -31.5t44 -34.5t32.5 -36l-15 -16q-44 49 -73 67q-65 41 -162 41q-112 0 -188 -74.5t-76 -183.5q0 -58 27 -108t71.5 -83.5t90.5 -55.5t93 -34
q146 -11 243 -113t97 -251q0 -147 -96 -249t-240 -116q95 -36 162.5 -106t67.5 -168q0 -124 -81.5 -202.5t-207.5 -78.5q-54 0 -97 11t-72.5 31.5t-44 34.5t-32.5 36l15 16q44 -49 73 -67q64 -41 162 -41q112 0 188 74.5t76 183.5q0 56 -26 104.5t-68.5 81.5t-86.5 55
t-91 35q-149 9 -247.5 111.5t-98.5 253.5zM184 510q0 -148 107 -246t246 -98q143 0 247.5 97.5t104.5 246.5q0 100 -50 180.5t-130.5 123t-171.5 42.5q-142 0 -247.5 -98t-105.5 -248z" />
    <glyph glyph-name="dieresis" unicode="&#xa8;" horiz-adv-x="735" 
d="M123 1292q0 9 8.5 17t18.5 8q9 0 16.5 -8t7.5 -17q0 -10 -7.5 -18t-16.5 -8q-11 0 -19 8t-8 18zM561 1292q0 9 8.5 17t18.5 8q9 0 16.5 -8t7.5 -17q0 -10 -7.5 -18t-16.5 -8q-11 0 -19 8t-8 18z" />
    <glyph glyph-name="copyright" unicode="&#xa9;" horiz-adv-x="2084" 
d="M164 453q0 240 113 441t315 319t450 118q186 0 350 -69.5t279.5 -187.5t182.5 -279.5t67 -341.5t-67 -342t-182.5 -280t-279.5 -187.5t-350 -69.5t-350 69.5t-279.5 188t-182 280t-66.5 341.5zM184 453q0 -175 65 -333.5t178 -274t273 -183.5t342 -68t342 68t273 183.5
t178.5 274t65.5 333.5t-65.5 333t-178.5 273.5t-273 183.5t-342 68q-242 0 -439.5 -115.5t-308 -312t-110.5 -430.5zM1382 141l13 -12q-57 -70 -147.5 -107.5t-186.5 -37.5q-210 0 -344.5 131t-134.5 346q0 132 59 241.5t161.5 172.5t225.5 63q228 0 348 -109l-12 -18
q-121 107 -332 107q-178 0 -304 -132.5t-126 -324.5q0 -208 128.5 -332.5t330.5 -124.5q96 0 181.5 37.5t139.5 99.5z" />
    <glyph glyph-name="ordfeminine" unicode="&#xaa;" horiz-adv-x="788" 
d="M205 1260l-17 12q38 35 93 55.5t106 20.5q118 0 178 -61t60 -173v-377h-21v117q-88 -121 -254 -121q-101 0 -164 54.5t-63 132.5q0 89 67.5 139.5t180.5 50.5q146 0 233 -61v61q0 106 -56.5 161.5t-162.5 55.5q-50 0 -89.5 -15.5t-90.5 -51.5zM348 752q90 0 154 37
t102 88v149q-41 27 -109 45.5t-126 18.5q-92 0 -159 -45t-67 -125q0 -72 61.5 -120t143.5 -48z" />
    <glyph glyph-name="guillemotleft" unicode="&#xab;" horiz-adv-x="960" 
d="M780 98l-350 410v8l352 406l15 -13l-344 -397l340 -397zM473 98l-350 410v8l352 406l14 -13l-344 -397l340 -397z" />
    <glyph glyph-name="logicalnot" unicode="&#xac;" horiz-adv-x="1196" 
d="M154 727v21h888v-289h-20v268h-868z" />
    <glyph glyph-name="uni00AD" unicode="&#xad;" horiz-adv-x="847" 
d="M205 543v20h438v-20h-438z" />
    <glyph glyph-name="registered" unicode="&#xae;" horiz-adv-x="1081" 
d="M123 1016q0 173 122.5 295.5t295.5 122.5t295 -122.5t122 -295.5t-122 -295.5t-295 -122.5t-295.5 122.5t-122.5 295.5zM143 1016q0 -164 117 -281t281 -117t280.5 117t116.5 281t-116.5 280.5t-280.5 116.5t-281 -116.5t-117 -280.5zM412 737h-21v574h125
q195 0 195 -156q0 -56 -41 -101.5t-111 -58.5l215 -258h-31l-213 258h-118v-258zM516 1290h-104v-274h120q58 0 108 38.5t50 100.5q0 64 -45 99.5t-129 35.5z" />
    <glyph glyph-name="macron" unicode="&#xaf;" horiz-adv-x="724" 
d="M123 1311v20h479v-20h-479z" />
    <glyph glyph-name="degree" unicode="&#xb0;" horiz-adv-x="778" 
d="M123 1167q0 110 78 188.5t188 78.5t188 -78.5t78 -188.5t-78 -188t-188 -78t-188 78t-78 188zM143 1167q0 -101 72.5 -173t173.5 -72t173.5 72t72.5 173t-72.5 173.5t-173.5 72.5t-173.5 -72.5t-72.5 -173.5z" />
    <glyph glyph-name="plusminus" unicode="&#xb1;" horiz-adv-x="1196" 
d="M154 870v21h432v432h20v-432h436v-21h-436v-333h-20v333h-432zM154 379v20h888v-20h-888z" />
    <glyph glyph-name="twosuperior" unicode="&#xb2;" horiz-adv-x="661" 
d="M92 717v18q14 11 55 41.5t68 51.5t70.5 57t73 65t63.5 68t55 73.5t35 74.5t14 77q0 75 -50 126.5t-144 51.5q-73 0 -134.5 -37t-72.5 -110l-21 4q11 77 79 120.5t145 43.5q110 0 164.5 -59t54.5 -146q0 -203 -406 -489q-12 -8 -16 -11h465v-20h-498z" />
    <glyph glyph-name="threesuperior" unicode="&#xb3;" horiz-adv-x="673" 
d="M322 709q-79 0 -143.5 30.5t-96.5 96.5l16 10q30 -61 92.5 -89t135.5 -28q101 0 163 51t62 129q0 71 -59 117.5t-142 46.5h-82v21h72q68 0 123 50t55 120q0 76 -53.5 116.5t-142.5 40.5q-152 0 -201 -110l-17 10q22 57 80.5 89t137.5 32q103 0 160 -46.5t57 -131.5
q0 -56 -37.5 -106t-102.5 -71v-2q79 -9 125.5 -60t46.5 -116q0 -91 -70 -145.5t-179 -54.5z" />
    <glyph glyph-name="acute" unicode="&#xb4;" horiz-adv-x="485" 
d="M362 1434l-223 -289l-16 10l225 291z" />
    <glyph glyph-name="mu" unicode="&#xb5;" horiz-adv-x="1126" 
d="M942 922v-922h-20v170q-64 -76 -172 -131t-215 -55q-147 0 -233 58.5t-118 182.5v-635h-20v1332h20v-510q0 -208 86 -308t269 -100q116 0 225 62t158 133v723h20z" />
    <glyph glyph-name="mu" unicode="&#x3bc;" horiz-adv-x="1126" 
d="M942 922v-922h-20v170q-64 -76 -172 -131t-215 -55q-147 0 -233 58.5t-118 182.5v-635h-20v1332h20v-510q0 -208 86 -308t269 -100q116 0 225 62t158 133v723h20z" />
    <glyph glyph-name="paragraph" unicode="&#xb6;" horiz-adv-x="821" 
d="M123 985q0 211 106.5 330t300.5 119h209v-21h-192v-1522q0 -75 -11 -129t-37.5 -98.5t-76.5 -67t-123 -22.5q-94 0 -164 51l12 19q27 -21 68.5 -35.5t83.5 -14.5q70 0 117 22.5t70 66t31.5 91.5t8.5 115v650q-179 2 -291 121t-112 325z" />
    <glyph glyph-name="periodcentered" unicode="&#xb7;" horiz-adv-x="512" 
d="M229 600q0 9 8.5 17t18.5 8q9 0 17 -8t8 -17q0 -10 -8 -18.5t-17 -8.5q-10 0 -18.5 8.5t-8.5 18.5z" />
    <glyph glyph-name="cedilla" unicode="&#xb8;" horiz-adv-x="610" 
d="M123 -369l8 19q79 -39 152 -39q81 0 132.5 33.5t51.5 89.5q0 123 -184 123h-13v143h21v-123q196 -3 196 -143q0 -64 -55.5 -104t-148.5 -40q-76 0 -160 41z" />
    <glyph glyph-name="onesuperior" unicode="&#xb9;" horiz-adv-x="450" 
d="M72 1317l182 125h12v-725h-20v692l-162 -109z" />
    <glyph glyph-name="ordmasculine" unicode="&#xba;" horiz-adv-x="880" 
d="M123 1036q0 134 91.5 223t225.5 89t226 -89t92 -223t-91.5 -222.5t-226.5 -88.5q-134 0 -225.5 88.5t-91.5 222.5zM143 1036q0 -126 90 -208.5t207 -82.5q121 0 209 82t88 209t-88.5 209t-208.5 82t-208.5 -82t-88.5 -209z" />
    <glyph glyph-name="guillemotright" unicode="&#xbb;" horiz-adv-x="960" 
d="M838 508l-351 -410l-12 17l340 397l-344 397l14 13l353 -406v-8zM530 508l-350 -410l-12 17l340 397l-344 397l14 13l352 -406v-8z" />
    <glyph glyph-name="onequarter" unicode="&#xbc;" horiz-adv-x="1296" 
d="M113 1317l182 125h12v-725h-20v692l-162 -109zM123 -2l1087 1452l17 -10l-1088 -1456zM1100 0v201h-404v10l402 506h22l-393 -496h373v240h20v-240h135v-20h-135v-201h-20z" />
    <glyph glyph-name="onehalf" unicode="&#xbd;" horiz-adv-x="1327" 
d="M113 1317l182 125h12v-725h-20v692l-162 -109zM41 -2l1087 1452l17 -10l-1088 -1456zM748 0v18q14 11 55 41.5t68 51.5t70.5 57t73 65t63.5 68t55 73.5t35 74.5t14 77q0 75 -50.5 127t-144.5 52q-72 0 -134 -37.5t-73 -110.5l-20 4q8 53 44.5 91.5t83 55.5t95.5 17
q110 0 164.5 -59t54.5 -146q0 -203 -406 -489q-12 -8 -16 -11h465v-20h-497z" />
    <glyph glyph-name="threequarters" unicode="&#xbe;" horiz-adv-x="1357" 
d="M205 -2l1087 1452l17 -10l-1088 -1456zM1161 0v201h-403v10l401 506h23l-394 -496h373v240h21v-240h135v-20h-135v-201h-21zM322 709q-79 0 -143.5 30.5t-96.5 96.5l16 10q30 -61 92.5 -89t135.5 -28q101 0 163 51t62 129q0 71 -59 117.5t-142 46.5h-82v21h72
q68 0 123 50t55 120q0 76 -53.5 116.5t-142.5 40.5q-152 0 -201 -110l-17 10q22 57 80.5 89t137.5 32q103 0 160 -46.5t57 -131.5q0 -56 -37.5 -106t-102.5 -71v-2q79 -9 125.5 -60t46.5 -116q0 -91 -70 -145.5t-179 -54.5z" />
    <glyph glyph-name="questiondown" unicode="&#xbf;" horiz-adv-x="923" 
d="M102 -168q0 -140 102.5 -232t262.5 -92q105 0 199 50.5t159 140.5l17 -8q-56 -91 -159 -147t-220 -56q-177 0 -279 98.5t-102 243.5q0 77 24.5 139t63.5 103.5t86 77t94 68.5t86 68.5t63.5 87t24.5 115.5q0 36 -10 91l18 6q13 -60 13 -99q0 -64 -24.5 -116.5t-63.5 -90
t-86.5 -71.5t-94.5 -69.5t-86 -76t-63.5 -99.5t-24.5 -132zM559 911q0 -9 -8.5 -16.5t-18.5 -7.5q-9 0 -16.5 7.5t-7.5 16.5q0 10 7.5 18.5t16.5 8.5q10 0 18.5 -8t8.5 -19z" />
    <glyph glyph-name="Agrave" unicode="&#xc0;" horiz-adv-x="1402" 
d="M61 0l637 1450h7l636 -1450h-22l-250 567h-737l-248 -567h-23zM700 1409l-360 -821h721zM745 1520l-315 184l8 16l318 -186z" />
    <glyph glyph-name="Aacute" unicode="&#xc1;" horiz-adv-x="1402" 
d="M61 0l637 1450h7l636 -1450h-22l-250 567h-737l-248 -567h-23zM700 1409l-360 -821h721zM981 1704l-315 -184l-11 14l318 186z" />
    <glyph glyph-name="Acircumflex" unicode="&#xc2;" horiz-adv-x="1402" 
d="M61 0l637 1450h7l636 -1450h-22l-250 567h-737l-248 -567h-23zM700 1409l-360 -821h721zM360 1536l338 184h9l335 -184l-16 -14l-324 178l-327 -178z" />
    <glyph glyph-name="Atilde" unicode="&#xc3;" horiz-adv-x="1402" 
d="M61 0l637 1450h7l636 -1450h-22l-250 567h-737l-248 -567h-23zM700 1409l-360 -821h721zM387 1589l-12 15q75 61 153 61q63 0 173.5 -51t164.5 -51q82 0 148 71l14 -14q-78 -78 -162 -78q-58 0 -172 51.5t-172 51.5q-68 0 -135 -56z" />
    <glyph glyph-name="Adieresis" unicode="&#xc4;" horiz-adv-x="1402" 
d="M61 0l637 1450h7l636 -1450h-22l-250 567h-737l-248 -567h-23zM700 1409l-360 -821h721zM436 1618q0 10 8 17t19 7q9 0 16.5 -7t7.5 -17q0 -12 -7.5 -19.5t-16.5 -7.5q-11 0 -19 7.5t-8 19.5zM915 1618q0 10 8 17t19 7q10 0 17.5 -6.5t7.5 -17.5q0 -12 -7.5 -19.5
t-17.5 -7.5q-11 0 -19 7.5t-8 19.5z" />
    <glyph glyph-name="Aring" unicode="&#xc5;" horiz-adv-x="1402" 
d="M512 1587q0 75 53 114.5t135 39.5q83 0 137 -39.5t54 -114.5q0 -72 -49.5 -114.5t-126.5 -45.5l626 -1427h-22l-250 567h-737l-248 -567h-23l627 1427q-77 3 -126.5 45.5t-49.5 114.5zM700 1409l-360 -821h721zM532 1587q0 -68 45.5 -103.5t118.5 -35.5h9q73 2 119 37.5
t46 101.5q0 67 -47 100t-123 33q-75 0 -121.5 -33t-46.5 -100z" />
    <glyph glyph-name="AE" unicode="&#xc6;" horiz-adv-x="1978" 
d="M1835 0h-788v584h-586l-414 -584h-27l1027 1434h768v-21h-748v-672h686v-20h-686v-701h768v-20zM1047 1405l-572 -801h572v801z" />
    <glyph glyph-name="Ccedilla" unicode="&#xc7;" horiz-adv-x="1345" 
d="M653 -369l9 19q79 -39 151 -39q81 0 132.5 33.5t51.5 89.5q0 123 -184 123h-12v129q-305 9 -491.5 207t-186.5 524q0 205 85 372t241.5 264t355.5 97q268 0 432 -129l-14 -14q-152 123 -416 123q-196 0 -348.5 -95.5t-234 -257.5t-81.5 -360q0 -212 86.5 -374.5
t242 -250.5t355.5 -88q126 0 235 40.5t189 109.5l13 -17q-76 -72 -195 -112.5t-242 -40.5h-6v-107q197 -3 197 -143q0 -64 -56 -104t-149 -40q-76 0 -160 41z" />
    <glyph glyph-name="Egrave" unicode="&#xc8;" horiz-adv-x="1177" 
d="M246 0v1434h768v-21h-748v-672h686v-20h-686v-701h768v-20h-788zM725 1520l-315 184l8 16l317 -186z" />
    <glyph glyph-name="Eacute" unicode="&#xc9;" horiz-adv-x="1177" 
d="M246 0v1434h768v-21h-748v-672h686v-20h-686v-701h768v-20h-788zM838 1704l-316 -184l-10 14l317 186z" />
    <glyph glyph-name="Ecircumflex" unicode="&#xca;" horiz-adv-x="1177" 
d="M246 0v1434h768v-21h-748v-672h686v-20h-686v-701h768v-20h-788zM293 1536l338 184h8l336 -184l-17 -14l-323 178l-328 -178z" />
    <glyph glyph-name="Edieresis" unicode="&#xcb;" horiz-adv-x="1177" 
d="M246 0v1434h768v-21h-748v-672h686v-20h-686v-701h768v-20h-788zM369 1618q0 10 7.5 17t18.5 7q9 0 17 -7t8 -17q0 -12 -8 -19.5t-17 -7.5q-11 0 -18.5 7.5t-7.5 19.5zM848 1618q0 10 7.5 17t18.5 7q10 0 17.5 -6.5t7.5 -17.5q0 -12 -7.5 -19.5t-17.5 -7.5
q-11 0 -18.5 7.5t-7.5 19.5z" />
    <glyph glyph-name="Igrave" unicode="&#xcc;" horiz-adv-x="634" 
d="M307 0v1434h21v-1434h-21zM336 1520l-316 184l9 16l317 -186z" />
    <glyph glyph-name="Iacute" unicode="&#xcd;" horiz-adv-x="634" 
d="M307 0v1434h21v-1434h-21zM612 1704l-315 -184l-10 14l317 186z" />
    <glyph glyph-name="Icircumflex" unicode="&#xce;" horiz-adv-x="634" 
d="M307 0v1434h21v-1434h-21zM-23 1536l338 184h9l335 -184l-16 -14l-324 178l-327 -178z" />
    <glyph glyph-name="Idieresis" unicode="&#xcf;" horiz-adv-x="634" 
d="M307 0v1434h21v-1434h-21zM53 1618q0 10 8 17t19 7q9 0 16.5 -7t7.5 -17q0 -12 -7.5 -19.5t-16.5 -7.5q-11 0 -19 7.5t-8 19.5zM532 1618q0 10 8 17t19 7q10 0 17.5 -6.5t7.5 -17.5q0 -12 -8 -19.5t-17 -7.5q-11 0 -19 7.5t-8 19.5z" />
    <glyph glyph-name="Eth" unicode="&#xd0;" horiz-adv-x="1564" 
d="M20 727v21h287v686h21q54 0 145 3t164 3q167 0 303 -37.5t228.5 -102t155 -154t90.5 -191t28 -214.5q0 -157 -52 -291.5t-152.5 -236t-258.5 -159.5t-358 -58q-60 0 -156 2t-148 2h-10v727h-287zM633 1419q-73 0 -165 -3t-140 -3v-665h436v-21h-436v-707l295 -4
q196 0 350.5 57.5t251 157.5t146.5 229.5t50 280.5q0 111 -27 209t-87.5 185t-150.5 149.5t-224 98.5t-299 36z" />
    <glyph glyph-name="Ntilde" unicode="&#xd1;" horiz-adv-x="1638" 
d="M1393 0h-17l-1110 1393v-1393h-20v1434h16l1110 -1397v1397h21v-1434zM514 1589l-12 15q75 61 153 61q63 0 173.5 -51t164.5 -51q82 0 148 71l14 -14q-78 -78 -162 -78q-59 0 -172 51.5t-172 51.5q-68 0 -135 -56z" />
    <glyph glyph-name="Ograve" unicode="&#xd2;" horiz-adv-x="1646" 
d="M123 717q0 205 92 373t252.5 264t355.5 96t355.5 -96t253 -264t92.5 -373t-92.5 -373t-253 -264t-355.5 -96t-355.5 96t-252.5 264t-92 373zM143 717q0 -150 52.5 -282.5t143 -227t216.5 -149t268 -54.5t268 54.5t216.5 149t143 227t52.5 282.5t-52.5 282.5t-143 227
t-216.5 149t-268 54.5t-268 -54.5t-216.5 -149t-143 -227t-52.5 -282.5zM971 1520l-316 184l9 16l317 -186z" />
    <glyph glyph-name="Oacute" unicode="&#xd3;" horiz-adv-x="1646" 
d="M123 717q0 205 92 373t252.5 264t355.5 96t355.5 -96t253 -264t92.5 -373t-92.5 -373t-253 -264t-355.5 -96t-355.5 96t-252.5 264t-92 373zM143 717q0 -150 52.5 -282.5t143 -227t216.5 -149t268 -54.5t268 54.5t216.5 149t143 227t52.5 282.5t-52.5 282.5t-143 227
t-216.5 149t-268 54.5t-268 -54.5t-216.5 -149t-143 -227t-52.5 -282.5zM1042 1704l-315 -184l-10 14l317 186z" />
    <glyph glyph-name="Ocircumflex" unicode="&#xd4;" horiz-adv-x="1646" 
d="M123 717q0 205 92 373t252.5 264t355.5 96t355.5 -96t253 -264t92.5 -373t-92.5 -373t-253 -264t-355.5 -96t-355.5 96t-252.5 264t-92 373zM143 717q0 -150 52.5 -282.5t143 -227t216.5 -149t268 -54.5t268 54.5t216.5 149t143 227t52.5 282.5t-52.5 282.5t-143 227
t-216.5 149t-268 54.5t-268 -54.5t-216.5 -149t-143 -227t-52.5 -282.5zM492 1536l337 184h9l336 -184l-17 -14l-323 178l-328 -178z" />
    <glyph glyph-name="Otilde" unicode="&#xd5;" horiz-adv-x="1646" 
d="M123 717q0 205 92 373t252.5 264t355.5 96t355.5 -96t253 -264t92.5 -373t-92.5 -373t-253 -264t-355.5 -96t-355.5 96t-252.5 264t-92 373zM143 717q0 -150 52.5 -282.5t143 -227t216.5 -149t268 -54.5t268 54.5t216.5 149t143 227t52.5 282.5t-52.5 282.5t-143 227
t-216.5 149t-268 54.5t-268 -54.5t-216.5 -149t-143 -227t-52.5 -282.5zM518 1589l-12 15q75 61 153 61q63 0 173.5 -51t164.5 -51q82 0 148 71l14 -14q-78 -78 -162 -78q-59 0 -172 51.5t-172 51.5q-68 0 -135 -56z" />
    <glyph glyph-name="Odieresis" unicode="&#xd6;" horiz-adv-x="1646" 
d="M123 717q0 205 92 373t252.5 264t355.5 96t355.5 -96t253 -264t92.5 -373t-92.5 -373t-253 -264t-355.5 -96t-355.5 96t-252.5 264t-92 373zM143 717q0 -150 52.5 -282.5t143 -227t216.5 -149t268 -54.5t268 54.5t216.5 149t143 227t52.5 282.5t-52.5 282.5t-143 227
t-216.5 149t-268 54.5t-268 -54.5t-216.5 -149t-143 -227t-52.5 -282.5zM563 1618q0 10 8 17t19 7q9 0 16.5 -7t7.5 -17q0 -12 -7.5 -19.5t-16.5 -7.5q-11 0 -19 7.5t-8 19.5zM1042 1618q0 10 8 17t19 7q10 0 17.5 -6.5t7.5 -17.5q0 -12 -8 -19.5t-17 -7.5q-11 0 -19 7.5
t-8 19.5z" />
    <glyph glyph-name="multiply" unicode="&#xd7;" horiz-adv-x="1196" 
d="M279 1044l14 15l305 -307l305 307l15 -15l-306 -307l310 -307l-15 -14l-309 307l-309 -307l-15 14l310 307z" />
    <glyph glyph-name="Oslash" unicode="&#xd8;" horiz-adv-x="1646" 
d="M123 717q0 205 92 373t252.5 264t355.5 96q148 0 279 -58t227 -161l113 108l14 -12l-115 -110q88 -98 135.5 -226t47.5 -274q0 -205 -92.5 -373t-253 -264t-355.5 -96q-152 0 -283.5 59t-228.5 166l-106 -105l-17 17l109 104q-174 206 -174 492zM1503 717q0 284 -176 485
l-1001 -979q94 -105 221.5 -162t275.5 -57q142 0 268 54.5t216.5 149t143 227t52.5 282.5zM143 717q0 -279 168 -477l1004 977q-94 101 -220.5 157t-271.5 56q-142 0 -268 -54.5t-216.5 -149t-143 -227t-52.5 -282.5z" />
    <glyph glyph-name="Ugrave" unicode="&#xd9;" horiz-adv-x="1538" 
d="M1313 1434v-830q0 -159 -42 -280t-115.5 -193t-166 -107.5t-201.5 -35.5q-120 0 -222 40t-178.5 117t-119.5 198t-43 275v816h21v-818q0 -147 41.5 -263.5t115 -191.5t172 -114t213.5 -39q84 0 158 21.5t138 68.5t110 116.5t72 170.5t26 225v824h21zM889 1520l-316 184
l9 16l317 -186z" />
    <glyph glyph-name="Uacute" unicode="&#xda;" horiz-adv-x="1538" 
d="M1313 1434v-830q0 -159 -42 -280t-115.5 -193t-166 -107.5t-201.5 -35.5q-120 0 -222 40t-178.5 117t-119.5 198t-43 275v816h21v-818q0 -147 41.5 -263.5t115 -191.5t172 -114t213.5 -39q84 0 158 21.5t138 68.5t110 116.5t72 170.5t26 225v824h21zM981 1704l-315 -184
l-11 14l318 186z" />
    <glyph glyph-name="Ucircumflex" unicode="&#xdb;" horiz-adv-x="1538" 
d="M1313 1434v-830q0 -159 -42 -280t-115.5 -193t-166 -107.5t-201.5 -35.5q-120 0 -222 40t-178.5 117t-119.5 198t-43 275v816h21v-818q0 -147 41.5 -263.5t115 -191.5t172 -114t213.5 -39q84 0 158 21.5t138 68.5t110 116.5t72 170.5t26 225v824h21zM428 1536l338 184h8
l336 -184l-16 -14l-324 178l-328 -178z" />
    <glyph glyph-name="Udieresis" unicode="&#xdc;" horiz-adv-x="1538" 
d="M1313 1434v-830q0 -159 -42 -280t-115.5 -193t-166 -107.5t-201.5 -35.5q-120 0 -222 40t-178.5 117t-119.5 198t-43 275v816h21v-818q0 -147 41.5 -263.5t115 -191.5t172 -114t213.5 -39q84 0 158 21.5t138 68.5t110 116.5t72 170.5t26 225v824h21zM502 1618
q0 10 7.5 17t18.5 7q9 0 17 -7t8 -17q0 -12 -7.5 -19.5t-17.5 -7.5q-11 0 -18.5 7.5t-7.5 19.5zM981 1618q0 10 8 17t19 7q10 0 17 -6.5t7 -17.5q0 -12 -7.5 -19.5t-16.5 -7.5q-11 0 -19 7.5t-8 19.5z" />
    <glyph glyph-name="Yacute" unicode="&#xdd;" horiz-adv-x="1134" 
d="M1094 1434l-519 -789v-645h-20v645l-514 789h27l497 -768l502 768h27zM797 1704l-316 -184l-10 14l317 186z" />
    <glyph glyph-name="Thorn" unicode="&#xde;" horiz-adv-x="1161" 
d="M266 0h-20v1434h20v-226q46 0 155 2t136 2q111 0 197 -24t138.5 -63.5t86 -94.5t46.5 -111t13 -120q0 -82 -27.5 -154.5t-84 -133.5t-156.5 -96.5t-233 -35.5q-114 0 -271 10v-389zM559 1192q-157 0 -293 -4v-778q172 -11 269 -11q122 0 216.5 31.5t151.5 87t86 127
t29 156.5q0 83 -25 151.5t-77.5 123.5t-143.5 85.5t-213 30.5z" />
    <glyph glyph-name="germandbls" unicode="&#xdf;" horiz-adv-x="1097" 
d="M954 289q0 61 -25 111.5t-65.5 85.5t-89 66t-97 60.5t-89 61t-65.5 75t-25 95.5q0 48 25 89.5t60.5 72.5t71.5 63t61 75t25 93q0 85 -68 139t-159 54q-147 0 -218 -90.5t-71 -286.5v-1061h-20v1079q0 379 309 379q105 0 176.5 -59.5t71.5 -153.5q0 -46 -18 -86.5t-45 -68
t-59 -56.5t-59 -53t-45 -57.5t-18 -69.5q0 -51 25 -93t65.5 -72t89 -58.5t97.5 -59t89.5 -66.5t65.5 -88.5t25 -117.5q0 -136 -86 -221.5t-209 -85.5q-97 0 -171.5 47.5t-109.5 111.5l19 13q36 -58 103.5 -105t156.5 -47q109 0 192.5 80.5t83.5 204.5z" />
    <glyph glyph-name="agrave" unicode="&#xe0;" horiz-adv-x="933" 
d="M182 838l-10 16q136 84 274 84q176 0 250 -90.5t74 -269.5v-578h-20v174q-130 -182 -361 -182q-130 0 -208.5 70t-78.5 186q0 132 98 204t253 72q184 0 297 -82q0 88 -2 136.5t-11 113t-28.5 98t-52.5 67.5t-86.5 47.5t-127.5 13.5t-131 -18.5t-129 -61.5zM387 12
q73 0 133 17.5t103.5 49t71 60.5t55.5 68v209q-125 88 -301 88q-61 0 -117.5 -15t-104 -44.5t-76 -80t-28.5 -114.5q0 -111 75 -174.5t189 -63.5zM530 1145l-223 289l15 12l225 -291z" />
    <glyph glyph-name="aacute" unicode="&#xe1;" horiz-adv-x="933" 
d="M182 838l-10 16q136 84 274 84q176 0 250 -90.5t74 -269.5v-578h-20v174q-130 -182 -361 -182q-130 0 -208.5 70t-78.5 186q0 132 98 204t253 72q184 0 297 -82q0 88 -2 136.5t-11 113t-28.5 98t-52.5 67.5t-86.5 47.5t-127.5 13.5t-131 -18.5t-129 -61.5zM387 12
q73 0 133 17.5t103.5 49t71 60.5t55.5 68v209q-125 88 -301 88q-61 0 -117.5 -15t-104 -44.5t-76 -80t-28.5 -114.5q0 -111 75 -174.5t189 -63.5zM629 1434l-223 -289l-17 10l225 291z" />
    <glyph glyph-name="acircumflex" unicode="&#xe2;" horiz-adv-x="933" 
d="M182 838l-10 16q136 84 274 84q176 0 250 -90.5t74 -269.5v-578h-20v174q-130 -182 -361 -182q-130 0 -208.5 70t-78.5 186q0 132 98 204t253 72q184 0 297 -82q0 88 -2 136.5t-11 113t-28.5 98t-52.5 67.5t-86.5 47.5t-127.5 13.5t-131 -18.5t-129 -61.5zM387 12
q73 0 133 17.5t103.5 49t71 60.5t55.5 68v209q-125 88 -301 88q-61 0 -117.5 -15t-104 -44.5t-76 -80t-28.5 -114.5q0 -111 75 -174.5t189 -63.5zM473 1450l232 -266l-15 -15l-221 254l-225 -254l-17 15l238 266h8z" />
    <glyph glyph-name="atilde" unicode="&#xe3;" horiz-adv-x="933" 
d="M182 838l-10 16q136 84 274 84q176 0 250 -90.5t74 -269.5v-578h-20v174q-130 -182 -361 -182q-130 0 -208.5 70t-78.5 186q0 132 98 204t253 72q184 0 297 -82q0 88 -2 136.5t-11 113t-28.5 98t-52.5 67.5t-86.5 47.5t-127.5 13.5t-131 -18.5t-129 -61.5zM387 12
q73 0 133 17.5t103.5 49t71 60.5t55.5 68v209q-125 88 -301 88q-61 0 -117.5 -15t-104 -44.5t-76 -80t-28.5 -114.5q0 -111 75 -174.5t189 -63.5zM195 1221l-13 14q104 84 178 84q32 0 63.5 -15.5t52.5 -34.5t49.5 -34.5t56.5 -15.5q64 0 157 88l15 -15q-102 -94 -176 -94
q-30 0 -60 15.5t-51 34.5t-51.5 34.5t-61.5 15.5q-64 0 -159 -77z" />
    <glyph glyph-name="adieresis" unicode="&#xe4;" horiz-adv-x="933" 
d="M182 838l-10 16q136 84 274 84q176 0 250 -90.5t74 -269.5v-578h-20v174q-130 -182 -361 -182q-130 0 -208.5 70t-78.5 186q0 132 98 204t253 72q184 0 297 -82q0 88 -2 136.5t-11 113t-28.5 98t-52.5 67.5t-86.5 47.5t-127.5 13.5t-131 -18.5t-129 -61.5zM387 12
q73 0 133 17.5t103.5 49t71 60.5t55.5 68v209q-125 88 -301 88q-61 0 -117.5 -15t-104 -44.5t-76 -80t-28.5 -114.5q0 -111 75 -174.5t189 -63.5zM203 1292q0 9 8 17t18 8q9 0 17 -8t8 -17q0 -10 -8 -18t-17 -8q-11 0 -18.5 8t-7.5 18zM641 1292q0 9 8.5 17t18.5 8
q9 0 16.5 -8t7.5 -17q0 -10 -7.5 -18t-16.5 -8q-11 0 -19 8t-8 18z" />
    <glyph glyph-name="aring" unicode="&#xe5;" horiz-adv-x="933" 
d="M182 838l-10 16q136 84 274 84q176 0 250 -90.5t74 -269.5v-578h-20v174q-130 -182 -361 -182q-130 0 -208.5 70t-78.5 186q0 132 98 204t253 72q184 0 297 -82q0 88 -2 136.5t-11 113t-28.5 98t-52.5 67.5t-86.5 47.5t-127.5 13.5t-131 -18.5t-129 -61.5zM387 12
q73 0 133 17.5t103.5 49t71 60.5t55.5 68v209q-125 88 -301 88q-61 0 -117.5 -15t-104 -44.5t-76 -80t-28.5 -114.5q0 -111 75 -174.5t189 -63.5zM258 1260q0 78 55 134t133 56t134.5 -56t56.5 -134t-56.5 -133.5t-134.5 -55.5t-133 55.5t-55 133.5zM279 1260
q0 -71 48.5 -119.5t118.5 -48.5q71 0 120.5 49t49.5 119t-50 120t-120 50t-118.5 -49.5t-48.5 -120.5z" />
    <glyph glyph-name="ae" unicode="&#xe6;" horiz-adv-x="1656" 
d="M446 938q131 0 205 -52t101 -153q118 205 385 205q180 0 293.5 -112.5t113.5 -297.5q0 -8 -1 -23.5t-1 -23.5h-772v-268q57 -100 159 -154.5t236 -54.5q96 0 182 37.5t140 99.5l12 -12q-57 -70 -147.5 -107.5t-186.5 -37.5q-132 0 -237 52.5t-168 149.5
q-67 -92 -155 -143t-216 -51q-130 0 -208.5 70t-78.5 186q0 132 98 204t253 72q145 0 297 -20q13 212 -55 313t-253 101q-74 0 -131 -18.5t-129 -61.5l-10 16q136 84 274 84zM770 578v-76h754q3 191 -106 303.5t-290 112.5q-131 0 -225 -56t-145 -155q12 -59 12 -129z
M387 12q73 0 133 17.5t103.5 49t71 60.5t55.5 68v274q-174 23 -301 23q-61 0 -117.5 -15t-104 -44.5t-76 -80t-28.5 -114.5q0 -111 75 -174.5t189 -63.5z" />
    <glyph glyph-name="ccedilla" unicode="&#xe7;" horiz-adv-x="1007" 
d="M410 -369l8 19q79 -39 151 -39q81 0 133 33.5t52 89.5q0 123 -185 123h-12v129q-197 11 -320.5 140t-123.5 335q0 132 59 241.5t161.5 172.5t225.5 63q228 0 348 -109l-12 -18q-121 107 -332 107q-178 0 -304 -132.5t-126 -324.5q0 -208 128.5 -332.5t330.5 -124.5
q96 0 181.5 37.5t139.5 99.5l13 -12q-57 -70 -147.5 -107.5t-186.5 -37.5h-14v-107q196 -3 196 -143q0 -64 -56 -104t-149 -40q-75 0 -159 41z" />
    <glyph glyph-name="egrave" unicode="&#xe8;" horiz-adv-x="1083" 
d="M913 141l13 -12q-57 -70 -147.5 -107.5t-186.5 -37.5q-210 0 -344.5 131t-134.5 346q0 102 28 188t82.5 151t141.5 101.5t198 36.5q180 0 294 -113t114 -297q0 -8 -1 -23.5t-1 -23.5h-836q0 -220 124 -348.5t335 -128.5q96 0 181.5 37.5t139.5 99.5zM555 918
q-190 0 -300.5 -115.5t-121.5 -300.5h817q3 191 -105.5 303.5t-289.5 112.5zM584 1145l-224 289l15 12l225 -291z" />
    <glyph glyph-name="eacute" unicode="&#xe9;" horiz-adv-x="1083" 
d="M913 141l13 -12q-57 -70 -147.5 -107.5t-186.5 -37.5q-210 0 -344.5 131t-134.5 346q0 102 28 188t82.5 151t141.5 101.5t198 36.5q180 0 294 -113t114 -297q0 -8 -1 -23.5t-1 -23.5h-836q0 -220 124 -348.5t335 -128.5q96 0 181.5 37.5t139.5 99.5zM555 918
q-190 0 -300.5 -115.5t-121.5 -300.5h817q3 191 -105.5 303.5t-289.5 112.5zM764 1434l-223 -289l-17 10l226 291z" />
    <glyph glyph-name="ecircumflex" unicode="&#xea;" horiz-adv-x="1083" 
d="M913 141l13 -12q-57 -70 -147.5 -107.5t-186.5 -37.5q-210 0 -344.5 131t-134.5 346q0 102 28 188t82.5 151t141.5 101.5t198 36.5q180 0 294 -113t114 -297q0 -8 -1 -23.5t-1 -23.5h-836q0 -220 124 -348.5t335 -128.5q96 0 181.5 37.5t139.5 99.5zM555 918
q-190 0 -300.5 -115.5t-121.5 -300.5h817q3 191 -105.5 303.5t-289.5 112.5zM567 1450l232 -266l-15 -15l-221 254l-225 -254l-16 15l237 266h8z" />
    <glyph glyph-name="edieresis" unicode="&#xeb;" horiz-adv-x="1083" 
d="M913 141l13 -12q-57 -70 -147.5 -107.5t-186.5 -37.5q-210 0 -344.5 131t-134.5 346q0 102 28 188t82.5 151t141.5 101.5t198 36.5q180 0 294 -113t114 -297q0 -8 -1 -23.5t-1 -23.5h-836q0 -220 124 -348.5t335 -128.5q96 0 181.5 37.5t139.5 99.5zM555 918
q-190 0 -300.5 -115.5t-121.5 -300.5h817q3 191 -105.5 303.5t-289.5 112.5zM295 1292q0 9 8.5 17t18.5 8q9 0 16.5 -8t7.5 -17q0 -10 -7.5 -18t-16.5 -8q-11 0 -19 8t-8 18zM733 1292q0 9 8.5 17t18.5 8q9 0 16.5 -8t7.5 -17q0 -10 -7.5 -18t-16.5 -8q-11 0 -19 8t-8 18z
" />
    <glyph glyph-name="igrave" unicode="&#xec;" horiz-adv-x="512" 
d="M246 0v922h20v-922h-20zM279 1145l-224 289l15 12l225 -291z" />
    <glyph glyph-name="iacute" unicode="&#xed;" horiz-adv-x="512" 
d="M246 0v922h20v-922h-20zM459 1434l-223 -289l-17 10l225 291z" />
    <glyph glyph-name="icircumflex" unicode="&#xee;" horiz-adv-x="512" 
d="M246 0v922h20v-922h-20zM264 1450l232 -266l-15 -15l-221 254l-225 -254l-17 15l238 266h8z" />
    <glyph glyph-name="idieresis" unicode="&#xef;" horiz-adv-x="512" 
d="M246 0v922h20v-922h-20zM12 1292q0 9 8.5 17t18.5 8q9 0 16.5 -8t7.5 -17q0 -10 -7.5 -18t-16.5 -8q-11 0 -19 8t-8 18zM451 1292q0 9 8 17t18 8q9 0 17 -8t8 -17q0 -10 -8 -18t-17 -8q-11 0 -18.5 8t-7.5 18z" />
    <glyph glyph-name="eth" unicode="&#xf0;" horiz-adv-x="1167" 
d="M434 1130l-10 17l242 139q-120 97 -260 148l22 16q141 -58 256 -154l211 123l10 -16l-205 -119q167 -144 261 -344t94 -420q0 -244 -131.5 -390t-339.5 -146q-205 0 -338 135t-133 342t133 342t338 135q149 0 264.5 -78.5t177.5 -218.5q-24 188 -116 351.5t-230 279.5z
M133 461q0 -200 126.5 -328.5t324.5 -128.5q200 0 325 141.5t125 380.5q-9 70 -43.5 138.5t-90 125.5t-138.5 92.5t-178 35.5q-198 0 -324.5 -128.5t-126.5 -328.5z" />
    <glyph glyph-name="ntilde" unicode="&#xf1;" horiz-adv-x="1134" 
d="M184 0v922h21v-152q59 71 165.5 119.5t209.5 48.5q200 0 295.5 -103t95.5 -319v-516h-21v510q0 208 -90 308t-280 100q-112 0 -220 -55.5t-155 -121.5v-741h-21zM293 1221l-12 14q104 84 178 84q32 0 63 -15.5t52 -34.5t49.5 -34.5t56.5 -15.5q65 0 158 88l14 -15
q-102 -94 -176 -94q-30 0 -60 15.5t-51 34.5t-51 34.5t-61 15.5q-65 0 -160 -77z" />
    <glyph glyph-name="ograve" unicode="&#xf2;" horiz-adv-x="1167" 
d="M113 461q0 207 133 342t338 135t338 -135t133 -342t-133 -342t-338 -135t-338 135t-133 342zM133 461q0 -200 126.5 -328.5t324.5 -128.5t324 128.5t126 328.5t-126 328.5t-324 128.5t-324.5 -128.5t-126.5 -328.5zM627 1145l-224 289l15 12l225 -291z" />
    <glyph glyph-name="oacute" unicode="&#xf3;" horiz-adv-x="1167" 
d="M113 461q0 207 133 342t338 135t338 -135t133 -342t-133 -342t-338 -135t-338 135t-133 342zM133 461q0 -200 126.5 -328.5t324.5 -128.5t324 128.5t126 328.5t-126 328.5t-324 128.5t-324.5 -128.5t-126.5 -328.5zM766 1434l-223 -289l-17 10l226 291z" />
    <glyph glyph-name="ocircumflex" unicode="&#xf4;" horiz-adv-x="1167" 
d="M113 461q0 207 133 342t338 135t338 -135t133 -342t-133 -342t-338 -135t-338 135t-133 342zM133 461q0 -200 126.5 -328.5t324.5 -128.5t324 128.5t126 328.5t-126 328.5t-324 128.5t-324.5 -128.5t-126.5 -328.5zM588 1450l231 -266l-14 -15l-221 254l-226 -254l-16 15
l238 266h8z" />
    <glyph glyph-name="otilde" unicode="&#xf5;" horiz-adv-x="1167" 
d="M113 461q0 207 133 342t338 135t338 -135t133 -342t-133 -342t-338 -135t-338 135t-133 342zM133 461q0 -200 126.5 -328.5t324.5 -128.5t324 128.5t126 328.5t-126 328.5t-324 128.5t-324.5 -128.5t-126.5 -328.5zM309 1221l-12 14q104 84 178 84q32 0 63 -15.5
t52 -34.5t49.5 -34.5t56.5 -15.5q65 0 158 88l14 -15q-102 -94 -176 -94q-30 0 -60 15.5t-51 34.5t-51 34.5t-61 15.5q-65 0 -160 -77z" />
    <glyph glyph-name="odieresis" unicode="&#xf6;" horiz-adv-x="1167" 
d="M113 461q0 207 133 342t338 135t338 -135t133 -342t-133 -342t-338 -135t-338 135t-133 342zM133 461q0 -200 126.5 -328.5t324.5 -128.5t324 128.5t126 328.5t-126 328.5t-324 128.5t-324.5 -128.5t-126.5 -328.5zM340 1292q0 9 8.5 17t18.5 8q9 0 16.5 -8t7.5 -17
q0 -10 -7.5 -18t-16.5 -8q-11 0 -19 8t-8 18zM778 1292q0 9 8.5 17t18.5 8q9 0 16.5 -8t7.5 -17q0 -10 -7.5 -18t-16.5 -8q-11 0 -19 8t-8 18z" />
    <glyph glyph-name="divide" unicode="&#xf7;" horiz-adv-x="1196" 
d="M573 1186q0 9 8.5 16.5t18.5 7.5q9 0 17 -7.5t8 -16.5q0 -10 -8 -18.5t-17 -8.5q-10 0 -18.5 8.5t-8.5 18.5zM573 291q0 9 8.5 16.5t18.5 7.5q9 0 17 -7.5t8 -16.5q0 -10 -8 -18.5t-17 -8.5q-10 0 -18.5 8t-8.5 19zM154 727v21h888v-21h-888z" />
    <glyph glyph-name="oslash" unicode="&#xf8;" horiz-adv-x="1167" 
d="M113 461q0 207 133 342t338 135q204 0 340 -139l120 123l15 -15l-121 -123q117 -130 117 -323q0 -207 -133 -342t-338 -135q-192 0 -318 114l-121 -125l-14 17l121 123q-139 133 -139 348zM133 461q0 -206 131 -334l647 659q-129 132 -327 132t-324.5 -128.5
t-126.5 -328.5zM1034 461q0 183 -110 309l-643 -657q121 -109 303 -109q198 0 324 128.5t126 328.5z" />
    <glyph glyph-name="ugrave" unicode="&#xf9;" horiz-adv-x="1126" 
d="M942 922v-922h-20v170q-64 -76 -172 -131t-215 -55q-191 0 -281 102.5t-90 319.5v516h20v-510q0 -208 86 -308t269 -100q116 0 225 62t158 133v723h20zM606 1145l-223 289l14 12l226 -291z" />
    <glyph glyph-name="uacute" unicode="&#xfa;" horiz-adv-x="1126" 
d="M942 922v-922h-20v170q-64 -76 -172 -131t-215 -55q-191 0 -281 102.5t-90 319.5v516h20v-510q0 -208 86 -308t269 -100q116 0 225 62t158 133v723h20zM745 1434l-223 -289l-16 10l225 291z" />
    <glyph glyph-name="ucircumflex" unicode="&#xfb;" horiz-adv-x="1126" 
d="M942 922v-922h-20v170q-64 -76 -172 -131t-215 -55q-191 0 -281 102.5t-90 319.5v516h20v-510q0 -208 86 -308t269 -100q116 0 225 62t158 133v723h20zM557 1450l231 -266l-14 -15l-221 254l-225 -254l-17 15l238 266h8z" />
    <glyph glyph-name="udieresis" unicode="&#xfc;" horiz-adv-x="1126" 
d="M942 922v-922h-20v170q-64 -76 -172 -131t-215 -55q-191 0 -281 102.5t-90 319.5v516h20v-510q0 -208 86 -308t269 -100q116 0 225 62t158 133v723h20zM319 1292q0 9 8.5 17t18.5 8q9 0 17 -8t8 -17q0 -10 -8 -18t-17 -8q-11 0 -19 8t-8 18zM758 1292q0 9 8 17t18 8
q9 0 17 -8t8 -17q0 -10 -8 -18t-17 -8q-10 0 -18 8t-8 18z" />
    <glyph glyph-name="yacute" unicode="&#xfd;" horiz-adv-x="954" 
d="M913 922l-378 -922q-67 -163 -123 -253.5t-105 -123.5t-112 -33q-59 0 -132 31l9 19q74 -31 118 -31q87 0 157.5 78.5t146.5 263.5l20 49l-473 922h22l383 -750l78 -152l64 156l303 746h22zM659 1434l-223 -289l-16 10l225 291z" />
    <glyph glyph-name="thorn" unicode="&#xfe;" horiz-adv-x="1128" 
d="M184 -410v1844h21v-658q59 71 162.5 116.5t207.5 45.5q204 0 322.5 -128t118.5 -335q0 -214 -128.5 -352.5t-336.5 -138.5q-215 0 -346 102v-496h-21zM575 918q-113 0 -218 -52.5t-152 -117.5v-635q149 -109 348 -109q195 0 318.5 130t123.5 335q0 204 -111.5 326.5
t-308.5 122.5z" />
    <glyph glyph-name="ydieresis" unicode="&#xff;" horiz-adv-x="954" 
d="M913 922l-378 -922q-67 -163 -123 -253.5t-105 -123.5t-112 -33q-59 0 -132 31l9 19q74 -31 118 -31q87 0 157.5 78.5t146.5 263.5l20 49l-473 922h22l383 -750l78 -152l64 156l303 746h22zM233 1292q0 9 8.5 17t18.5 8q9 0 17 -8t8 -17q0 -10 -8 -18t-17 -8q-11 0 -19 8
t-8 18zM672 1292q0 9 8 17t18 8q9 0 17 -8t8 -17q0 -10 -8 -18t-17 -8q-10 0 -18 8t-8 18z" />
    <glyph glyph-name="Amacron" unicode="&#x100;" horiz-adv-x="1402" 
d="M61 0l637 1450h7l636 -1450h-22l-250 567h-737l-248 -567h-23zM700 1409l-360 -821h721zM399 1618v20h602v-20h-602z" />
    <glyph glyph-name="amacron" unicode="&#x101;" horiz-adv-x="933" 
d="M182 838l-10 16q136 84 274 84q176 0 250 -90.5t74 -269.5v-578h-20v174q-130 -182 -361 -182q-130 0 -208.5 70t-78.5 186q0 132 98 204t253 72q184 0 297 -82q0 88 -2 136.5t-11 113t-28.5 98t-52.5 67.5t-86.5 47.5t-127.5 13.5t-131 -18.5t-129 -61.5zM387 12
q73 0 133 17.5t103.5 49t71 60.5t55.5 68v209q-125 88 -301 88q-61 0 -117.5 -15t-104 -44.5t-76 -80t-28.5 -114.5q0 -111 75 -174.5t189 -63.5zM227 1311v20h480v-20h-480z" />
    <glyph glyph-name="Abreve" unicode="&#x102;" horiz-adv-x="1402" 
d="M61 0l637 1450h7l636 -1450h-22l-250 567h-737l-248 -567h-23zM700 1409l-360 -821h721zM397 1708l15 12q26 -33 59.5 -61t97.5 -55t136 -27q93 0 165.5 41t120.5 102l15 -12q-48 -64 -124.5 -108t-176.5 -44q-60 0 -114.5 16.5t-92 42t-62 48.5t-39.5 45z" />
    <glyph glyph-name="abreve" unicode="&#x103;" horiz-adv-x="933" 
d="M182 838l-10 16q136 84 274 84q176 0 250 -90.5t74 -269.5v-578h-20v174q-130 -182 -361 -182q-130 0 -208.5 70t-78.5 186q0 132 98 204t253 72q184 0 297 -82q0 88 -2 136.5t-11 113t-28.5 98t-52.5 67.5t-86.5 47.5t-127.5 13.5t-131 -18.5t-129 -61.5zM387 12
q73 0 133 17.5t103.5 49t71 60.5t55.5 68v209q-125 88 -301 88q-61 0 -117.5 -15t-104 -44.5t-76 -80t-28.5 -114.5q0 -111 75 -174.5t189 -63.5zM205 1380l14 13q17 -22 29 -35.5t38 -36.5t50 -36.5t60.5 -24.5t74.5 -11q133 0 246 144l14 -13q-112 -151 -260 -151
q-164 0 -266 151z" />
    <glyph glyph-name="Aogonek" unicode="&#x104;" horiz-adv-x="1402" 
d="M1323 -371l6 -18q-53 -21 -106 -21q-33 0 -65.5 8.5t-65.5 28t-53.5 58t-20.5 90.5q0 69 43.5 125t109 86.5t138.5 33.5l-240 547h-737l-248 -567h-23l637 1450h7l636 -1450h-22q-108 -2 -194.5 -65.5t-86.5 -159.5q0 -38 14 -68.5t34.5 -48t47.5 -28.5t49 -15t42 -4
q59 0 98 18zM700 1409l-360 -821h721z" />
    <glyph glyph-name="aogonek" unicode="&#x105;" horiz-adv-x="933" 
d="M770 -371l6 -18q-52 -21 -106 -21q-33 0 -65.5 8.5t-65.5 28t-53.5 58t-20.5 90.5q0 101 86.5 169t198.5 74v156q-130 -182 -361 -182q-130 0 -208.5 70t-78.5 186q0 132 98 204t253 72q184 0 297 -82q0 88 -2 136.5t-11 113t-28.5 98t-52.5 67.5t-86.5 47.5t-127.5 13.5
t-131 -18.5t-129 -61.5l-10 16q136 84 274 84q176 0 250 -90.5t74 -269.5v-578h-10q-106 -3 -190.5 -66.5t-84.5 -158.5q0 -38 14 -68.5t34.5 -48t47.5 -28.5t49 -15t42 -4q59 0 98 18zM387 12q73 0 133 17.5t103.5 49t71 60.5t55.5 68v209q-125 88 -301 88
q-61 0 -117.5 -15t-104 -44.5t-76 -80t-28.5 -114.5q0 -111 75 -174.5t189 -63.5z" />
    <glyph glyph-name="Cacute" unicode="&#x106;" horiz-adv-x="1345" 
d="M1251 154l13 -17q-76 -72 -195 -112.5t-242 -40.5q-155 0 -286 52t-223 146.5t-143.5 232t-51.5 302.5q0 205 85 372t241.5 264t355.5 97q268 0 432 -129l-14 -14q-152 123 -416 123q-196 0 -348.5 -95.5t-234 -257.5t-81.5 -360q0 -212 86.5 -374.5t242 -250.5
t355.5 -88q126 0 235 40.5t189 109.5zM1022 1704l-315 -184l-11 14l318 186z" />
    <glyph glyph-name="cacute" unicode="&#x107;" horiz-adv-x="1007" 
d="M913 141l13 -12q-57 -70 -147.5 -107.5t-186.5 -37.5q-210 0 -344.5 131t-134.5 346q0 132 59 241.5t161.5 172.5t225.5 63q228 0 348 -109l-12 -18q-121 107 -332 107q-178 0 -304 -132.5t-126 -324.5q0 -208 128.5 -332.5t330.5 -124.5q96 0 181.5 37.5t139.5 99.5z
M752 1434l-224 -289l-16 10l225 291z" />
    <glyph glyph-name="Ccircumflex" unicode="&#x108;" horiz-adv-x="1345" 
d="M1251 154l13 -17q-76 -72 -195 -112.5t-242 -40.5q-155 0 -286 52t-223 146.5t-143.5 232t-51.5 302.5q0 205 85 372t241.5 264t355.5 97q268 0 432 -129l-14 -14q-152 123 -416 123q-196 0 -348.5 -95.5t-234 -257.5t-81.5 -360q0 -212 86.5 -374.5t242 -250.5
t355.5 -88q126 0 235 40.5t189 109.5zM471 1536l338 184h8l336 -184l-16 -14l-324 178l-328 -178z" />
    <glyph glyph-name="ccircumflex" unicode="&#x109;" horiz-adv-x="1007" 
d="M913 141l13 -12q-57 -70 -147.5 -107.5t-186.5 -37.5q-210 0 -344.5 131t-134.5 346q0 132 59 241.5t161.5 172.5t225.5 63q228 0 348 -109l-12 -18q-121 107 -332 107q-178 0 -304 -132.5t-126 -324.5q0 -208 128.5 -332.5t330.5 -124.5q96 0 181.5 37.5t139.5 99.5z
M575 1450l232 -266l-14 -15l-222 254l-225 -254l-16 15l237 266h8z" />
    <glyph glyph-name="Cdotaccent" unicode="&#x10a;" horiz-adv-x="1345" 
d="M1251 154l13 -17q-76 -72 -195 -112.5t-242 -40.5q-155 0 -286 52t-223 146.5t-143.5 232t-51.5 302.5q0 205 85 372t241.5 264t355.5 97q268 0 432 -129l-14 -14q-152 123 -416 123q-196 0 -348.5 -95.5t-234 -257.5t-81.5 -360q0 -212 86.5 -374.5t242 -250.5
t355.5 -88q126 0 235 40.5t189 109.5zM752 1618q0 10 7.5 17t18.5 7q9 0 17 -7t8 -17q0 -12 -7.5 -19.5t-17.5 -7.5q-11 0 -18.5 7.5t-7.5 19.5z" />
    <glyph glyph-name="cdotaccent" unicode="&#x10b;" horiz-adv-x="1007" 
d="M913 141l13 -12q-57 -70 -147.5 -107.5t-186.5 -37.5q-210 0 -344.5 131t-134.5 346q0 132 59 241.5t161.5 172.5t225.5 63q228 0 348 -109l-12 -18q-121 107 -332 107q-178 0 -304 -132.5t-126 -324.5q0 -208 128.5 -332.5t330.5 -124.5q96 0 181.5 37.5t139.5 99.5z
M561 1296q0 9 8.5 17t18.5 8q9 0 16.5 -8t7.5 -17q0 -10 -7.5 -18t-16.5 -8q-11 0 -19 8t-8 18z" />
    <glyph glyph-name="Ccaron" unicode="&#x10c;" horiz-adv-x="1345" 
d="M1251 154l13 -17q-76 -72 -195 -112.5t-242 -40.5q-155 0 -286 52t-223 146.5t-143.5 232t-51.5 302.5q0 205 85 372t241.5 264t355.5 97q268 0 432 -129l-14 -14q-152 123 -416 123q-196 0 -348.5 -95.5t-234 -257.5t-81.5 -360q0 -212 86.5 -374.5t242 -250.5
t355.5 -88q126 0 235 40.5t189 109.5zM809 1522l-338 184l14 14l328 -178l324 178l16 -14l-336 -184h-8z" />
    <glyph glyph-name="ccaron" unicode="&#x10d;" horiz-adv-x="1007" 
d="M913 141l13 -12q-57 -70 -147.5 -107.5t-186.5 -37.5q-210 0 -344.5 131t-134.5 346q0 132 59 241.5t161.5 172.5t225.5 63q228 0 348 -109l-12 -18q-121 107 -332 107q-178 0 -304 -132.5t-126 -324.5q0 -208 128.5 -332.5t330.5 -124.5q96 0 181.5 37.5t139.5 99.5z
M588 1169l-236 267l15 14l225 -254l221 254l16 -14l-233 -267h-8z" />
    <glyph glyph-name="Dcaron" unicode="&#x10e;" horiz-adv-x="1503" 
d="M246 0v1434h20q54 0 145 3t164 3q167 0 303 -37.5t228.5 -102t155 -154t90.5 -191t28 -214.5q0 -157 -52 -291.5t-152.5 -236t-258.5 -159.5t-358 -58q-60 0 -155.5 2t-147.5 2h-10zM571 1419q-73 0 -165 -3t-140 -3v-1393l295 -4q157 0 288.5 37.5t225 104t158.5 158
t96 198.5t31 227q0 111 -27 209t-88 185t-151 149.5t-224 98.5t-299 36zM686 1522l-338 184l14 14l328 -178l324 178l16 -14l-336 -184h-8z" />
    <glyph glyph-name="dcaron" unicode="&#x10f;" horiz-adv-x="1130" 
d="M926 0v156q-57 -72 -154.5 -122t-198.5 -50q-208 0 -334 130t-126 347q0 209 142 343t355 134q187 0 316 -98v594h20v-1434h-20zM573 4q105 0 207 58.5t146 123.5v629q-146 103 -318 103q-203 0 -339 -129t-136 -328q0 -210 120 -333.5t320 -123.5zM1202 1434h21
q20 -33 20 -88q0 -84 -33.5 -146t-85.5 -86l-6 16q47 27 76 84.5t29 128.5q0 56 -21 91z" />
    <glyph glyph-name="Dcroat" unicode="&#x110;" horiz-adv-x="1564" 
d="M20 727v21h287v686h21q54 0 145 3t164 3q167 0 303 -37.5t228.5 -102t155 -154t90.5 -191t28 -214.5q0 -157 -52 -291.5t-152.5 -236t-258.5 -159.5t-358 -58q-60 0 -156 2t-148 2h-10v727h-287zM633 1419q-73 0 -165 -3t-140 -3v-665h436v-21h-436v-707l295 -4
q196 0 350.5 57.5t251 157.5t146.5 229.5t50 280.5q0 111 -27 209t-87.5 185t-150.5 149.5t-224 98.5t-299 36z" />
    <glyph glyph-name="dcroat" unicode="&#x111;" horiz-adv-x="1130" 
d="M498 1149v20h428v265h20v-265h246v-20h-246v-1149h-20v156q-57 -72 -154.5 -122t-198.5 -50q-208 0 -334 130t-126 347q0 209 142 343t355 134q187 0 316 -98v309h-428zM573 4q105 0 207 58.5t146 123.5v629q-146 103 -318 103q-203 0 -339 -129t-136 -328
q0 -210 120 -333.5t320 -123.5z" />
    <glyph glyph-name="Emacron" unicode="&#x112;" horiz-adv-x="1177" 
d="M246 0v1434h768v-21h-748v-672h686v-20h-686v-701h768v-20h-788zM328 1618v20h602v-20h-602z" />
    <glyph glyph-name="emacron" unicode="&#x113;" horiz-adv-x="1083" 
d="M913 141l13 -12q-57 -70 -147.5 -107.5t-186.5 -37.5q-210 0 -344.5 131t-134.5 346q0 102 28 188t82.5 151t141.5 101.5t198 36.5q180 0 294 -113t114 -297q0 -8 -1 -23.5t-1 -23.5h-836q0 -220 124 -348.5t335 -128.5q96 0 181.5 37.5t139.5 99.5zM555 918
q-190 0 -300.5 -115.5t-121.5 -300.5h817q3 191 -105.5 303.5t-289.5 112.5zM303 1311v20h479v-20h-479z" />
    <glyph glyph-name="Edotaccent" unicode="&#x116;" horiz-adv-x="1177" 
d="M246 0v1434h768v-21h-748v-672h686v-20h-686v-701h768v-20h-788zM608 1618q0 10 8 17t19 7q9 0 16.5 -7t7.5 -17q0 -12 -7.5 -19.5t-16.5 -7.5q-11 0 -19 7.5t-8 19.5z" />
    <glyph glyph-name="edotaccent" unicode="&#x117;" horiz-adv-x="1083" 
d="M913 141l13 -12q-57 -70 -147.5 -107.5t-186.5 -37.5q-210 0 -344.5 131t-134.5 346q0 102 28 188t82.5 151t141.5 101.5t198 36.5q180 0 294 -113t114 -297q0 -8 -1 -23.5t-1 -23.5h-836q0 -220 124 -348.5t335 -128.5q96 0 181.5 37.5t139.5 99.5zM555 918
q-190 0 -300.5 -115.5t-121.5 -300.5h817q3 191 -105.5 303.5t-289.5 112.5zM514 1296q0 9 8.5 17t18.5 8q9 0 16.5 -8t7.5 -17q0 -10 -7.5 -18t-16.5 -8q-11 0 -19 8t-8 18z" />
    <glyph glyph-name="Eogonek" unicode="&#x118;" horiz-adv-x="1177" 
d="M246 0v1434h768v-21h-748v-672h686v-20h-686v-701h768v-20q-69 0 -133.5 -27.5t-107.5 -80t-43 -117.5q0 -38 14 -68.5t34.5 -48t47 -28.5t48.5 -15t42 -4q59 0 98 18l6 -18q-52 -21 -106 -21q-33 0 -65.5 8.5t-65.5 28t-53.5 58t-20.5 90.5q0 78 52.5 137.5t133.5 87.5
h-669z" />
    <glyph glyph-name="eogonek" unicode="&#x119;" horiz-adv-x="1083" 
d="M913 141l13 -12q-69 -84 -185 -121q-163 -105 -163 -233q0 -38 14 -68.5t34.5 -48t47 -28.5t48.5 -15t42 -4q59 0 98 18l6 -18q-52 -21 -106 -21q-33 0 -65.5 8.5t-65.5 28t-53.5 58t-20.5 90.5q0 70 37 122.5t108 100.5q-65 -14 -110 -14q-210 0 -344.5 131t-134.5 346
q0 102 28 188t82.5 151t141.5 101.5t198 36.5q180 0 294 -113t114 -297q0 -8 -1 -23.5t-1 -23.5h-836q0 -220 124 -348.5t335 -128.5q96 0 181.5 37.5t139.5 99.5zM555 918q-190 0 -300.5 -115.5t-121.5 -300.5h817q3 191 -105.5 303.5t-289.5 112.5z" />
    <glyph glyph-name="Ecaron" unicode="&#x11a;" horiz-adv-x="1177" 
d="M246 0v1434h768v-21h-748v-672h686v-20h-686v-701h768v-20h-788zM645 1522l-338 184l15 14l327 -178l324 178l16 -14l-336 -184h-8z" />
    <glyph glyph-name="ecaron" unicode="&#x11b;" horiz-adv-x="1083" 
d="M913 141l13 -12q-57 -70 -147.5 -107.5t-186.5 -37.5q-210 0 -344.5 131t-134.5 346q0 102 28 188t82.5 151t141.5 101.5t198 36.5q180 0 294 -113t114 -297q0 -8 -1 -23.5t-1 -23.5h-836q0 -220 124 -348.5t335 -128.5q96 0 181.5 37.5t139.5 99.5zM555 918
q-190 0 -300.5 -115.5t-121.5 -300.5h817q3 191 -105.5 303.5t-289.5 112.5zM559 1169l-235 267l14 14l225 -254l221 254l17 -14l-234 -267h-8z" />
    <glyph glyph-name="Gcircumflex" unicode="&#x11c;" horiz-adv-x="1488" 
d="M856 621v20h490v-463q-91 -91 -243 -142.5t-294 -51.5q-149 0 -275.5 52.5t-217 146.5t-142 231.5t-51.5 302.5q0 205 85 372t241.5 264t355.5 97q268 0 432 -129l-14 -14q-152 123 -416 123q-196 0 -348.5 -95.5t-234 -257.5t-81.5 -360q0 -212 85 -374.5t237 -250.5
t348 -88q142 0 284 49t228 133v435h-469zM471 1536l338 184h8l336 -184l-16 -14l-324 178l-328 -178z" />
    <glyph glyph-name="gcircumflex" unicode="&#x11d;" horiz-adv-x="991" 
d="M41 -145q0 105 76.5 174t212.5 94q-37 37 -37 100q0 61 41 105q-90 37 -141.5 114t-51.5 176q0 139 96.5 229.5t249.5 90.5q137 0 232 -76l252 76v-20l-236 -70q99 -93 99 -230q0 -139 -97 -229t-250 -90q-76 0 -135 20q-39 -36 -39 -96q0 -59 43 -96q68 10 133 10
q206 0 327.5 -73.5t121.5 -208.5q0 -134 -122 -207.5t-327 -73.5q-206 0 -327 73t-121 208zM61 -145q0 -122 118 -191.5t310 -69.5t310.5 69t118.5 192q0 122 -119 192t-310 70t-309.5 -70t-118.5 -192zM162 618q0 -129 91.5 -214t233.5 -85t234 85t92 214q0 128 -92 214
t-234 86t-233.5 -85t-91.5 -215zM500 1450l231 -266l-14 -15l-221 254l-226 -254l-16 15l238 266h8z" />
    <glyph glyph-name="Gbreve" unicode="&#x11e;" horiz-adv-x="1488" 
d="M856 621v20h490v-463q-91 -91 -243 -142.5t-294 -51.5q-149 0 -275.5 52.5t-217 146.5t-142 231.5t-51.5 302.5q0 205 85 372t241.5 264t355.5 97q268 0 432 -129l-14 -14q-152 123 -416 123q-196 0 -348.5 -95.5t-234 -257.5t-81.5 -360q0 -212 85 -374.5t237 -250.5
t348 -88q142 0 284 49t228 133v435h-469zM512 1708l14 12q26 -33 59.5 -61t97.5 -55t136 -27q93 0 166 41t121 102l14 -12q-48 -64 -124.5 -108t-176.5 -44q-78 0 -147 29.5t-104 60.5t-56 62z" />
    <glyph glyph-name="gbreve" unicode="&#x11f;" horiz-adv-x="991" 
d="M41 -145q0 105 76.5 174t212.5 94q-37 37 -37 100q0 61 41 105q-90 37 -141.5 114t-51.5 176q0 139 96.5 229.5t249.5 90.5q137 0 232 -76l252 76v-20l-236 -70q99 -93 99 -230q0 -139 -97 -229t-250 -90q-76 0 -135 20q-39 -36 -39 -96q0 -59 43 -96q68 10 133 10
q206 0 327.5 -73.5t121.5 -208.5q0 -134 -122 -207.5t-327 -73.5q-206 0 -327 73t-121 208zM61 -145q0 -122 118 -191.5t310 -69.5t310.5 69t118.5 192q0 122 -119 192t-310 70t-309.5 -70t-118.5 -192zM162 618q0 -129 91.5 -214t233.5 -85t234 85t92 214q0 128 -92 214
t-234 86t-233.5 -85t-91.5 -215zM231 1380l15 13q17 -22 29 -35.5t38 -36.5t50 -36.5t60.5 -24.5t74.5 -11q78 0 136 39.5t109 104.5l15 -13q-112 -151 -260 -151q-165 0 -267 151z" />
    <glyph glyph-name="Gdotaccent" unicode="&#x120;" horiz-adv-x="1488" 
d="M856 621v20h490v-463q-91 -91 -243 -142.5t-294 -51.5q-149 0 -275.5 52.5t-217 146.5t-142 231.5t-51.5 302.5q0 205 85 372t241.5 264t355.5 97q268 0 432 -129l-14 -14q-152 123 -416 123q-196 0 -348.5 -95.5t-234 -257.5t-81.5 -360q0 -212 85 -374.5t237 -250.5
t348 -88q142 0 284 49t228 133v435h-469zM772 1618q0 10 8 17t19 7q9 0 16.5 -7t7.5 -17q0 -12 -7.5 -19.5t-16.5 -7.5q-11 0 -19 7.5t-8 19.5z" />
    <glyph glyph-name="gdotaccent" unicode="&#x121;" horiz-adv-x="991" 
d="M41 -145q0 105 76.5 174t212.5 94q-37 37 -37 100q0 61 41 105q-90 37 -141.5 114t-51.5 176q0 139 96.5 229.5t249.5 90.5q137 0 232 -76l252 76v-20l-236 -70q99 -93 99 -230q0 -139 -97 -229t-250 -90q-76 0 -135 20q-39 -36 -39 -96q0 -59 43 -96q68 10 133 10
q206 0 327.5 -73.5t121.5 -208.5q0 -134 -122 -207.5t-327 -73.5q-206 0 -327 73t-121 208zM61 -145q0 -122 118 -191.5t310 -69.5t310.5 69t118.5 192q0 122 -119 192t-310 70t-309.5 -70t-118.5 -192zM162 618q0 -129 91.5 -214t233.5 -85t234 85t92 214q0 128 -92 214
t-234 86t-233.5 -85t-91.5 -215zM469 1296q0 9 8.5 17t18.5 8q9 0 16.5 -8t7.5 -17q0 -10 -7.5 -18t-16.5 -8q-11 0 -19 8t-8 18z" />
    <glyph glyph-name="uni0122" unicode="&#x122;" horiz-adv-x="1488" 
d="M856 621v20h490v-463q-91 -91 -243 -142.5t-294 -51.5q-149 0 -275.5 52.5t-217 146.5t-142 231.5t-51.5 302.5q0 205 85 372t241.5 264t355.5 97q268 0 432 -129l-14 -14q-152 123 -416 123q-196 0 -348.5 -95.5t-234 -257.5t-81.5 -360q0 -212 85 -374.5t237 -250.5
t348 -88q142 0 284 49t228 133v435h-469zM772 -164l2 21q40 -3 65 -31.5t25 -73.5q0 -68 -28.5 -103t-90.5 -59l-6 17q53 19 79 52t26 85q0 81 -72 92z" />
    <glyph glyph-name="uni0123" unicode="&#x123;" horiz-adv-x="991" 
d="M41 -145q0 105 76.5 174t212.5 94q-37 37 -37 100q0 61 41 105q-90 37 -141.5 114t-51.5 176q0 139 96.5 229.5t249.5 90.5q137 0 232 -76l252 76v-20l-236 -70q99 -93 99 -230q0 -139 -97 -229t-250 -90q-76 0 -135 20q-39 -36 -39 -96q0 -59 43 -96q68 10 133 10
q206 0 327.5 -73.5t121.5 -208.5q0 -134 -122 -207.5t-327 -73.5q-206 0 -327 73t-121 208zM61 -145q0 -122 118 -191.5t310 -69.5t310.5 69t118.5 192q0 122 -119 192t-310 70t-309.5 -70t-118.5 -192zM162 618q0 -129 91.5 -214t233.5 -85t234 85t92 214q0 128 -92 214
t-234 86t-233.5 -85t-91.5 -215zM537 1182l-2 -21q-40 3 -65.5 31.5t-25.5 73.5q0 68 28.5 102.5t90.5 58.5l6 -16q-104 -38 -104 -137q0 -81 72 -92z" />
    <glyph glyph-name="Hcircumflex" unicode="&#x124;" horiz-adv-x="1587" 
d="M1321 0v721h-1055v-721h-20v1434h20v-693h1055v693h20v-1434h-20zM453 1536l338 184h8l336 -184l-17 -14l-323 178l-328 -178z" />
    <glyph glyph-name="hcircumflex" unicode="&#x125;" horiz-adv-x="1134" 
d="M184 0v1434h21v-664q59 71 165.5 119.5t209.5 48.5q200 0 295.5 -103t95.5 -319v-516h-21v510q0 208 -90 308t-280 100q-112 0 -220 -55.5t-155 -121.5v-741h-21zM0 1536l338 184h8l336 -184l-16 -14l-324 178l-328 -178z" />
    <glyph glyph-name="Hbar" unicode="&#x126;" horiz-adv-x="1607" 
d="M61 1090v20h195v324h20v-324h1055v324h21v-324h194v-20h-194v-1090h-21v721h-1055v-721h-20v1090h-195zM276 741h1055v349h-1055v-349z" />
    <glyph glyph-name="hbar" unicode="&#x127;" horiz-adv-x="1134" 
d="M-102 1126v21h286v287h21v-287h387v-21h-387v-356q59 71 165.5 119.5t209.5 48.5q200 0 295.5 -103t95.5 -319v-516h-21v510q0 208 -90 308t-280 100q-112 0 -220 -55.5t-155 -121.5v-741h-21v1126h-286z" />
    <glyph glyph-name="Imacron" unicode="&#x12a;" horiz-adv-x="634" 
d="M307 0v1434h21v-1434h-21zM16 1618v20h602v-20h-602z" />
    <glyph glyph-name="imacron" unicode="&#x12b;" horiz-adv-x="512" 
d="M246 0v922h20v-922h-20zM16 1311v20h480v-20h-480z" />
    <glyph glyph-name="Iogonek" unicode="&#x12e;" horiz-adv-x="634" 
d="M328 -371l6 -18q-52 -21 -107 -21q-33 0 -65.5 8.5t-65 28t-53 58t-20.5 90.5q0 101 86 169t198 74v1416h21v-1434h-11q-106 -3 -190 -66.5t-84 -158.5q0 -38 14 -68.5t34.5 -48t47 -28.5t48.5 -15t42 -4q60 0 99 18z" />
    <glyph glyph-name="iogonek" unicode="&#x12f;" horiz-adv-x="512" 
d="M264 -371l6 -18q-52 -21 -106 -21q-33 0 -65.5 8.5t-65.5 28t-53.5 58t-20.5 90.5q0 101 87 169.5t200 73.5v904h20v-922h-2q-69 0 -133.5 -27.5t-107.5 -80t-43 -117.5q0 -38 14 -68.5t34.5 -48t47 -28.5t48.5 -15t42 -4q59 0 98 18zM229 1296q0 9 8.5 17t18.5 8
q9 0 17 -8t8 -17q0 -10 -8 -18t-17 -8q-11 0 -19 8t-8 18z" />
    <glyph glyph-name="Idotaccent" unicode="&#x130;" horiz-adv-x="634" 
d="M307 0v1434h21v-1434h-21zM293 1618q0 10 7.5 17t18.5 7q9 0 17 -7t8 -17q0 -12 -8 -19.5t-17 -7.5q-11 0 -18.5 7.5t-7.5 19.5z" />
    <glyph glyph-name="dotlessi" unicode="&#x131;" horiz-adv-x="512" 
d="M246 0v922h20v-922h-20z" />
    <glyph glyph-name="Jcircumflex" unicode="&#x134;" horiz-adv-x="698" 
d="M453 1434v-1133q0 -75 -11 -129t-37.5 -98.5t-76.5 -67t-123 -22.5q-94 0 -164 51l12 18q65 -49 152 -49q70 0 117 22.5t70 66t31.5 91.5t8.5 115v1135h21zM82 1536l338 184h8l336 -184l-16 -14l-324 178l-328 -178z" />
    <glyph glyph-name="jcircumflex" unicode="&#x135;" horiz-adv-x="514" 
d="M268 922v-990q0 -358 -288 -358q-94 0 -164 51l12 19q27 -21 68.5 -35.5t83.5 -14.5q141 0 204.5 84.5t63.5 251.5v992h20zM262 1450l232 -266l-15 -15l-221 254l-225 -254l-17 15l238 266h8z" />
    <glyph glyph-name="uni0136" unicode="&#x136;" horiz-adv-x="1257" 
d="M1153 1434l-739 -686l762 -748h-31l-762 748l741 686h29zM246 0v1434h20v-1434h-20zM567 -164l2 21q40 -3 65 -31.5t25 -73.5q0 -68 -28.5 -103.5t-89.5 -58.5l-6 17q104 38 104 137q0 81 -72 92z" />
    <glyph glyph-name="uni0137" unicode="&#x137;" horiz-adv-x="911" 
d="M817 922l-485 -441l522 -481h-35l-518 481l483 441h33zM184 0v1434h21v-1434h-21zM408 -164l2 21q40 -3 65 -31.5t25 -73.5q0 -68 -28.5 -103t-90.5 -59l-6 17q104 38 104 137q0 82 -71 92z" />
    <glyph glyph-name="Lacute" unicode="&#x139;" horiz-adv-x="1136" 
d="M246 0v1434h20v-1414h830v-20h-850zM838 1704l-316 -184l-10 14l317 186z" />
    <glyph glyph-name="lacute" unicode="&#x13a;" horiz-adv-x="555" 
d="M184 227v1207h21v-1176q0 -127 37.5 -185.5t128.5 -58.5q86 0 151 49l13 -18q-70 -51 -164 -51q-99 0 -143 57t-44 176zM469 1704l-315 -184l-11 14l318 186z" />
    <glyph glyph-name="uni013B" unicode="&#x13b;" horiz-adv-x="1136" 
d="M246 0v1434h20v-1414h830v-20h-850zM608 -164l2 21q40 -3 65 -31.5t25 -73.5q0 -68 -28.5 -103.5t-89.5 -58.5l-7 17q53 19 79 52t26 85q0 81 -72 92z" />
    <glyph glyph-name="uni013C" unicode="&#x13c;" horiz-adv-x="555" 
d="M184 227v1207h21v-1176q0 -127 37.5 -185.5t128.5 -58.5q86 0 151 49l13 -18q-70 -51 -164 -51q-99 0 -143 57t-44 176zM281 -164l2 21q40 -3 65 -31.5t25 -73.5q0 -68 -28.5 -103t-90.5 -59l-6 17q104 38 104 137q0 82 -71 92z" />
    <glyph glyph-name="Lcaron" unicode="&#x13d;" horiz-adv-x="1136" 
d="M246 0v1434h20v-1414h830v-20h-850zM731 1434h21q20 -33 20 -88q0 -84 -33.5 -146t-85.5 -86l-6 16q47 27 76 84.5t29 128.5q0 56 -21 91z" />
    <glyph glyph-name="lcaron" unicode="&#x13e;" horiz-adv-x="555" 
d="M184 227v1207h21v-1176q0 -127 37.5 -185.5t128.5 -58.5q86 0 151 49l13 -18q-70 -51 -164 -51q-99 0 -143 57t-44 176zM465 1434h20q21 -35 21 -88q0 -84 -33.5 -146t-85.5 -86l-6 16q46 27 75 84.5t29 128.5q0 58 -20 91z" />
    <glyph glyph-name="Ldot" unicode="&#x13f;" horiz-adv-x="1136" 
d="M246 0v1434h20v-1414h830v-20h-850zM803 764q0 9 8 16.5t18 7.5q9 0 17 -7.5t8 -16.5q0 -10 -8 -18.5t-17 -8.5q-10 0 -18 8t-8 19z" />
    <glyph glyph-name="ldot" unicode="&#x140;" horiz-adv-x="555" 
d="M184 227v1207h21v-1176q0 -127 37.5 -185.5t128.5 -58.5q86 0 151 49l13 -18q-70 -51 -164 -51q-99 0 -143 57t-44 176zM455 618q0 9 8 17t18 8q9 0 17 -8t8 -17q0 -10 -8 -18t-17 -8q-11 0 -18.5 8t-7.5 18z" />
    <glyph glyph-name="Lslash" unicode="&#x141;" horiz-adv-x="1157" 
d="M61 510v25l205 108v791h21v-779l418 224v-23l-418 -225v-611h829v-20h-850v621z" />
    <glyph glyph-name="lslash" unicode="&#x142;" horiz-adv-x="616" 
d="M41 537v24l184 98v775h21v-762l256 137v-23l-256 -139v-389q0 -127 37.5 -185.5t128.5 -58.5q86 0 151 49l12 -18q-70 -51 -163 -51q-99 0 -143 57t-44 176v410z" />
    <glyph glyph-name="Nacute" unicode="&#x143;" horiz-adv-x="1638" 
d="M1393 0h-17l-1110 1393v-1393h-20v1434h16l1110 -1397v1397h21v-1434zM1083 1704l-315 -184l-10 14l317 186z" />
    <glyph glyph-name="nacute" unicode="&#x144;" horiz-adv-x="1134" 
d="M184 0v922h21v-152q59 71 165.5 119.5t209.5 48.5q200 0 295.5 -103t95.5 -319v-516h-21v510q0 208 -90 308t-280 100q-112 0 -220 -55.5t-155 -121.5v-741h-21zM750 1434l-224 -289l-16 10l225 291z" />
    <glyph glyph-name="uni0145" unicode="&#x145;" horiz-adv-x="1638" 
d="M1393 0h-17l-1110 1393v-1393h-20v1434h16l1110 -1397v1397h21v-1434zM772 -164l2 21q40 -3 65 -31.5t25 -73.5q0 -68 -28.5 -103t-90.5 -59l-6 17q53 19 79 52t26 85q0 81 -72 92z" />
    <glyph glyph-name="uni0146" unicode="&#x146;" horiz-adv-x="1134" 
d="M184 0v922h21v-152q59 71 165.5 119.5t209.5 48.5q200 0 295.5 -103t95.5 -319v-516h-21v510q0 208 -90 308t-280 100q-112 0 -220 -55.5t-155 -121.5v-741h-21zM539 -164l2 21q40 -3 65 -31.5t25 -73.5q0 -68 -28.5 -103t-90.5 -59l-6 17q104 38 104 137q0 82 -71 92z
" />
    <glyph glyph-name="Ncaron" unicode="&#x147;" horiz-adv-x="1638" 
d="M1393 0h-17l-1110 1393v-1393h-20v1434h16l1110 -1397v1397h21v-1434zM813 1522l-338 184l14 14l328 -178l324 178l16 -14l-336 -184h-8z" />
    <glyph glyph-name="ncaron" unicode="&#x148;" horiz-adv-x="1134" 
d="M184 0v922h21v-152q59 71 165.5 119.5t209.5 48.5q200 0 295.5 -103t95.5 -319v-516h-21v510q0 208 -90 308t-280 100q-112 0 -220 -55.5t-155 -121.5v-741h-21zM563 1169l-235 267l14 14l225 -254l221 254l17 -14l-234 -267h-8z" />
    <glyph glyph-name="Eng" unicode="&#x14a;" horiz-adv-x="1638" 
d="M1393 -109q0 -75 -11 -129t-37.5 -98.5t-76.5 -67t-123 -22.5q-94 0 -164 51l12 19q27 -21 68.5 -35.5t83.5 -14.5q70 0 117 22.5t70 66t31.5 91.5t8.5 115v111l-1106 1393v-1393h-20v1434h16l1110 -1401v1401h21v-1543z" />
    <glyph glyph-name="eng" unicode="&#x14b;" horiz-adv-x="1134" 
d="M682 -406q141 0 204.5 84.5t63.5 251.5v580q0 208 -90 308t-280 100q-112 0 -220 -55.5t-155 -121.5v-741h-21v922h21v-152q59 71 165.5 119.5t209.5 48.5q200 0 295.5 -103t95.5 -319v-584q0 -358 -289 -358q-94 0 -164 51l12 19q27 -21 68.5 -35.5t83.5 -14.5z" />
    <glyph glyph-name="Omacron" unicode="&#x14c;" horiz-adv-x="1646" 
d="M123 717q0 205 92 373t252.5 264t355.5 96t355.5 -96t253 -264t92.5 -373t-92.5 -373t-253 -264t-355.5 -96t-355.5 96t-252.5 264t-92 373zM143 717q0 -150 52.5 -282.5t143 -227t216.5 -149t268 -54.5t268 54.5t216.5 149t143 227t52.5 282.5t-52.5 282.5t-143 227
t-216.5 149t-268 54.5t-268 -54.5t-216.5 -149t-143 -227t-52.5 -282.5zM522 1618v20h602v-20h-602z" />
    <glyph glyph-name="omacron" unicode="&#x14d;" horiz-adv-x="1167" 
d="M113 461q0 207 133 342t338 135t338 -135t133 -342t-133 -342t-338 -135t-338 135t-133 342zM133 461q0 -200 126.5 -328.5t324.5 -128.5t324 128.5t126 328.5t-126 328.5t-324 128.5t-324.5 -128.5t-126.5 -328.5zM344 1311v20h479v-20h-479z" />
    <glyph glyph-name="Ohungarumlaut" unicode="&#x150;" horiz-adv-x="1646" 
d="M123 717q0 205 92 373t252.5 264t355.5 96t355.5 -96t253 -264t92.5 -373t-92.5 -373t-253 -264t-355.5 -96t-355.5 96t-252.5 264t-92 373zM143 717q0 -150 52.5 -282.5t143 -227t216.5 -149t268 -54.5t268 54.5t216.5 149t143 227t52.5 282.5t-52.5 282.5t-143 227
t-216.5 149t-268 54.5t-268 -54.5t-216.5 -149t-143 -227t-52.5 -282.5zM1288 1704l-315 -184l-10 14l317 186zM940 1704l-315 -184l-11 14l318 186z" />
    <glyph glyph-name="ohungarumlaut" unicode="&#x151;" horiz-adv-x="1167" 
d="M113 461q0 207 133 342t338 135t338 -135t133 -342t-133 -342t-338 -135t-338 135t-133 342zM133 461q0 -200 126.5 -328.5t324.5 -128.5t324 128.5t126 328.5t-126 328.5t-324 128.5t-324.5 -128.5t-126.5 -328.5zM936 1434l-223 -289l-17 10l226 291zM649 1434
l-223 -289l-16 10l225 291z" />
    <glyph glyph-name="OE" unicode="&#x152;" horiz-adv-x="2150" 
d="M1219 0v98q-74 -54 -176 -84t-216 -30q-155 0 -286 52t-223 146.5t-143.5 232t-51.5 302.5q0 205 85 372t241.5 264t355.5 97q256 0 414 -115v99h768v-21h-748v-672h686v-20h-686v-701h768v-20h-788zM827 4q235 0 392 125v1180q-153 121 -412 121q-196 0 -348.5 -95.5
t-234 -257.5t-81.5 -360q0 -212 86.5 -374.5t242 -250.5t355.5 -88z" />
    <glyph glyph-name="oe" unicode="&#x153;" horiz-adv-x="1738" 
d="M1569 141l12 -12q-57 -70 -147.5 -107.5t-186.5 -37.5q-208 0 -336 122q-125 -122 -327 -122q-205 0 -338 135t-133 342t133 342t338 135q186 0 317 -115q118 115 318 115q180 0 293.5 -112.5t113.5 -297.5q0 -8 -1 -23.5t-1 -23.5h-836q0 -220 124 -348.5t335 -128.5
q96 0 182 37.5t140 99.5zM584 4q187 0 313 117q-129 129 -129 340q0 218 119 346q-123 111 -303 111q-198 0 -324.5 -128.5t-126.5 -328.5t126.5 -328.5t324.5 -128.5zM1210 918q-190 0 -300.5 -115.5t-121.5 -300.5h818q3 191 -106 303.5t-290 112.5z" />
    <glyph glyph-name="Racute" unicode="&#x154;" horiz-adv-x="1255" 
d="M266 0h-20v1434q45 0 155.5 2t126.5 2q113 0 200.5 -22.5t141.5 -58.5t88 -88.5t47 -106.5t13 -118q0 -140 -103 -252t-278 -143l537 -649h-29l-533 645h-346v-645zM526 1417q-124 0 -260 -4v-747h303q104 0 202 48t162 137.5t64 195.5q0 83 -25 148.5t-79 116t-147 78
t-220 27.5zM756 1704l-316 -184l-10 14l318 186z" />
    <glyph glyph-name="racute" unicode="&#x155;" horiz-adv-x="641" 
d="M184 0v922h21v-144q44 71 113.5 115.5t158.5 44.5q97 0 144 -35l-7 -20q-35 21 -61 28t-76 7q-52 0 -95.5 -15.5t-77 -44t-55 -55t-44.5 -62.5v-741h-21zM584 1434l-224 -289l-16 10l225 291z" />
    <glyph glyph-name="uni0156" unicode="&#x156;" horiz-adv-x="1255" 
d="M266 0h-20v1434q45 0 155.5 2t126.5 2q113 0 200.5 -22.5t141.5 -58.5t88 -88.5t47 -106.5t13 -118q0 -140 -103 -252t-278 -143l537 -649h-29l-533 645h-346v-645zM526 1417q-124 0 -260 -4v-747h303q104 0 202 48t162 137.5t64 195.5q0 83 -25 148.5t-79 116t-147 78
t-220 27.5zM567 -164l2 21q40 -3 65 -31.5t25 -73.5q0 -68 -28.5 -103.5t-89.5 -58.5l-6 17q104 38 104 137q0 81 -72 92z" />
    <glyph glyph-name="uni0157" unicode="&#x157;" horiz-adv-x="641" 
d="M184 0v922h21v-144q44 71 113.5 115.5t158.5 44.5q97 0 144 -35l-7 -20q-35 21 -61 28t-76 7q-52 0 -95.5 -15.5t-77 -44t-55 -55t-44.5 -62.5v-741h-21zM252 -164l2 21q40 -3 65 -31.5t25 -73.5q0 -68 -28.5 -103t-90.5 -59l-6 17q53 19 79 52t26 85q0 81 -72 92z" />
    <glyph glyph-name="Rcaron" unicode="&#x158;" horiz-adv-x="1255" 
d="M266 0h-20v1434q45 0 155.5 2t126.5 2q113 0 200.5 -22.5t141.5 -58.5t88 -88.5t47 -106.5t13 -118q0 -140 -103 -252t-278 -143l537 -649h-29l-533 645h-346v-645zM526 1417q-124 0 -260 -4v-747h303q104 0 202 48t162 137.5t64 195.5q0 83 -25 148.5t-79 116t-147 78
t-220 27.5zM543 1522l-338 184l14 14l328 -178l323 178l17 -14l-336 -184h-8z" />
    <glyph glyph-name="rcaron" unicode="&#x159;" horiz-adv-x="641" 
d="M184 0v922h21v-144q44 71 113.5 115.5t158.5 44.5q97 0 144 -35l-7 -20q-35 21 -61 28t-76 7q-52 0 -95.5 -15.5t-77 -44t-55 -55t-44.5 -62.5v-741h-21zM379 1169l-236 267l15 14l225 -254l221 254l17 -14l-234 -267h-8z" />
    <glyph glyph-name="Sacute" unicode="&#x15a;" horiz-adv-x="1107" 
d="M965 342q0 98 -44.5 169t-115 112t-156 73t-171.5 64t-156.5 73t-115 112t-44.5 169q0 149 106 242.5t295 93.5q113 0 213.5 -38.5t157.5 -102.5l-14 -15q-64 67 -159 101.5t-204 34.5q-171 0 -273 -86.5t-102 -227.5q0 -76 27.5 -134t74 -96t106.5 -67.5t127 -52.5
t133.5 -46.5t126.5 -55.5t106.5 -73t74 -104.5t27.5 -144.5q0 -162 -126.5 -260t-315.5 -98q-123 0 -244.5 54.5t-175.5 141.5l16 15q62 -86 176 -138.5t224 -52.5q111 0 206 36.5t157.5 115t62.5 186.5zM797 1704l-316 -184l-10 14l317 186z" />
    <glyph glyph-name="sacute" unicode="&#x15b;" horiz-adv-x="821" 
d="M678 227q0 61 -29 104t-75.5 66.5t-103 42.5t-113 39t-103 47t-75.5 76t-29 117q0 96 72.5 157.5t195.5 61.5q72 0 140.5 -25.5t105.5 -66.5l-15 -17q-86 89 -235 89q-109 0 -176.5 -58t-67.5 -139q0 -65 29 -110.5t75.5 -71t103 -45l113 -39t103 -45t75.5 -71t29 -110.5
q0 -119 -83.5 -182t-211.5 -63q-79 0 -163.5 35t-116.5 83l18 13q35 -49 111.5 -80t148.5 -31q114 0 195.5 58t81.5 165zM612 1434l-223 -289l-16 10l225 291z" />
    <glyph glyph-name="Scircumflex" unicode="&#x15c;" horiz-adv-x="1107" 
d="M965 342q0 98 -44.5 169t-115 112t-156 73t-171.5 64t-156.5 73t-115 112t-44.5 169q0 149 106 242.5t295 93.5q113 0 213.5 -38.5t157.5 -102.5l-14 -15q-64 67 -159 101.5t-204 34.5q-171 0 -273 -86.5t-102 -227.5q0 -76 27.5 -134t74 -96t106.5 -67.5t127 -52.5
t133.5 -46.5t126.5 -55.5t106.5 -73t74 -104.5t27.5 -144.5q0 -162 -126.5 -260t-315.5 -98q-123 0 -244.5 54.5t-175.5 141.5l16 15q62 -86 176 -138.5t224 -52.5q111 0 206 36.5t157.5 115t62.5 186.5zM213 1536l338 184h8l336 -184l-16 -14l-324 178l-328 -178z" />
    <glyph glyph-name="scircumflex" unicode="&#x15d;" horiz-adv-x="821" 
d="M678 227q0 61 -29 104t-75.5 66.5t-103 42.5t-113 39t-103 47t-75.5 76t-29 117q0 96 72.5 157.5t195.5 61.5q72 0 140.5 -25.5t105.5 -66.5l-15 -17q-86 89 -235 89q-109 0 -176.5 -58t-67.5 -139q0 -65 29 -110.5t75.5 -71t103 -45l113 -39t103 -45t75.5 -71t29 -110.5
q0 -119 -83.5 -182t-211.5 -63q-79 0 -163.5 35t-116.5 83l18 13q35 -49 111.5 -80t148.5 -31q114 0 195.5 58t81.5 165zM424 1450l231 -266l-14 -15l-221 254l-225 -254l-17 15l238 266h8z" />
    <glyph glyph-name="Scedilla" unicode="&#x15e;" horiz-adv-x="1107" 
d="M377 -369l8 19q79 -39 152 -39q81 0 132.5 33.5t51.5 89.5q0 123 -184 123h-13v127q-120 5 -235 59t-166 137l16 15q62 -86 176 -138.5t224 -52.5q111 0 206 36.5t157.5 115t62.5 186.5q0 98 -44.5 169t-115 112t-156 73t-171.5 64t-156.5 73t-115 112t-44.5 169
q0 149 106 242.5t295 93.5q113 0 213.5 -38.5t157.5 -102.5l-14 -15q-64 67 -159 101.5t-204 34.5q-171 0 -273 -86.5t-102 -227.5q0 -76 27.5 -134t74 -96t106.5 -67.5t127 -52.5t133.5 -46.5t126.5 -55.5t106.5 -73t74 -104.5t27.5 -144.5q0 -108 -59.5 -190
t-158.5 -124.5t-222 -43.5v-107q196 -3 196 -143q0 -64 -55.5 -104t-148.5 -40q-76 0 -160 41z" />
    <glyph glyph-name="scedilla" unicode="&#x15f;" horiz-adv-x="821" 
d="M236 -369l8 19q79 -39 151 -39q81 0 133 33.5t52 89.5q0 123 -185 123h-12v127q-77 5 -154 39t-106 79l18 13q35 -49 111.5 -80t148.5 -31q114 0 195.5 58t81.5 165q0 61 -29 104t-75.5 66.5t-103 42.5t-113 39t-103 47t-75.5 76t-29 117q0 96 72.5 157.5t195.5 61.5
q72 0 140.5 -25.5t105.5 -66.5l-15 -17q-86 89 -235 89q-109 0 -176.5 -58t-67.5 -139q0 -65 29 -110.5t75.5 -71t103 -45l113 -39t103 -45t75.5 -71t29 -110.5q0 -119 -83.5 -182t-211.5 -63v-107q197 -3 197 -143q0 -64 -56 -104t-149 -40q-75 0 -159 41z" />
    <glyph glyph-name="Scaron" unicode="&#x160;" horiz-adv-x="1107" 
d="M965 342q0 98 -44.5 169t-115 112t-156 73t-171.5 64t-156.5 73t-115 112t-44.5 169q0 149 106 242.5t295 93.5q113 0 213.5 -38.5t157.5 -102.5l-14 -15q-64 67 -159 101.5t-204 34.5q-171 0 -273 -86.5t-102 -227.5q0 -76 27.5 -134t74 -96t106.5 -67.5t127 -52.5
t133.5 -46.5t126.5 -55.5t106.5 -73t74 -104.5t27.5 -144.5q0 -162 -126.5 -260t-315.5 -98q-123 0 -244.5 54.5t-175.5 141.5l16 15q62 -86 176 -138.5t224 -52.5q111 0 206 36.5t157.5 115t62.5 186.5zM563 1522l-338 184l15 14l327 -178l324 178l16 -14l-336 -184h-8z
" />
    <glyph glyph-name="scaron" unicode="&#x161;" horiz-adv-x="821" 
d="M678 227q0 61 -29 104t-75.5 66.5t-103 42.5t-113 39t-103 47t-75.5 76t-29 117q0 96 72.5 157.5t195.5 61.5q72 0 140.5 -25.5t105.5 -66.5l-15 -17q-86 89 -235 89q-109 0 -176.5 -58t-67.5 -139q0 -65 29 -110.5t75.5 -71t103 -45l113 -39t103 -45t75.5 -71t29 -110.5
q0 -119 -83.5 -182t-211.5 -63q-79 0 -163.5 35t-116.5 83l18 13q35 -49 111.5 -80t148.5 -31q114 0 195.5 58t81.5 165zM408 1169l-236 267l14 14l226 -254l221 254l16 -14l-233 -267h-8z" />
    <glyph glyph-name="uni0162" unicode="&#x162;" horiz-adv-x="1208" 
d="M446 -369l9 19q79 -39 151 -39q81 0 133 33.5t52 89.5q0 123 -185 123h-12v1556h-574v21h1168v-21h-574v-1536q197 -3 197 -143q0 -64 -56 -104t-149 -40q-76 0 -160 41z" />
    <glyph glyph-name="uni0163" unicode="&#x163;" horiz-adv-x="698" 
d="M213 -369l8 19q79 -39 152 -39q81 0 132.5 33.5t51.5 89.5q0 123 -184 123h-13v145q-102 24 -149 110.5t-47 237.5v828h20v-256h420v-21h-420v-532q0 -181 63.5 -269t205.5 -88q86 0 151 49l12 -18q-70 -51 -163 -51q-42 0 -72 6v-121q197 -3 197 -143q0 -64 -56 -104
t-149 -40q-76 0 -160 41z" />
    <glyph glyph-name="Tcaron" unicode="&#x164;" horiz-adv-x="1208" 
d="M20 1413v21h1168v-21h-574v-1413h-20v1413h-574zM602 1522l-338 184l15 14l327 -178l324 178l16 -14l-336 -184h-8z" />
    <glyph glyph-name="tcaron" unicode="&#x165;" horiz-adv-x="698" 
d="M164 350v828h20v-256h420v-21h-420v-532q0 -181 63.5 -269t205.5 -88q86 0 151 49l12 -18q-70 -51 -163 -51q-151 0 -220 89t-69 269zM485 1434h21q20 -33 20 -88q0 -85 -33 -146.5t-85 -85.5l-7 16q47 27 76 84.5t29 128.5q0 56 -21 91z" />
    <glyph glyph-name="Umacron" unicode="&#x16a;" horiz-adv-x="1538" 
d="M1313 1434v-830q0 -159 -42 -280t-115.5 -193t-166 -107.5t-201.5 -35.5q-120 0 -222 40t-178.5 117t-119.5 198t-43 275v816h21v-818q0 -147 41.5 -263.5t115 -191.5t172 -114t213.5 -39q84 0 158 21.5t138 68.5t110 116.5t72 170.5t26 225v824h21zM467 1618v20h602v-20
h-602z" />
    <glyph glyph-name="umacron" unicode="&#x16b;" horiz-adv-x="1126" 
d="M942 922v-922h-20v170q-64 -76 -172 -131t-215 -55q-191 0 -281 102.5t-90 319.5v516h20v-510q0 -208 86 -308t269 -100q116 0 225 62t158 133v723h20zM324 1311v20h479v-20h-479z" />
    <glyph glyph-name="Ubreve" unicode="&#x16c;" horiz-adv-x="1538" 
d="M1313 1434v-830q0 -159 -42 -280t-115.5 -193t-166 -107.5t-201.5 -35.5q-120 0 -222 40t-178.5 117t-119.5 198t-43 275v816h21v-818q0 -147 41.5 -263.5t115 -191.5t172 -114t213.5 -39q84 0 158 21.5t138 68.5t110 116.5t72 170.5t26 225v824h21zM465 1708l14 12
q26 -33 59.5 -61t97.5 -55t136 -27q93 0 166 41t121 102l14 -12q-48 -64 -124.5 -108t-176.5 -44q-78 0 -147 29.5t-104 60.5t-56 62z" />
    <glyph glyph-name="ubreve" unicode="&#x16d;" horiz-adv-x="1126" 
d="M942 922v-922h-20v170q-64 -76 -172 -131t-215 -55q-191 0 -281 102.5t-90 319.5v516h20v-510q0 -208 86 -308t269 -100q116 0 225 62t158 133v723h20zM299 1380l14 13q17 -22 29 -35.5t38 -36.5t50 -36.5t60.5 -24.5t74.5 -11q133 0 246 144l14 -13q-112 -151 -260 -151
q-164 0 -266 151z" />
    <glyph glyph-name="Uring" unicode="&#x16e;" horiz-adv-x="1538" 
d="M1313 1434v-830q0 -159 -42 -280t-115.5 -193t-166 -107.5t-201.5 -35.5q-120 0 -222 40t-178.5 117t-119.5 198t-43 275v816h21v-818q0 -147 41.5 -263.5t115 -191.5t172 -114t213.5 -39q84 0 158 21.5t138 68.5t110 116.5t72 170.5t26 225v824h21zM580 1587
q0 75 53 114.5t135 39.5q83 0 136.5 -39.5t53.5 -114.5t-54 -117.5t-136 -42.5q-81 0 -134.5 42.5t-53.5 117.5zM600 1587q0 -68 47 -103.5t121 -35.5t122 35.5t48 103.5q0 67 -47 100t-123 33q-75 0 -121.5 -33t-46.5 -100z" />
    <glyph glyph-name="uring" unicode="&#x16f;" horiz-adv-x="1126" 
d="M942 922v-922h-20v170q-64 -76 -172 -131t-215 -55q-191 0 -281 102.5t-90 319.5v516h20v-510q0 -208 86 -308t269 -100q116 0 225 62t158 133v723h20zM373 1260q0 78 55 134t133 56t134.5 -56t56.5 -134t-56.5 -133.5t-134.5 -55.5t-133 55.5t-55 133.5zM393 1260
q0 -70 48.5 -119t119.5 -49t120.5 49t49.5 119t-49.5 120t-120.5 50q-70 0 -119 -49.5t-49 -120.5z" />
    <glyph glyph-name="Uhungarumlaut" unicode="&#x170;" horiz-adv-x="1538" 
d="M1313 1434v-830q0 -159 -42 -280t-115.5 -193t-166 -107.5t-201.5 -35.5q-120 0 -222 40t-178.5 117t-119.5 198t-43 275v816h21v-818q0 -147 41.5 -263.5t115 -191.5t172 -114t213.5 -39q84 0 158 21.5t138 68.5t110 116.5t72 170.5t26 225v824h21zM1206 1704l-315 -184
l-10 14l317 186zM858 1704l-315 -184l-11 14l318 186z" />
    <glyph glyph-name="uhungarumlaut" unicode="&#x171;" horiz-adv-x="1126" 
d="M942 922v-922h-20v170q-64 -76 -172 -131t-215 -55q-191 0 -281 102.5t-90 319.5v516h20v-510q0 -208 86 -308t269 -100q116 0 225 62t158 133v723h20zM915 1434l-223 -289l-16 10l225 291zM629 1434l-223 -289l-17 10l225 291z" />
    <glyph glyph-name="Uogonek" unicode="&#x172;" horiz-adv-x="1538" 
d="M1313 1434v-830q0 -138 -31.5 -248t-89 -182t-130.5 -115.5t-161 -60.5q-196 -76 -196 -223q0 -38 14 -68.5t34.5 -48t47 -28.5t48.5 -15t42 -4q59 0 98 18l6 -18q-53 -21 -106 -21q-33 0 -65.5 8.5t-65.5 28t-53.5 58t-20.5 90.5q0 140 164 217q-40 -4 -60 -4
q-120 0 -222 40t-178.5 117t-119.5 198t-43 275v816h21v-818q0 -147 41.5 -263.5t115 -191.5t172 -114t213.5 -39q84 0 158 21.5t138 68.5t110 116.5t72 170.5t26 225v824h21z" />
    <glyph glyph-name="uogonek" unicode="&#x173;" horiz-adv-x="1126" 
d="M942 -371l6 -18q-52 -21 -106 -21q-33 0 -65.5 8.5t-65.5 28t-53.5 58t-20.5 90.5q0 101 86.5 169t198.5 74v152q-64 -76 -172 -131t-215 -55q-191 0 -281 102.5t-90 319.5v516h20v-510q0 -208 86 -308t269 -100q116 0 225 62t158 133v723h20v-922q-69 0 -133.5 -27.5
t-108 -80t-43.5 -117.5q0 -38 14 -68.5t34.5 -48t47.5 -28.5t49 -15t42 -4q59 0 98 18z" />
    <glyph glyph-name="Ydieresis" unicode="&#x178;" horiz-adv-x="1134" 
d="M1094 1434l-519 -789v-645h-20v645l-514 789h27l497 -768l502 768h27zM303 1618q0 10 8 17t19 7q9 0 16.5 -7t7.5 -17q0 -12 -7.5 -19.5t-16.5 -7.5q-11 0 -19 7.5t-8 19.5zM782 1618q0 10 8 17t19 7q10 0 17.5 -6.5t7.5 -17.5q0 -12 -8 -19.5t-17 -7.5q-11 0 -19 7.5
t-8 19.5z" />
    <glyph glyph-name="Zacute" unicode="&#x179;" horiz-adv-x="1269" 
d="M123 1413v21h1044v-4l-1048 -1410h1069v-20h-1106v4l1046 1409h-1005zM879 1704l-316 -184l-10 14l317 186z" />
    <glyph glyph-name="zacute" unicode="&#x17a;" horiz-adv-x="972" 
d="M133 901v21h737v-4l-731 -898h721v-20h-758v4l729 897h-698zM688 1434l-223 -289l-16 10l225 291z" />
    <glyph glyph-name="Zdotaccent" unicode="&#x17b;" horiz-adv-x="1269" 
d="M123 1413v21h1044v-4l-1048 -1410h1069v-20h-1106v4l1046 1409h-1005zM588 1618q0 10 7.5 17t18.5 7q9 0 17 -7t8 -17q0 -12 -7.5 -19.5t-17.5 -7.5q-11 0 -18.5 7.5t-7.5 19.5z" />
    <glyph glyph-name="zdotaccent" unicode="&#x17c;" horiz-adv-x="972" 
d="M133 901v21h737v-4l-731 -898h721v-20h-758v4l729 897h-698zM459 1296q0 9 8 17t18 8q9 0 17 -8t8 -17q0 -10 -8 -18t-17 -8q-11 0 -18.5 8t-7.5 18z" />
    <glyph glyph-name="Zcaron" unicode="&#x17d;" horiz-adv-x="1269" 
d="M123 1413v21h1044v-4l-1048 -1410h1069v-20h-1106v4l1046 1409h-1005zM625 1522l-338 184l14 14l328 -178l323 178l17 -14l-336 -184h-8z" />
    <glyph glyph-name="zcaron" unicode="&#x17e;" horiz-adv-x="972" 
d="M133 901v21h737v-4l-731 -898h721v-20h-758v4l729 897h-698zM483 1169l-235 267l14 14l225 -254l222 254l16 -14l-233 -267h-9z" />
    <glyph glyph-name="longs" unicode="&#x17f;" horiz-adv-x="514" 
d="M225 0v1071q0 379 310 379q132 0 225 -72l-12 -18q-95 70 -213 70q-147 0 -218 -90.5t-71 -286.5v-1053h-21z" />
    <glyph glyph-name="uni018F" unicode="&#x18f;" horiz-adv-x="1589" 
d="M102 741h1344q-6 316 -193.5 502.5t-500.5 186.5q-252 0 -414 -127l-12 14q78 68 192.5 100.5t233.5 32.5q329 0 521.5 -195.5t192.5 -529.5q0 -154 -47.5 -289.5t-133.5 -235.5t-215.5 -158t-285.5 -58q-155 0 -284 58.5t-215.5 160.5t-134 240.5t-48.5 297.5zM782 4
q154 0 280 56.5t209 154t128.5 227.5t46.5 279h-1323q2 -149 49.5 -280t131.5 -228t207.5 -153t270.5 -56z" />
    <glyph glyph-name="florin" unicode="&#x192;" horiz-adv-x="1196" 
d="M670 1053l-25 -131h404v-21h-408l-176 -969q-16 -89 -40.5 -152.5t-63 -111t-94.5 -71t-132 -23.5q-94 0 -164 51l13 19q66 -50 151 -50q139 0 208 83t101 260l174 964h-374v21h379l26 149q36 196 117.5 287.5t232.5 91.5q133 0 226 -72l-13 -18q-95 70 -213 70
q-143 0 -217.5 -87.5t-111.5 -289.5z" />
    <glyph glyph-name="uni01DD" unicode="&#x1dd;" horiz-adv-x="1083" 
d="M170 780l-12 13q56 69 156 107t198 38q208 0 333.5 -129.5t125.5 -347.5q0 -102 -28 -188t-81.5 -151t-137 -101.5t-189.5 -36.5q-190 0 -306 112t-116 297q0 8 1 34t1 34h835q0 127 -50 229.5t-151 165t-237 62.5q-98 0 -193.5 -39t-148.5 -99zM541 4q185 0 297 123
t112 313h-817q-7 -208 104 -322t304 -114z" />
    <glyph glyph-name="uni0218" unicode="&#x218;" horiz-adv-x="1107" 
d="M965 342q0 98 -44.5 169t-115 112t-156 73t-171.5 64t-156.5 73t-115 112t-44.5 169q0 149 106 242.5t295 93.5q113 0 213.5 -38.5t157.5 -102.5l-14 -15q-64 67 -159 101.5t-204 34.5q-171 0 -273 -86.5t-102 -227.5q0 -76 27.5 -134t74 -96t106.5 -67.5t127 -52.5
t133.5 -46.5t126.5 -55.5t106.5 -73t74 -104.5t27.5 -144.5q0 -162 -126.5 -260t-315.5 -98q-123 0 -244.5 54.5t-175.5 141.5l16 15q62 -86 176 -138.5t224 -52.5q111 0 206 36.5t157.5 115t62.5 186.5zM506 -164l2 21q40 -3 65 -31.5t25 -73.5q0 -68 -28.5 -103t-90.5 -59
l-6 17q53 19 79 52t26 85q0 81 -72 92z" />
    <glyph glyph-name="uni0219" unicode="&#x219;" horiz-adv-x="821" 
d="M678 227q0 61 -29 104t-75.5 66.5t-103 42.5t-113 39t-103 47t-75.5 76t-29 117q0 96 72.5 157.5t195.5 61.5q72 0 140.5 -25.5t105.5 -66.5l-15 -17q-86 89 -235 89q-109 0 -176.5 -58t-67.5 -139q0 -65 29 -110.5t75.5 -71t103 -45l113 -39t103 -45t75.5 -71t29 -110.5
q0 -119 -83.5 -182t-211.5 -63q-79 0 -163.5 35t-116.5 83l18 13q35 -49 111.5 -80t148.5 -31q114 0 195.5 58t81.5 165zM383 -164l2 21q40 -3 65 -31.5t25 -73.5q0 -68 -28.5 -103t-90.5 -59l-6 17q53 19 79 52t26 85q0 81 -72 92z" />
    <glyph glyph-name="uni021A" unicode="&#x21a;" horiz-adv-x="1208" 
d="M20 1413v21h1168v-21h-574v-1413h-20v1413h-574zM578 -164l2 21q40 -3 65 -31.5t25 -73.5q0 -68 -28.5 -103t-90.5 -59l-6 17q104 38 104 137q0 82 -71 92z" />
    <glyph glyph-name="uni021B" unicode="&#x21b;" horiz-adv-x="698" 
d="M164 350v828h20v-256h420v-21h-420v-532q0 -181 63.5 -269t205.5 -88q86 0 151 49l12 -18q-70 -51 -163 -51q-151 0 -220 89t-69 269zM373 -164l2 21q40 -3 65 -31.5t25 -73.5q0 -68 -28.5 -103t-90.5 -59l-6 17q104 38 104 137q0 82 -71 92z" />
    <glyph glyph-name="uni0237" unicode="&#x237;" horiz-adv-x="514" 
d="M268 922v-990q0 -358 -288 -358q-94 0 -164 51l12 19q27 -21 68.5 -35.5t83.5 -14.5q141 0 204.5 84.5t63.5 251.5v992h20z" />
    <glyph glyph-name="uni0259" unicode="&#x259;" horiz-adv-x="1083" 
d="M170 780l-12 13q56 69 156 107t198 38q208 0 333.5 -129.5t125.5 -347.5q0 -102 -28 -188t-81.5 -151t-137 -101.5t-189.5 -36.5q-190 0 -306 112t-116 297q0 8 1 34t1 34h835q0 127 -50 229.5t-151 165t-237 62.5q-98 0 -193.5 -39t-148.5 -99zM541 4q185 0 297 123
t112 313h-817q-7 -208 104 -322t304 -114z" />
    <glyph glyph-name="uni02BC" unicode="&#x2bc;" horiz-adv-x="370" 
d="M188 1296l17 17q43 -49 43 -121q0 -81 -29 -132.5t-90 -82.5l-6 16q50 26 77 77t27 118q0 69 -39 108z" />
    <glyph glyph-name="circumflex" unicode="&#x2c6;" horiz-adv-x="722" 
d="M369 1450l231 -266l-14 -15l-221 254l-226 -254l-16 15l237 266h9z" />
    <glyph glyph-name="caron" unicode="&#x2c7;" horiz-adv-x="722" 
d="M358 1169l-235 267l14 14l225 -254l222 254l16 -14l-233 -267h-9z" />
    <glyph glyph-name="breve" unicode="&#x2d8;" horiz-adv-x="772" 
d="M123 1380l14 13q17 -22 29 -35.5t38 -36.5t50 -36.5t60.5 -24.5t74.5 -11q133 0 246 144l14 -13q-112 -151 -260 -151q-164 0 -266 151z" />
    <glyph glyph-name="dotaccent" unicode="&#x2d9;" horiz-adv-x="296" 
d="M123 1296q0 9 8.5 17t18.5 8q9 0 16.5 -8t7.5 -17q0 -10 -7.5 -18t-16.5 -8q-11 0 -19 8t-8 18z" />
    <glyph glyph-name="ring" unicode="&#x2da;" horiz-adv-x="624" 
d="M123 1260q0 78 55 134t133 56t134.5 -56t56.5 -134t-56.5 -133.5t-134.5 -55.5t-133 55.5t-55 133.5zM143 1260q0 -70 48.5 -119t119.5 -49t120.5 49t49.5 119t-49.5 120t-120.5 50q-70 0 -119 -49.5t-49 -120.5z" />
    <glyph glyph-name="ogonek" unicode="&#x2db;" horiz-adv-x="557" 
d="M428 -371l6 -18q-52 -21 -106 -21q-33 0 -65.5 8.5t-65.5 28t-53.5 58t-20.5 90.5q0 105 94 175t211 70v-20q-69 0 -133.5 -27.5t-108 -80t-43.5 -117.5q0 -38 14 -68.5t34.5 -48t47.5 -28.5t49 -15t42 -4q59 0 98 18z" />
    <glyph glyph-name="tilde" unicode="&#x2dc;" horiz-adv-x="817" 
d="M135 1221l-12 14q104 84 178 84q32 0 63 -15.5t52 -34.5t49.5 -34.5t56.5 -15.5q65 0 158 88l14 -15q-102 -94 -176 -94q-30 0 -60 15.5t-51 34.5t-51 34.5t-61 15.5q-65 0 -160 -77z" />
    <glyph glyph-name="hungarumlaut" unicode="&#x2dd;" horiz-adv-x="772" 
d="M649 1434l-223 -289l-16 10l225 291zM362 1434l-223 -289l-16 10l225 291z" />
    <glyph glyph-name="gravecomb" unicode="&#x300;" horiz-adv-x="0" 
d="M-514 1145l-223 289l14 12l225 -291z" />
    <glyph glyph-name="acutecomb" unicode="&#x301;" horiz-adv-x="0" 
d="M-336 1434l-223 -289l-16 10l225 291z" />
    <glyph glyph-name="Delta" unicode="&#x394;" horiz-adv-x="1425" 
d="M82 0l620 1450h7l634 -1450h-1261zM705 1409l-592 -1389h1198z" />
    <glyph glyph-name="Delta" unicode="&#x2206;" horiz-adv-x="1425" 
d="M82 0l620 1450h7l634 -1450h-1261zM705 1409l-592 -1389h1198z" />
    <glyph glyph-name="uni03A9" unicode="&#x3a9;" horiz-adv-x="1646" 
d="M199 0v20h397q-212 71 -342.5 261t-130.5 436q0 205 92 373t252.5 264t355.5 96t355.5 -96t253 -264t92.5 -373q0 -247 -131 -436.5t-344 -260.5h397v-20h-473v20q234 51 382 243t148 454q0 150 -52.5 282.5t-143 227t-216.5 149t-268 54.5t-268 -54.5t-216.5 -149
t-143 -227t-52.5 -282.5q0 -262 147.5 -454t381.5 -243v-20h-473z" />
    <glyph glyph-name="uni03A9" unicode="&#x2126;" horiz-adv-x="1646" 
d="M199 0v20h397q-212 71 -342.5 261t-130.5 436q0 205 92 373t252.5 264t355.5 96t355.5 -96t253 -264t92.5 -373q0 -247 -131 -436.5t-344 -260.5h397v-20h-473v20q234 51 382 243t148 454q0 150 -52.5 282.5t-143 227t-216.5 149t-268 54.5t-268 -54.5t-216.5 -149
t-143 -227t-52.5 -282.5q0 -262 147.5 -454t381.5 -243v-20h-473z" />
    <glyph glyph-name="pi" unicode="&#x3c0;" horiz-adv-x="1333" 
d="M115 901v21h1104v-21h-236v-684q0 -112 24 -157.5t93 -45.5q34 0 73.5 14.5t65.5 34.5l12 -18q-70 -51 -151 -51q-72 0 -104.5 45.5t-32.5 146.5v715h-592v-188q0 -171 -14 -297.5t-38.5 -205.5t-62 -126.5t-79 -65.5t-95.5 -18v20q65 0 112.5 32t83.5 107t54 208.5
t18 326.5v207h-235z" />
    <glyph glyph-name="uni0401" unicode="&#x401;" horiz-adv-x="1177" 
d="M246 0v1434h768v-21h-748v-672h686v-20h-686v-701h768v-20h-788zM365 1618q0 10 7.5 17t18.5 7q9 0 17 -7t8 -17q0 -12 -8 -19.5t-17 -7.5q-11 0 -18.5 7.5t-7.5 19.5zM844 1618q0 10 7.5 17t18.5 7q10 0 17.5 -6.5t7.5 -17.5q0 -12 -7.5 -19.5t-17.5 -7.5
q-11 0 -18.5 7.5t-7.5 19.5z" />
    <glyph glyph-name="uni0402" unicode="&#x402;" horiz-adv-x="1550" 
d="M1427 420q0 -118 -25 -204t-71 -136t-104 -73t-131 -23q-47 0 -94.5 18t-67.5 33l12 18q65 -49 152 -49q144 0 226.5 102t82.5 314q0 220 -101 323t-302 103q-48 0 -93.5 -8t-76.5 -17t-69 -28t-55.5 -29.5t-52 -33.5t-43.5 -28v-702h-20v1413h-574v21h1168v-21h-574
v-688q58 41 100.5 66t124 50t169.5 25q419 0 419 -446z" />
    <glyph glyph-name="uni0403" unicode="&#x403;" horiz-adv-x="1024" 
d="M246 0v1434h778v-21h-758v-1413h-20zM879 1704l-316 -184l-10 14l317 186z" />
    <glyph glyph-name="uni0404" unicode="&#x404;" horiz-adv-x="1400" 
d="M979 741v-20h-836v-4q0 -209 87.5 -371t248.5 -252t369 -90q122 0 226 34.5t210 108.5l14 -14q-109 -78 -215.5 -113.5t-236.5 -35.5q-211 0 -375.5 91t-256 258t-91.5 384q0 209 86.5 375t250.5 262t378 96q119 0 233.5 -32.5t192.5 -100.5l-13 -14q-162 127 -413 127
q-204 0 -361.5 -90t-243 -246t-90.5 -353h836z" />
    <glyph glyph-name="uni0405" unicode="&#x405;" horiz-adv-x="1107" 
d="M965 342q0 98 -44.5 169t-115 112t-156 73t-171.5 64t-156.5 73t-115 112t-44.5 169q0 149 106 242.5t295 93.5q113 0 213.5 -38.5t157.5 -102.5l-14 -15q-64 67 -159 101.5t-204 34.5q-171 0 -273 -86.5t-102 -227.5q0 -76 27.5 -134t74 -96t106.5 -67.5t127 -52.5
t133.5 -46.5t126.5 -55.5t106.5 -73t74 -104.5t27.5 -144.5q0 -162 -126.5 -260t-315.5 -98q-123 0 -244.5 54.5t-175.5 141.5l16 15q62 -86 176 -138.5t224 -52.5q111 0 206 36.5t157.5 115t62.5 186.5z" />
    <glyph glyph-name="uni0406" unicode="&#x406;" horiz-adv-x="634" 
d="M307 0v1434h21v-1434h-21z" />
    <glyph glyph-name="uni0407" unicode="&#x407;" horiz-adv-x="634" 
d="M154 1618q0 9 8 16.5t18 7.5q9 0 17 -7.5t8 -16.5q0 -10 -8 -18.5t-17 -8.5q-10 0 -18 8t-8 19zM430 1618q0 9 8.5 16.5t18.5 7.5q9 0 16.5 -7.5t7.5 -16.5q0 -10 -7.5 -18.5t-16.5 -8.5q-11 0 -19 8.5t-8 18.5zM307 0v1434h21v-1434h-21z" />
    <glyph glyph-name="uni0408" unicode="&#x408;" horiz-adv-x="698" 
d="M453 1434v-1133q0 -75 -11 -129t-37.5 -98.5t-76.5 -67t-123 -22.5q-94 0 -164 51l12 18q65 -49 152 -49q70 0 117 22.5t70 66t31.5 91.5t8.5 115v1135h21z" />
    <glyph glyph-name="uni0409" unicode="&#x409;" horiz-adv-x="2144" 
d="M1208 0v1413h-725l-20 -270q-17 -221 -42 -399t-52 -295t-61.5 -203.5t-64 -132.5t-65.5 -72.5t-61.5 -33.5t-55.5 -7v20q23 0 44.5 5.5t55 31.5t63 69.5t63.5 128.5t61.5 200t52.5 293.5t41 398.5l21 287h766v-617q156 12 256 12q269 0 402.5 -105t133.5 -296
q0 -214 -144 -323t-400 -109q-52 0 -140.5 2t-128.5 2zM1489 809q-135 0 -260 -12v-777q33 0 114 -2t136 -2q254 0 388 106t134 308q0 180 -130 279.5t-382 99.5z" />
    <glyph glyph-name="uni040A" unicode="&#x40a;" horiz-adv-x="2236" 
d="M246 0v1434h20v-637h1034v637h21v-637q156 12 256 12q270 0 403.5 -100.5t133.5 -290.5q0 -213 -143.5 -317.5t-401.5 -104.5q-52 0 -140.5 2t-128.5 2v776h-1034v-776h-20zM1321 776v-756q33 0 114 -2t136 -2q256 0 389 101.5t133 302.5q0 179 -129 273.5t-383 94.5
q-135 0 -260 -12z" />
    <glyph glyph-name="uni040B" unicode="&#x40b;" horiz-adv-x="1550" 
d="M20 1413v21h1168v-21h-574v-690q192 143 416 143q190 0 293.5 -112.5t103.5 -345.5v-408h-20v414q0 213 -98 322.5t-283 109.5q-29 0 -58.5 -3t-53 -6.5t-50.5 -12t-45 -13.5t-43.5 -17.5t-37.5 -18t-36.5 -19.5l-31.5 -18t-30 -19t-26 -17v-702h-20v1413h-574z" />
    <glyph glyph-name="uni040C" unicode="&#x40c;" horiz-adv-x="1257" 
d="M1153 1434l-739 -686l762 -748h-31l-762 748l741 686h29zM246 0v1434h20v-1434h-20zM879 1704l-316 -184l-10 14l317 186z" />
    <glyph glyph-name="uni040E" unicode="&#x40e;" horiz-adv-x="1292" 
d="M1251 1434l-508 -1119q-76 -169 -141.5 -242t-150.5 -73t-134 39l9 18q56 -39 123 -39q76 0 133.5 62.5t109.5 171.5l31 63l-682 1119h22l670 -1098l496 1098h22zM336 1720h20q50 -72 131 -118t181 -46t186.5 48t116.5 116h20q-29 -78 -123.5 -131t-199.5 -53
q-111 0 -201.5 52.5t-130.5 131.5z" />
    <glyph glyph-name="uni040F" unicode="&#x40f;" horiz-adv-x="1566" 
d="M246 0v1434h20v-1414h1034v1414h21v-1434h-528v-328h-21v328h-526z" />
    <glyph glyph-name="uni0410" unicode="&#x410;" horiz-adv-x="1402" 
d="M61 0l637 1450h7l636 -1450h-22l-250 567h-737l-248 -567h-23zM700 1409l-360 -821h721z" />
    <glyph glyph-name="uni0411" unicode="&#x411;" horiz-adv-x="1243" 
d="M1004 1434v-21h-738v-596q156 12 277 12q269 0 402.5 -105t133.5 -296q0 -214 -144 -323t-400 -109q-52 0 -150.5 2t-138.5 2v1434h758zM547 809q-156 0 -281 -12v-777q34 0 125 -2t146 -2q254 0 388 106t134 308q0 180 -130 279.5t-382 99.5z" />
    <glyph glyph-name="uni0412" unicode="&#x412;" horiz-adv-x="1263" 
d="M246 0v1434q36 0 164.5 2t187.5 2q124 0 212 -26.5t136.5 -76t70 -110.5t21.5 -140q0 -148 -95.5 -237.5t-231.5 -104.5v-4q189 -15 289 -106t100 -246q0 -83 -24.5 -148.5t-68.5 -110.5t-106.5 -75t-136 -43.5t-160.5 -13.5q-61 0 -190.5 2t-167.5 2zM602 727h-336v-707
q34 0 156 -2t176 -2q229 0 355 93.5t126 279.5q0 161 -124 249.5t-353 88.5zM594 1417q-192 0 -328 -4v-665h352q168 0 284 94t116 245q0 164 -101.5 247t-322.5 83z" />
    <glyph glyph-name="uni0413" unicode="&#x413;" horiz-adv-x="1024" 
d="M246 0v1434h778v-21h-758v-1413h-20z" />
    <glyph glyph-name="uni0414" unicode="&#x414;" horiz-adv-x="1503" 
d="M41 -287v307h154q22 27 47.5 75.5t60 145t64 216t55 301.5t37.5 389l16 287h752v-1414h194v-307h-20v287h-1340v-287h-20zM479 1143q-13 -209 -39 -392t-55 -303t-63 -215t-58.5 -142t-44.5 -71h987v1393h-710z" />
    <glyph glyph-name="uni0415" unicode="&#x415;" horiz-adv-x="1177" 
d="M246 0v1434h768v-21h-748v-672h686v-20h-686v-701h768v-20h-788z" />
    <glyph glyph-name="uni0416" unicode="&#x416;" horiz-adv-x="1830" 
d="M1726 1434l-661 -684l684 -750h-29l-682 748l660 686h28zM905 0v1434h21v-1434h-21zM766 748l-662 686h29l660 -686l-682 -748h-29z" />
    <glyph glyph-name="uni0417" unicode="&#x417;" horiz-adv-x="1157" 
d="M528 -16q-116 0 -243.5 54.5t-182.5 137.5l15 10q72 -85 189.5 -133.5t215.5 -48.5q210 0 330.5 108t120.5 289q0 148 -93 235t-247 87h-199v20h184q113 0 206.5 105t93.5 250q0 160 -102 246t-261 86q-132 0 -226 -44t-173 -126l-15 8q73 88 179 135t227 47
q181 0 286 -95t105 -263q0 -110 -62.5 -210t-170.5 -141v-6q129 -9 208.5 -107t79.5 -227q0 -194 -129.5 -305.5t-335.5 -111.5z" />
    <glyph glyph-name="uni0418" unicode="&#x418;" horiz-adv-x="1638" 
d="M266 0h-20v1434h20v-1403l1106 1403h21v-1434h-21v1403z" />
    <glyph glyph-name="uni0419" unicode="&#x419;" horiz-adv-x="1638" 
d="M266 0h-20v1434h20v-1403l1106 1403h21v-1434h-21v1403zM479 1720h21q50 -72 130.5 -118t180.5 -46t186.5 48t116.5 116h21q-29 -78 -124 -131t-200 -53q-111 0 -201.5 52.5t-130.5 131.5z" />
    <glyph glyph-name="uni041A" unicode="&#x41a;" horiz-adv-x="1257" 
d="M1153 1434l-739 -686l762 -748h-31l-762 748l741 686h29zM246 0v1434h20v-1434h-20z" />
    <glyph glyph-name="uni041B" unicode="&#x41b;" horiz-adv-x="1474" 
d="M1208 0v1413h-725l-20 -270q-17 -221 -42 -399t-52 -295t-61.5 -203.5t-64 -132.5t-65.5 -72.5t-61.5 -33.5t-55.5 -7v20q23 0 44.5 5.5t55 31.5t63 69.5t63.5 128.5t61.5 200t52.5 293.5t41 398.5l21 287h766v-1434h-21z" />
    <glyph glyph-name="uni041C" unicode="&#x41c;" horiz-adv-x="1785" 
d="M246 0v1434h22l635 -865l615 865h22v-1434h-20v1405l-615 -866h-6l-633 860v-1399h-20z" />
    <glyph glyph-name="uni041D" unicode="&#x41d;" horiz-adv-x="1587" 
d="M1321 0v721h-1055v-721h-20v1434h20v-693h1055v693h20v-1434h-20z" />
    <glyph glyph-name="uni041E" unicode="&#x41e;" horiz-adv-x="1646" 
d="M123 717q0 205 92 373t252.5 264t355.5 96t355.5 -96t253 -264t92.5 -373t-92.5 -373t-253 -264t-355.5 -96t-355.5 96t-252.5 264t-92 373zM143 717q0 -150 52.5 -282.5t143 -227t216.5 -149t268 -54.5t268 54.5t216.5 149t143 227t52.5 282.5t-52.5 282.5t-143 227
t-216.5 149t-268 54.5t-268 -54.5t-216.5 -149t-143 -227t-52.5 -282.5z" />
    <glyph glyph-name="uni041F" unicode="&#x41f;" horiz-adv-x="1587" 
d="M1321 0v1413h-1055v-1413h-20v1434h1095v-1434h-20z" />
    <glyph glyph-name="uni0420" unicode="&#x420;" horiz-adv-x="1161" 
d="M266 0h-20v1434q41 0 159 2t152 2q111 0 197 -24.5t138.5 -63.5t86 -94.5t46.5 -111.5t13 -120q0 -82 -27.5 -154.5t-84 -133.5t-156.5 -96.5t-233 -35.5q-114 0 -271 10v-614zM559 1417q-157 0 -293 -4v-778q157 -10 269 -10q122 0 216.5 31.5t151.5 86.5t86 126.5
t29 156.5q0 83 -25 151.5t-77.5 123.5t-143.5 85.5t-213 30.5z" />
    <glyph glyph-name="uni0421" unicode="&#x421;" horiz-adv-x="1345" 
d="M1251 154l13 -17q-76 -72 -195 -112.5t-242 -40.5q-155 0 -286 52t-223 146.5t-143.5 232t-51.5 302.5q0 205 85 372t241.5 264t355.5 97q268 0 432 -129l-14 -14q-152 123 -416 123q-196 0 -348.5 -95.5t-234 -257.5t-81.5 -360q0 -212 86.5 -374.5t242 -250.5
t355.5 -88q126 0 235 40.5t189 109.5z" />
    <glyph glyph-name="uni0422" unicode="&#x422;" horiz-adv-x="1208" 
d="M20 1413v21h1168v-21h-574v-1413h-20v1413h-574z" />
    <glyph glyph-name="uni0423" unicode="&#x423;" horiz-adv-x="1292" 
d="M1251 1434l-508 -1119q-76 -169 -141.5 -242t-150.5 -73t-134 39l9 18q56 -39 123 -39q76 0 133.5 62.5t109.5 171.5l31 63l-682 1119h22l670 -1098l496 1098h22z" />
    <glyph glyph-name="uni0424" unicode="&#x424;" horiz-adv-x="1687" 
d="M831 -16v184h-22q-209 0 -367.5 66t-249 195.5t-90.5 307.5q0 269 193 419.5t522 150.5h14v143h21v-143h14q336 0 527.5 -151t191.5 -419q0 -265 -195 -417t-511 -152h-27v-184h-21zM868 1286h-16v-1098h27q146 0 270 35t217 102t146 172.5t53 239.5q0 178 -90 303.5
t-245 185.5t-362 60zM123 737q0 -175 91.5 -301t245 -187t351.5 -61h20v1098h-14q-152 0 -278.5 -35.5t-219.5 -103.5t-144.5 -173t-51.5 -237z" />
    <glyph glyph-name="uni0425" unicode="&#x425;" horiz-adv-x="1339" 
d="M1239 1434l-555 -705l573 -729h-26l-561 713l-561 -713h-27l575 729l-553 705h27l539 -686l542 686h27z" />
    <glyph glyph-name="uni0426" unicode="&#x426;" horiz-adv-x="1607" 
d="M246 0v1434h20v-1414h1045v1414h20v-1414h195v-307h-21v287h-1259z" />
    <glyph glyph-name="uni0427" unicode="&#x427;" horiz-adv-x="1259" 
d="M1014 1434v-1434h-21v705q-80 -54 -201.5 -96t-248.5 -42q-193 0 -306.5 114.5t-113.5 344.5v408h20v-414q0 -210 108 -321t296 -111q220 0 446 139v707h21z" />
    <glyph glyph-name="uni0428" unicode="&#x428;" horiz-adv-x="2027" 
d="M246 0v1434h20v-1414h738v1414h20v-1414h737v1414h21v-1434h-1536z" />
    <glyph glyph-name="uni0429" unicode="&#x429;" horiz-adv-x="2058" 
d="M246 0v1434h20v-1414h738v1414h20v-1414h737v1414h21v-1414h194v-307h-20v287h-1710z" />
    <glyph glyph-name="uni042A" unicode="&#x42a;" horiz-adv-x="1353" 
d="M0 1413v21h418v-617q156 12 276 12q269 0 403 -105t134 -296q0 -214 -144.5 -323t-400.5 -109q-52 0 -150.5 2t-138.5 2v1413h-397zM698 809q-155 0 -280 -12v-777q34 0 125 -2t145 -2q254 0 388 106t134 308q0 180 -130 279.5t-382 99.5z" />
    <glyph glyph-name="uni042B" unicode="&#x42b;" horiz-adv-x="1648" 
d="M1382 0v1434h21v-1434h-21zM526 809q-135 0 -260 -12v-777q34 0 115 -2t135 -2q254 0 388 106t134 308q0 180 -130 279.5t-382 99.5zM266 1434v-617q156 12 256 12q269 0 403 -105t134 -296q0 -214 -144.5 -323t-400.5 -109q-52 0 -140 2t-128 2v1434h20z" />
    <glyph glyph-name="uni042C" unicode="&#x42c;" horiz-adv-x="1202" 
d="M547 809q-156 0 -281 -12v-777q34 0 125 -2t146 -2q254 0 388 106t134 308q0 180 -130 279.5t-382 99.5zM266 1434v-617q156 12 277 12q269 0 402.5 -105t133.5 -296q0 -214 -144 -323t-400 -109q-52 0 -150.5 2t-138.5 2v1434h20z" />
    <glyph glyph-name="uni042D" unicode="&#x42d;" horiz-adv-x="1400" 
d="M422 721v20h835q-6 316 -193.5 502.5t-500.5 186.5q-251 0 -413 -127l-13 14q78 68 192.5 100.5t233.5 32.5q329 0 522 -195.5t193 -529.5q0 -154 -50.5 -289.5t-140.5 -235.5t-223 -158t-289 -58q-264 0 -473 149l15 14q207 -143 456 -143q154 0 283.5 56.5t216 154
t135 228t49.5 278.5h-835z" />
    <glyph glyph-name="uni042E" unicode="&#x42e;" horiz-adv-x="2195" 
d="M246 0v1434h20v-693h447q6 200 94 361.5t242 254.5t344 93q194 0 350 -96t243 -263.5t87 -373.5t-87 -373.5t-243 -263.5t-350 -96t-350 96t-243 263.5t-87 373.5v4h-447v-721h-20zM733 717q0 -201 84 -364t235.5 -256t340.5 -93q142 0 265 54.5t209.5 149.5t135.5 227
t49 282t-49 282t-135.5 227t-209.5 149.5t-265 54.5q-189 0 -340.5 -93t-235.5 -256t-84 -364z" />
    <glyph glyph-name="uni042F" unicode="&#x42f;" horiz-adv-x="1234" 
d="M969 0v604h-394l-464 -604h-29l471 606q-142 24 -249 137.5t-107 262.5q0 193 131 312.5t372 119.5q52 0 150.5 -2t138.5 -2v-1434h-20zM565 625h404v788q-33 0 -125 2t-146 2q-123 0 -217 -33t-150.5 -91t-85 -131t-28.5 -158q0 -94 51 -177.5t130 -135.5t167 -66z" />
    <glyph glyph-name="uni0430" unicode="&#x430;" horiz-adv-x="933" 
d="M182 838l-10 16q136 84 274 84q176 0 250 -90.5t74 -269.5v-578h-20v174q-130 -182 -361 -182q-130 0 -208.5 70t-78.5 186q0 132 98 204t253 72q184 0 297 -82q0 88 -2 136.5t-11 113t-28.5 98t-52.5 67.5t-86.5 47.5t-127.5 13.5t-131 -18.5t-129 -61.5zM387 12
q73 0 133 17.5t103.5 49t71 60.5t55.5 68v209q-125 88 -301 88q-61 0 -117.5 -15t-104 -44.5t-76 -80t-28.5 -114.5q0 -111 75 -174.5t189 -63.5z" />
    <glyph glyph-name="uni0431" unicode="&#x431;" horiz-adv-x="1146" 
d="M938 1452l14 -6q-32 -56 -85.5 -82t-108.5 -29.5t-145.5 -19.5t-170.5 -49q-61 -25 -109.5 -67t-80.5 -96t-55 -111t-36 -125t-19 -124.5t-9 -121.5h4q50 139 174 220t273 81q211 0 330.5 -129t119.5 -340q0 -127 -59.5 -235t-164 -171t-230.5 -63q-210 0 -338.5 149
t-128.5 408q0 48 1.5 87t5.5 98.5t14 109t25 107.5t40.5 106.5t58 94.5t80 82.5t104.5 59.5q79 32 166.5 47.5t140.5 19t105 26.5t84 73zM133 543q0 -256 125.5 -397.5t319.5 -141.5q184 0 310 130.5t126 318.5q0 203 -114.5 325.5t-315.5 122.5q-95 0 -177.5 -32.5
t-137.5 -85t-90.5 -114.5t-45.5 -126z" />
    <glyph glyph-name="uni0432" unicode="&#x432;" horiz-adv-x="976" 
d="M184 0v922q36 0 124 2t147 2q181 0 269.5 -55t88.5 -175q0 -82 -51.5 -143.5t-153.5 -75.5v-4q131 -15 188.5 -71t57.5 -158q0 -120 -98 -184t-295 -64q-61 0 -150 2t-127 2zM500 461h-295v-441q33 0 114.5 -2t135.5 -2q379 0 379 230q0 215 -334 215zM451 905
q-110 0 -246 -4v-420h311q127 0 202 59t75 158q0 60 -26.5 102t-75.5 64t-107 31.5t-133 9.5z" />
    <glyph glyph-name="uni0433" unicode="&#x433;" horiz-adv-x="696" 
d="M184 0v922h512v-21h-491v-901h-21z" />
    <glyph glyph-name="uni0434" unicode="&#x434;" horiz-adv-x="1032" 
d="M971 -246v246h-930v-246h-21v266h113q50 62 99.5 223.5t62.5 391.5l16 287h527v-902h153v-266h-20zM315 631q-14 -215 -63.5 -386.5t-93.5 -224.5h659v881h-485z" />
    <glyph glyph-name="uni0435" unicode="&#x435;" horiz-adv-x="1083" 
d="M913 141l13 -12q-57 -70 -147.5 -107.5t-186.5 -37.5q-210 0 -344.5 131t-134.5 346q0 102 28 188t82.5 151t141.5 101.5t198 36.5q180 0 294 -113t114 -297q0 -8 -1 -23.5t-1 -23.5h-836q0 -220 124 -348.5t335 -128.5q96 0 181.5 37.5t139.5 99.5zM555 918
q-190 0 -300.5 -115.5t-121.5 -300.5h817q3 191 -105.5 303.5t-289.5 112.5z" />
    <glyph glyph-name="uni0436" unicode="&#x436;" horiz-adv-x="1267" 
d="M1182 922l-410 -441l434 -481h-28l-435 481l410 441h29zM621 0v922h20v-922h-20zM492 481l-412 441h29l409 -441l-428 -481h-29z" />
    <glyph glyph-name="uni0437" unicode="&#x437;" horiz-adv-x="925" 
d="M436 -16q-84 0 -187.5 34t-146.5 86l13 19q54 -56 147 -87.5t170 -31.5q159 0 254.5 68t95.5 184q0 96 -70.5 150.5t-191.5 54.5h-155v20h145q92 0 161.5 66.5t69.5 161.5q0 99 -78 154t-212 55q-179 0 -306 -113l-12 14q56 58 140.5 88.5t179.5 30.5q150 0 229.5 -61
t79.5 -172q0 -73 -42.5 -134t-131.5 -94v-4q100 -6 157.5 -69.5t57.5 -147.5q0 -127 -102 -199.5t-265 -72.5z" />
    <glyph glyph-name="uni0438" unicode="&#x438;" horiz-adv-x="1146" 
d="M205 0h-21v922h21v-891l737 891h21v-922h-21v891z" />
    <glyph glyph-name="uni0439" unicode="&#x439;" horiz-adv-x="1146" 
d="M205 0h-21v922h21v-891l737 891h21v-922h-21v891zM338 1413h20q0 -89 63 -147t167 -58q100 0 160.5 58t60.5 147h20q0 -98 -69 -161.5t-172 -63.5q-113 0 -181.5 63t-68.5 162z" />
    <glyph glyph-name="uni043A" unicode="&#x43a;" horiz-adv-x="948" 
d="M854 922l-522 -441l555 -481h-35l-551 481l520 441h33zM184 0v922h21v-922h-21z" />
    <glyph glyph-name="uni043B" unicode="&#x43b;" horiz-adv-x="1064" 
d="M860 0v901h-485l-17 -270q-7 -117 -22.5 -213t-34.5 -160t-43.5 -113t-47 -75.5t-48 -43t-44 -21.5t-36.5 -5v20q13 0 28 4t38.5 19t45 40t45.5 72t42.5 109.5t34 158t22.5 212.5l16 287h527v-922h-21z" />
    <glyph glyph-name="uni043C" unicode="&#x43c;" horiz-adv-x="1261" 
d="M184 0v922h23l430 -600l418 600h22v-922h-20v893l-418 -602h-6l-428 602v-893h-21z" />
    <glyph glyph-name="uni043D" unicode="&#x43d;" horiz-adv-x="1136" 
d="M932 0v461h-727v-461h-21v922h21v-441h727v441h20v-922h-20z" />
    <glyph glyph-name="uni043E" unicode="&#x43e;" horiz-adv-x="1167" 
d="M113 461q0 207 133 342t338 135t338 -135t133 -342t-133 -342t-338 -135t-338 135t-133 342zM133 461q0 -200 126.5 -328.5t324.5 -128.5t324 128.5t126 328.5t-126 328.5t-324 128.5t-324.5 -128.5t-126.5 -328.5z" />
    <glyph glyph-name="uni043F" unicode="&#x43f;" horiz-adv-x="1126" 
d="M922 0v901h-717v-901h-21v922h758v-922h-20z" />
    <glyph glyph-name="uni0440" unicode="&#x440;" horiz-adv-x="1128" 
d="M184 -410v1332h21v-146q59 71 162.5 116.5t207.5 45.5q204 0 322.5 -128t118.5 -335q0 -214 -128.5 -352.5t-336.5 -138.5q-215 0 -346 102v-496h-21zM575 918q-113 0 -218 -52.5t-152 -117.5v-635q149 -109 348 -109q195 0 318.5 130t123.5 335q0 204 -111.5 326.5
t-308.5 122.5z" />
    <glyph glyph-name="uni0441" unicode="&#x441;" horiz-adv-x="1007" 
d="M913 141l13 -12q-57 -70 -147.5 -107.5t-186.5 -37.5q-210 0 -344.5 131t-134.5 346q0 132 59 241.5t161.5 172.5t225.5 63q228 0 348 -109l-12 -18q-121 107 -332 107q-178 0 -304 -132.5t-126 -324.5q0 -208 128.5 -332.5t330.5 -124.5q96 0 181.5 37.5t139.5 99.5z
" />
    <glyph glyph-name="uni0442" unicode="&#x442;" horiz-adv-x="880" 
d="M20 901v21h840v-21h-409v-901h-21v901h-410z" />
    <glyph glyph-name="uni0443" unicode="&#x443;" horiz-adv-x="954" 
d="M913 922l-378 -922q-67 -163 -123 -253.5t-105 -123.5t-112 -33q-59 0 -132 31l9 19q74 -31 118 -31q87 0 157.5 78.5t146.5 263.5l20 49l-473 922h22l383 -750l78 -152l64 156l303 746h22z" />
    <glyph glyph-name="uni0444" unicode="&#x444;" horiz-adv-x="1331" 
d="M655 -410v394h-43q-227 0 -363 134t-136 343q0 126 59 234t174.5 175.5t263.5 67.5h45v496h21v-496h47q214 0 355 -136.5t141 -340.5q0 -209 -136 -343t-360 -134h-47v-394h-21zM133 461q0 -202 131 -329.5t354 -127.5h37v914h-47q-105 0 -194.5 -35.5t-151 -97
t-95.5 -145.5t-34 -179zM723 918h-47v-914h39q222 0 352.5 127.5t130.5 329.5q0 90 -33.5 172.5t-93 146t-150.5 101t-198 37.5z" />
    <glyph glyph-name="uni0445" unicode="&#x445;" horiz-adv-x="976" 
d="M874 922l-372 -449l393 -473h-27l-381 457l-378 -457h-27l393 473l-373 449h27l358 -433l361 433h26z" />
    <glyph glyph-name="uni0446" unicode="&#x446;" horiz-adv-x="1136" 
d="M184 0v922h21v-902h717v902h20v-902h154v-266h-21v246h-891z" />
    <glyph glyph-name="uni0447" unicode="&#x447;" horiz-adv-x="952" 
d="M768 922v-922h-20v436q-53 -41 -134 -67.5t-174 -26.5q-317 0 -317 336v244h20v-250q0 -156 77 -233t224 -77q179 0 304 97v463h20z" />
    <glyph glyph-name="uni0448" unicode="&#x448;" horiz-adv-x="1413" 
d="M184 0v922h21v-902h491v902h21v-902h491v902h21v-922h-1045z" />
    <glyph glyph-name="uni0449" unicode="&#x449;" horiz-adv-x="1423" 
d="M184 0v922h21v-902h491v902h21v-902h491v902h21v-902h153v-266h-20v246h-1178z" />
    <glyph glyph-name="uni044A" unicode="&#x44a;" horiz-adv-x="995" 
d="M0 901v21h336v-359h192q103 0 176 -20.5t113.5 -59.5t58 -88t17.5 -114q0 -132 -85.5 -206.5t-285.5 -74.5h-207v901h-315zM528 543h-192v-523h190q186 0 266 67.5t80 195.5q0 126 -81 193t-263 67z" />
    <glyph glyph-name="uni044B" unicode="&#x44b;" horiz-adv-x="1208" 
d="M184 0v922h21v-359h172q103 0 175.5 -20.5t113 -59.5t58 -88t17.5 -114q0 -64 -18.5 -113t-60 -88t-115 -59.5t-176.5 -20.5h-187zM377 543h-172v-523h170q186 0 266 67.5t80 195.5q0 126 -81 193t-263 67zM1004 0v922h20v-922h-20z" />
    <glyph glyph-name="uni044C" unicode="&#x44c;" horiz-adv-x="864" 
d="M184 0v922h21v-359h192q103 0 176 -20.5t113.5 -59.5t58 -88t17.5 -114q0 -132 -85.5 -206.5t-285.5 -74.5h-207zM397 543h-192v-523h190q186 0 266 67.5t80 195.5q0 126 -81 193t-263 67z" />
    <glyph glyph-name="uni044D" unicode="&#x44d;" horiz-adv-x="1007" 
d="M340 461v20h534q-7 199 -134.5 318t-323.5 119q-96 0 -182 -38t-140 -100l-12 13q57 70 147.5 107.5t186.5 37.5q210 0 344.5 -131t134.5 -346q0 -132 -59 -241.5t-161.5 -172.5t-225.5 -63q-230 0 -349 108l13 19q121 -107 331 -107q178 0 304 132.5t126 324.5h-534z
" />
    <glyph glyph-name="uni044E" unicode="&#x44e;" horiz-adv-x="1505" 
d="M184 0v922h21v-441h287q6 200 131.5 328.5t318.5 128.5q197 0 324 -134.5t127 -342.5t-127 -342.5t-324 -134.5t-323.5 134.5t-126.5 342.5h-287v-461h-21zM512 461q0 -200 120 -328.5t310 -128.5t310 128.5t120 328.5t-120 328.5t-310 128.5t-310 -128.5t-120 -328.5z
" />
    <glyph glyph-name="uni044F" unicode="&#x44f;" horiz-adv-x="964" 
d="M524 922h256v-922h-20v399h-305l-324 -399h-29l326 399q-102 10 -178 80t-76 174q0 120 82.5 194.5t267.5 74.5zM195 655q0 -103 80 -169t161 -66h324v481h-240q-167 0 -246 -68t-79 -178z" />
    <glyph glyph-name="uni0451" unicode="&#x451;" horiz-adv-x="1083" 
d="M913 141l13 -12q-57 -70 -147.5 -107.5t-186.5 -37.5q-210 0 -344.5 131t-134.5 346q0 102 28 188t82.5 151t141.5 101.5t198 36.5q180 0 294 -113t114 -297q0 -8 -1 -23.5t-1 -23.5h-836q0 -220 124 -348.5t335 -128.5q96 0 181.5 37.5t139.5 99.5zM555 918
q-190 0 -300.5 -115.5t-121.5 -300.5h817q3 191 -105.5 303.5t-289.5 112.5zM299 1292q0 9 8.5 17t18.5 8q9 0 16.5 -8t7.5 -17q0 -10 -7.5 -18t-16.5 -8q-11 0 -19 8t-8 18zM737 1292q0 9 8.5 17t18.5 8q9 0 16.5 -8t7.5 -17q0 -10 -7.5 -18t-16.5 -8q-11 0 -19 8t-8 18z
" />
    <glyph glyph-name="uni0452" unicode="&#x452;" horiz-adv-x="1247" 
d="M0 1055v20h317v359h21v-359h461v-20h-461v-449q59 71 165.5 119.5t209.5 48.5q200 0 295.5 -103t95.5 -319q0 -105 -20.5 -210.5t-63.5 -211t-120 -195.5t-179 -145h-33q91 50 161 121t113.5 146t71.5 162t38.5 165.5t10.5 161.5q0 208 -90 308t-280 100q-112 0 -220 -55
t-155 -121v-578h-21v1055h-317z" />
    <glyph glyph-name="uni0453" unicode="&#x453;" horiz-adv-x="696" 
d="M184 0v922h512v-21h-491v-901h-21zM643 1434l-223 -289l-17 10l226 291z" />
    <glyph glyph-name="uni0454" unicode="&#x454;" horiz-adv-x="1007" 
d="M668 481v-20h-535q0 -210 128 -333.5t329 -123.5q81 0 162 26t143 81l12 -19q-119 -108 -325 -108q-205 0 -337 132.5t-132 344.5q0 215 134.5 346t344.5 131q96 0 186.5 -37.5t147.5 -107.5l-13 -13q-54 62 -139.5 100t-181.5 38q-197 0 -325 -119t-134 -318h535z" />
    <glyph glyph-name="uni0455" unicode="&#x455;" horiz-adv-x="821" 
d="M678 227q0 61 -29 104t-75.5 66.5t-103 42.5t-113 39t-103 47t-75.5 76t-29 117q0 96 72.5 157.5t195.5 61.5q72 0 140.5 -25.5t105.5 -66.5l-15 -17q-86 89 -235 89q-109 0 -176.5 -58t-67.5 -139q0 -65 29 -110.5t75.5 -71t103 -45l113 -39t103 -45t75.5 -71t29 -110.5
q0 -119 -83.5 -182t-211.5 -63q-79 0 -163.5 35t-116.5 83l18 13q35 -49 111.5 -80t148.5 -31q114 0 195.5 58t81.5 165z" />
    <glyph glyph-name="uni0456" unicode="&#x456;" horiz-adv-x="512" 
d="M246 0v922h20v-922h-20zM231 1296q0 9 8.5 17t18.5 8q9 0 17 -8t8 -17q0 -10 -8 -18t-17 -8q-11 0 -19 8t-8 18z" />
    <glyph glyph-name="uni0457" unicode="&#x457;" horiz-adv-x="512" 
d="M115 1292q0 9 8 17t18 8q9 0 17 -8t8 -17q0 -10 -8 -18t-17 -8q-11 0 -18.5 8t-7.5 18zM348 1292q0 9 8.5 17t18.5 8q9 0 16.5 -8t7.5 -17q0 -10 -7.5 -18t-16.5 -8q-11 0 -19 8t-8 18zM246 0v922h20v-922h-20z" />
    <glyph glyph-name="uni0458" unicode="&#x458;" horiz-adv-x="514" 
d="M268 922v-990q0 -358 -288 -358q-94 0 -164 51l12 19q27 -21 68.5 -35.5t83.5 -14.5q141 0 204.5 84.5t63.5 251.5v992h20zM229 1296q0 9 8.5 17t18.5 8q9 0 17 -8t8 -17q0 -10 -8 -18t-17 -8q-11 0 -19 8t-8 18z" />
    <glyph glyph-name="uni0459" unicode="&#x459;" horiz-adv-x="1517" 
d="M860 0v901h-485l-17 -270q-7 -117 -22.5 -213t-34.5 -160t-43.5 -113t-47 -75.5t-48 -43t-44 -21.5t-36.5 -5v20q13 0 28 4t38.5 19t45 40t45.5 72t42.5 109.5t34 158t22.5 212.5l16 287h527v-359h170q103 0 175.5 -20.5t113 -59.5t58 -88t17.5 -114q0 -132 -85.5 -206.5
t-285.5 -74.5h-184zM1051 543h-170v-523h168q186 0 266 67.5t80 195.5q0 126 -81 193t-263 67z" />
    <glyph glyph-name="uni045A" unicode="&#x45a;" horiz-adv-x="1589" 
d="M184 0v922h21v-400h727v400h20v-400h170q138 0 220 -32.5t113.5 -88t31.5 -141.5q0 -129 -84 -194.5t-287 -65.5h-184v502h-727v-502h-21zM1122 502h-170v-482h168q189 0 267.5 59t78.5 183q0 123 -79.5 181.5t-264.5 58.5z" />
    <glyph glyph-name="uni045B" unicode="&#x45b;" horiz-adv-x="1247" 
d="M0 1055v20h317v359h21v-359h461v-20h-461v-449q59 71 165.5 119.5t209.5 48.5q200 0 295.5 -103t95.5 -319v-352h-21v346q0 208 -90 308t-280 100q-112 0 -220 -55t-155 -121v-578h-21v1055h-317z" />
    <glyph glyph-name="uni045C" unicode="&#x45c;" horiz-adv-x="948" 
d="M854 922l-522 -441l555 -481h-35l-551 481l520 441h33zM184 0v922h21v-922h-21zM676 1434l-223 -289l-17 10l226 291z" />
    <glyph glyph-name="uni045E" unicode="&#x45e;" horiz-adv-x="954" 
d="M913 922l-378 -922q-67 -163 -123 -253.5t-105 -123.5t-112 -33q-59 0 -132 31l9 19q74 -31 118 -31q87 0 157.5 78.5t146.5 263.5l20 49l-473 922h22l383 -750l78 -152l64 156l303 746h22zM242 1413h20q0 -89 63 -147t167 -58q100 0 160.5 58t60.5 147h20
q0 -98 -69 -161.5t-172 -63.5q-113 0 -181.5 63t-68.5 162z" />
    <glyph glyph-name="uni045F" unicode="&#x45f;" horiz-adv-x="1105" 
d="M184 0v922h21v-902h696v902h21v-922h-359v-287h-20v287h-359z" />
    <glyph glyph-name="uni0462" unicode="&#x462;" horiz-adv-x="1271" 
d="M336 1434v-287h364v-21h-364v-309q156 12 276 12q269 0 403 -105t134 -296q0 -214 -144.5 -323t-400.5 -109q-52 0 -150.5 2t-138.5 2v1126h-315v21h315v287h21zM616 809q-155 0 -280 -12v-777q34 0 125 -2t145 -2q254 0 388 106t134 308q0 180 -130 279.5t-382 99.5z
" />
    <glyph glyph-name="uni0463" unicode="&#x463;" horiz-adv-x="995" 
d="M0 901v21h315v512h21v-512h358v-21h-358v-338h192q103 0 176 -20.5t113.5 -59.5t58 -88t17.5 -114q0 -132 -85.5 -206.5t-285.5 -74.5h-207v901h-315zM528 543h-192v-523h190q186 0 266 67.5t80 195.5q0 126 -81 193t-263 67z" />
    <glyph glyph-name="uni0472" unicode="&#x472;" horiz-adv-x="1646" 
d="M123 717q0 205 92 373t252.5 264t355.5 96t355.5 -96t253 -264t92.5 -373t-92.5 -373t-253 -264t-355.5 -96t-355.5 96t-252.5 264t-92 373zM522 809q-99 0 -205.5 -50.5t-171.5 -113.5q16 -182 108.5 -328.5t242 -229.5t327.5 -83q142 0 268 54.5t216.5 149t143 227
t52.5 282.5q0 27 -2 39q-69 -59 -166.5 -101.5t-191.5 -42.5q-73 0 -140 20.5t-120 49t-105.5 57.5t-118.5 49.5t-137 20.5zM143 717v-43q75 65 176.5 110t206.5 45q73 0 140.5 -20t121 -49t106.5 -58t117.5 -49t133.5 -20q95 0 192.5 45.5t161.5 103.5q-14 184 -105.5 332
t-241 232t-329.5 84q-142 0 -268 -54.5t-216.5 -149t-143 -227t-52.5 -282.5z" />
    <glyph glyph-name="uni0473" unicode="&#x473;" horiz-adv-x="1167" 
d="M113 461q0 207 133 342t338 135t338 -135t133 -342t-133 -342t-338 -135t-338 135t-133 342zM356 530q-117 0 -223 -100q11 -188 136 -307t315 -119q196 0 322 127.5t128 327.5q-99 -84 -207 -84q-55 0 -120 24t-116 53.5t-116 53.5t-119 24zM133 461v-2q108 92 227 92
q56 0 121.5 -24.5t116 -53.5t114.5 -53.5t117 -24.5q107 0 205 90q-9 190 -134 311.5t-316 121.5q-198 0 -324.5 -128.5t-126.5 -328.5z" />
    <glyph glyph-name="uni0474" unicode="&#x474;" horiz-adv-x="1339" 
d="M1059 1051l-377 -1067h-6l-635 1450h22l615 -1407l377 1073q45 129 85.5 205t77.5 105t77.5 31t84.5 -16l-8 -18q-38 14 -68 15t-56.5 -15.5t-48 -42t-45.5 -75t-45 -102.5t-50 -136z" />
    <glyph glyph-name="uni0475" unicode="&#x475;" horiz-adv-x="964" 
d="M770 672l-264 -688h-6l-459 938h22l347 -705q28 -56 90 -188q16 34 78 196l178 461q29 77 56 128t50 78t48 35.5t46 5t50 -17.5l-9 -18q-24 15 -45 17t-40 -9.5t-35.5 -29.5t-35.5 -52t-34.5 -67t-36.5 -84z" />
    <glyph glyph-name="uni0490" unicode="&#x490;" horiz-adv-x="1024" 
d="M246 0v1434h758v286h20v-307h-758v-1413h-20z" />
    <glyph glyph-name="uni0491" unicode="&#x491;" horiz-adv-x="696" 
d="M184 0v922h492v245h20v-266h-491v-901h-21z" />
    <glyph glyph-name="uni0492" unicode="&#x492;" horiz-adv-x="1075" 
d="M297 0v680h-277v20h277v734h778v-21h-758v-713h482v-20h-482v-680h-20z" />
    <glyph glyph-name="uni0493" unicode="&#x493;" horiz-adv-x="747" 
d="M236 0v432h-226v21h226v469h512v-21h-492v-448h358v-21h-358v-432h-20z" />
    <glyph glyph-name="uni0494" unicode="&#x494;" horiz-adv-x="1202" 
d="M246 0v1434h778v-21h-758v-688q43 30 73.5 49t81.5 43.5t111 36.5t127 12q196 0 308 -114t112 -351v-350q0 -235 -89.5 -356t-241.5 -121q-47 0 -94.5 18t-67.5 33l12 19q27 -21 68.5 -35.5t83.5 -14.5q144 0 226.5 118t82.5 337v350q0 447 -404 447q-48 0 -93 -7.5
t-76.5 -17t-69 -28.5t-55.5 -29.5t-52 -33t-43 -28.5v-702h-20z" />
    <glyph glyph-name="uni0495" unicode="&#x495;" horiz-adv-x="1032" 
d="M184 0v922h512v-21h-491v-475q61 61 151 102t185 41q180 0 264 -97t84 -288q0 -55 -7.5 -109t-30 -122t-59 -128.5t-99.5 -123.5t-146 -111h-33q354 197 354 594q0 180 -77.5 272.5t-249.5 92.5q-111 0 -202 -49.5t-134 -102.5v-397h-21z" />
    <glyph glyph-name="uni0496" unicode="&#x496;" horiz-adv-x="1884" 
d="M1726 1434l-661 -684l645 -730h174v-307h-20v287h-164l-662 748l660 686h28zM766 748l-662 686h29l660 -686l-682 -748h-29zM905 0v1434h21v-1434h-21z" />
    <glyph glyph-name="uni0497" unicode="&#x497;" horiz-adv-x="1310" 
d="M1182 922l-410 -441l395 -461h144v-266h-21v246h-133l-414 481l410 441h29zM492 481l-412 441h29l409 -441l-428 -481h-29zM621 0v922h20v-922h-20z" />
    <glyph glyph-name="uni0498" unicode="&#x498;" horiz-adv-x="1157" 
d="M528 -16q-116 0 -243.5 54.5t-182.5 137.5l15 10q72 -85 189.5 -133.5t215.5 -48.5q210 0 330.5 108t120.5 289q0 148 -93 235t-247 87h-199v20h184q113 0 206.5 105t93.5 250q0 160 -102 246t-261 86q-132 0 -226 -44t-173 -126l-15 8q73 88 179 135t227 47
q181 0 286 -95t105 -263q0 -110 -62.5 -210t-170.5 -141v-6q129 -9 208.5 -107t79.5 -227q0 -186 -119 -296t-313 -119v-314h-20v312h-13z" />
    <glyph glyph-name="uni0499" unicode="&#x499;" horiz-adv-x="925" 
d="M436 -16q-84 0 -187.5 34t-146.5 86l13 19q54 -56 147 -87.5t170 -31.5q159 0 254.5 68t95.5 184q0 96 -70.5 150.5t-191.5 54.5h-155v20h145q92 0 161.5 66.5t69.5 161.5q0 99 -78 154t-212 55q-179 0 -306 -113l-12 14q56 58 140.5 88.5t179.5 30.5q150 0 229.5 -61
t79.5 -172q0 -73 -42.5 -134t-131.5 -94v-4q100 -6 157.5 -69.5t57.5 -147.5q0 -120 -91 -191t-241 -79v-273h-20v271h-15z" />
    <glyph glyph-name="uni049A" unicode="&#x49a;" horiz-adv-x="1308" 
d="M1153 1434l-739 -686l721 -728h174v-307h-21v287h-164l-741 748l741 686h29zM246 0v1434h20v-1434h-20z" />
    <glyph glyph-name="uni049B" unicode="&#x49b;" horiz-adv-x="985" 
d="M854 922l-522 -441l512 -461h141v-266h-20v246h-134l-530 481l520 441h33zM184 0v922h21v-922h-21z" />
    <glyph glyph-name="uni049C" unicode="&#x49c;" horiz-adv-x="1277" 
d="M1174 1434l-740 -686l762 -748h-31l-733 719v-350h-20v737h20v-332l713 660h29zM246 0v1434h20v-1434h-20z" />
    <glyph glyph-name="uni049D" unicode="&#x49d;" horiz-adv-x="964" 
d="M870 922l-522 -441l555 -481h-35l-522 457v-273h-20v553h20v-231l492 416h32zM184 0v922h21v-922h-21z" />
    <glyph glyph-name="uni04A0" unicode="&#x4a0;" horiz-adv-x="1462" 
d="M451 0v1413h-451v21h471v-1434h-20zM1358 1434l-740 -686l762 -748h-30l-762 748l741 686h29z" />
    <glyph glyph-name="uni04A1" unicode="&#x4a1;" horiz-adv-x="1120" 
d="M1026 922l-522 -441l555 -481h-35l-551 481l520 441h33zM356 0v901h-356v21h377v-922h-21z" />
    <glyph glyph-name="uni04A2" unicode="&#x4a2;" horiz-adv-x="1617" 
d="M1321 0v721h-1055v-721h-20v1434h20v-693h1055v693h20v-1414h195v-307h-20v287h-195z" />
    <glyph glyph-name="uni04A3" unicode="&#x4a3;" horiz-adv-x="1146" 
d="M932 0v461h-727v-461h-21v922h21v-441h727v441h20v-902h154v-266h-21v246h-153z" />
    <glyph glyph-name="uni04A4" unicode="&#x4a4;" horiz-adv-x="2068" 
d="M1311 0v721h-1045v-721h-20v1434h20v-693h1045v693h757v-21h-737v-1413h-20z" />
    <glyph glyph-name="uni04A5" unicode="&#x4a5;" horiz-adv-x="1423" 
d="M922 0v461h-717v-461h-21v922h21v-441h717v441h501v-21h-481v-901h-20z" />
    <glyph glyph-name="uni04AA" unicode="&#x4aa;" horiz-adv-x="1345" 
d="M1251 154l13 -17q-76 -72 -192 -111.5t-238 -41.5v-312h-21v312q-310 5 -500 204.5t-190 528.5q0 205 85 372t241.5 264t355.5 97q268 0 432 -129l-14 -14q-152 123 -416 123q-196 0 -348.5 -95.5t-234 -257.5t-81.5 -360q0 -212 86.5 -374.5t242 -250.5t355.5 -88
q126 0 235 40.5t189 109.5z" />
    <glyph glyph-name="uni04AB" unicode="&#x4ab;" horiz-adv-x="1007" 
d="M913 141l13 -12q-57 -68 -145.5 -105.5t-182.5 -39.5v-271h-20v271q-205 5 -335 135t-130 342q0 132 59 241.5t161.5 172.5t225.5 63q228 0 348 -109l-12 -18q-121 107 -332 107q-178 0 -304 -132.5t-126 -324.5q0 -208 128.5 -332.5t330.5 -124.5q96 0 181.5 37.5
t139.5 99.5z" />
    <glyph glyph-name="uni04AE" unicode="&#x4ae;" horiz-adv-x="1134" 
d="M1094 1434l-519 -789v-645h-20v645l-514 789h27l497 -768l502 768h27z" />
    <glyph glyph-name="uni04AF" unicode="&#x4af;" horiz-adv-x="954" 
d="M913 922l-419 -922v-410h-21v410l-432 922h22l328 -705l92 -197l92 205l316 697h22z" />
    <glyph glyph-name="uni04B0" unicode="&#x4b0;" horiz-adv-x="1134" 
d="M1094 1434l-512 -779h409v-20h-416v-635h-20v635h-412v20h404l-506 779h27l497 -768l502 768h27z" />
    <glyph glyph-name="uni04B1" unicode="&#x4b1;" horiz-adv-x="954" 
d="M770 20v-20h-276v-410h-21v410h-289v20h279l-422 902h22l328 -705l92 -197l92 205l316 697h22l-411 -902h268z" />
    <glyph glyph-name="uni04B2" unicode="&#x4b2;" horiz-adv-x="1425" 
d="M1239 1434l-555 -705l557 -709h184v-307h-20v287h-174l-561 713l-561 -713h-27l575 729l-553 705h27l539 -686l542 686h27z" />
    <glyph glyph-name="uni04B3" unicode="&#x4b3;" horiz-adv-x="1021" 
d="M874 922l-372 -449l377 -455v2h143v-266h-21v246h-133l-381 457l-378 -457h-27l393 473l-373 449h27l358 -433l361 433h26z" />
    <glyph glyph-name="uni04B6" unicode="&#x4b6;" horiz-adv-x="1290" 
d="M1014 1434v-1414h194v-307h-20v287h-195v705q-80 -54 -201.5 -96t-248.5 -42q-193 0 -306.5 114.5t-113.5 344.5v408h20v-414q0 -210 108 -321t296 -111q220 0 446 139v707h21z" />
    <glyph glyph-name="uni04B7" unicode="&#x4b7;" horiz-adv-x="962" 
d="M768 922v-902h154v-266h-21v246h-153v436q-53 -41 -134 -67.5t-174 -26.5q-317 0 -317 336v244h20v-250q0 -156 77 -233t224 -77q179 0 304 97v463h20z" />
    <glyph glyph-name="uni04B8" unicode="&#x4b8;" horiz-adv-x="1259" 
d="M1014 1434v-1434h-21v705q-68 -46 -176 -80.5t-227 -40.5v-332h-21v332h-16q-98 0 -175 24.5t-135 76.5t-89 138t-31 203v408h20v-414q0 -208 109 -312t305 -104h12v385h21v-385q217 7 403 123v707h21z" />
    <glyph glyph-name="uni04B9" unicode="&#x4b9;" horiz-adv-x="952" 
d="M768 922v-922h-20v436q-46 -37 -119.5 -62.5t-155.5 -29.5v-242h-20v242h-13q-317 0 -317 334v244h20v-250q0 -155 78 -231t223 -76h9v290h20v-290q88 4 159.5 31.5t115.5 62.5v463h20z" />
    <glyph glyph-name="uni04BA" unicode="&#x4ba;" horiz-adv-x="1259" 
d="M266 723q75 55 194.5 99t250.5 44q194 0 310 -114t116 -344v-408h-21v414q0 209 -110 320.5t-299 111.5q-213 0 -441 -144v-702h-20v1434h20v-711z" />
    <glyph glyph-name="uni04BB" unicode="&#x4bb;" horiz-adv-x="1134" 
d="M184 0v1434h21v-664q59 71 165.5 119.5t209.5 48.5q200 0 295.5 -103t95.5 -319v-516h-21v510q0 208 -90 308t-280 100q-112 0 -220 -55.5t-155 -121.5v-741h-21z" />
    <glyph glyph-name="uni04C0" unicode="&#x4c0;" horiz-adv-x="634" 
d="M307 0v1434h21v-1434h-21z" />
    <glyph glyph-name="uni04CB" unicode="&#x4cb;" horiz-adv-x="1259" 
d="M1014 1434v-1434h-195v-287h-20v307h194v685q-80 -54 -201.5 -96t-248.5 -42q-193 0 -306.5 114.5t-113.5 344.5v408h20v-414q0 -210 108 -321t296 -111q220 0 446 139v707h21z" />
    <glyph glyph-name="uni04CC" unicode="&#x4cc;" horiz-adv-x="952" 
d="M768 922v-922h-154v-246h-20v266h154v416q-53 -41 -134 -67.5t-174 -26.5q-317 0 -317 336v244h20v-250q0 -156 77 -233t224 -77q179 0 304 97v463h20z" />
    <glyph glyph-name="uni04CF" unicode="&#x4cf;" horiz-adv-x="634" 
d="M307 0v1434h21v-1434h-21z" />
    <glyph glyph-name="uni04D0" unicode="&#x4d0;" horiz-adv-x="1402" 
d="M61 0l637 1450h7l636 -1450h-22l-250 567h-737l-248 -567h-23zM700 1409l-360 -821h721zM373 1720h20q50 -72 131 -118t181 -46t186.5 48t116.5 116h20q-29 -78 -123.5 -131t-199.5 -53q-111 0 -201.5 52.5t-130.5 131.5z" />
    <glyph glyph-name="uni04D1" unicode="&#x4d1;" horiz-adv-x="933" 
d="M182 838l-10 16q136 84 274 84q176 0 250 -90.5t74 -269.5v-578h-20v174q-130 -182 -361 -182q-130 0 -208.5 70t-78.5 186q0 132 98 204t253 72q184 0 297 -82q0 88 -2 136.5t-11 113t-28.5 98t-52.5 67.5t-86.5 47.5t-127.5 13.5t-131 -18.5t-129 -61.5zM387 12
q73 0 133 17.5t103.5 49t71 60.5t55.5 68v209q-125 88 -301 88q-61 0 -117.5 -15t-104 -44.5t-76 -80t-28.5 -114.5q0 -111 75 -174.5t189 -63.5zM221 1413h21q0 -89 62.5 -147t166.5 -58q100 0 160.5 58t60.5 147h21q0 -98 -69.5 -161.5t-172.5 -63.5q-113 0 -181.5 63
t-68.5 162z" />
    <glyph glyph-name="uni04D2" unicode="&#x4d2;" horiz-adv-x="1402" 
d="M61 0l637 1450h7l636 -1450h-22l-250 567h-737l-248 -567h-23zM700 1409l-360 -821h721zM436 1618q0 10 8 17t19 7q9 0 16.5 -7t7.5 -17q0 -12 -7.5 -19.5t-16.5 -7.5q-11 0 -19 7.5t-8 19.5zM915 1618q0 10 8 17t19 7q10 0 17.5 -6.5t7.5 -17.5q0 -12 -7.5 -19.5
t-17.5 -7.5q-11 0 -19 7.5t-8 19.5z" />
    <glyph glyph-name="uni04D3" unicode="&#x4d3;" horiz-adv-x="933" 
d="M182 838l-10 16q136 84 274 84q176 0 250 -90.5t74 -269.5v-578h-20v174q-130 -182 -361 -182q-130 0 -208.5 70t-78.5 186q0 132 98 204t253 72q184 0 297 -82q0 88 -2 136.5t-11 113t-28.5 98t-52.5 67.5t-86.5 47.5t-127.5 13.5t-131 -18.5t-129 -61.5zM387 12
q73 0 133 17.5t103.5 49t71 60.5t55.5 68v209q-125 88 -301 88q-61 0 -117.5 -15t-104 -44.5t-76 -80t-28.5 -114.5q0 -111 75 -174.5t189 -63.5zM211 1251q0 9 8.5 17t18.5 8q9 0 16.5 -8t7.5 -17q0 -10 -7.5 -18t-16.5 -8q-11 0 -19 8t-8 18zM649 1251q0 9 8.5 17t18.5 8
q9 0 16.5 -8t7.5 -17q0 -10 -7.5 -18t-16.5 -8q-11 0 -19 8t-8 18z" />
    <glyph glyph-name="uni04D4" unicode="&#x4d4;" horiz-adv-x="1978" 
d="M1835 0h-788v584h-586l-414 -584h-27l1027 1434h768v-21h-748v-672h686v-20h-686v-701h768v-20zM1047 1405l-572 -801h572v801z" />
    <glyph glyph-name="uni04D5" unicode="&#x4d5;" horiz-adv-x="1656" 
d="M446 938q131 0 205 -52t101 -153q118 205 385 205q180 0 293.5 -112.5t113.5 -297.5q0 -8 -1 -23.5t-1 -23.5h-772v-268q57 -100 159 -154.5t236 -54.5q96 0 182 37.5t140 99.5l12 -12q-57 -70 -147.5 -107.5t-186.5 -37.5q-132 0 -237 52.5t-168 149.5
q-67 -92 -155 -143t-216 -51q-130 0 -208.5 70t-78.5 186q0 132 98 204t253 72q145 0 297 -20q13 212 -55 313t-253 101q-74 0 -131 -18.5t-129 -61.5l-10 16q136 84 274 84zM770 578v-76h754q3 191 -106 303.5t-290 112.5q-131 0 -225 -56t-145 -155q12 -59 12 -129z
M387 12q73 0 133 17.5t103.5 49t71 60.5t55.5 68v274q-174 23 -301 23q-61 0 -117.5 -15t-104 -44.5t-76 -80t-28.5 -114.5q0 -111 75 -174.5t189 -63.5z" />
    <glyph glyph-name="uni04D6" unicode="&#x4d6;" horiz-adv-x="1177" 
d="M246 0v1434h768v-21h-748v-672h686v-20h-686v-701h768v-20h-788zM305 1720h21q50 -72 130.5 -118t180.5 -46t186.5 48t116.5 116h21q-29 -78 -124 -131t-200 -53q-111 0 -201.5 52.5t-130.5 131.5z" />
    <glyph glyph-name="uni04D7" unicode="&#x4d7;" horiz-adv-x="1083" 
d="M913 141l13 -12q-57 -70 -147.5 -107.5t-186.5 -37.5q-210 0 -344.5 131t-134.5 346q0 102 28 188t82.5 151t141.5 101.5t198 36.5q180 0 294 -113t114 -297q0 -8 -1 -23.5t-1 -23.5h-836q0 -220 124 -348.5t335 -128.5q96 0 181.5 37.5t139.5 99.5zM555 918
q-190 0 -300.5 -115.5t-121.5 -300.5h817q3 191 -105.5 303.5t-289.5 112.5zM315 1413h21q0 -89 62.5 -147t166.5 -58q100 0 160.5 58t60.5 147h21q0 -98 -69.5 -161.5t-172.5 -63.5q-113 0 -181.5 63t-68.5 162z" />
    <glyph glyph-name="uni04D8" unicode="&#x4d8;" horiz-adv-x="1589" 
d="M102 741h1344q-6 316 -193.5 502.5t-500.5 186.5q-252 0 -414 -127l-12 14q78 68 192.5 100.5t233.5 32.5q329 0 521.5 -195.5t192.5 -529.5q0 -154 -47.5 -289.5t-133.5 -235.5t-215.5 -158t-285.5 -58q-155 0 -284 58.5t-215.5 160.5t-134 240.5t-48.5 297.5zM782 4
q154 0 280 56.5t209 154t128.5 227.5t46.5 279h-1323q2 -149 49.5 -280t131.5 -228t207.5 -153t270.5 -56z" />
    <glyph glyph-name="uni04D9" unicode="&#x4d9;" horiz-adv-x="1083" 
d="M170 780l-12 13q56 69 156 107t198 38q208 0 333.5 -129.5t125.5 -347.5q0 -102 -28 -188t-81.5 -151t-137 -101.5t-189.5 -36.5q-190 0 -306 112t-116 297q0 8 1 34t1 34h835q0 127 -50 229.5t-151 165t-237 62.5q-98 0 -193.5 -39t-148.5 -99zM541 4q185 0 297 123
t112 313h-817q-7 -208 104 -322t304 -114z" />
    <glyph glyph-name="uni04DC" unicode="&#x4dc;" horiz-adv-x="1830" 
d="M1726 1434l-661 -684l684 -750h-29l-682 748l660 686h28zM905 0v1434h21v-1434h-21zM766 748l-662 686h29l660 -686l-682 -748h-29zM651 1618q0 10 8 17t19 7q9 0 16.5 -7t7.5 -17q0 -12 -7.5 -19.5t-16.5 -7.5q-11 0 -19 7.5t-8 19.5zM1130 1618q0 10 8 17t19 7
q10 0 17.5 -6.5t7.5 -17.5q0 -12 -8 -19.5t-17 -7.5q-11 0 -19 7.5t-8 19.5z" />
    <glyph glyph-name="uni04DD" unicode="&#x4dd;" horiz-adv-x="1267" 
d="M1182 922l-410 -441l434 -481h-28l-435 481l410 441h29zM621 0v922h20v-922h-20zM492 481l-412 441h29l409 -441l-428 -481h-29zM389 1251q0 9 8.5 17t18.5 8q9 0 16.5 -8t7.5 -17q0 -10 -7.5 -18t-16.5 -8q-11 0 -19 8t-8 18zM827 1251q0 9 8.5 17t18.5 8q9 0 17 -8
t8 -17q0 -10 -8 -18t-17 -8q-11 0 -19 8t-8 18z" />
    <glyph glyph-name="uni04DE" unicode="&#x4de;" horiz-adv-x="1157" 
d="M528 -16q-116 0 -243.5 54.5t-182.5 137.5l15 10q72 -85 189.5 -133.5t215.5 -48.5q210 0 330.5 108t120.5 289q0 148 -93 235t-247 87h-199v20h184q113 0 206.5 105t93.5 250q0 160 -102 246t-261 86q-132 0 -226 -44t-173 -126l-15 8q73 88 179 135t227 47
q181 0 286 -95t105 -263q0 -110 -62.5 -210t-170.5 -141v-6q129 -9 208.5 -107t79.5 -227q0 -194 -129.5 -305.5t-335.5 -111.5zM279 1618q0 10 7.5 17t18.5 7q9 0 17 -7t8 -17q0 -12 -8 -19.5t-17 -7.5q-11 0 -18.5 7.5t-7.5 19.5zM758 1618q0 10 7.5 17t18.5 7
q10 0 17.5 -6.5t7.5 -17.5q0 -12 -7.5 -19.5t-17.5 -7.5q-11 0 -18.5 7.5t-7.5 19.5z" />
    <glyph glyph-name="uni04DF" unicode="&#x4df;" horiz-adv-x="925" 
d="M436 -16q-84 0 -187.5 34t-146.5 86l13 19q54 -56 147 -87.5t170 -31.5q159 0 254.5 68t95.5 184q0 96 -70.5 150.5t-191.5 54.5h-155v20h145q92 0 161.5 66.5t69.5 161.5q0 99 -78 154t-212 55q-179 0 -306 -113l-12 14q56 58 140.5 88.5t179.5 30.5q150 0 229.5 -61
t79.5 -172q0 -73 -42.5 -134t-131.5 -94v-4q100 -6 157.5 -69.5t57.5 -147.5q0 -127 -102 -199.5t-265 -72.5zM193 1251q0 9 8 17t18 8q9 0 17 -8t8 -17q0 -10 -8 -18t-17 -8q-11 0 -18.5 7.5t-7.5 18.5zM631 1251q0 9 8 17t18 8q9 0 17 -8t8 -17q0 -10 -8 -18t-17 -8
q-11 0 -18.5 7.5t-7.5 18.5z" />
    <glyph glyph-name="uni04E2" unicode="&#x4e2;" horiz-adv-x="1638" 
d="M266 0h-20v1434h20v-1403l1106 1403h21v-1434h-21v1403zM518 1618v20h602v-20h-602z" />
    <glyph glyph-name="uni04E3" unicode="&#x4e3;" horiz-adv-x="1157" 
d="M209 0h-21v922h21v-891l737 891h21v-922h-21v891zM338 1311v20h479v-20h-479z" />
    <glyph glyph-name="uni04E4" unicode="&#x4e4;" horiz-adv-x="1638" 
d="M266 0h-20v1434h20v-1403l1106 1403h21v-1434h-21v1403zM555 1618q0 10 8 17t19 7q9 0 16.5 -7t7.5 -17q0 -12 -7.5 -19.5t-16.5 -7.5q-11 0 -19 7.5t-8 19.5zM1034 1618q0 10 8 17t19 7q10 0 17 -6.5t7 -17.5q0 -12 -7.5 -19.5t-16.5 -7.5q-11 0 -19 7.5t-8 19.5z" />
    <glyph glyph-name="uni04E5" unicode="&#x4e5;" horiz-adv-x="1146" 
d="M205 0h-21v922h21v-891l737 891h21v-922h-21v891zM330 1251q0 9 8 17t18 8q9 0 17 -8t8 -17q0 -10 -8 -18t-17 -8q-10 0 -18 7.5t-8 18.5zM768 1251q0 9 8.5 17t18.5 8q9 0 16.5 -8t7.5 -17q0 -10 -7.5 -18t-16.5 -8q-11 0 -19 8t-8 18z" />
    <glyph glyph-name="uni04E6" unicode="&#x4e6;" horiz-adv-x="1646" 
d="M123 717q0 205 92 373t252.5 264t355.5 96t355.5 -96t253 -264t92.5 -373t-92.5 -373t-253 -264t-355.5 -96t-355.5 96t-252.5 264t-92 373zM143 717q0 -150 52.5 -282.5t143 -227t216.5 -149t268 -54.5t268 54.5t216.5 149t143 227t52.5 282.5t-52.5 282.5t-143 227
t-216.5 149t-268 54.5t-268 -54.5t-216.5 -149t-143 -227t-52.5 -282.5zM559 1618q0 10 8 17t19 7q9 0 16.5 -7t7.5 -17q0 -12 -7.5 -19.5t-16.5 -7.5q-11 0 -19 7.5t-8 19.5zM1038 1618q0 10 8 17t19 7q10 0 17.5 -6.5t7.5 -17.5q0 -12 -8 -19.5t-17 -7.5q-11 0 -19 7.5
t-8 19.5z" />
    <glyph glyph-name="uni04E7" unicode="&#x4e7;" horiz-adv-x="1167" 
d="M113 461q0 207 133 342t338 135t338 -135t133 -342t-133 -342t-338 -135t-338 135t-133 342zM133 461q0 -200 126.5 -328.5t324.5 -128.5t324 128.5t126 328.5t-126 328.5t-324 128.5t-324.5 -128.5t-126.5 -328.5zM340 1251q0 9 8.5 17t18.5 8q9 0 16.5 -8t7.5 -17
q0 -10 -7.5 -18t-16.5 -8q-11 0 -19 8t-8 18zM778 1251q0 9 8.5 17t18.5 8q9 0 16.5 -8t7.5 -17q0 -10 -7.5 -18t-16.5 -8q-11 0 -19 8t-8 18z" />
    <glyph glyph-name="uni04E8" unicode="&#x4e8;" horiz-adv-x="1646" 
d="M123 717q0 205 92 373t252.5 264t355.5 96t355.5 -96t253 -264t92.5 -373t-92.5 -373t-253 -264t-355.5 -96t-355.5 96t-252.5 264t-92 373zM823 1430q-142 0 -268 -54.5t-216 -148.5t-142.5 -225.5t-53.5 -280.5h1360q-1 198 -90.5 361t-245 255.5t-344.5 92.5zM823 4
q140 0 264.5 53.5t214 145.5t143 221t56.5 276h-1358q3 -147 56.5 -276t143.5 -221t214.5 -145.5t265.5 -53.5z" />
    <glyph glyph-name="uni04E9" unicode="&#x4e9;" horiz-adv-x="1167" 
d="M113 461q0 207 133 342t338 135t338 -135t133 -342t-133 -342t-338 -135t-338 135t-133 342zM584 918q-196 0 -322 -125.5t-129 -321.5h901q-5 196 -130.5 321.5t-319.5 125.5zM584 4q195 0 320 125t130 322h-901q3 -197 129 -322t322 -125z" />
    <glyph glyph-name="uni04EE" unicode="&#x4ee;" horiz-adv-x="1292" 
d="M1251 1434l-508 -1119q-76 -169 -141.5 -242t-150.5 -73t-134 39l9 18q56 -39 123 -39q76 0 133.5 62.5t109.5 171.5l31 63l-682 1119h22l670 -1098l496 1098h22zM360 1618v20h603v-20h-603z" />
    <glyph glyph-name="uni04EF" unicode="&#x4ef;" horiz-adv-x="954" 
d="M913 922l-378 -922q-67 -163 -123 -253.5t-105 -123.5t-112 -33q-59 0 -132 31l9 19q74 -31 118 -31q87 0 157.5 78.5t146.5 263.5l20 49l-473 922h22l383 -750l78 -152l64 156l303 746h22zM250 1311v20h479v-20h-479z" />
    <glyph glyph-name="uni04F0" unicode="&#x4f0;" horiz-adv-x="1292" 
d="M1251 1434l-508 -1119q-76 -169 -141.5 -242t-150.5 -73t-134 39l9 18q56 -39 123 -39q76 0 133.5 62.5t109.5 171.5l31 63l-682 1119h22l670 -1098l496 1098h22zM393 1618q0 10 8 17t19 7q9 0 16.5 -7t7.5 -17q0 -12 -7.5 -19.5t-16.5 -7.5q-11 0 -19 7.5t-8 19.5z
M872 1618q0 10 8 17t19 7q10 0 17.5 -6.5t7.5 -17.5q0 -12 -8 -19.5t-17 -7.5q-11 0 -19 7.5t-8 19.5z" />
    <glyph glyph-name="uni04F1" unicode="&#x4f1;" horiz-adv-x="954" 
d="M913 922l-378 -922q-67 -163 -123 -253.5t-105 -123.5t-112 -33q-59 0 -132 31l9 19q74 -31 118 -31q87 0 157.5 78.5t146.5 263.5l20 49l-473 922h22l383 -750l78 -152l64 156l303 746h22zM242 1251q0 9 8 17t18 8q9 0 17 -8t8 -17q0 -10 -8 -18t-17 -8q-10 0 -18 7.5
t-8 18.5zM680 1251q0 9 8.5 17t18.5 8q9 0 16.5 -8t7.5 -17q0 -10 -7.5 -18t-16.5 -8q-11 0 -19 8t-8 18z" />
    <glyph glyph-name="uni04F2" unicode="&#x4f2;" horiz-adv-x="1292" 
d="M1251 1434l-508 -1119q-76 -169 -141.5 -242t-150.5 -73t-134 39l9 18q56 -39 123 -39q76 0 133.5 62.5t109.5 171.5l31 63l-682 1119h22l670 -1098l496 1098h22zM1077 1704l-315 -184l-10 14l317 186zM729 1704l-315 -184l-11 14l318 186z" />
    <glyph glyph-name="uni04F3" unicode="&#x4f3;" horiz-adv-x="954" 
d="M913 922l-378 -922q-67 -163 -123 -253.5t-105 -123.5t-112 -33q-59 0 -132 31l9 19q74 -31 118 -31q87 0 157.5 78.5t146.5 263.5l20 49l-473 922h22l383 -750l78 -152l64 156l303 746h22zM834 1434l-224 -289l-16 10l225 291zM547 1434l-223 -289l-17 10l225 291z" />
    <glyph glyph-name="uni04F4" unicode="&#x4f4;" horiz-adv-x="1259" 
d="M1014 1434v-1434h-21v705q-80 -54 -201.5 -96t-248.5 -42q-193 0 -306.5 114.5t-113.5 344.5v408h20v-414q0 -210 108 -321t296 -111q220 0 446 139v707h21zM309 1618q0 10 8 17t19 7q9 0 16.5 -7t7.5 -17q0 -12 -7.5 -19.5t-16.5 -7.5q-11 0 -19 7.5t-8 19.5zM788 1618
q0 10 8 17t19 7q10 0 17.5 -6.5t7.5 -17.5q0 -12 -8 -19.5t-17 -7.5q-11 0 -19 7.5t-8 19.5z" />
    <glyph glyph-name="uni04F5" unicode="&#x4f5;" horiz-adv-x="952" 
d="M768 922v-922h-20v436q-53 -41 -134 -67.5t-174 -26.5q-317 0 -317 336v244h20v-250q0 -156 77 -233t224 -77q179 0 304 97v463h20zM211 1251q0 9 8.5 17t18.5 8q9 0 16.5 -8t7.5 -17q0 -10 -7.5 -18t-16.5 -8q-11 0 -19 8t-8 18zM649 1251q0 9 8.5 17t18.5 8
q9 0 16.5 -8t7.5 -17q0 -10 -7.5 -18t-16.5 -8q-11 0 -19 8t-8 18z" />
    <glyph glyph-name="uni04F6" unicode="&#x4f6;" horiz-adv-x="1024" 
d="M246 0v1434h778v-21h-758v-1393h195v-307h-21v287h-194z" />
    <glyph glyph-name="uni04F7" unicode="&#x4f7;" horiz-adv-x="696" 
d="M184 0v922h512v-21h-491v-881h153v-266h-20v246h-154z" />
    <glyph glyph-name="uni04F8" unicode="&#x4f8;" horiz-adv-x="1648" 
d="M1382 0v1434h21v-1434h-21zM526 809q-135 0 -260 -12v-777q34 0 115 -2t135 -2q254 0 388 106t134 308q0 180 -130 279.5t-382 99.5zM266 1434v-617q156 12 256 12q269 0 403 -105t134 -296q0 -214 -144.5 -323t-400.5 -109q-52 0 -140 2t-128 2v1434h20zM559 1618
q0 10 8 17t19 7q9 0 16.5 -7t7.5 -17q0 -12 -7.5 -19.5t-16.5 -7.5q-11 0 -19 7.5t-8 19.5zM1038 1618q0 10 8 17t19 7q10 0 17.5 -6.5t7.5 -17.5q0 -12 -8 -19.5t-17 -7.5q-11 0 -19 7.5t-8 19.5z" />
    <glyph glyph-name="uni04F9" unicode="&#x4f9;" horiz-adv-x="1208" 
d="M184 0v922h21v-359h172q103 0 175.5 -20.5t113 -59.5t58 -88t17.5 -114q0 -64 -18.5 -113t-60 -88t-115 -59.5t-176.5 -20.5h-187zM377 543h-172v-523h170q186 0 266 67.5t80 195.5q0 126 -81 193t-263 67zM1004 0v922h20v-922h-20zM360 1251q0 9 8.5 17t18.5 8
q9 0 17 -8t8 -17q0 -10 -8 -18t-17 -8q-11 0 -19 8t-8 18zM799 1251q0 9 8 17t18 8q9 0 17 -8t8 -17q0 -10 -8 -18t-17 -8q-11 0 -18.5 7.5t-7.5 18.5z" />
    <glyph glyph-name="uni1E9E" unicode="&#x1e9e;" horiz-adv-x="1196" 
d="M1053 309q0 67 -26.5 135t-66 124.5t-105.5 122.5t-124 114.5t-143 114.5l284 432q-116 78 -256 78q-155 0 -252.5 -94.5t-97.5 -282.5v-1061h-20v1079q0 184 104 281.5t266 97.5q87 0 152.5 -22t134.5 -70l-289 -434q80 -61 137 -108t122 -112.5t105.5 -123.5
t67.5 -128.5t27 -140.5q0 -143 -95 -235t-220 -92q-95 0 -155.5 29.5t-125.5 88.5l19 13q35 -29 51 -41t50.5 -32.5t73 -29t85.5 -8.5q71 0 138 35.5t113 107t46 162.5z" />
    <glyph glyph-name="uni2010" unicode="&#x2010;" horiz-adv-x="847" 
d="M205 543v20h438v-20h-438z" />
    <glyph glyph-name="uni2011" unicode="&#x2011;" horiz-adv-x="847" 
d="M205 543v20h438v-20h-438z" />
    <glyph glyph-name="figuredash" unicode="&#x2012;" horiz-adv-x="1196" 
d="M205 715v20h786v-20h-786z" />
    <glyph glyph-name="endash" unicode="&#x2013;" horiz-adv-x="1196" 
d="M205 543v20h786v-20h-786z" />
    <glyph glyph-name="emdash" unicode="&#x2014;" horiz-adv-x="1605" 
d="M205 543v20h1196v-20h-1196z" />
    <glyph glyph-name="uni2015" unicode="&#x2015;" horiz-adv-x="1605" 
d="M205 543v20h1196v-20h-1196z" />
    <glyph glyph-name="quoteleft" unicode="&#x2018;" horiz-adv-x="483" 
d="M264 1137l-16 -17q-43 49 -43 121q0 81 29 132.5t90 82.5l6 -16q-51 -26 -78 -77t-27 -118q0 -69 39 -108z" />
    <glyph glyph-name="quoteright" unicode="&#x2019;" horiz-adv-x="483" 
d="M219 1440l17 16q43 -49 43 -121q0 -81 -29 -132.5t-90 -82.5l-6 17q104 54 104 194q0 70 -39 109z" />
    <glyph glyph-name="quotesinglbase" unicode="&#x201a;" horiz-adv-x="483" 
d="M219 78l17 16q43 -49 43 -121q0 -81 -29 -132.5t-90 -82.5l-6 17q104 54 104 194q0 70 -39 109z" />
    <glyph glyph-name="quotedblleft" unicode="&#x201c;" horiz-adv-x="708" 
d="M489 1137l-16 -17q-43 49 -43 121q0 81 29 132.5t90 82.5l6 -16q-50 -26 -77 -77t-27 -118q0 -70 38 -108zM264 1137l-16 -17q-43 49 -43 121q0 81 29 132.5t90 82.5l6 -16q-51 -26 -78 -77t-27 -118q0 -69 39 -108z" />
    <glyph glyph-name="quotedblright" unicode="&#x201d;" horiz-adv-x="708" 
d="M444 1440l17 16q43 -49 43 -121q0 -81 -29 -132.5t-90 -82.5l-6 17q104 54 104 194q0 70 -39 109zM219 1440l17 16q43 -49 43 -121q0 -81 -29 -132.5t-90 -82.5l-6 17q104 54 104 194q0 70 -39 109z" />
    <glyph glyph-name="quotedblbase" unicode="&#x201e;" horiz-adv-x="708" 
d="M444 78l17 16q43 -49 43 -121q0 -81 -29 -132.5t-90 -82.5l-6 17q104 54 104 194q0 70 -39 109zM219 78l17 16q43 -49 43 -121q0 -81 -29 -132.5t-90 -82.5l-6 17q104 54 104 194q0 70 -39 109z" />
    <glyph glyph-name="dagger" unicode="&#x2020;" horiz-adv-x="806" 
d="M82 901v21h311v512h21v-512h311v-21h-311v-1106h-21v1106h-311z" />
    <glyph glyph-name="daggerdbl" unicode="&#x2021;" horiz-adv-x="806" 
d="M82 901v21h311v512h21v-512h311v-21h-311v-512h311v-20h-311v-574h-21v574h-311v20h311v512h-311z" />
    <glyph glyph-name="bullet" unicode="&#x2022;" horiz-adv-x="245" 
d="M82 532q0 17 12 29t29 12t29 -12t12 -29t-12 -28.5t-29 -11.5t-29 11.5t-12 28.5z" />
    <glyph glyph-name="ellipsis" unicode="&#x2026;" horiz-adv-x="1689" 
d="M1434 27q0 9 8 16.5t18 7.5q9 0 17 -7.5t8 -16.5q0 -10 -8 -18.5t-17 -8.5q-10 0 -18 8t-8 19zM819 27q0 9 8.5 16.5t18.5 7.5q9 0 16.5 -7.5t7.5 -16.5q0 -10 -7.5 -18.5t-16.5 -8.5q-10 0 -18.5 8t-8.5 19zM205 27q0 9 8 16.5t18 7.5q9 0 17 -7.5t8 -16.5
q0 -10 -8 -18.5t-17 -8.5q-10 0 -18 8t-8 19z" />
    <glyph glyph-name="perthousand" unicode="&#x2030;" horiz-adv-x="2476" 
d="M1718 311q0 134 92 223t226 89t225.5 -89t91.5 -223t-91.5 -222.5t-225.5 -88.5q-135 0 -226.5 88.5t-91.5 222.5zM1739 311q0 -126 90 -208.5t207 -82.5q121 0 209 82t88 209t-88.5 209t-208.5 82t-208.5 -82t-88.5 -209zM285 -2l1087 1452l17 -10l-1088 -1456z
M123 1122q0 134 91.5 223t225.5 89t226 -89t92 -223t-91.5 -222.5t-226.5 -88.5q-134 0 -225.5 88.5t-91.5 222.5zM143 1122q0 -126 90 -208.5t207 -82.5q121 0 209 82t88 209t-88.5 209t-208.5 82t-208.5 -82t-88.5 -209zM899 311q0 134 92 223t226 89t225.5 -89t91.5 -223
t-91.5 -222.5t-225.5 -88.5q-135 0 -226.5 88.5t-91.5 222.5zM920 311q0 -126 90 -208.5t207 -82.5q121 0 208.5 82t87.5 209t-88 209t-208 82t-208.5 -82t-88.5 -209z" />
    <glyph glyph-name="guilsinglleft" unicode="&#x2039;" horiz-adv-x="653" 
d="M473 98l-350 410v8l352 406l14 -13l-344 -397l340 -397z" />
    <glyph glyph-name="guilsinglright" unicode="&#x203a;" horiz-adv-x="653" 
d="M530 508l-350 -410l-12 17l340 397l-344 397l14 13l352 -406v-8z" />
    <glyph glyph-name="fraction" unicode="&#x2044;" horiz-adv-x="366" 
d="M-369 -2l1088 1452l16 -10l-1087 -1456z" />
    <glyph glyph-name="zerosuperior" unicode="&#x2070;" horiz-adv-x="729" 
d="M102 1075q0 163 68.5 265t194.5 102t194 -102t68 -265q0 -164 -67 -265t-193 -101q-128 0 -196.5 101.5t-68.5 264.5zM123 1075q0 -156 63.5 -251t180.5 -95q120 0 179.5 94t59.5 252q0 156 -62.5 251t-178.5 95q-118 0 -180 -94.5t-62 -251.5z" />
    <glyph glyph-name="foursuperior" unicode="&#x2074;" horiz-adv-x="641" 
d="M444 717v201h-403v10l401 506h23l-393 -496h372v240h21v-240h135v-20h-135v-201h-21z" />
    <glyph glyph-name="fivesuperior" unicode="&#x2075;" horiz-adv-x="649" 
d="M162 1108l51 326h354v-21h-338l-45 -280q63 14 105 14q122 0 197 -59t75 -154q0 -101 -73.5 -163t-174.5 -62q-168 0 -241 118l16 13q35 -55 96.5 -83t128.5 -28q96 0 162 58.5t66 146.5q0 83 -70.5 137.5t-183.5 54.5q-62 0 -125 -18z" />
    <glyph glyph-name="sixsuperior" unicode="&#x2076;" horiz-adv-x="718" 
d="M102 971q0 95 36.5 179.5t96.5 143t131.5 97t145.5 51.5l8 -17q-68 -12 -132.5 -44t-120 -82t-94 -124.5t-48.5 -162.5q27 62 92 102.5t158 40.5q117 0 184.5 -61.5t67.5 -161.5q0 -92 -72.5 -157.5t-169.5 -65.5q-137 0 -210 75t-73 187zM123 971q0 -99 68 -170.5
t192 -71.5q90 0 156.5 59t66.5 142q0 89 -61.5 147t-173.5 58q-100 0 -166 -51t-82 -113z" />
    <glyph glyph-name="sevensuperior" unicode="&#x2077;" horiz-adv-x="573" 
d="M51 1413v21h471v-11l-340 -706h-22l336 696h-445z" />
    <glyph glyph-name="eightsuperior" unicode="&#x2078;" horiz-adv-x="731" 
d="M342 1096h47q68 0 127 47t59 114q0 74 -64 119t-146 45q-83 0 -146 -45t-63 -119q0 -67 59 -114t127 -47zM387 1075h-39q-91 0 -158 -50t-67 -120q0 -76 72.5 -126t169.5 -50q100 0 171.5 48.5t71.5 127.5q0 77 -64 123.5t-157 46.5zM367 709q-106 0 -185.5 53t-79.5 141
q0 64 52 115.5t139 64.5v4q-67 13 -112.5 63.5t-45.5 106.5q0 83 66.5 134t163.5 51q98 0 164.5 -51t66.5 -134q0 -54 -42.5 -102t-115.5 -68v-2q84 -7 137.5 -58.5t53.5 -123.5q0 -88 -78 -141t-184 -53z" />
    <glyph glyph-name="ninesuperior" unicode="&#x2079;" horiz-adv-x="718" 
d="M616 1180q0 -195 -122 -326t-308 -145l-2 16q174 20 289.5 138t120.5 276q-27 -62 -92 -103t-158 -41q-117 0 -184.5 62t-67.5 162q0 92 72.5 157.5t169.5 65.5q137 0 209.5 -75t72.5 -187zM596 1180q0 99 -68 170t-192 71q-90 0 -156.5 -58.5t-66.5 -141.5
q0 -89 61.5 -147t173.5 -58q100 0 166 51t82 113z" />
    <glyph glyph-name="uni207A" unicode="&#x207a;" horiz-adv-x="737" 
d="M102 1075v21h254v254h21v-254h258v-21h-258v-256h-21v256h-254z" />
    <glyph glyph-name="uni207B" unicode="&#x207b;" horiz-adv-x="737" 
d="M102 1075v21h533v-21h-533z" />
    <glyph glyph-name="uni207C" unicode="&#x207c;" horiz-adv-x="737" 
d="M102 952v21h533v-21h-533zM102 1198v21h533v-21h-533z" />
    <glyph glyph-name="uni207D" unicode="&#x207d;" horiz-adv-x="344" 
d="M324 641l-15 -12q-85 51 -142.5 128t-81.5 155.5t-24 158.5q0 121 61 236t189 204l13 -12q-123 -84 -182.5 -196t-59.5 -232q0 -123 60 -239t182 -191z" />
    <glyph glyph-name="uni207E" unicode="&#x207e;" horiz-adv-x="344" 
d="M20 1499l15 12q85 -51 142.5 -128t81.5 -155.5t24 -158.5q0 -121 -61 -236t-189 -204l-13 12q123 84 182.5 196t59.5 232q0 123 -60 239t-182 191z" />
    <glyph glyph-name="zeroinferior" unicode="&#x2080;" horiz-adv-x="729" 
d="M102 358q0 163 68.5 265t194.5 102t194 -102t68 -265q0 -164 -67 -265t-193 -101q-128 0 -196.5 101.5t-68.5 264.5zM123 358q0 -156 63.5 -251t180.5 -95q120 0 179.5 94t59.5 252q0 156 -62.5 251.5t-178.5 95.5q-118 0 -180 -95t-62 -252z" />
    <glyph glyph-name="oneinferior" unicode="&#x2081;" horiz-adv-x="450" 
d="M72 600l182 125h12v-725h-20v692l-162 -108z" />
    <glyph glyph-name="twoinferior" unicode="&#x2082;" horiz-adv-x="661" 
d="M92 0v18q14 11 55 41.5t68 51.5t70.5 57t73 65t63.5 68t55 73.5t35 74.5t14 77q0 75 -50 127t-144 52q-72 0 -134 -37.5t-73 -110.5l-21 4q11 77 79 120.5t145 43.5q110 0 164.5 -59t54.5 -146q0 -203 -406 -489q-12 -8 -16 -11h465v-20h-498z" />
    <glyph glyph-name="threeinferior" unicode="&#x2083;" horiz-adv-x="673" 
d="M322 -8q-79 0 -143.5 30.5t-96.5 96.5l16 10q30 -61 92.5 -89t135.5 -28q101 0 163 51.5t62 129.5q0 71 -59 117t-142 46h-82v21h72q68 0 123 50t55 120q0 76 -53.5 117t-142.5 41q-152 0 -201 -111l-17 10q22 57 80.5 89t137.5 32q103 0 160 -46.5t57 -131.5
q0 -56 -37.5 -105.5t-102.5 -70.5v-2q79 -9 125.5 -60t46.5 -116q0 -91 -70 -146t-179 -55z" />
    <glyph glyph-name="fourinferior" unicode="&#x2084;" horiz-adv-x="641" 
d="M444 0v201h-403v10l401 506h23l-393 -496h372v240h21v-240h135v-20h-135v-201h-21z" />
    <glyph glyph-name="fiveinferior" unicode="&#x2085;" horiz-adv-x="649" 
d="M162 391l51 326h354v-21h-338l-45 -280q63 14 105 14q122 0 197 -59t75 -154q0 -101 -73.5 -163t-174.5 -62q-168 0 -241 119l16 12q35 -55 96.5 -83t128.5 -28q96 0 162 58.5t66 146.5q0 83 -70.5 138t-183.5 55q-59 0 -125 -19z" />
    <glyph glyph-name="sixinferior" unicode="&#x2086;" horiz-adv-x="718" 
d="M102 254q0 95 36.5 179.5t96.5 143t131.5 97t145.5 51.5l8 -16q-68 -12 -132.5 -44t-120 -82.5t-94 -125t-48.5 -162.5q27 62 92 102.5t158 40.5q117 0 184.5 -61.5t67.5 -161.5q0 -92 -72.5 -157.5t-169.5 -65.5q-137 0 -210 75t-73 187zM123 254q0 -99 68 -170.5
t192 -71.5q90 0 156.5 59t66.5 142q0 89 -61.5 147t-173.5 58q-100 0 -166 -51t-82 -113z" />
    <glyph glyph-name="seveninferior" unicode="&#x2087;" horiz-adv-x="573" 
d="M51 696v21h471v-10l-340 -707h-22l336 696h-445z" />
    <glyph glyph-name="eightinferior" unicode="&#x2088;" horiz-adv-x="731" 
d="M342 379h47q68 0 127 47.5t59 114.5q0 74 -64 119t-146 45q-83 0 -146 -45t-63 -119q0 -67 59 -114.5t127 -47.5zM387 358h-39q-91 0 -158 -50t-67 -120q0 -76 72.5 -126t169.5 -50q100 0 171.5 48.5t71.5 127.5q0 77 -64 123.5t-157 46.5zM367 -8q-106 0 -185.5 53
t-79.5 141q0 64 52 116t139 65v4q-67 13 -112.5 63.5t-45.5 106.5q0 83 66.5 133.5t163.5 50.5q98 0 164.5 -50.5t66.5 -133.5q0 -54 -42.5 -102t-115.5 -68v-2q84 -7 137.5 -59t53.5 -124q0 -88 -78 -141t-184 -53z" />
    <glyph glyph-name="nineinferior" unicode="&#x2089;" horiz-adv-x="718" 
d="M616 463q0 -195 -122 -326t-308 -145l-2 16q174 20 289.5 138t120.5 276q-27 -62 -92 -102.5t-158 -40.5q-117 0 -184.5 61.5t-67.5 161.5q0 92 72.5 157.5t169.5 65.5q137 0 209.5 -75t72.5 -187zM596 463q0 99 -68 170.5t-192 71.5q-90 0 -156.5 -59t-66.5 -142
q0 -89 61.5 -147t173.5 -58q100 0 166 51t82 113z" />
    <glyph glyph-name="uni208A" unicode="&#x208a;" horiz-adv-x="737" 
d="M102 358v21h254v254h21v-254h258v-21h-258v-256h-21v256h-254z" />
    <glyph glyph-name="uni208B" unicode="&#x208b;" horiz-adv-x="737" 
d="M102 358v21h533v-21h-533z" />
    <glyph glyph-name="uni208C" unicode="&#x208c;" horiz-adv-x="737" 
d="M102 236v20h533v-20h-533zM102 481v21h533v-21h-533z" />
    <glyph glyph-name="uni208D" unicode="&#x208d;" horiz-adv-x="344" 
d="M324 -76l-15 -12q-85 51 -142.5 128t-81.5 155.5t-24 158.5q0 121 61 236.5t189 204.5l13 -13q-123 -84 -182.5 -196t-59.5 -232q0 -123 60 -239t182 -191z" />
    <glyph glyph-name="uni208E" unicode="&#x208e;" horiz-adv-x="344" 
d="M20 782l15 13q64 -38 113.5 -92t78 -113t42.5 -119t14 -119q0 -121 -61 -236t-189 -204l-13 12q123 84 182.5 196t59.5 232q0 123 -60 239t-182 191z" />
    <glyph glyph-name="Euro" unicode="&#x20ac;" horiz-adv-x="1196" 
d="M41 891l10 20h158q57 240 234 389.5t427 149.5q77 0 158.5 -17t126.5 -42l-8 -21q-131 60 -275 60q-245 0 -416 -143.5t-225 -375.5h795l-6 -20h-795q-16 -88 -16 -174q0 -78 8 -133h727l-6 -21h-717q44 -257 225.5 -408t446.5 -151q149 0 237 51l7 -20
q-31 -24 -105.5 -37.5t-138.5 -13.5q-277 0 -463 155.5t-229 423.5h-160l10 21h146q-9 64 -9 133q0 81 17 174h-164z" />
    <glyph glyph-name="uni20AE" unicode="&#x20ae;" horiz-adv-x="1196" 
d="M14 1413v21h1168v-21h-574v-557l312 166v-23l-312 -168v-305l312 166v-22l-312 -168v-502h-20v492l-312 -168v24l312 166v307l-312 -168v25l312 166v569h-574z" />
    <glyph glyph-name="uni20B4" unicode="&#x20b4;" horiz-adv-x="1228" 
d="M170 891v20h678q100 103 100 244q0 125 -85.5 200t-227.5 75q-212 0 -342 -136l-14 15q58 66 149 103.5t201 37.5q159 0 249.5 -81t90.5 -212q0 -139 -97 -246h187v-20h-205q-53 -52 -138 -103.5t-173 -103.5t-142 -100h658v-21h-680q-111 -114 -111 -262q0 -74 32 -133
t85.5 -93.5t116.5 -52.5t131 -18q109 0 206.5 50t151.5 141l17 -15q-56 -95 -157 -145.5t-222 -50.5q-161 0 -271 84.5t-110 232.5q0 150 104 262h-182v21h203q65 62 227.5 156t224.5 151h-655z" />
    <glyph glyph-name="uni20B8" unicode="&#x20b8;" horiz-adv-x="1196" 
d="M14 1085v21h1168v-21h-574v-1085h-20v1085h-574zM1182 1413h-1168v21h1168v-21z" />
    <glyph glyph-name="uni20BA" unicode="&#x20ba;" horiz-adv-x="1196" 
d="M20 879v24l246 131v400h21v-390l377 203v-22l-377 -203v-307l377 203v-23l-377 -203v-672l172 -4q112 0 203 20t156.5 54.5t114.5 87t79 112t48.5 135.5t26 151t7.5 165h20q0 -94 -8 -172t-28 -156.5t-52 -139t-82.5 -114t-118 -88.5t-160.5 -55t-208 -20q-67 0 -117 2
t-64 2h-10v680l-246 -131v24l246 132v305z" />
    <glyph glyph-name="uni20BD" unicode="&#x20bd;" horiz-adv-x="1228" 
d="M66 676v20h247v738q41 0 159.5 2t152.5 2q481 0 481 -379q0 -81 -27.5 -148.5t-84.5 -121t-156.5 -83.5t-233.5 -30h-270v-307h395v-21h-395v-348h-21v348h-247v21h247v307h-247zM627 1417q-157 0 -293 -4v-717h268q244 0 363.5 96.5t119.5 268.5q0 356 -458 356z" />
    <glyph glyph-name="uni20BF" unicode="&#x20bf;" horiz-adv-x="1196" 
d="M225 0v1434q93 0 152 2v182h20v-182q31 0 93 1t88 1q49 0 127 -8v188h20v-193q293 -51 293 -340q0 -76 -27.5 -139t-74 -104.5t-104 -66.5t-122.5 -32v-4q189 -15 289 -106t100 -246q0 -166 -94.5 -260.5t-259.5 -120.5v-211h-20v207q-59 -6 -121 -6q-28 0 -91.5 1
t-95.5 1v-203h-20v203q-59 2 -152 2zM582 727h-336v-707q34 0 156 -2t176 -2q229 0 355 93.5t126 279.5q0 161 -124 249.5t-353 88.5zM573 1417q-191 0 -327 -4v-665h352q168 0 283.5 94t115.5 245q0 164 -101.5 247t-322.5 83z" />
    <glyph glyph-name="uni20C0" unicode="&#x20c0;" horiz-adv-x="1196" 
d="M1182 0h-1100v20h1100v-20zM1067 381l10 -16q-69 -65 -178.5 -101.5t-210.5 -36.5q-268 0 -433 168t-165 445q0 167 79.5 307t217.5 221.5t303 81.5q104 0 199.5 -29.5t167.5 -81.5l-15 -14q-66 49 -159 77t-191 28q-164 0 -297.5 -79t-208.5 -214.5t-75 -296.5
q0 -269 157.5 -430.5t419.5 -161.5q105 0 206 35t173 98z" />
    <glyph glyph-name="uni2116" unicode="&#x2116;" horiz-adv-x="2355" 
d="M1352 0h-17l-1069 1393v-1393h-20v1434h16l1069 -1397v1397h21v-1434zM1556 1036q0 134 92 223t226 89t225.5 -89t91.5 -223t-91.5 -222.5t-225.5 -88.5q-135 0 -226.5 88.5t-91.5 222.5zM1577 1036q0 -126 90 -208.5t207 -82.5q121 0 209 82t88 209t-88.5 209t-208.5 82
t-208.5 -82t-88.5 -209zM1618 543v20h512v-20h-512z" />
    <glyph glyph-name="trademark" unicode="&#x2122;" horiz-adv-x="1658" 
d="M786 788v646h23l328 -414l317 414h21v-646h-21v615l-317 -414h-4l-326 414v-615h-21zM20 1413v21h631v-21h-305v-625h-20v625h-306z" />
    <glyph glyph-name="arrowleft" unicode="&#x2190;" horiz-adv-x="1316" 
d="M662 1137l14 -15l-553 -551h1112v-20h-1116l557 -557l-14 -14l-580 579z" />
    <glyph glyph-name="arrowup" unicode="&#x2191;" horiz-adv-x="1320" 
d="M96 559l-14 14l577 580l580 -580l-14 -14l-557 557v-1116h-21v1112z" />
    <glyph glyph-name="arrowright" unicode="&#x2192;" horiz-adv-x="1316" 
d="M641 1122l14 15l580 -578l-580 -579l-14 14l557 557h-1116v20h1112z" />
    <glyph glyph-name="arrowdown" unicode="&#x2193;" horiz-adv-x="1320" 
d="M82 539l14 14l551 -553v1112h21v-1116l557 557l14 -14l-580 -580z" />
    <glyph glyph-name="partialdiff" unicode="&#x2202;" horiz-adv-x="1177" 
d="M113 420q0 136 65 255.5t178.5 191t247.5 71.5q94 0 173.5 -27t132 -71.5t86 -93t48.5 -99.5q0 110 -18 211.5t-63 202t-114.5 176.5t-180 128.5t-250.5 64.5l4 20q305 -23 474 -237.5t169 -561.5q0 -119 -37 -236.5t-103 -214t-169 -156.5t-224 -60q-179 0 -299 123
t-120 313zM133 420q0 -174 113 -295t289 -121q111 0 206.5 55t158 143t100 193t44.5 211q-17 47 -40.5 89t-61.5 84t-84.5 72t-112 48.5t-141.5 18.5q-129 0 -238 -68.5t-171 -183t-62 -246.5z" />
    <glyph glyph-name="product" unicode="&#x220f;" horiz-adv-x="1792" 
d="M1526 -410v1823h-1260v-1823h-20v1844h1300v-1844h-20z" />
    <glyph glyph-name="summation" unicode="&#x2211;" horiz-adv-x="1269" 
d="M764 512l-682 918v4h1106v-21h-1069l672 -901l-672 -901h1069v-21h-1106v4z" />
    <glyph glyph-name="minus" unicode="&#x2212;" horiz-adv-x="1196" 
d="M154 727v21h888v-21h-888z" />
    <glyph glyph-name="uni2215" unicode="&#x2215;" horiz-adv-x="591" 
d="M-61 -418l696 1868l18 -6l-694 -1870z" />
    <glyph glyph-name="radical" unicode="&#x221a;" horiz-adv-x="1153" 
d="M0 901v21h258l414 -887l301 1399h508v-21h-490l-311 -1429h-6l-430 917h-244z" />
    <glyph glyph-name="infinity" unicode="&#x221e;" horiz-adv-x="1486" 
d="M1100 436q-56 0 -106.5 19.5t-96.5 59.5t-78.5 75.5t-77.5 93.5l-39 -54t-38.5 -49.5t-43 -47.5t-45 -38t-52 -32.5t-56 -18.5t-64.5 -8q-65 0 -128 29t-107.5 91t-44.5 142q0 108 82 187.5t205 79.5q40 0 79.5 -15t68.5 -34.5t66 -57t58.5 -63.5t58.5 -74q33 46 54.5 74
t57.5 64t69 56.5t79 35t97 14.5q124 0 195 -76.5t71 -198.5q0 -44 -16 -87.5t-47 -81.5t-83.5 -61.5t-117.5 -23.5zM1096 944q-47 0 -90.5 -14t-75 -33.5t-66 -55t-56.5 -63.5t-54 -73q46 -59 77 -93.5t77 -75.5t95 -60t103 -19q59 0 106 22t74.5 57t42 74.5t14.5 77.5
q0 110 -65 183t-182 73zM401 457q45 0 86.5 15t70.5 34t63 57t53 64t53 75q-33 42 -49 62t-46.5 54.5t-52 52t-51.5 37t-60 28t-62 8.5q-114 0 -188.5 -73t-74.5 -173q0 -57 25.5 -104.5t65 -76.5t83 -44.5t84.5 -15.5z" />
    <glyph glyph-name="integral" unicode="&#x222b;" horiz-adv-x="698" 
d="M246 -68q0 -298 -197 -348q-34 -10 -92 -10q-94 0 -164 51l12 19q27 -21 68.5 -35.5t83.5 -14.5q139 0 203.5 84.5t64.5 251.5v1141q0 316 215 369q48 10 95 10q132 0 225 -72l-12 -18q-95 70 -213 70q-98 0 -160 -39q-129 -79 -129 -338v-1121z" />
    <glyph glyph-name="approxequal" unicode="&#x2248;" horiz-adv-x="1196" 
d="M156 543l-17 14q117 109 236 109q56 0 121.5 -24.5t116 -53.5t114.5 -53.5t117 -24.5q98 0 198 94l15 -14q-106 -101 -215 -101q-55 0 -120 24.5t-116 53.5t-116 53.5t-119 24.5q-110 0 -215 -102zM156 870l-17 15q116 108 236 108q56 0 121.5 -24t116 -53.5t114.5 -53.5
t117 -24q98 0 198 94l15 -14q-106 -101 -215 -101q-55 0 -120 24.5t-116 53.5t-116 53.5t-119 24.5q-109 0 -215 -103z" />
    <glyph glyph-name="notequal" unicode="&#x2260;" horiz-adv-x="1196" 
d="M154 891v20h485l201 539l18 -6l-199 -533h383v-20h-389l-114 -307h503v-21h-510l-215 -579l-20 8l213 571h-356v21h362l115 307h-477z" />
    <glyph glyph-name="lessequal" unicode="&#x2264;" horiz-adv-x="1196" 
d="M154 573v27l796 -526v-25zM950 377l-796 524v8l796 521v-25l-766 -500l766 -504v-24z" />
    <glyph glyph-name="greaterequal" unicode="&#x2265;" horiz-adv-x="1196" 
d="M1042 600v-27l-796 -524v25zM1042 901l-796 -524v24l766 504l-766 500v25l796 -521v-8z" />
    <glyph glyph-name="angleleft" unicode="&#x2329;" horiz-adv-x="686" 
d="M584 1434l-439 -717l439 -717h-27l-434 713v8l434 713h27z" />
    <glyph glyph-name="angleright" unicode="&#x232a;" horiz-adv-x="686" 
d="M541 717l-439 717h27l434 -713v-8l-434 -713h-27z" />
    <glyph glyph-name="lozenge" unicode="&#x25ca;" horiz-adv-x="937" 
d="M465 -16l-342 526l344 551h6l342 -529l-344 -548h-6zM145 512l324 -498l324 518l-324 500z" />
    <glyph glyph-name="spade" unicode="&#x2660;" horiz-adv-x="1294" 
d="M647 1044q112 -70 230.5 -181.5t206 -239t87.5 -215.5q0 -87 -60.5 -150t-178.5 -63q-163 0 -268 147q28 -119 79 -203.5t140 -138.5h-471q150 107 215 336q-103 -141 -265 -141q-118 0 -178.5 63.5t-60.5 151.5q0 66 51.5 157t130 179t169.5 167.5t173 130.5z" />
    <glyph glyph-name="club" unicode="&#x2663;" horiz-adv-x="1253" 
d="M362 780q0 109 78 186.5t187 77.5t186.5 -77.5t77.5 -186.5q0 -15 -4 -39q102 -8 172.5 -83.5t70.5 -178.5q0 -109 -77.5 -186.5t-186.5 -77.5q-65 0 -121 29.5t-92 79.5q64 -236 209 -324h-471q130 92 205 319q-37 -46 -93 -75t-116 -29q-109 0 -186.5 77.5t-77.5 186.5
q0 103 70.5 178.5t171.5 83.5q-3 18 -3 39z" />
    <glyph glyph-name="heart" unicode="&#x2665;" horiz-adv-x="1329" 
d="M666 0q-86 65 -179 158.5t-175.5 197.5t-135.5 212.5t-53 189.5q0 51 14.5 97t43.5 84.5t78 61.5t112 23q182 0 295 -213q109 213 292 213q83 0 141 -40t82.5 -98t24.5 -126q0 -82 -53 -191t-135 -213t-174 -197.5t-178 -158.5z" />
    <glyph glyph-name="diamond" unicode="&#x2666;" horiz-adv-x="1193" 
d="M1071 510q-222 -222 -475 -549q-213 280 -473 549q221 231 473 551q256 -324 475 -551z" />
    <glyph glyph-name="uniF350" unicode="&#xf350;" horiz-adv-x="1124" 
d="M49 0l510 1087h8l508 -1087h-22l-199 422h-586l-196 -422h-23zM561 1051l-285 -611h570z" />
    <glyph glyph-name="uniF351" unicode="&#xf351;" horiz-adv-x="995" 
d="M805 1075v-20h-588v-441q123 9 219 9q215 0 321.5 -79t106.5 -222q0 -161 -115.5 -243.5t-318.5 -82.5q-43 0 -122 2t-111 2v1075h608zM440 604q-120 0 -223 -10v-574q27 0 99 -2t116 -2q200 0 306 79t106 229q0 133 -102.5 206.5t-301.5 73.5z" />
    <glyph glyph-name="uniF352" unicode="&#xf352;" horiz-adv-x="1011" 
d="M197 0v1075q28 0 131.5 2t150.5 2q352 0 352 -264q0 -112 -75.5 -179.5t-184.5 -78.5v-2q151 -12 230.5 -79.5t79.5 -184.5q0 -151 -108.5 -223t-289.5 -72q-49 0 -152 2t-134 2zM483 543h-266v-523q25 0 121.5 -2t140.5 -2q181 0 281 69.5t100 207.5q0 119 -97.5 184.5
t-279.5 65.5zM477 1059q-154 0 -260 -4v-492h279q133 0 224 69.5t91 182.5q0 122 -80 183t-254 61z" />
    <glyph glyph-name="uniF353" unicode="&#xf353;" horiz-adv-x="819" 
d="M197 0v1075h622v-20h-602v-1055h-20z" />
    <glyph glyph-name="uniF354" unicode="&#xf354;" horiz-adv-x="1204" 
d="M33 -215v235h125q23 27 50 82.5t60.5 152.5t60.5 256t38 349l12 215h604v-1055h156v-235h-21v215h-1065v-215h-20zM387 852q-12 -191 -39.5 -350t-60.5 -255t-59.5 -150t-47.5 -77h783v1035h-564z" />
    <glyph glyph-name="uniF355" unicode="&#xf355;" horiz-adv-x="960" 
d="M197 0v1075h616v-20h-596v-496h547v-20h-547v-519h612v-20h-632z" />
    <glyph glyph-name="uniF356" unicode="&#xf356;" horiz-adv-x="1464" 
d="M1384 1075l-528 -512l545 -563h-27l-543 561l525 514h28zM723 0v1075h20v-1075h-20zM608 561l-526 514h27l526 -514l-545 -561h-27z" />
    <glyph glyph-name="uniF357" unicode="&#xf357;" horiz-adv-x="927" 
d="M424 -12q-94 0 -196 41.5t-146 103.5l14 10q58 -63 151.5 -99t172.5 -36q166 0 261 80t95 213q0 110 -74 175t-196 65h-158v18h146q91 0 164 77.5t73 184.5q0 119 -80 182.5t-207 63.5q-106 0 -180.5 -32.5t-136.5 -94.5l-14 10q122 137 325 137q146 0 230 -71.5
t84 -198.5q0 -81 -50 -155t-137 -105v-6q104 -7 168 -80.5t64 -169.5q0 -146 -104 -229.5t-269 -83.5z" />
    <glyph glyph-name="uniF358" unicode="&#xf358;" 
d="M217 0h-20v1075h20v-1044l879 1044h20v-1075h-20v1044z" />
    <glyph glyph-name="uniF359" unicode="&#xf359;" 
d="M217 0h-20v1075h20v-1044l879 1044h20v-1075h-20v1044zM399 1311h21q0 -87 61.5 -136t167.5 -49q102 0 161.5 49t59.5 136h21q0 -96 -68 -150.5t-174 -54.5q-115 0 -182.5 54t-67.5 151z" />
    <glyph glyph-name="uniF35A" unicode="&#xf35a;" horiz-adv-x="1007" 
d="M930 1075l-592 -514l608 -561h-31l-606 561l590 514h31zM197 0v1075h20v-1075h-20z" />
    <glyph glyph-name="uniF35B" unicode="&#xf35b;" horiz-adv-x="1181" 
d="M965 0v1055h-576l-16 -203q-13 -165 -33 -297.5t-41.5 -219.5t-49.5 -151.5t-52 -99t-53 -54.5t-49.5 -25t-45.5 -5v20q239 0 303 840l17 215h616v-1075h-20z" />
    <glyph glyph-name="uniF35C" unicode="&#xf35c;" horiz-adv-x="1431" 
d="M197 0v1075h22l506 -643l487 643h23v-1075h-21v1047l-489 -646h-4l-504 639v-1040h-20z" />
    <glyph glyph-name="uniF35D" unicode="&#xf35d;" horiz-adv-x="1271" 
d="M1055 0v539h-838v-539h-20v1075h20v-516h838v516h20v-1075h-20z" />
    <glyph glyph-name="uniF35E" unicode="&#xf35e;" horiz-adv-x="1318" 
d="M98 539q0 115 43.5 216.5t118 174.5t178.5 115t221 42q156 0 285 -71.5t203 -197.5t74 -279q0 -234 -162 -392.5t-400 -158.5t-399.5 158.5t-161.5 392.5zM119 539q0 -149 71 -271t194.5 -191t274.5 -69t275 69t195 191t71 271q0 225 -156 376.5t-385 151.5
t-384.5 -151.5t-155.5 -376.5z" />
    <glyph glyph-name="uniF35F" unicode="&#xf35f;" horiz-adv-x="1269" 
d="M1053 0v1055h-836v-1055h-20v1075h876v-1075h-20z" />
    <glyph glyph-name="uniF360" unicode="&#xf360;" horiz-adv-x="931" 
d="M217 0h-20v1075q32 0 127.5 2t121.5 2q89 0 158 -18t111.5 -48t70 -71t38 -83.5t10.5 -90.5q0 -62 -22 -116.5t-67.5 -100.5t-126 -73t-186.5 -27q-63 0 -215 8v-459zM449 1059q-126 0 -232 -4v-576q148 -8 213 -8q190 0 286.5 83t96.5 214q0 130 -88 210.5t-276 80.5z
" />
    <glyph glyph-name="uniF361" unicode="&#xf361;" horiz-adv-x="1077" 
d="M1001 119l11 -17q-61 -54 -155.5 -84t-192.5 -30q-254 0 -410 150.5t-156 400.5q0 153 68 277.5t193.5 197.5t285.5 73q213 0 346 -96l-14 -14q-120 90 -330 90q-156 0 -277.5 -70.5t-186 -190.5t-64.5 -267q0 -240 151 -385.5t394 -145.5q199 0 337 111z" />
    <glyph glyph-name="uniF362" unicode="&#xf362;" horiz-adv-x="966" 
d="M16 1055v20h934v-20h-456v-1055h-21v1055h-457z" />
    <glyph glyph-name="uniF363" unicode="&#xf363;" horiz-adv-x="1036" 
d="M1004 1075l-406 -837q-62 -128 -115 -183t-121 -55q-69 0 -108 29l8 18q50 -29 98 -29q60 0 105.5 46t87.5 126l25 48l-545 837h22l533 -817l393 817h23z" />
    <glyph glyph-name="uniF364" unicode="&#xf364;" horiz-adv-x="1351" 
d="M664 -12v139h-17q-255 0 -410 113t-155 313q0 202 154 314t417 112h11v108h20v-108h12q268 0 421 -113t153 -313q0 -199 -155.5 -312.5t-409.5 -113.5h-21v-139h-20zM696 961h-12v-816h21q156 0 277.5 45t194 138.5t72.5 224.5q0 197 -151 302.5t-402 105.5zM102 553
q0 -193 152.5 -300.5t392.5 -107.5h17v816h-11q-248 0 -399.5 -106.5t-151.5 -301.5z" />
    <glyph glyph-name="uniF365" unicode="&#xf365;" horiz-adv-x="1071" 
d="M991 1075l-442 -528l459 -547h-27l-446 530l-445 -530h-27l459 547l-440 528h27l426 -510l432 510h24z" />
    <glyph glyph-name="uniF366" unicode="&#xf366;" horiz-adv-x="1286" 
d="M197 0v1075h20v-1055h827v1055h21v-1055h156v-235h-19v215h-1005z" />
    <glyph glyph-name="uniF367" unicode="&#xf367;" horiz-adv-x="1009" 
d="M813 1075v-1075h-20v526q-62 -40 -160 -71t-199 -31q-155 0 -245.5 85.5t-90.5 258.5v307h21v-309q0 -157 85 -239.5t234 -82.5q179 0 355 103v528h20z" />
    <glyph glyph-name="uniF368" unicode="&#xf368;" horiz-adv-x="1624" 
d="M197 0v1075h20v-1055h584v1055h20v-1055h586v1055h20v-1075h-1230z" />
    <glyph glyph-name="uniF369" unicode="&#xf369;" horiz-adv-x="1648" 
d="M197 0v1075h20v-1055h584v1055h20v-1055h586v1055h20v-1055h156v-235h-20v215h-1366z" />
    <glyph glyph-name="uniF36A" unicode="&#xf36a;" horiz-adv-x="1083" 
d="M0 1055v20h336v-459q126 9 221 9q215 0 321.5 -79t106.5 -224q0 -161 -115.5 -243.5t-320.5 -82.5q-43 0 -122.5 2t-111.5 2v1055h-315zM559 604q-111 0 -223 -8v-576q27 0 99 -2t116 -2q201 0 307.5 79t106.5 229q0 134 -103 207t-303 73z" />
    <glyph glyph-name="uniF36B" unicode="&#xf36b;" horiz-adv-x="1323" 
d="M1106 0v1075h20v-1075h-20zM424 604q-98 0 -207 -8v-576q27 0 91 -2t108 -2q200 0 306.5 79t106.5 229q0 133 -103 206.5t-302 73.5zM217 1075v-459q123 9 203 9q215 0 322.5 -79t107.5 -224q0 -160 -116.5 -243t-319.5 -83q-43 0 -114 2t-103 2v1075h20z" />
    <glyph glyph-name="uniF36C" unicode="&#xf36c;" horiz-adv-x="964" 
d="M438 604q-112 0 -221 -8v-576q27 0 98.5 -2t114.5 -2q202 0 309 79t107 229q0 134 -103.5 207t-304.5 73zM217 1075v-459q123 9 219 9q215 0 322.5 -79t107.5 -224q0 -160 -116.5 -243t-321.5 -83q-42 0 -120 2t-111 2v1075h20z" />
    <glyph glyph-name="uniF36D" unicode="&#xf36d;" horiz-adv-x="1122" 
d="M338 539v20h666q-6 233 -155 370.5t-398 137.5q-203 0 -330 -94l-12 14q64 51 155.5 75.5t186.5 24.5q263 0 418 -146.5t155 -397.5q0 -155 -68.5 -280.5t-198 -200t-296.5 -74.5q-214 0 -379 112l12 15q165 -107 365 -107q163 0 288 72t190.5 192t66.5 267h-666z" />
    <glyph glyph-name="uniF36E" unicode="&#xf36e;" horiz-adv-x="1757" 
d="M197 0v1075h20v-516h354q6 227 159.5 377.5t383.5 150.5q236 0 390.5 -156.5t154.5 -391.5q0 -236 -154.5 -393.5t-390.5 -157.5q-235 0 -389 157.5t-154 393.5h-354v-539h-20zM592 539q0 -150 66.5 -271t186 -190.5t269.5 -69.5q151 0 271 69.5t186.5 190.5t66.5 271
q0 227 -147.5 377.5t-376.5 150.5q-227 0 -374.5 -150.5t-147.5 -377.5z" />
    <glyph glyph-name="uniF36F" unicode="&#xf36f;" horiz-adv-x="991" 
d="M774 0v451h-311l-371 -451h-26l374 453q-113 20 -197.5 104.5t-84.5 196.5q0 145 105 235t298 90q41 0 121 -2t113 -2v-1075h-21zM455 471h319v584q-27 0 -99 2t-116 2q-97 0 -171.5 -24.5t-119.5 -67.5t-67.5 -97.5t-22.5 -117.5q0 -104 84 -184.5t193 -96.5z" />
    <glyph glyph-name="uniF371" unicode="&#xf371;" horiz-adv-x="960" 
d="M197 0v1075h616v-20h-596v-496h547v-20h-547v-519h612v-20h-632zM289 1374q0 9 8 17t18 8q9 0 17 -8t8 -17q0 -10 -8 -18t-17 -8q-11 0 -18.5 8t-7.5 18zM645 1374q0 9 8.5 17t18.5 8q9 0 16.5 -8t7.5 -17q0 -10 -7.5 -18t-16.5 -8q-11 0 -19 8t-8 18z" />
    <glyph glyph-name="uniF372" unicode="&#xf372;" horiz-adv-x="1241" 
d="M1143 315q0 -173 -72 -250t-194 -77q-37 0 -75 13.5t-57 25.5l13 18q51 -37 121 -37q113 0 178 75t65 232q0 163 -80 238.5t-239 75.5q-45 0 -84 -6t-76 -21t-54 -22.5t-54.5 -30.5t-40.5 -25v-524h-21v1055h-457v20h934v-20h-456v-510q49 32 80.5 49t97 36t135.5 19
q336 0 336 -334z" />
    <glyph glyph-name="uniF373" unicode="&#xf373;" horiz-adv-x="819" 
d="M197 0v1075h622v-20h-602v-1055h-20zM670 1516l-224 -289l-16 10l225 291z" />
    <glyph glyph-name="uniF374" unicode="&#xf374;" horiz-adv-x="1122" 
d="M784 559v-20h-665q0 -237 155 -384t406 -147q181 0 346 107l14 -15q-87 -59 -172 -85.5t-190 -26.5q-258 0 -419 151.5t-161 399.5q0 239 157 393.5t415 154.5q97 0 188.5 -24.5t153.5 -75.5l-11 -14q-127 94 -329 94q-244 0 -395.5 -142.5t-157.5 -365.5h665z" />
    <glyph glyph-name="uniF375" unicode="&#xf375;" horiz-adv-x="929" 
d="M809 258q0 72 -37.5 125t-97.5 83t-132.5 54t-145 48.5t-132.5 55t-97.5 84t-37.5 126.5q0 112 91 182.5t251 70.5q94 0 184 -29t133 -77l-12 -14q-50 50 -134 75t-175 25q-144 0 -230.5 -64t-86.5 -167q0 -71 37.5 -121.5t97.5 -80t132.5 -52.5t145.5 -47.5t133 -56
t97.5 -87.5t37.5 -133q0 -121 -101.5 -195.5t-242.5 -74.5q-131 0 -231 37.5t-158 101.5l17 14q133 -133 370 -133q80 0 151.5 26.5t122 85t50.5 138.5z" />
    <glyph glyph-name="uniF376" unicode="&#xf376;" horiz-adv-x="507" 
d="M244 0v1075h20v-1075h-20z" />
    <glyph glyph-name="uniF377" unicode="&#xf377;" horiz-adv-x="507" 
d="M115 1374q0 9 8 17t18 8q9 0 17 -8t8 -17q0 -10 -8 -18t-17 -8q-11 0 -18.5 8t-7.5 18zM348 1374q0 9 8.5 17t18.5 8q9 0 16.5 -8t7.5 -17q0 -10 -7.5 -18t-16.5 -8q-11 0 -19 8t-8 18zM244 0v1075h20v-1075h-20z" />
    <glyph glyph-name="uniF378" unicode="&#xf378;" horiz-adv-x="561" 
d="M365 1075v-848q0 -116 -43.5 -177.5t-155.5 -61.5q-76 0 -133 39l10 18q55 -37 121 -37q56 0 93.5 16.5t55.5 49t24.5 67.5t6.5 84v850h21z" />
    <glyph glyph-name="uniF379" unicode="&#xf379;" horiz-adv-x="1714" 
d="M965 0v1055h-576l-16 -203q-13 -165 -33 -297.5t-41.5 -219.5t-49.5 -151.5t-52 -99t-53 -54.5t-49.5 -25t-45.5 -5v20q239 0 303 840l17 215h616v-459q123 9 203 9q215 0 321.5 -79t106.5 -224q0 -161 -115.5 -243.5t-320.5 -82.5q-42 0 -113 2t-102 2zM1190 604
q-96 0 -205 -8v-576q26 0 90 -2t107 -2q201 0 307 78.5t106 229.5q0 133 -103 206.5t-302 73.5z" />
    <glyph glyph-name="uniF37A" unicode="&#xf37a;" horiz-adv-x="1787" 
d="M197 0v1075h20v-475h821v475h21v-475q109 8 203 8q216 0 322 -75.5t106 -217.5q0 -161 -115 -240t-322 -79q-38 0 -102 2t-92 2h-21v580h-821v-580h-20zM1059 580v-560q26 0 89.5 -2t106.5 -2q202 0 308 75.5t106 223.5q0 132 -102.5 203.5t-302.5 71.5q-102 0 -205 -10z
" />
    <glyph glyph-name="uniF37B" unicode="&#xf37b;" horiz-adv-x="1241" 
d="M16 1055v20h934v-20h-456v-512q149 106 331 106q152 0 235 -84t83 -260v-305h-21v309q0 157 -78 238.5t-225 81.5q-56 0 -105.5 -9.5t-94.5 -30t-65.5 -32t-59.5 -35.5v-522h-21v1055h-457z" />
    <glyph glyph-name="uniF37C" unicode="&#xf37c;" horiz-adv-x="1007" 
d="M930 1075l-592 -514l608 -561h-31l-606 561l590 514h31zM197 0v1075h20v-1075h-20zM711 1516l-224 -289l-16 10l225 291z" />
    <glyph glyph-name="uniF37E" unicode="&#xf37e;" horiz-adv-x="1036" 
d="M1004 1075l-406 -837q-62 -128 -115 -183t-121 -55q-69 0 -108 29l8 18q50 -29 98 -29q60 0 105.5 46t87.5 126l25 48l-545 837h22l533 -817l393 817h23zM291 1311h20q0 -87 61.5 -136t168.5 -49q102 0 161.5 49t59.5 136h20q0 -96 -67.5 -150.5t-173.5 -54.5
q-115 0 -182.5 54t-67.5 151z" />
    <glyph glyph-name="uniF37F" unicode="&#xf37f;" horiz-adv-x="1253" 
d="M197 0v1075h20v-1055h819v1055h21v-1075h-420v-246h-21v246h-419z" />
    <glyph glyph-name="uniF381" unicode="&#xf381;" horiz-adv-x="1005" 
d="M0 840v20h238v215h20v-215h299v-20h-299v-224q123 9 219 9q215 0 322.5 -79t107.5 -224q0 -160 -116.5 -243t-321.5 -83q-41 0 -120 2t-111 2v840h-238zM479 604q-112 0 -221 -8v-576q27 0 98.5 -2t114.5 -2q202 0 309 79t107 229q0 134 -103.5 207t-304.5 73z" />
    <glyph glyph-name="uniF389" unicode="&#xf389;" horiz-adv-x="1318" 
d="M98 539q0 115 43.5 216.5t118 174.5t178.5 115t221 42q156 0 285 -71.5t203 -197.5t74 -279q0 -234 -162 -392.5t-400 -158.5t-399.5 158.5t-161.5 392.5zM383 633q-65 0 -135.5 -33t-128.5 -88q9 -218 163 -361t377 -143q151 0 275 69t195 191t71 271v2
q-127 -105 -250 -105q-68 0 -146.5 31t-138 67.5t-137 67.5t-145.5 31zM952 457q60 0 125.5 29.5t120.5 80.5q-5 106 -49 199t-115 159t-168.5 104t-206.5 38q-150 0 -274 -68.5t-195 -189.5t-71 -268q62 53 133 82.5t135 29.5q58 0 118.5 -20t114 -49t106 -58t112 -49
t114.5 -20z" />
    <glyph glyph-name="uniF38A" unicode="&#xf38a;" horiz-adv-x="1077" 
d="M877 815l-328 -827h-8l-508 1087h22l490 -1052l313 800q54 139 105 201.5t112 62.5q24 0 64 -14v-18q-30 12 -58 12q-60 0 -106.5 -62t-97.5 -190z" />
    <glyph glyph-name="uniF393" unicode="&#xf393;" horiz-adv-x="819" 
d="M197 0v1075h602v215h20v-235h-602v-1055h-20z" />
    <glyph glyph-name="uniF394" unicode="&#xf394;" horiz-adv-x="856" 
d="M16 508v20h217v547h623v-20h-602v-527h397v-20h-397v-508h-21v508h-217z" />
    <glyph glyph-name="uniF395" unicode="&#xf395;" horiz-adv-x="964" 
d="M217 541q49 32 80.5 49t97 36t135.5 19q155 0 245.5 -96t90.5 -279v-293q0 -208 -72.5 -305.5t-193.5 -97.5q-37 0 -74 13.5t-57 25.5l12 18q51 -37 121 -37q113 0 178.5 93.5t65.5 287.5v293q0 169 -81.5 263t-238.5 94q-45 0 -84 -6t-76 -21t-54 -22.5t-54.5 -30.5
t-40.5 -25v-524h-20v1075h622v-20h-602v-510z" />
    <glyph glyph-name="uniF396" unicode="&#xf396;" horiz-adv-x="1505" 
d="M1384 1075l-528 -512l504 -543h145v-235h-18v215h-133l-523 561l525 514h28zM608 561l-526 514h27l526 -514l-545 -561h-27zM723 0v1075h20v-1075h-20z" />
    <glyph glyph-name="uniF397" unicode="&#xf397;" horiz-adv-x="927" 
d="M424 -12q-94 0 -196 41.5t-146 103.5l14 10q58 -63 151.5 -99t172.5 -36q166 0 261 80t95 213q0 110 -74 175t-196 65h-158v18h146q91 0 164 77.5t73 184.5q0 119 -80 182.5t-207 63.5q-106 0 -180.5 -32.5t-136.5 -94.5l-14 10q122 137 325 137q146 0 230 -71.5
t84 -198.5q0 -81 -50 -155t-137 -105v-6q104 -7 168 -80.5t64 -169.5q0 -141 -97 -224t-254 -89v-234h-20v234h-2z" />
    <glyph glyph-name="uniF398" unicode="&#xf398;" horiz-adv-x="1048" 
d="M930 1075l-592 -514l565 -541h146v-235h-19v215h-135l-586 561l590 514h31zM197 0v1075h20v-1075h-20z" />
    <glyph glyph-name="uniF399" unicode="&#xf399;" horiz-adv-x="1038" 
d="M961 1075l-592 -514l608 -561h-31l-579 537v-291h-21v604h21v-266l563 491h31zM197 0v1075h20v-1075h-20z" />
    <glyph glyph-name="uniF39B" unicode="&#xf39b;" horiz-adv-x="1185" 
d="M1108 1075l-592 -514l608 -561h-30l-607 561l590 514h31zM375 0v1055h-375v20h395v-1075h-20z" />
    <glyph glyph-name="uniF39C" unicode="&#xf39c;" horiz-adv-x="1271" 
d="M1055 0v539h-838v-539h-20v1075h20v-516h838v516h20v-1055h156v-235h-19v215h-157z" />
    <glyph glyph-name="uniF39D" unicode="&#xf39d;" horiz-adv-x="1636" 
d="M1034 0v539h-817v-539h-20v1075h20v-516h817v516h602v-20h-581v-1055h-21z" />
    <glyph glyph-name="uniF3A0" unicode="&#xf3a0;" horiz-adv-x="1077" 
d="M1001 119l11 -17q-60 -53 -150.5 -82.5t-185.5 -31.5v-234h-21v234q-251 3 -404 152.5t-153 398.5q0 153 68 277.5t193.5 197.5t285.5 73q213 0 346 -96l-14 -14q-120 90 -330 90q-156 0 -277.5 -70.5t-186 -190.5t-64.5 -267q0 -240 151 -385.5t394 -145.5
q199 0 337 111z" />
    <glyph glyph-name="uniF3A2" unicode="&#xf3a2;" horiz-adv-x="911" 
d="M879 1075l-414 -592v-483h-21v483l-411 592h26l396 -571l399 571h25z" />
    <glyph glyph-name="uniF3A3" unicode="&#xf3a3;" horiz-adv-x="911" 
d="M879 1075l-408 -581h328v-21h-334v-473h-21v473h-333v21h325l-403 581h26l396 -571l399 571h25z" />
    <glyph glyph-name="uniF3A4" unicode="&#xf3a4;" horiz-adv-x="1134" 
d="M991 1075l-442 -528l440 -527h146v-235h-19v215h-135l-446 530l-445 -530h-27l459 547l-440 528h27l426 -510l432 510h24z" />
    <glyph glyph-name="uniF3A6" unicode="&#xf3a6;" horiz-adv-x="1034" 
d="M813 1075v-1055h156v-235h-19v215h-157v526q-62 -40 -160 -71t-199 -31q-155 0 -245.5 85.5t-90.5 258.5v307h21v-309q0 -157 85 -239.5t234 -82.5q179 0 355 103v528h20z" />
    <glyph glyph-name="uniF3A7" unicode="&#xf3a7;" horiz-adv-x="1009" 
d="M813 1075v-1075h-20v526q-53 -35 -136.5 -62.5t-173.5 -33.5v-246h-20v246h-19q-157 0 -251.5 83t-94.5 255v307h21v-309q0 -155 89 -235t241 -80h14v327h20v-327q164 10 310 96v528h20z" />
    <glyph glyph-name="uniF3A8" unicode="&#xf3a8;" horiz-adv-x="1009" 
d="M197 0v1075h20v-532q59 42 153 74t199 32q155 0 248.5 -85.5t93.5 -258.5v-305h-20v309q0 155 -89 237.5t-239 82.5q-174 0 -346 -107v-522h-20z" />
    <glyph glyph-name="uniF3B0" unicode="&#xf3b0;" horiz-adv-x="1009" 
d="M813 1075v-1075h-158v-215h-18v235h156v506q-62 -40 -160 -71t-199 -31q-155 0 -245.5 85.5t-90.5 258.5v307h21v-309q0 -157 85 -239.5t234 -82.5q179 0 355 103v528h20z" />
    <glyph glyph-name="uniF3B2" unicode="&#xf3b2;" horiz-adv-x="1124" 
d="M49 0l510 1087h8l508 -1087h-22l-199 422h-586l-196 -422h-23zM561 1051l-285 -611h570zM315 1311h21q0 -87 61.5 -136t167.5 -49q102 0 161.5 49t59.5 136h21q0 -96 -68 -150.5t-174 -54.5q-115 0 -182.5 54t-67.5 151z" />
    <glyph glyph-name="uniF3B3" unicode="&#xf3b3;" horiz-adv-x="1124" 
d="M49 0l510 1087h8l508 -1087h-22l-199 422h-586l-196 -422h-23zM561 1051l-285 -611h570zM358 1374q0 9 8.5 17t18.5 8q9 0 17 -8t8 -17q0 -10 -8 -18t-17 -8q-11 0 -19 8t-8 18zM715 1374q0 9 8 17t18 8q9 0 17 -8t8 -17q0 -10 -8 -18t-17 -8q-11 0 -18.5 8t-7.5 18z" />
    <glyph glyph-name="uniF3B4" unicode="&#xf3b4;" horiz-adv-x="1597" 
d="M836 0v432h-467l-330 -432h-25l346 453l478 622h612v-20h-594v-496h545v-20h-545v-519h610v-20h-630zM836 1040l-451 -587h451v587z" />
    </font>
</defs>
</svg>
