<?xml version="1.0" standalone="no"?>
<!DOCTYPE svg PUBLIC "-//W3C//DTD SVG 1.1//EN" "http://www.w3.org/Graphics/SVG/1.1/DTD/svg11.dtd" >
<svg xmlns="http://www.w3.org/2000/svg" xmlns:xlink="http://www.w3.org/1999/xlink" version="1.1">
<metadata>
Created by FontForge 20170731 at Wed Mar 15 10:29:49 2023
 By Aleksey,,,
Copyright (c) 2011 Paratype, Inc., ParaType Ltd. All rights reserved.
</metadata>
<defs>
<font id="Circe-LightItalic" horiz-adv-x="1206" >
  <font-face 
    font-family="Circe Light"
    font-weight="300"
    font-style="italic"
    font-stretch="normal"
    units-per-em="2048"
    panose-1="2 11 4 2 2 2 3 9 2 3"
    ascent="1583"
    descent="-465"
    x-height="922"
    cap-height="1434"
    bbox="-958 -752 3254 2046"
    underline-thickness="102"
    underline-position="-307"
    slope="-10"
    unicode-range="U+0020-FEFF"
  />
<missing-glyph horiz-adv-x="481" 
 />
    <glyph glyph-name="uniF350.var.accented" unicode="&#xf350;`" horiz-adv-x="1175" 
d="M35 0l696 1083h94l314 -1083h-113l-96 340h-557l-217 -340h-121zM758 942l-318 -496h459zM1057 1473l-256 -269l-56 58l246 290z" />
    <glyph glyph-name="uniF355.var.accented" unicode="&#xf355;`" horiz-adv-x="983" 
d="M182 0l191 1075h663l-20 -106h-549l-64 -371h498l-18 -106h-500l-68 -386h566l-19 -106h-680zM969 1473l-256 -269l-56 58l246 290z" />
    <glyph glyph-name="uniF358.var.accented" unicode="&#xf358;`" horiz-adv-x="1331" 
d="M283 0h-101l191 1075h112l-153 -878l907 878h100l-190 -1075h-113l156 883zM1104 1473l-256 -269l-55 58l245 290z" />
    <glyph glyph-name="uniF35E.var.accented" unicode="&#xf35e;`" horiz-adv-x="1329" 
d="M170 477q0 173 76.5 311.5t223.5 220t341 81.5q229 0 382 -137.5t153 -350.5q0 -175 -76 -315t-222 -221.5t-339 -81.5q-240 0 -389.5 139t-149.5 354zM291 479q0 -168 117.5 -278.5t306.5 -110.5q155 0 272.5 68t177.5 182.5t60 257.5q0 164 -117.5 274.5t-300.5 110.5
q-231 0 -373.5 -138.5t-142.5 -365.5zM1122 1473l-256 -269l-55 58l246 290z" />
    <glyph glyph-name="uniF363.var.accented" unicode="&#xf363;`" horiz-adv-x="1077" 
d="M1241 1075l-545 -827q-33 -50 -53 -78t-52.5 -65.5t-60.5 -57t-66.5 -33.5t-80.5 -14q-77 0 -135 39l51 92q41 -27 90 -27q93 0 174 129l31 43l-385 799h129l326 -690l454 690h123zM995 1473l-256 -269l-55 58l246 290z" />
    <glyph glyph-name="uniF36B.var.accented" unicode="&#xf36b;`" horiz-adv-x="1396" 
d="M1100 0l190 1075h115l-191 -1075h-114zM557 567q-60 0 -162 -6l-80 -455q98 -4 162 -4q178 0 270.5 71t92.5 206q0 95 -74.5 141.5t-208.5 46.5zM487 1075l-73 -407q105 6 161 6q175 0 281.5 -73.5t106.5 -209.5q0 -133 -66 -223.5t-174 -131t-252 -40.5q-67 0 -164.5 2
t-124.5 2l191 1075h114zM1108 1473l-256 -269l-55 58l245 290z" />
    <glyph glyph-name="uniF36D.var.accented" unicode="&#xf36d;`" horiz-adv-x="1132" 
d="M410 496l18 106h604q-4 86 -26 152.5t-67.5 119.5t-123 81t-184.5 28q-196 0 -340 -88l-41 84q75 51 180.5 81t210.5 30q128 0 227 -37t160 -103t92 -151.5t31 -186.5q0 -282 -171.5 -454t-473.5 -172q-140 0 -234.5 33.5t-175.5 103.5l70 88q75 -60 153 -89.5t191 -29.5
q115 0 207 31.5t153.5 88t99 128t50.5 156.5h-610zM930 1473l-256 -269l-56 58l246 290z" />
    <glyph glyph-name="uniF36E.var.accented" unicode="&#xf36e;`" horiz-adv-x="1773" 
d="M182 0l191 1075h114l-84 -473h265q28 151 119 263.5t218 168.5t273 56q118 0 216 -40.5t162 -108t99 -153.5t35 -180q0 -180 -75 -320.5t-218 -221t-334 -80.5q-123 0 -223.5 42.5t-163 114t-93.5 163t-26 190.5h-274l-86 -496h-115zM776 473q0 -166 107.5 -273.5
t285.5 -107.5q228 0 364 144t136 366q0 166 -112.5 273.5t-282.5 107.5q-222 0 -360 -143.5t-138 -366.5zM1262 1473l-256 -269l-56 58l246 290z" />
    <glyph glyph-name="uniF36F.var.accented" unicode="&#xf36f;`" horiz-adv-x="1052" 
d="M758 0l69 401h-249l-367 -401h-145l395 426q-89 29 -143 96t-54 162q0 167 113 272t313 117q74 6 150 6q47 0 122 -2t99 -2l-191 -1075h-112zM571 508h277l80 461q-129 6 -187 6q-162 0 -258 -74t-96 -196q0 -80 47.5 -132t136.5 -65zM1022 1473l-256 -269l-55 58
l245 290z" />
    <glyph glyph-name="uniF371.var.accented" unicode="&#xf371;`" horiz-adv-x="983" 
d="M459 1343q0 31 24 51.5t56 20.5q22 0 38.5 -15.5t16.5 -39.5q0 -27 -16 -46.5t-39 -25.5q-8 -2 -23 -2q-26 2 -41.5 16.5t-15.5 40.5zM905 1343q0 31 24.5 51.5t55.5 20.5q24 0 39.5 -14.5t15.5 -38.5q0 -27 -17 -47.5t-40 -26.5q-6 -2 -22 -2q-23 2 -39.5 17t-16.5 40z
M920 1495l-254 -291l-56 37l228 311zM182 0l191 1075h663l-20 -106h-551l-66 -371h502l-18 -106h-502l-68 -386h568l-19 -106h-680z" />
    <glyph glyph-name="uni0410.var.accented" unicode="&#x410;`" horiz-adv-x="1427" 
d="M43 0l879 1446h92l370 -1446h-114l-125 487h-686l-295 -487h-121zM944 1290l-422 -696h598zM1292 1688l-374 -177l-33 64l366 203z" />
    <glyph glyph-name="uni0415.var.accented" unicode="&#x415;`" horiz-adv-x="1177" 
d="M227 0l252 1434h793l-19 -107h-680l-96 -547h619l-19 -106h-618l-101 -568h701l-19 -106h-813zM1180 1688l-375 -177l-33 64l367 203z" />
    <glyph glyph-name="uni0418.var.accented" unicode="&#x418;`" horiz-adv-x="1632" 
d="M328 0h-101l252 1434h113l-217 -1237l1181 1237h101l-252 -1434h-113l219 1237zM1364 1688l-375 -177l-33 64l367 203z" />
    <glyph glyph-name="uni041E.var.accented" unicode="&#x41e;`" horiz-adv-x="1658" 
d="M223 645q0 169 59 318t163.5 256.5t255 170t325.5 62.5q300 0 481 -176t181 -467q0 -238 -99.5 -426.5t-278.5 -294.5t-405 -106q-165 0 -295.5 50t-214.5 139t-128 209.5t-44 264.5zM346 651q0 -263 155 -413t410 -150q136 0 256 50.5t208.5 140.5t140 224t51.5 292
q0 251 -149 401t-404 150q-134 0 -255 -49t-212.5 -137t-146 -220.5t-54.5 -288.5zM1384 1688l-374 -177l-33 64l366 203z" />
    <glyph glyph-name="uni0423.var.accented" unicode="&#x423;`" horiz-adv-x="1331" 
d="M1548 1434l-696 -1110q-104 -169 -191 -246.5t-196 -77.5q-97 0 -150 47l54 90q46 -33 112 -33q120 0 234 185l39 59l-471 1086h123l415 -977l606 977h121zM1264 1688l-375 -177l-33 64l367 203z" />
    <glyph glyph-name="uni042B.var.accented" unicode="&#x42b;`" horiz-adv-x="1697" 
d="M1358 0l252 1434h112l-252 -1434h-112zM700 772q-98 0 -227 -12l-115 -651q20 -1 59 -3t77 -3t79 -1q225 0 354.5 107t129.5 297q0 127 -91 196.5t-266 69.5zM592 1434l-98 -566q161 11 231 11q223 0 338 -93.5t115 -257.5q0 -251 -164.5 -391.5t-468.5 -140.5
q-70 0 -176 2t-142 2l252 1434h113zM1389 1688l-375 -177l-33 64l367 203z" />
    <glyph glyph-name="uni042D.var.accented" unicode="&#x42d;`" horiz-adv-x="1392" 
d="M524 678l19 106h764q15 258 -123.5 410t-390.5 152q-251 0 -441 -123l-43 86q88 67 230 105t280 38q283 0 442.5 -167.5t159.5 -473.5q0 -254 -105.5 -443.5t-289 -287.5t-420.5 -98q-160 0 -288 48.5t-212 129.5l68 86q182 -161 434 -158q283 0 470.5 162.5t215.5 427.5
h-770zM1141 1688l-375 -177l-33 64l367 203z" />
    <glyph glyph-name="uni042E.var.accented" unicode="&#x42e;`" horiz-adv-x="2181" 
d="M459 678l-119 -678h-113l252 1434h113l-113 -650h340q19 138 81.5 259.5t159 212.5t230.5 143.5t287 52.5q284 0 458.5 -177t174.5 -466q0 -176 -57 -330t-156.5 -263t-240 -171.5t-302.5 -62.5q-129 0 -236 35t-181.5 96t-126.5 145t-76.5 181.5t-24.5 205.5v33h-350z
M924 651q0 -252 146.5 -407.5t389.5 -155.5q132 0 248 52t200 143.5t132.5 224t48.5 287.5q0 247 -144.5 399t-379.5 152q-101 0 -196 -31t-175.5 -91t-141 -143t-94.5 -194t-34 -236zM1632 1688l-375 -177l-32 64l366 203z" />
    <glyph glyph-name="uni042F.var.accented" unicode="&#x42f;`" horiz-adv-x="1259" 
d="M920 0l98 561h-318l-499 -561h-138l535 592q-114 39 -183 127t-69 215q0 100 36.5 188.5t109.5 160.5t195 114.5t280 42.5q52 0 164.5 -3t152.5 -3l-252 -1434h-112zM702 668h336l115 659q-171 6 -223 6q-117 0 -208 -32t-145.5 -87.5t-82 -123.5t-27.5 -146
q0 -105 63 -179.5t172 -96.5zM1288 1688l-375 -177l-32 64l366 203z" />
    <glyph glyph-name="uni0401.var.accented" unicode="&#x401;`" horiz-adv-x="1177" 
d="M227 0l252 1434h793l-19 -107h-680l-96 -547h619l-19 -106h-618l-101 -568h701l-19 -106h-813zM1120 1745l-309 -227l-29 34l279 250zM1116 1647q0 28 19.5 46.5t46.5 18.5q24 0 41.5 -18.5t17.5 -46.5q0 -33 -17.5 -52.5t-41.5 -19.5q-29 0 -47.5 19.5t-18.5 52.5z
M582 1647q0 29 18 47t45 18q24 0 42 -18.5t18 -46.5q0 -32 -18 -52t-42 -20q-28 0 -45.5 19.5t-17.5 52.5z" />
    <glyph glyph-name="uni0430.var.accented" unicode="&#x430;`" horiz-adv-x="1011" 
d="M430 84q59 0 126.5 49t125 123t102.5 151t70 142l47 262q-74 29 -160 29q-205 0 -342 -147.5t-137 -373.5q0 -107 42.5 -171t125.5 -64zM866 0h-106l63 365q-35 -59 -62 -99.5t-74 -98.5t-89 -94t-99 -62.5t-114 -26.5q-114 0 -173.5 88t-59.5 231q0 180 78.5 326.5
t212.5 228.5t294 82q157 0 273 -59zM983 1401l-238 -291l-65 47l221 309z" />
    <glyph glyph-name="uni0435.var.accented" unicode="&#x435;`" horiz-adv-x="925" 
d="M821 207l49 -64q-74 -73 -171.5 -117t-200.5 -44q-87 0 -155 31t-108.5 83t-61.5 115t-21 133q0 154 65 289.5t188.5 221t276.5 85.5q133 0 200.5 -59t65.5 -158q0 -160 -179 -246t-505 -92v-20q-2 -129 65 -206t187 -77q152 0 305 125zM670 840q-146 0 -256 -108.5
t-142 -268.5q250 6 396 60t161 153q6 39 -4 72q-21 92 -155 92zM979 1401l-238 -291l-65 47l221 309z" />
    <glyph glyph-name="uni0438.var.accented" unicode="&#x438;`" horiz-adv-x="995" 
d="M381 82q60 0 131 49t132 122t109.5 150t73.5 140l66 379h102l-159 -922h-103l62 356q-38 -64 -82 -122t-102.5 -118.5t-127 -97t-135.5 -36.5q-93 0 -137.5 56t-44.5 148q0 72 22 195l115 541h103l-113 -521q-23 -117 -23 -180q2 -67 25.5 -103t85.5 -36zM926 1401
l-238 -291l-65 47l221 309z" />
    <glyph glyph-name="uni043E.var.accented" unicode="&#x43e;`" horiz-adv-x="1005" 
d="M502 -20q-163 0 -256.5 105t-93.5 277q0 85 20 168t62 157t100.5 130.5t141.5 89.5t179 33q162 0 250 -103t88 -270q0 -166 -59 -299t-171.5 -210.5t-260.5 -77.5zM516 80q172 0 270.5 133.5t98.5 335.5q0 136 -62.5 213.5t-181.5 77.5q-174 0 -276.5 -132.5
t-102.5 -328.5q0 -140 67 -219.5t187 -79.5zM956 1401l-237 -291l-66 47l221 309z" />
    <glyph glyph-name="uni0443.var.accented" unicode="&#x443;`" horiz-adv-x="825" 
d="M133 -311q44 0 85 25t80 75.5t65 92.5t63 110q-32 179 -116.5 439t-184.5 491h113q68 -152 147 -393t117 -414q81 156 160 383.5t122 423.5h113q-64 -216 -129 -401.5t-143 -361t-155 -298.5t-164 -197t-171 -74q-82 0 -149 50l49 81q58 -32 98 -32zM825 1401l-237 -291
l-66 47l221 309z" />
    <glyph glyph-name="uni044B.var.accented" unicode="&#x44b;`" horiz-adv-x="1232" 
d="M188 315q12 71 38 178.5t61 238.5t49 190h106q-121 -461 -129 -494q74 99 177 167.5t204 68.5q81 0 137 -59t56 -154q0 -86 -47 -172t-120.5 -149t-167 -102.5t-181.5 -39.5q-73 0 -120 31.5t-64 77t-17 104.5q0 48 18 114zM276 272q-4 -36 -4 -53q0 -131 121 -131
q89 0 180 49.5t150 129t59 159.5q0 59 -36 98t-89 39q-98 0 -213.5 -92t-167.5 -199zM1130 922h105l-160 -922h-102zM1053 1401l-238 -291l-65 47l221 309z" />
    <glyph glyph-name="uni044D.var.accented" unicode="&#x44d;`" horiz-adv-x="864" 
d="M354 422l17 88h374q11 160 -58 245t-208 85q-79 0 -141 -20.5t-127 -61.5l-43 73q145 109 326 109q183 0 270.5 -101.5t87.5 -281.5q0 -131 -39.5 -241t-107 -182t-155 -112t-183.5 -40q-171 0 -289 118l61 74q92 -92 228 -92q140 0 239.5 91t128.5 249h-381zM829 1401
l-237 -291l-66 47l222 309z" />
    <glyph glyph-name="uni044E.var.accented" unicode="&#x44e;`" horiz-adv-x="1378" 
d="M893 -20q-157 0 -247.5 108t-90.5 291q0 27 2 39h-238l-73 -418h-99l154 922h100l-67 -404h235q18 85 55.5 159t94 134t138 94.5t177.5 34.5q159 0 244.5 -103t85.5 -270q0 -166 -57 -299t-165.5 -210.5t-248.5 -77.5zM1022 840q-114 0 -199 -63t-126.5 -166.5
t-41.5 -231.5q0 -138 64 -218.5t182 -80.5q167 0 263 133.5t96 335.5q0 136 -61 213.5t-177 77.5zM1087 1401l-237 -291l-66 47l222 309z" />
    <glyph glyph-name="uni044F.var.accented" unicode="&#x44f;`" horiz-adv-x="870" 
d="M623 922h247l-157 -922h-103l58 344h-197l-309 -344h-127l342 373q-80 18 -129 75.5t-49 145.5q0 62 21.5 117t68 104t132.5 78t202 29zM307 606q0 -77 49.5 -119.5t143.5 -42.5h186l66 377h-160q-76 0 -133 -18.5t-89 -50t-47.5 -68t-15.5 -78.5zM899 1401l-237 -291
l-66 47l221 309z" />
    <glyph glyph-name="uni0451.var.accented" unicode="&#x451;`" horiz-adv-x="925" 
d="M821 207l49 -64q-74 -73 -171.5 -117t-200.5 -44q-87 0 -155 31t-108.5 83t-61.5 115t-21 133q0 154 65 289.5t188.5 221t276.5 85.5q133 0 200.5 -59t65.5 -158q0 -160 -179 -246t-505 -92v-20q-2 -129 65 -206t187 -77q152 0 305 125zM670 840q-146 0 -256 -108.5
t-142 -268.5q250 6 396 60t161 153q6 39 -4 72q-21 92 -155 92zM932 1401l-238 -291l-65 47l221 309zM463 1266q0 30 21 48.5t51 18.5q26 0 45.5 -18.5t19.5 -48.5q0 -32 -19.5 -52t-45.5 -20q-30 0 -51 19.5t-21 52.5zM932 1266q0 30 21 48.5t51 18.5q26 0 45.5 -18.5
t19.5 -48.5q0 -32 -19.5 -52t-45.5 -20q-30 0 -51 19.5t-21 52.5z" />
    <glyph glyph-name="fi" unicode="fi" horiz-adv-x="962" 
d="M143 -49l195 1120q16 87 46 154t79 119.5t123.5 80t171.5 27.5q173 0 254 -84l-51 -82q-80 66 -205 66q-138 0 -214.5 -73.5t-101.5 -221.5l-22 -135h520l-158 -922h-104l141 821h-418l-153 -878q-64 -369 -316 -369q-101 0 -168 49l48 86q58 -35 114 -35q171 0 219 277z
" />
    <glyph glyph-name="fl" unicode="fl" horiz-adv-x="1073" 
d="M717 260l182 1026q-72 66 -184 66q-228 0 -275 -295l-22 -135h241l-18 -101h-242l-153 -878q-64 -369 -316 -369q-101 0 -168 49l48 86q58 -35 114 -35q159 0 209 226q38 170 71.5 360t74 445.5t59.5 365.5q34 189 129.5 285t247.5 96q128 0 219 -68h86l-201 -1120
q-9 -55 -6 -90q3 -86 94 -86q74 0 142 45l16 -88q-95 -57 -195 -57q-90 0 -129 51t-30 156q0 38 6 65z" />
    <glyph glyph-name=".notdef" horiz-adv-x="481" 
 />
    <glyph glyph-name=".null" horiz-adv-x="0" 
 />
    <glyph glyph-name="nonmarkingreturn" horiz-adv-x="682" 
 />
    <glyph glyph-name="space" unicode=" " horiz-adv-x="481" 
 />
    <glyph glyph-name="exclam" unicode="!" horiz-adv-x="634" 
d="M324 395l182 1039h112l-182 -1039h-112zM248 78q0 29 22.5 51.5t57.5 22.5q31 0 53 -22.5t22 -51.5q0 -33 -21.5 -57.5t-53.5 -24.5q-36 0 -58 24t-22 58z" />
    <glyph glyph-name="quotedbl" unicode="&#x22;" horiz-adv-x="821" 
d="M381 1008l74 426h106l-74 -426h-106zM690 1008l74 426h106l-73 -426h-107z" />
    <glyph glyph-name="numbersign" unicode="#" horiz-adv-x="1409" 
d="M770 12l152 412h-430l-164 -442l-84 30l151 412h-198v94h233l148 397h-381v95h417l164 442l84 -31l-151 -411h430l164 442l84 -29l-152 -413h205v-95h-242l-145 -397h387v-94h-424l-164 -442zM674 915l-146 -397h428l148 397h-430z" />
    <glyph glyph-name="dollar" unicode="$" 
d="M1001 399q0 67 -34.5 119t-89.5 85t-121.5 62.5t-133 60.5t-121.5 69.5t-89.5 99.5t-34.5 141q0 162 122 278.5t320 133.5l31 170h106l-30 -168q102 -9 183 -47t124 -96l-78 -84q-99 123 -297 123q-163 0 -261.5 -81.5t-98.5 -211.5q0 -53 21.5 -95.5t57.5 -71.5
t82.5 -54t98 -47t103 -44.5t98 -52t82.5 -65t57.5 -87.5t21.5 -116q0 -180 -128.5 -296.5t-323.5 -135.5l-33 -193h-107l33 189q-123 8 -226 63t-140 141l79 76q48 -82 144.5 -129t197.5 -47t186.5 34t142 106.5t56.5 170.5z" />
    <glyph glyph-name="percent" unicode="%" horiz-adv-x="1740" 
d="M229 1079q0 160 101.5 260.5t259.5 100.5q139 0 232 -89t93 -231q0 -150 -100.5 -255t-259.5 -105q-141 0 -233.5 89.5t-92.5 229.5zM324 1083q0 -102 66 -166.5t169 -64.5q122 0 192 75.5t70 188.5q0 101 -65.5 167.5t-165.5 66.5q-122 0 -194 -73.5t-72 -193.5z
M1071 315q0 160 102.5 260.5t260.5 100.5q139 0 232 -89t93 -231q0 -151 -100.5 -255.5t-259.5 -104.5q-142 0 -235 89.5t-93 229.5zM1165 319q0 -102 66.5 -167.5t169.5 -65.5q123 0 193.5 75.5t70.5 190.5q0 101 -66 167.5t-165 66.5q-122 0 -195.5 -74.5t-73.5 -192.5z
M428 27l1067 1425l64 -45l-1065 -1425z" />
    <glyph glyph-name="ampersand" unicode="&#x26;" horiz-adv-x="1509" 
d="M1255 0l-137 223q-105 -111 -231.5 -176t-265.5 -65q-184 0 -292 97t-108 255q0 77 29.5 150t72.5 129t109 113t122 95t130 82q-1 1 -21.5 18.5t-26.5 23t-25.5 24t-27.5 28.5t-23.5 29t-23 34.5t-16.5 35.5t-12.5 40.5t-3.5 41.5q0 121 88.5 197.5t232.5 76.5
q129 0 208 -68t79 -176q0 -106 -66.5 -178t-214.5 -145l306 -504q170 222 231 541h105q-29 -171 -103.5 -335.5t-181.5 -291.5l182 -295h-115zM631 88q128 0 241.5 63t194.5 158l-324 533q-72 -46 -124 -83t-108 -87.5t-91 -98t-57.5 -107.5t-22.5 -124q0 -122 83.5 -188
t207.5 -66zM610 1184q0 -39 15 -75t43 -65.5t50.5 -48t55.5 -41.5q232 96 232 234q0 78 -50 127t-137 49q-91 0 -150 -51.5t-59 -128.5z" />
    <glyph glyph-name="quotesingle" unicode="'" horiz-adv-x="512" 
d="M381 1008l74 426h106l-74 -426h-106z" />
    <glyph glyph-name="parenleft" unicode="(" horiz-adv-x="565" 
d="M500 -362l-72 -60q-144 147 -214.5 334t-70.5 375q0 136 26 257.5t89 255t182.5 270.5t292.5 273l58 -67q-126 -101 -220 -202t-154.5 -194.5t-97.5 -192.5t-52 -190t-15 -194q0 -186 62.5 -362t185.5 -303z" />
    <glyph glyph-name="parenright" unicode=")" horiz-adv-x="587" 
d="M-6 -422l-57 72q268 203 403 452t135 525q0 387 -244 657l74 59q145 -155 212 -338.5t67 -373.5q0 -612 -590 -1053z" />
    <glyph glyph-name="asterisk" unicode="*" horiz-adv-x="942" 
d="M573 1376q0 31 22.5 53.5t51.5 22.5q32 0 54 -22.5t22 -53.5t-22 -51t-54 -20q-30 0 -52 20.5t-22 50.5zM569 840q0 31 23 53t53 22t52 -21.5t22 -53.5q0 -29 -22.5 -51.5t-51.5 -22.5t-52.5 22.5t-23.5 51.5zM797 1239q0 31 20.5 53.5t50.5 22.5q31 0 53.5 -22.5
t22.5 -53.5q0 -29 -22.5 -51.5t-53.5 -22.5q-30 0 -50.5 22t-20.5 52zM797 987q0 31 20.5 52.5t50.5 21.5q31 0 53.5 -21.5t22.5 -52.5t-22.5 -53.5t-53.5 -22.5q-30 0 -50.5 22.5t-20.5 53.5zM344 987q0 31 21.5 52.5t50.5 21.5q32 0 52.5 -21.5t20.5 -52.5t-20.5 -53.5
t-52.5 -22.5q-29 0 -50.5 22.5t-21.5 53.5zM344 1239q0 31 21.5 53.5t50.5 22.5q32 0 52.5 -22.5t20.5 -53.5q0 -30 -21 -52t-52 -22q-29 0 -50.5 22.5t-21.5 51.5z" />
    <glyph glyph-name="plus" unicode="+" 
d="M272 690v94h404v408h100v-408h410v-94h-410v-411h-100v411h-404z" />
    <glyph glyph-name="comma" unicode="," horiz-adv-x="409" 
d="M133 63q0 58 57 74q16 5 39 2q46 -4 72.5 -42.5t26.5 -98.5q0 -108 -72 -189t-180 -110l-21 53q61 19 113.5 72.5t62.5 122.5q2 24 -10 65q-6 -12 -26 -12q-30 0 -46 18t-16 45z" />
    <glyph glyph-name="hyphen" unicode="-" horiz-adv-x="817" 
d="M250 506l18 100h469l-18 -100h-469z" />
    <glyph glyph-name="period" unicode="." horiz-adv-x="376" 
d="M129 78q0 29 23 51.5t57 22.5q32 0 55 -23t23 -51q0 -33 -22 -57.5t-56 -24.5q-37 0 -58.5 24t-21.5 58z" />
    <glyph glyph-name="slash" unicode="/" horiz-adv-x="649" 
d="M-33 -395l688 1847l84 -31l-686 -1847z" />
    <glyph glyph-name="zero" unicode="0" horiz-adv-x="1171" 
d="M233 498q0 147 20 282.5t65 258.5t110 213.5t162 144t215 53.5q194 0 289.5 -138t95.5 -372q0 -139 -17.5 -270t-58.5 -257.5t-102.5 -220t-157.5 -151t-215 -57.5q-104 0 -183 38t-127 107.5t-72 162t-24 206.5zM346 500q0 -194 74.5 -305t222.5 -111q135 0 234.5 110.5
t150.5 303.5t51 444q0 191 -71 299.5t-213 108.5q-78 0 -144 -32.5t-111 -85.5t-80.5 -127t-56.5 -150.5t-34 -162t-18 -155.5t-5 -137z" />
    <glyph glyph-name="one" unicode="1" horiz-adv-x="761" 
d="M301 1186l373 260h71l-253 -1446h-107l225 1282l-260 -174z" />
    <glyph glyph-name="two" unicode="2" horiz-adv-x="1083" 
d="M104 0l15 88q79 64 118 96t122.5 102t131 113.5t121.5 114.5t118 122.5t97 119.5t81.5 123t48.5 116t20 115q0 108 -64.5 170.5t-181.5 62.5q-105 0 -196 -69t-134 -193l-86 41q49 151 166.5 239.5t266.5 88.5q171 0 258.5 -89.5t87.5 -232.5q0 -60 -20.5 -126.5
t-52.5 -127.5t-83.5 -131t-99.5 -126t-115 -122.5t-116 -111.5t-117 -102.5t-102.5 -86t-87.5 -70.5q-21 -17 -30 -24h707l-19 -100h-854z" />
    <glyph glyph-name="three" unicode="3" horiz-adv-x="1091" 
d="M535 -18q-159 0 -266.5 68t-145.5 196l94 47q30 -100 113.5 -152.5t193.5 -52.5q176 0 279.5 101t103.5 249q0 109 -76 175.5t-204 66.5h-107l19 106h92q140 0 241 93.5t101 232.5q0 105 -67 169.5t-185 64.5q-97 0 -176 -48.5t-131 -130.5l-78 56q62 110 173.5 169.5
t242.5 59.5q153 0 245.5 -83.5t92.5 -225.5q0 -133 -78.5 -243.5t-216.5 -156.5l-2 -6q107 -24 167 -103.5t60 -187.5q0 -205 -138.5 -334.5t-346.5 -129.5z" />
    <glyph glyph-name="four" unicode="4" horiz-adv-x="1101" 
d="M715 0l67 379h-665l12 72l801 983h129l-774 -949h516l76 437h106l-76 -437h211l-18 -106h-211l-68 -379h-106z" />
    <glyph glyph-name="five" unicode="5" horiz-adv-x="1052" 
d="M354 745l209 689h623l-19 -107h-530l-143 -469q68 21 143 21q168 0 276.5 -100.5t108.5 -266.5q0 -161 -70.5 -283.5t-186 -184.5t-257.5 -62q-125 0 -233 56.5t-162 166.5l80 67q47 -91 134.5 -137.5t184.5 -46.5q176 0 284.5 115.5t108.5 288.5q0 131 -82 210.5
t-243 79.5q-113 0 -226 -37z" />
    <glyph glyph-name="six" unicode="6" horiz-adv-x="1118" 
d="M190 426q0 156 52 305.5t139.5 268t199.5 214t234.5 156t241.5 82.5l26 -90q-111 -25 -224 -83.5t-219 -148t-190 -221t-124 -284.5q65 118 171.5 186t239.5 68q163 0 267 -102.5t104 -266.5q0 -144 -63 -265t-177 -192t-254 -71q-203 0 -313.5 124t-110.5 320zM309 502
q-7 -58 -4 -103q8 -135 86.5 -223t216.5 -88q89 0 162.5 34t121 91.5t73.5 130t26 150.5q0 124 -76 204t-210 80q-138 0 -245.5 -81.5t-150.5 -194.5z" />
    <glyph glyph-name="seven" unicode="7" horiz-adv-x="964" 
d="M295 1327l18 107h828l-11 -66l-786 -1368h-125l764 1327h-688z" />
    <glyph glyph-name="eight" unicode="8" horiz-adv-x="1210" 
d="M743 791h43q121 0 215.5 87.5t94.5 221.5q0 113 -76.5 179.5t-194.5 66.5q-132 0 -232.5 -87t-100.5 -219q0 -104 67.5 -176.5t183.5 -72.5zM735 684h-41q-170 0 -271 -92.5t-101 -235.5q0 -124 86 -196t233 -72q176 0 280.5 94.5t104.5 245.5q0 121 -79.5 188.5
t-211.5 67.5zM641 -18q-194 0 -315 96t-121 256q0 161 97 273t269 141v4q-84 34 -138 112t-54 185q0 112 64 205t171.5 145.5t233.5 52.5q166 0 265 -87t99 -230q0 -134 -74 -244t-223 -152v-4q103 -26 163.5 -106.5t60.5 -192.5q0 -212 -139.5 -333t-358.5 -121z" />
    <glyph glyph-name="nine" unicode="9" horiz-adv-x="1110" 
d="M1174 977q0 -204 -67.5 -382t-185 -305.5t-279 -208t-347.5 -99.5l-25 94q140 16 267 70.5t233.5 144t180.5 224t100 298.5q-56 -109 -168.5 -179.5t-247.5 -70.5q-171 0 -276 109t-105 282q0 136 66 250.5t179 181t246 66.5q140 0 238.5 -63t144.5 -168.5t46 -243.5z
M1053 924q15 108 -14 203t-105.5 157t-188.5 62q-157 0 -265.5 -111t-108.5 -260q0 -136 80.5 -223.5t226.5 -87.5q127 0 225.5 71t149.5 189z" />
    <glyph glyph-name="colon" unicode=":" horiz-adv-x="659" 
d="M395 864q0 29 22.5 52.5t57.5 23.5q31 0 53.5 -23.5t22.5 -52.5q0 -33 -21.5 -56.5t-54.5 -23.5q-37 0 -58.5 23t-21.5 57zM256 78q0 29 23 51.5t57 22.5q32 0 55 -23t23 -51q0 -33 -22 -57.5t-56 -24.5q-37 0 -58.5 24t-21.5 58z" />
    <glyph glyph-name="semicolon" unicode=";" horiz-adv-x="665" 
d="M246 63q0 58 57 74q16 5 39 2q46 -4 72 -42.5t26 -98.5q0 -108 -72 -189t-180 -110l-20 53q61 19 113.5 72.5t62.5 122.5q2 24 -10 65q-6 -12 -27 -12q-30 0 -45.5 18t-15.5 45zM389 864q0 29 23 51.5t57 22.5q32 0 55 -23t23 -51q0 -33 -22 -57.5t-56 -24.5
q-37 0 -58.5 24t-21.5 58z" />
    <glyph glyph-name="less" unicode="&#x3c;" 
d="M1116 182l-860 537v45l860 532v-116l-710 -439l710 -442v-117z" />
    <glyph glyph-name="equal" unicode="=" 
d="M270 514v94h914v-94h-914zM270 866v95h914v-95h-914z" />
    <glyph glyph-name="greater" unicode="&#x3e;" 
d="M1198 719l-858 -537v117l711 442l-711 439v116l858 -532v-45z" />
    <glyph glyph-name="question" unicode="?" horiz-adv-x="909" 
d="M922 1118q0 102 -62.5 165t-185.5 63q-195 0 -338 -170l-66 71q74 95 183 150t243 55q163 0 251.5 -88t88.5 -223q0 -84 -29.5 -153.5t-76.5 -119t-104 -92.5t-114.5 -83.5t-105 -82.5t-78 -98.5t-32.5 -122.5h-90q-2 76 26 139.5t73 109t100.5 86.5t111 80.5t101.5 82.5
t75 102t29 129zM311 61q0 29 22.5 51.5t57.5 22.5q31 0 53.5 -22.5t22.5 -51.5q0 -33 -22 -57t-54 -24q-36 0 -58 24t-22 57z" />
    <glyph glyph-name="at" unicode="@" horiz-adv-x="2093" 
d="M1114 -334q72 0 151.5 12.5t131.5 32.5l20 -92q-59 -22 -146.5 -37.5t-164.5 -15.5q-257 0 -453.5 109.5t-302.5 304.5t-106 446q0 193 73.5 365t199.5 295.5t304 195.5t379 72q187 0 344.5 -54.5t268 -151t172 -233.5t61.5 -299q0 -131 -35.5 -241.5t-105 -195
t-180.5 -132t-252 -47.5h-68q-60 0 -84 27q-7 49 12 155l31 183q-29 -49 -55 -88t-63.5 -85.5t-73.5 -80.5t-81.5 -61t-91.5 -38q-83 -25 -153 -2q-73 25 -112.5 101.5t-39.5 193.5q0 133 45.5 251t123.5 202t187 133t232 49q149 0 270 -59l-129 -781h54q218 0 343.5 136
t125.5 372q0 285 -203.5 465t-544.5 180q-236 0 -431.5 -105.5t-309 -295t-113.5 -424.5q0 -173 58 -317t160.5 -241t244 -150.5t307.5 -53.5zM1395 549l47 262q-82 29 -156 29q-211 0 -347 -148t-136 -373q0 -111 45.5 -173t122.5 -62q58 0 124.5 47.5t123.5 120.5
t102.5 150.5t73.5 146.5z" />
    <glyph glyph-name="A" unicode="A" horiz-adv-x="1427" 
d="M43 0l879 1446h92l370 -1446h-114l-125 487h-686l-295 -487h-121zM944 1290l-422 -696h598z" />
    <glyph glyph-name="B" unicode="B" horiz-adv-x="1263" 
d="M227 2l252 1430q320 8 379 8q397 0 397 -312q0 -143 -89.5 -248.5t-233.5 -138.5l-2 -2q124 -23 192 -97t68 -185q0 -116 -45.5 -206t-126.5 -145.5t-186.5 -83.5t-231.5 -28q-205 0 -373 8zM737 682h-276l-103 -573q128 -9 267 -9q210 0 327 88t117 250q0 244 -332 244z
M838 1333q-94 0 -265 -6l-96 -545h279q163 0 272 91.5t109 234.5q0 225 -299 225z" />
    <glyph glyph-name="C" unicode="C" horiz-adv-x="1343" 
d="M1313 203l43 -86q-82 -67 -209.5 -101t-247.5 -34q-304 0 -490 184t-186 481q0 166 62.5 314.5t172 256.5t265.5 171t334 63q140 0 251 -32t177 -89l-60 -82q-148 97 -362 97q-154 0 -289 -54t-228.5 -146.5t-147.5 -218t-54 -265.5q0 -256 159.5 -415t414.5 -159
q227 0 395 115z" />
    <glyph glyph-name="D" unicode="D" horiz-adv-x="1509" 
d="M227 0l252 1434h23q48 0 164.5 3t181.5 3q181 0 317.5 -46.5t217 -130t120 -190.5t39.5 -237q0 -174 -62.5 -325t-181 -266.5t-304 -182t-416.5 -66.5q-52 0 -166 2t-174 2h-11zM827 1333q-48 0 -90.5 -1t-88.5 -2.5t-75 -2.5l-215 -1221q234 -4 242 -4q197 0 354 55
t258.5 153.5t155 231t53.5 289.5q0 234 -146.5 368t-447.5 134z" />
    <glyph glyph-name="E" unicode="E" horiz-adv-x="1177" 
d="M227 0l252 1434h793l-19 -107h-680l-96 -547h619l-19 -106h-618l-101 -568h701l-19 -106h-813z" />
    <glyph glyph-name="F" unicode="F" horiz-adv-x="1110" 
d="M227 0l252 1434h801l-18 -107h-689l-102 -590h627l-21 -106h-626l-111 -631h-113z" />
    <glyph glyph-name="G" unicode="G" horiz-adv-x="1488" 
d="M934 588l20 106h527l-92 -516q-89 -90 -228.5 -143t-277.5 -53q-199 0 -351 86.5t-231.5 234.5t-79.5 334q0 170 62.5 320.5t170.5 259.5t261 172t327 63q286 0 439 -141l-68 -82q-59 54 -157 85.5t-222 31.5q-194 0 -352 -88.5t-249 -247t-91 -355.5
q0 -254 150.5 -410.5t390.5 -156.5q244 0 411 148l60 352h-420z" />
    <glyph glyph-name="H" unicode="H" horiz-adv-x="1566" 
d="M1227 0l119 678h-887l-119 -678h-113l252 1434h113l-113 -650h887l113 650h112l-252 -1434h-112z" />
    <glyph glyph-name="I" unicode="I" horiz-adv-x="632" 
d="M268 0l252 1434h113l-252 -1434h-113z" />
    <glyph glyph-name="J" unicode="J" horiz-adv-x="739" 
d="M764 1434l-197 -1119q-29 -161 -111.5 -247t-232.5 -86q-59 0 -109 19t-77 46l55 86q55 -45 137 -45q105 0 156.5 65.5t73.5 178.5l194 1102h111z" />
    <glyph glyph-name="K" unicode="K" horiz-adv-x="1304" 
d="M1473 1434l-803 -697l569 -737h-137l-563 748l782 686h152zM227 0l252 1434h113l-252 -1434h-113z" />
    <glyph glyph-name="L" unicode="L" horiz-adv-x="1130" 
d="M227 0l252 1434h113l-234 -1328h756l-18 -106h-869z" />
    <glyph glyph-name="M" unicode="M" horiz-adv-x="1810" 
d="M227 0l252 1434h101l436 -787l696 787h123l-252 -1434h-113l222 1255l-688 -772h-19l-426 768l-219 -1251h-113z" />
    <glyph glyph-name="N" unicode="N" horiz-adv-x="1632" 
d="M1405 0h-90l-762 1251l-219 -1251h-107l252 1434h90l762 -1250l219 1250h107z" />
    <glyph glyph-name="O" unicode="O" horiz-adv-x="1658" 
d="M223 645q0 169 59 318t163.5 256.5t255 170t325.5 62.5q300 0 481 -176t181 -467q0 -238 -99.5 -426.5t-278.5 -294.5t-405 -106q-165 0 -295.5 50t-214.5 139t-128 209.5t-44 264.5zM346 651q0 -263 155 -413t410 -150q136 0 256 50.5t208.5 140.5t140 224t51.5 292
q0 251 -149 401t-404 150q-134 0 -255 -49t-212.5 -137t-146 -220.5t-54.5 -288.5z" />
    <glyph glyph-name="P" unicode="P" horiz-adv-x="1198" 
d="M340 0h-113l252 1434q40 0 174.5 2t173.5 2q99 0 177.5 -20t128 -53.5t82 -80t46 -96t13.5 -105.5q0 -106 -36.5 -197.5t-107.5 -163.5t-186.5 -113.5t-263.5 -41.5q-133 0 -240 8zM819 1331q-110 0 -246 -4l-112 -643q130 -10 233 -10q218 0 338.5 110t120.5 283
q0 121 -82 192.5t-252 71.5z" />
    <glyph glyph-name="Q" unicode="Q" horiz-adv-x="1658" 
d="M1524 0h-129l-68 98q-185 -116 -432 -116q-309 0 -490.5 179t-181.5 484q0 173 61.5 324t167.5 256.5t253 166t313 60.5q156 0 282.5 -47.5t211 -133t130.5 -204.5t46 -262q0 -198 -72 -363.5t-203 -277.5zM346 651q0 -260 154 -411.5t411 -151.5q203 0 355 100l-103 154
l86 68l103 -156q102 96 158.5 235.5t56.5 307.5q0 250 -150 399.5t-403 149.5q-187 0 -340 -89t-240.5 -248.5t-87.5 -357.5z" />
    <glyph glyph-name="R" unicode="R" horiz-adv-x="1288" 
d="M340 0h-113l252 1434q44 0 188 2t162 2q120 0 206.5 -26t135.5 -73t71 -105.5t22 -131.5q0 -192 -117.5 -319t-302.5 -160l391 -623h-137l-371 602h-281zM805 1331q-96 0 -232 -4l-108 -618h223q197 0 326 100t129 272q0 250 -338 250z" />
    <glyph glyph-name="S" unicode="S" horiz-adv-x="1120" 
d="M961 383q0 67 -35 120.5t-90.5 90t-123 69.5t-134.5 69.5t-122.5 79t-90.5 108t-35 147.5q0 76 31 144.5t89.5 122.5t153.5 86t213 32q112 0 210 -40t153 -105l-70 -84q-54 56 -132.5 89.5t-172.5 33.5q-166 0 -260 -74.5t-94 -192.5q0 -60 27 -109t71.5 -81.5t101 -65
t115.5 -58.5t115.5 -62t101 -75t71.5 -98.5t27 -132.5q0 -188 -129 -301.5t-336 -113.5q-162 0 -280.5 62t-171.5 163l74 74q55 -88 152.5 -140.5t223.5 -52.5q92 0 169 32t127.5 101t50.5 162z" />
    <glyph glyph-name="T" unicode="T" horiz-adv-x="1224" 
d="M254 1327l18 107h1174l-19 -107h-530l-233 -1327h-113l233 1327h-530z" />
    <glyph glyph-name="U" unicode="U" horiz-adv-x="1538" 
d="M1585 1434l-147 -834q-57 -317 -216.5 -466.5t-435.5 -149.5q-231 0 -360 123.5t-125 355.5q0 58 14 151l146 820h114l-143 -801q-16 -88 -16 -154q-1 -196 100 -292.5t289 -96.5q223 0 350 134.5t174 400.5l144 809h112z" />
    <glyph glyph-name="V" unicode="V" horiz-adv-x="1343" 
d="M1573 1434l-856 -1446h-80l-363 1446h115l313 -1272l750 1272h121z" />
    <glyph glyph-name="W" unicode="W" horiz-adv-x="1961" 
d="M2185 1434l-669 -1434h-99l-211 1245l-641 -1245h-98l-186 1434h120l154 -1237l629 1237h106l205 -1235l573 1235h117z" />
    <glyph glyph-name="X" unicode="X" horiz-adv-x="1343" 
d="M1524 1434l-650 -705l416 -729h-125l-372 645l-596 -645h-144l676 729l-401 705h127l358 -623l569 623h142z" />
    <glyph glyph-name="Y" unicode="Y" horiz-adv-x="1204" 
d="M1419 1434l-659 -807l-109 -627h-112l108 627l-366 807h120l318 -701l567 701h133z" />
    <glyph glyph-name="Z" unicode="Z" horiz-adv-x="1312" 
d="M369 1327l18 107h1063l-12 -72l-1162 -1256h961l-18 -106h-1125l12 72l1160 1255h-897z" />
    <glyph glyph-name="bracketleft" unicode="[" horiz-adv-x="606" 
d="M51 -410l307 1741h471l-18 -100h-365l-270 -1540h365l-19 -101h-471z" />
    <glyph glyph-name="backslash" unicode="\" horiz-adv-x="649" 
d="M145 1452l689 -1847l-86 -31l-687 1847z" />
    <glyph glyph-name="bracketright" unicode="]" horiz-adv-x="606" 
d="M719 1331l-307 -1741h-471l18 101h365l270 1540h-365l19 100h471z" />
    <glyph glyph-name="asciicircum" unicode="^" horiz-adv-x="983" 
d="M252 922l360 528h70l356 -528h-116l-277 415l-276 -415h-117z" />
    <glyph glyph-name="underscore" unicode="_" horiz-adv-x="587" 
d="M0 -410v107h588v-107h-588z" />
    <glyph glyph-name="grave" unicode="`" horiz-adv-x="550" 
d="M360 1110l-237 291l84 63l221 -307z" />
    <glyph glyph-name="a" unicode="a" horiz-adv-x="1011" 
d="M430 84q59 0 126.5 49t125 123t102.5 151t70 142l47 262q-74 29 -160 29q-205 0 -342 -147.5t-137 -373.5q0 -107 42.5 -171t125.5 -64zM866 0h-106l63 365q-35 -59 -62 -99.5t-74 -98.5t-89 -94t-99 -62.5t-114 -26.5q-114 0 -173.5 88t-59.5 231q0 180 78.5 326.5
t212.5 228.5t294 82q157 0 273 -59z" />
    <glyph glyph-name="b" unicode="b" horiz-adv-x="1030" 
d="M492 1423l-150 -841q39 63 85 120.5t104.5 114t125.5 90t131 33.5q61 0 107.5 -26t73 -71.5t39 -101t12.5 -120.5q0 -175 -74.5 -321.5t-206.5 -232t-293 -85.5q-93 0 -171 23.5t-123 60.5l237 1357h103zM309 403l-47 -274q73 -47 191 -47q131 0 236.5 69.5t163.5 188
t58 262.5q0 107 -41.5 172.5t-126.5 65.5q-52 0 -118 -44t-125 -111t-109.5 -141.5t-81.5 -140.5z" />
    <glyph glyph-name="c" unicode="c" horiz-adv-x="866" 
d="M782 199l49 -66q-69 -68 -158.5 -109.5t-185.5 -41.5q-84 0 -149.5 29t-105 79.5t-60 114t-20.5 135.5q0 117 38 225.5t105 191.5t166.5 133t214.5 50q137 0 219 -43l-35 -90q-94 33 -194 33q-116 0 -209 -67t-143 -176t-50 -235q0 -129 64 -204.5t178 -75.5
q54 0 108.5 19.5t88.5 41t79 56.5z" />
    <glyph glyph-name="d" unicode="d" horiz-adv-x="1034" 
d="M731 940q95 0 195 -35l92 529h100l-246 -1434h-102l64 365q-226 -381 -449 -381q-112 0 -172.5 88.5t-60.5 230.5q0 180 78.5 326.5t211 228.5t289.5 82zM725 840q-195 0 -331 -148.5t-136 -372.5q0 -106 44.5 -170.5t127.5 -64.5q67 0 144 61.5t137.5 147t104.5 171
t56 140.5l33 193q-78 43 -180 43z" />
    <glyph glyph-name="e" unicode="e" horiz-adv-x="925" 
d="M821 207l49 -64q-74 -73 -171.5 -117t-200.5 -44q-87 0 -155 31t-108.5 83t-61.5 115t-21 133q0 154 65 289.5t188.5 221t276.5 85.5q133 0 200.5 -59t65.5 -158q0 -160 -179 -246t-505 -92v-20q-2 -129 65 -206t187 -77q152 0 305 125zM670 840q-146 0 -256 -108.5
t-142 -268.5q250 6 396 60t161 153q6 39 -4 72q-21 92 -155 92z" />
    <glyph glyph-name="f" unicode="f" horiz-adv-x="536" 
d="M143 -49l195 1120q32 183 120 282t236 99q147 0 203 -53l-55 -86q-53 39 -148 39q-205 0 -254 -295l-22 -135h241l-18 -101h-242l-153 -878q-64 -369 -316 -369q-101 0 -168 49l48 86q58 -35 114 -35q171 0 219 277z" />
    <glyph glyph-name="g" unicode="g" horiz-adv-x="917" 
d="M385 207q0 -36 18 -57q46 4 70 4q171 0 275 -67t104 -189q0 -154 -134 -239t-343 -85q-111 0 -196 25t-139 83t-54 144q0 126 94.5 205t243.5 106q-17 25 -17 64q0 66 47 110q-72 34 -112.5 100.5t-40.5 149.5q0 101 45 186.5t135.5 139t210.5 53.5q124 0 207 -70l266 70
l-10 -88l-205 -55q35 -59 35 -140q0 -164 -111 -269t-280 -105q-34 0 -74 8q-35 -35 -35 -84zM387 -338q164 0 265.5 59t101.5 164q0 84 -81 132.5t-214 48.5q-165 0 -270 -61.5t-105 -164.5q0 -89 84.5 -133.5t218.5 -44.5zM299 573q0 -88 56 -145t155 -57q120 0 198 78.5
t78 195.5q0 84 -53.5 145.5t-154.5 61.5q-124 0 -201.5 -81.5t-77.5 -197.5z" />
    <glyph glyph-name="h" unicode="h" horiz-adv-x="1024" 
d="M772 840q-58 0 -130 -48t-134.5 -119t-113.5 -148t-77 -140l-67 -385h-103l246 1434h103l-150 -869q31 49 65.5 96t82.5 99t96 90.5t105 64t110 25.5q93 0 137.5 -56t44.5 -149q0 -71 -22 -194l-105 -541h-102l102 520q25 132 23 180q-2 66 -26 103t-85 37z" />
    <glyph glyph-name="i" unicode="i" horiz-adv-x="448" 
d="M164 0l158 922h102l-158 -922h-102zM367 1280q0 29 20.5 48.5t50.5 19.5q27 0 47.5 -19.5t20.5 -48.5q0 -34 -20 -55t-48 -21q-30 0 -50.5 21t-20.5 55z" />
    <glyph glyph-name="j" unicode="j" horiz-adv-x="442" 
d="M442 922l-174 -990q-62 -358 -327 -358q-111 0 -174 53l47 84q56 -37 120 -37q180 0 228 265l174 983h106zM379 1280q0 29 21 48.5t51 19.5q27 0 48 -20t21 -48q0 -34 -20.5 -55t-48.5 -21q-30 0 -51 21t-21 55z" />
    <glyph glyph-name="k" unicode="k" horiz-adv-x="892" 
d="M1004 922l-490 -445l377 -477h-135l-367 481l477 441h138zM147 0l246 1434h103l-246 -1434h-103z" />
    <glyph glyph-name="l" unicode="l" horiz-adv-x="524" 
d="M188 266l209 1168h105l-211 -1170q-6 -40 -6 -76q-2 -50 19.5 -75t70.5 -25q65 0 127 41l16 -88q-92 -53 -178 -53q-160 0 -160 176q0 61 8 102z" />
    <glyph glyph-name="m" unicode="m" horiz-adv-x="1503" 
d="M147 0l158 922h103l-60 -355q31 61 68.5 118.5t90.5 118.5t119 98.5t132 37.5q86 0 126 -53t40 -125q0 -52 -15 -164q27 48 54 90.5t67 90.5t80 82t90 56.5t100 22.5q86 0 126 -53.5t40 -128.5q0 -81 -26 -234l-107 -524h-106l102 506q31 137 29 201q-2 61 -25.5 97
t-85.5 36q-56 0 -117 -49t-111.5 -125t-89 -149t-63.5 -138l-73 -379h-107l100 506q29 123 29 203q-4 131 -110 131q-48 0 -101.5 -38t-98 -95t-85 -125.5t-67.5 -127.5t-42 -104l-61 -350h-103z" />
    <glyph glyph-name="n" unicode="n" horiz-adv-x="1030" 
d="M305 922h103l-62 -357q30 49 65.5 96t84 99t97 90.5t106.5 64t112 25.5q93 0 137.5 -56t44.5 -149q0 -71 -22 -194l-105 -541h-102l102 520q23 122 23 180q-2 66 -26.5 103t-86.5 37q-77 0 -175 -81.5t-173 -184.5t-111 -189l-67 -385h-103z" />
    <glyph glyph-name="o" unicode="o" horiz-adv-x="1005" 
d="M502 -20q-163 0 -256.5 105t-93.5 277q0 85 20 168t62 157t100.5 130.5t141.5 89.5t179 33q162 0 250 -103t88 -270q0 -166 -59 -299t-171.5 -210.5t-260.5 -77.5zM516 80q172 0 270.5 133.5t98.5 335.5q0 136 -62.5 213.5t-181.5 77.5q-174 0 -276.5 -132.5
t-102.5 -328.5q0 -140 67 -219.5t187 -79.5z" />
    <glyph glyph-name="p" unicode="p" horiz-adv-x="1036" 
d="M178 -410h-104l229 1332h105l-64 -355q35 56 79 112.5t105.5 118t135 99.5t143.5 37q59 -1 102.5 -29.5t67 -76t34.5 -99.5t11 -108q0 -175 -75 -321.5t-206.5 -232t-289.5 -85.5q-104 0 -199 43zM313 385l-43 -252q83 -51 187 -51q130 0 236 69.5t165.5 188.5t59.5 262
q0 106 -42.5 172t-127.5 66q-68 0 -159.5 -79.5t-164.5 -183t-111 -192.5z" />
    <glyph glyph-name="q" unicode="q" horiz-adv-x="1030" 
d="M700 -410l140 779q-228 -385 -453 -385q-114 0 -174.5 88t-60.5 231q0 180 79.5 326.5t213.5 228.5t294 82q175 0 283 -80l-219 -1270h-103zM434 84q58 0 127.5 50t129 124.5t107 153.5t72.5 143l39 244q-80 41 -174 41q-200 0 -336.5 -148t-136.5 -373q0 -107 43.5 -171
t128.5 -64z" />
    <glyph glyph-name="r" unicode="r" horiz-adv-x="655" 
d="M305 922h103l-50 -295q31 58 68.5 110t84.5 99.5t101.5 75.5t108.5 28q55 0 88 -20l-53 -99q-36 19 -76 19q-50 0 -105 -41.5t-102.5 -108t-85 -135.5t-65.5 -137l-72 -418h-103z" />
    <glyph glyph-name="s" unicode="s" horiz-adv-x="722" 
d="M567 240q0 41 -20 75t-51.5 58.5t-70 47t-77 47.5t-70 54t-51.5 72t-20 96q0 106 82.5 178t228.5 72q175 0 260 -57l-49 -80q-79 43 -207 43q-100 0 -152.5 -41.5t-52.5 -110.5q0 -39 20 -71t51.5 -55.5t70.5 -46t77.5 -48t70 -55.5t51.5 -75t20 -101q0 -120 -90.5 -190
t-235.5 -70q-189 0 -289 77l54 82q101 -65 231 -65q99 0 159 44t60 120z" />
    <glyph glyph-name="t" unicode="t" horiz-adv-x="636" 
d="M190 350l150 828h104l-47 -256h334l-16 -101h-332l-86 -454q-12 -59 -12 -115q-3 -164 141 -164q78 0 156 53l28 -88q-37 -28 -95 -46.5t-120 -18.5q-108 0 -162.5 61t-54.5 176q0 61 12 125z" />
    <glyph glyph-name="u" unicode="u" horiz-adv-x="995" 
d="M381 82q60 0 131 49t132 122t109.5 150t73.5 140l66 379h102l-159 -922h-103l62 356q-38 -64 -82 -122t-102.5 -118.5t-127 -97t-135.5 -36.5q-93 0 -137.5 56t-44.5 148q0 72 22 195l115 541h103l-113 -521q-23 -117 -23 -180q2 -67 25.5 -103t85.5 -36z" />
    <glyph glyph-name="v" unicode="v" horiz-adv-x="815" 
d="M879 922q-31 -272 -166 -528.5t-303 -405.5h-72q-65 441 -203 934h111q136 -492 164 -799q147 169 239.5 379.5t114.5 419.5h115z" />
    <glyph glyph-name="w" unicode="w" horiz-adv-x="1298" 
d="M1247 922h115q-30 -276 -156.5 -532t-290.5 -402h-71q-34 328 -94 585q-59 -182 -152.5 -334.5t-202.5 -250.5h-71q-57 463 -189 934h111q117 -423 151 -799q227 265 310 633l-52 166h111q118 -421 149 -799q142 165 226.5 374.5t105.5 424.5z" />
    <glyph glyph-name="x" unicode="x" horiz-adv-x="851" 
d="M965 922l-398 -445l260 -477h-114l-213 395l-353 -395h-131l422 473l-245 449h118l197 -375l328 375h129z" />
    <glyph glyph-name="y" unicode="y" horiz-adv-x="825" 
d="M133 -311q44 0 85 25t80 75.5t65 92.5t63 110q-32 179 -116.5 439t-184.5 491h113q68 -152 147 -393t117 -414q81 156 160 383.5t122 423.5h113q-64 -216 -129 -401.5t-143 -361t-155 -298.5t-164 -197t-171 -74q-82 0 -149 50l49 81q58 -32 98 -32z" />
    <glyph glyph-name="z" unicode="z" horiz-adv-x="815" 
d="M217 821q11 62 16 101h670l-12 -70l-678 -752h541l-17 -100h-688l12 70l674 751h-518z" />
    <glyph glyph-name="braceleft" unicode="{" horiz-adv-x="641" 
d="M199 -150l65 363q18 101 -24 152t-125 49l16 94q31 0 62.5 10t65 33.5t59.5 70t38 111.5l58 330q23 134 92 201t205 67h125l-19 -100h-100q-91 0 -137.5 -47.5t-65.5 -155.5l-61 -338q-36 -210 -193 -233q66 -9 97.5 -70t13.5 -164l-58 -334q-19 -104 16.5 -151
t127.5 -47h90l-19 -101h-125q-124 0 -175.5 62.5t-28.5 197.5z" />
    <glyph glyph-name="bar" unicode="|" horiz-adv-x="659" 
d="M399 0v1434h107v-1434h-107z" />
    <glyph glyph-name="braceright" unicode="}" horiz-adv-x="641" 
d="M453 211l-64 -361q-23 -135 -96.5 -197.5t-200.5 -62.5h-123l19 101h88q93 0 143.5 46.5t69.5 151.5l63 357q19 107 66 160.5t129 64.5q-144 42 -113 246l58 311q19 108 -11.5 155.5t-120.5 47.5h-102l18 100h125q134 0 180 -67t23 -201l-57 -330q-36 -214 143 -225
l-16 -94q-94 1 -148.5 -53t-72.5 -150z" />
    <glyph glyph-name="asciitilde" unicode="~" 
d="M291 659l-51 70q131 131 262 131q56 0 122 -23.5t117.5 -51t116 -51t117.5 -23.5q95 0 190 92l45 -72q-121 -115 -237 -115q-55 0 -120.5 23.5t-117 51.5t-115.5 51.5t-116 23.5q-101 0 -213 -107z" />
    <glyph glyph-name="uni00A0" unicode="&#xa0;" horiz-adv-x="481" 
 />
    <glyph glyph-name="exclamdown" unicode="&#xa1;" horiz-adv-x="634" 
d="M471 541l-182 -1039h-113l182 1039h113zM547 860q0 -29 -22.5 -52.5t-57.5 -23.5q-31 0 -53.5 23.5t-22.5 52.5q0 33 22 56.5t54 23.5q36 0 58 -23.5t22 -56.5z" />
    <glyph glyph-name="cent" unicode="&#xa2;" 
d="M559 -246l43 238q-160 23 -252 135.5t-92 269.5q0 229 138.5 379.5t371.5 163.5l39 221h106l-39 -223q183 -19 271 -117l-60 -78q-97 97 -280 97q-193 0 -311.5 -118t-118.5 -312q0 -151 88.5 -239.5t243.5 -88.5q171 0 301 102l43 -82q-127 -108 -344 -118l-41 -230
h-107z" />
    <glyph glyph-name="sterling" unicode="&#xa3;" 
d="M268 580l15 88h161q-5 23 -21 83.5t-25 112.5t-9 107q0 135 57 242.5t171 172t268 64.5q247 0 362 -154l-69 -75q-99 122 -299 122q-163 0 -267 -105t-104 -263q0 -71 26.5 -177.5t30.5 -129.5h353l-15 -88h-336v-41q-20 -210 -166 -340q45 0 88 -6q48 -8 116.5 -32.5
t133 -43.5t121.5 -19q124 0 246 99l41 -88q-142 -117 -295 -117q-71 0 -153.5 26.5t-162 53t-145.5 26.5q-118 0 -254 -112l-39 88q32 27 65 49t75.5 46.5t70.5 43.5q124 140 140 309q4 36 4 58h-185z" />
    <glyph glyph-name="currency" unicode="&#xa4;" 
d="M381 1012l-174 186l69 64l175 -189q111 89 251 98q59 4 78 3q146 -7 256 -99l207 191l62 -68l-203 -192q86 -117 86 -263q0 -92 -32 -179.5t-87 -151.5l172 -185l-72 -63l-174 184q-126 -102 -293 -102q-178 0 -301 104l-204 -192l-64 69l207 195q-71 93 -80 233
q-2 23 2 72q13 170 119 285zM360 690q0 -151 90.5 -250.5t251.5 -99.5q171 0 277 118.5t106 278.5q0 148 -91.5 246t-250.5 98q-167 0 -275 -115.5t-108 -275.5z" />
    <glyph glyph-name="yen" unicode="&#xa5;" 
d="M254 625l16 88h348l-313 721h121l299 -701l551 701h131l-573 -721h350l-17 -88h-401l-43 -252h399l-14 -88h-401l-50 -285h-112l49 285h-399l14 88h401l43 252h-399z" />
    <glyph glyph-name="brokenbar" unicode="&#xa6;" horiz-adv-x="659" 
d="M399 1434h107v-533h-107v533zM399 532h107v-532h-107v532z" />
    <glyph glyph-name="section" unicode="&#xa7;" horiz-adv-x="1073" 
d="M229 467q0 162 97.5 274.5t271.5 135.5q-64 32 -109 94.5t-45 140.5q0 141 99 231.5t252 90.5q97 0 157.5 -32.5t104.5 -92.5l-72 -66q-36 46 -76.5 68t-111.5 22q-108 0 -177 -66.5t-69 -168.5q0 -76 49 -132t129 -87q137 -22 216 -107t79 -215q0 -163 -102.5 -280
t-270.5 -132q67 -34 110.5 -98.5t43.5 -142.5q0 -134 -98 -224t-254 -90q-172 0 -258 125l69 68q23 -28 40.5 -44.5t57.5 -32t93 -15.5q104 0 173.5 64t69.5 161q0 77 -47.5 136t-126.5 91q-133 18 -214 104.5t-81 219.5zM338 473q0 -105 67.5 -172.5t182.5 -67.5
q155 0 241 90t86 222q0 108 -67.5 175.5t-183.5 67.5q-154 0 -240 -92t-86 -223z" />
    <glyph glyph-name="dieresis" unicode="&#xa8;" horiz-adv-x="811" 
d="M123 1266q0 30 21 48.5t51 18.5q26 0 45.5 -18.5t19.5 -48.5q0 -32 -19.5 -52t-45.5 -20q-30 0 -51 19.5t-21 52.5zM551 1266q0 30 21 48.5t51 18.5q26 0 45.5 -18.5t19.5 -48.5q0 -32 -19.5 -52t-45.5 -20q-30 0 -51 19.5t-21 52.5z" />
    <glyph glyph-name="copyright" unicode="&#xa9;" horiz-adv-x="2084" 
d="M240 453q0 243 114.5 445.5t318 320.5t451.5 118q186 0 351 -69.5t282 -187.5t184.5 -281.5t67.5 -345.5t-67.5 -345.5t-184.5 -282t-282 -188t-351 -69.5t-351 69.5t-281.5 188t-184 282t-67.5 345.5zM334 451q0 -161 60 -306t164 -251.5t251.5 -169t314.5 -62.5
q223 0 405 106.5t284 287t102 395.5q0 161 -60 307t-164 252.5t-252 169.5t-315 63t-314.5 -63t-251.5 -169.5t-164 -252t-60 -307.5zM1436 207l51 -76q-57 -72 -149.5 -110.5t-196.5 -38.5q-216 0 -352 131.5t-136 347.5q0 132 59.5 242t165 173.5t234.5 63.5
q238 0 356 -115l-49 -86q-112 101 -291 101q-149 0 -255.5 -108.5t-106.5 -270.5q0 -171 109 -275t274 -104q87 0 162.5 34t124.5 91z" />
    <glyph glyph-name="ordfeminine" unicode="&#xaa;" horiz-adv-x="837" 
d="M434 1210l-33 68q104 70 234 70q128 0 196.5 -65.5t47.5 -186.5l-70 -402h-94l16 94q-104 -100 -248 -100q-104 0 -161.5 50.5t-57.5 129.5q0 107 79 168.5t208 61.5q128 0 225 -56l4 31q39 193 -153 193q-104 0 -193 -56zM514 768q122 0 229 94l21 117q-82 49 -197 49
q-81 0 -140.5 -39.5t-59.5 -105.5q0 -51 40 -83t107 -32z" />
    <glyph glyph-name="guillemotleft" unicode="&#xab;" horiz-adv-x="1036" 
d="M487 76l-297 442l3 8l423 418l64 -70l-371 -362l258 -379zM844 76l-297 442l2 8l424 418l63 -70l-370 -362l258 -379z" />
    <glyph glyph-name="logicalnot" unicode="&#xac;" 
d="M252 690v94h938v-362h-94v268h-844z" />
    <glyph glyph-name="uni00AD" unicode="&#xad;" horiz-adv-x="817" 
d="M250 506l18 100h469l-18 -100h-469z" />
    <glyph glyph-name="registered" unicode="&#xae;" horiz-adv-x="1191" 
d="M276 1018q0 131 64.5 242t176.5 176t245 65q132 0 243.5 -65t176.5 -176t65 -242q0 -134 -65 -246.5t-176.5 -178t-243.5 -65.5q-202 0 -344 143t-142 347zM365 1016q0 -164 116.5 -281t280.5 -117t280.5 117t116.5 281t-116.5 280.5t-280.5 116.5t-280.5 -116.5
t-116.5 -280.5zM657 737h-75v574h170q112 0 161.5 -47t49.5 -123q0 -57 -38 -103t-98 -59l179 -242h-93l-163 228h-93v-228zM743 1253h-86v-231h97q53 0 93 33.5t40 85.5q0 53 -37.5 82.5t-106.5 29.5z" />
    <glyph glyph-name="macron" unicode="&#xaf;" horiz-adv-x="761" 
d="M115 1237l16 88h516l-16 -88h-516z" />
    <glyph glyph-name="degree" unicode="&#xb0;" horiz-adv-x="815" 
d="M303 1165q0 125 86.5 212t210.5 87t210.5 -85t86.5 -210q0 -124 -87 -211.5t-210 -87.5q-124 0 -210.5 85.5t-86.5 209.5zM397 1167q0 -84 59.5 -143t143.5 -59t143.5 59t59.5 143q0 83 -60 143t-143 60t-143 -60t-60 -143z" />
    <glyph glyph-name="plusminus" unicode="&#xb1;" 
d="M268 852v94h406v408h100v-408h408v-94h-408v-285h-100v285h-406zM268 354v95h914v-95h-914z" />
    <glyph glyph-name="twosuperior" unicode="&#xb2;" horiz-adv-x="694" 
d="M207 717l12 69q14 9 59.5 37t70 43.5t70.5 45.5t73.5 51.5t66 52.5t61.5 57t45.5 56t33 59.5t10.5 58.5q0 51 -34.5 82t-101.5 31t-115.5 -34.5t-68.5 -96.5l-78 28q22 86 98 135.5t171 49.5q111 0 170 -49.5t59 -130.5q0 -59 -33 -120t-81.5 -110.5t-113.5 -96.5
t-121.5 -78.5t-111.5 -57.5h422l-14 -82h-549z" />
    <glyph glyph-name="threesuperior" unicode="&#xb3;" horiz-adv-x="700" 
d="M477 707q-88 0 -160.5 34t-101.5 105l59 47q47 -107 207 -107q88 0 140.5 41.5t52.5 110.5q0 50 -38.5 79.5t-109.5 29.5h-73l10 69h65q76 0 125 42t49 102q0 104 -141 104q-129 0 -201 -98l-47 51q83 127 265 127q110 0 169.5 -44t59.5 -126q0 -65 -52 -117.5
t-124 -66.5v-3q68 -9 105.5 -50t37.5 -97q0 -109 -81.5 -171t-215.5 -62z" />
    <glyph glyph-name="acute" unicode="&#xb4;" horiz-adv-x="548" 
d="M426 1401l-238 -291l-65 47l221 309z" />
    <glyph glyph-name="mu" unicode="&#xb5;" horiz-adv-x="1120" 
d="M1120 922l-164 -922h-106l27 145q-67 -68 -166.5 -115.5t-194.5 -47.5q-189 0 -240 137l-94 -529h-106l235 1332h107l-90 -512q-28 -165 25 -246.5t202 -81.5q92 0 185 47.5t153 112.5l121 680h106z" />
    <glyph glyph-name="mu" unicode="&#x3bc;" horiz-adv-x="1120" 
d="M1120 922l-164 -922h-106l27 145q-67 -68 -166.5 -115.5t-194.5 -47.5q-189 0 -240 137l-94 -529h-106l235 1332h107l-90 -512q-28 -165 25 -246.5t202 -81.5q92 0 185 47.5t153 112.5l121 680h106z" />
    <glyph glyph-name="paragraph" unicode="&#xb6;" horiz-adv-x="894" 
d="M227 985q0 208 115 328.5t311 120.5h295v-101h-192v-1392q0 -179 -71 -273t-230 -94q-60 0 -116.5 20.5t-90.5 51.5l45 78q66 -50 153 -50q61 0 103 20.5t63 60t29 84t8 104.5v596q-181 2 -301.5 122t-120.5 324z" />
    <glyph glyph-name="periodcentered" unicode="&#xb7;" horiz-adv-x="481" 
d="M274 608q0 29 23 51.5t57 22.5q32 0 55 -23t23 -51q0 -33 -22 -57.5t-56 -24.5q-37 0 -58.5 24t-21.5 58z" />
    <glyph glyph-name="cedilla" unicode="&#xb8;" horiz-adv-x="684" 
d="M88 -354l41 51q64 -43 150 -43q67 0 109 30t42 80q0 80 -131 80h-12l28 156h62l-19 -102q179 -9 179 -131q0 -84 -70 -133.5t-191 -49.5q-113 0 -188 62z" />
    <glyph glyph-name="onesuperior" unicode="&#xb9;" horiz-adv-x="489" 
d="M285 1300l227 138h66l-127 -721h-95l105 600l-146 -86z" />
    <glyph glyph-name="ordmasculine" unicode="&#xba;" horiz-adv-x="927" 
d="M291 999q0 159 101.5 260t258.5 101q119 0 205.5 -67.5t108.5 -180.5q12 -49 6 -104q-9 -141 -108 -234.5t-249 -93.5q-140 0 -231.5 89.5t-91.5 229.5zM385 1004q0 -102 65.5 -167t167.5 -65q123 0 193 75.5t70 188.5q0 90 -52 152t-139 76q-34 5 -80 2
q-103 -10 -164 -82t-61 -180z" />
    <glyph glyph-name="guillemotright" unicode="&#xbb;" horiz-adv-x="1036" 
d="M369 944l297 -442l-2 -6l-420 -420l-64 67l367 367l-258 377zM725 944l297 -442l-2 -6l-420 -420l-63 67l366 367l-258 377z" />
    <glyph glyph-name="onequarter" unicode="&#xbc;" horiz-adv-x="1345" 
d="M313 1300l228 138h65l-127 -721h-94l104 600l-145 -86zM236 27l1067 1425l63 -45l-1067 -1425zM1090 0l30 178h-399l10 60l453 479h100l-438 -463h289l36 207h89l-37 -207h127l-15 -76h-127l-30 -178h-88z" />
    <glyph glyph-name="onehalf" unicode="&#xbd;" horiz-adv-x="1378" 
d="M313 1300l228 138h65l-127 -721h-94l104 600l-145 -86zM178 27l1067 1425l64 -45l-1067 -1425zM748 0l12 70q15 9 59.5 36.5t69.5 43.5t70.5 45.5t73.5 51.5t66 52.5t61 57t45.5 56t33 59t10.5 58.5q0 52 -34 82.5t-101 30.5t-115.5 -34.5t-68.5 -96.5l-78 29
q22 86 97.5 135t170.5 49q111 0 170.5 -49.5t59.5 -130.5q0 -59 -33 -120t-81.5 -110.5t-113.5 -96.5t-121.5 -78.5t-111.5 -57.5h422l-15 -82h-548z" />
    <glyph glyph-name="threequarters" unicode="&#xbe;" horiz-adv-x="1443" 
d="M483 707q-88 0 -160.5 34t-101.5 105l60 47q47 -107 206 -107q88 0 140.5 41.5t52.5 110.5q0 50 -38.5 79.5t-109.5 29.5h-73l10 69h66q76 0 125 42t49 102q0 104 -142 104q-128 0 -200 -98l-48 51q83 127 265 127q110 0 169.5 -44t59.5 -126q0 -65 -52 -117.5
t-124 -66.5v-3q68 -9 105.5 -50t37.5 -97q0 -109 -81.5 -171t-215.5 -62zM342 27l1067 1425l64 -45l-1067 -1425zM1188 0l31 178h-400l10 60l453 479h100l-438 -463h289l37 207h88l-37 -207h127l-14 -76h-127l-31 -178h-88z" />
    <glyph glyph-name="questiondown" unicode="&#xbf;" horiz-adv-x="942" 
d="M160 -182q0 -102 62.5 -165t185.5 -63q194 0 337 170l66 -71q-74 -95 -183 -150t-243 -55q-163 0 -251.5 88t-88.5 223q0 84 29.5 154.5t76.5 119.5t104 92.5t114.5 83.5t105.5 82t78.5 98t32.5 122h90q2 -76 -26 -139.5t-73 -108.5t-100.5 -86t-111 -80.5t-101.5 -82.5
t-75 -102.5t-29 -129.5zM770 877q0 -29 -22.5 -52.5t-57.5 -23.5q-31 0 -53.5 23.5t-22.5 52.5q0 31 22 55t54 24q35 0 57.5 -23.5t22.5 -55.5z" />
    <glyph glyph-name="Agrave" unicode="&#xc0;" horiz-adv-x="1427" 
d="M43 0l879 1446h92l370 -1446h-114l-125 487h-686l-295 -487h-121zM944 1290l-422 -696h598zM1065 1511l-375 177l41 90l367 -203z" />
    <glyph glyph-name="Aacute" unicode="&#xc1;" horiz-adv-x="1427" 
d="M43 0l879 1446h92l370 -1446h-114l-125 487h-686l-295 -487h-121zM944 1290l-422 -696h598zM1286 1688l-375 -177l-32 64l366 203z" />
    <glyph glyph-name="Acircumflex" unicode="&#xc2;" horiz-adv-x="1427" 
d="M43 0l879 1446h92l370 -1446h-114l-125 487h-686l-295 -487h-121zM944 1290l-422 -696h598zM1020 1772l319 -199l-51 -64l-278 172l-336 -172l-35 66l373 197h8z" />
    <glyph glyph-name="Atilde" unicode="&#xc3;" horiz-adv-x="1427" 
d="M43 0l879 1446h92l370 -1446h-114l-125 487h-686l-295 -487h-121zM944 1290l-422 -696h598zM692 1571l-37 67q82 82 185 82q63 0 164 -45t155 -45q87 0 152 68l32 -68q-79 -94 -190 -94q-56 0 -161.5 45t-164.5 45q-68 0 -135 -55z" />
    <glyph glyph-name="Adieresis" unicode="&#xc4;" horiz-adv-x="1427" 
d="M43 0l879 1446h92l370 -1446h-114l-125 487h-686l-295 -487h-121zM944 1290l-422 -696h598zM688 1647q0 29 22.5 47t55.5 18q29 0 51.5 -18.5t22.5 -46.5q0 -32 -22 -51t-52 -19q-34 0 -56 18.5t-22 51.5zM1165 1647q0 29 23.5 47t56.5 18q29 0 50.5 -18t21.5 -47
q0 -32 -21.5 -51t-50.5 -19q-34 0 -57 19t-23 51z" />
    <glyph glyph-name="Aring" unicode="&#xc5;" horiz-adv-x="1427" 
d="M944 1290l-422 -696h596zM1020 1423l364 -1423h-114l-125 487h-688l-293 -487h-121l870 1432q-74 13 -112.5 63t-38.5 119q0 79 61 126.5t166 47.5q112 0 172 -49t60 -135q0 -81 -58 -128.5t-143 -52.5zM844 1608q0 -59 38.5 -90t102.5 -33q68 0 111 31t43 92
q0 58 -41 87t-107 29q-67 0 -107 -28.5t-40 -87.5z" />
    <glyph glyph-name="AE" unicode="&#xc6;" horiz-adv-x="1966" 
d="M2060 1434l-18 -107h-680l-96 -547h618l-18 -106h-619l-100 -568h700l-18 -106h-813l88 500h-537l-440 -500h-137l1276 1434h794zM1237 1253l-573 -647h458z" />
    <glyph glyph-name="Ccedilla" unicode="&#xc7;" horiz-adv-x="1343" 
d="M596 -354l41 57q69 -49 151 -49q70 0 112 29.5t42 80.5q0 80 -131 80h-12l24 140q-274 23 -437 204t-163 459q0 166 62.5 314.5t172 256.5t265.5 171t334 63q140 0 251 -32t177 -89l-60 -82q-148 97 -362 97q-154 0 -289 -54t-228.5 -146.5t-147.5 -218t-54 -265.5
q0 -256 159.5 -415t414.5 -159q227 0 395 115l43 -86q-82 -67 -209.5 -101t-247.5 -34h-16l-15 -84q187 -9 187 -129q0 -85 -72 -135t-180 -50q-120 0 -207 62z" />
    <glyph glyph-name="Egrave" unicode="&#xc8;" horiz-adv-x="1177" 
d="M227 0l252 1434h793l-19 -107h-680l-96 -547h619l-19 -106h-618l-101 -568h701l-19 -106h-813zM1032 1511l-375 177l41 90l367 -203z" />
    <glyph glyph-name="Eacute" unicode="&#xc9;" horiz-adv-x="1177" 
d="M227 0l252 1434h793l-19 -107h-680l-96 -547h619l-19 -106h-618l-101 -568h701l-19 -106h-813zM1155 1688l-375 -177l-32 64l366 203z" />
    <glyph glyph-name="Ecircumflex" unicode="&#xca;" horiz-adv-x="1177" 
d="M227 0l252 1434h793l-19 -107h-680l-96 -547h619l-19 -106h-618l-101 -568h701l-19 -106h-813zM934 1772l319 -199l-51 -64l-278 172l-336 -172l-35 66l373 197h8z" />
    <glyph glyph-name="Edieresis" unicode="&#xcb;" horiz-adv-x="1177" 
d="M227 0l252 1434h793l-19 -107h-680l-96 -547h619l-19 -106h-618l-101 -568h701l-19 -106h-813zM604 1647q0 29 22.5 47t55.5 18q29 0 51.5 -18.5t22.5 -46.5q0 -32 -22 -51t-52 -19q-34 0 -56 18.5t-22 51.5zM1081 1647q0 29 23.5 47t56.5 18q29 0 50.5 -18t21.5 -47
q0 -32 -21.5 -51t-50.5 -19q-34 0 -57 19t-23 51z" />
    <glyph glyph-name="Igrave" unicode="&#xcc;" horiz-adv-x="632" 
d="M268 0l252 1434h113l-252 -1434h-113zM680 1511l-375 177l41 90l367 -203z" />
    <glyph glyph-name="Iacute" unicode="&#xcd;" horiz-adv-x="632" 
d="M268 0l252 1434h113l-252 -1434h-113zM903 1688l-375 -177l-32 64l366 203z" />
    <glyph glyph-name="Icircumflex" unicode="&#xce;" horiz-adv-x="632" 
d="M268 0l252 1434h113l-252 -1434h-113zM633 1772l319 -199l-51 -64l-278 172l-336 -172l-35 66l373 197h8z" />
    <glyph glyph-name="Idieresis" unicode="&#xcf;" horiz-adv-x="649" 
d="M268 0l252 1434h113l-252 -1434h-113zM369 1647q0 29 22 47t55 18q29 0 51.5 -18.5t22.5 -46.5q0 -32 -22 -51t-52 -19q-33 0 -55 18.5t-22 51.5zM709 1647q0 29 23 47t56 18q29 0 50.5 -18t21.5 -47q0 -32 -21.5 -51t-50.5 -19q-34 0 -56.5 18.5t-22.5 51.5z" />
    <glyph glyph-name="Eth" unicode="&#xd0;" horiz-adv-x="1533" 
d="M121 680l18 100h248l117 654h24q48 0 163.5 3t180.5 3q184 0 321.5 -48t217.5 -133.5t118 -192t38 -235.5q0 -175 -64.5 -326.5t-184.5 -265t-304 -178.5t-410 -65q-54 0 -168 2t-174 2h-10l119 680h-250zM852 1333q-48 0 -90.5 -1t-88.5 -2.5t-75 -2.5l-96 -547h405
l-18 -100h-406l-100 -574q234 -4 242 -4q193 0 349 54t259 150.5t158 230t55 292.5q0 235 -145.5 369.5t-448.5 134.5z" />
    <glyph glyph-name="Ntilde" unicode="&#xd1;" horiz-adv-x="1632" 
d="M1405 0h-90l-762 1251l-219 -1251h-107l252 1434h90l762 -1250l219 1250h107zM807 1571l-37 67q82 82 184 82q63 0 164.5 -45t155.5 -45q86 0 151 68l33 -68q-79 -94 -190 -94q-56 0 -161.5 45t-164.5 45q-68 0 -135 -55z" />
    <glyph glyph-name="Ograve" unicode="&#xd2;" horiz-adv-x="1658" 
d="M223 645q0 169 59 318t163.5 256.5t255 170t325.5 62.5q300 0 481 -176t181 -467q0 -238 -99.5 -426.5t-278.5 -294.5t-405 -106q-165 0 -295.5 50t-214.5 139t-128 209.5t-44 264.5zM346 651q0 -263 155 -413t410 -150q136 0 256 50.5t208.5 140.5t140 224t51.5 292
q0 251 -149 401t-404 150q-134 0 -255 -49t-212.5 -137t-146 -220.5t-54.5 -288.5zM1264 1511l-375 177l41 90l366 -203z" />
    <glyph glyph-name="Oacute" unicode="&#xd3;" horiz-adv-x="1658" 
d="M223 645q0 169 59 318t163.5 256.5t255 170t325.5 62.5q300 0 481 -176t181 -467q0 -238 -99.5 -426.5t-278.5 -294.5t-405 -106q-165 0 -295.5 50t-214.5 139t-128 209.5t-44 264.5zM346 651q0 -263 155 -413t410 -150q136 0 256 50.5t208.5 140.5t140 224t51.5 292
q0 251 -149 401t-404 150q-134 0 -255 -49t-212.5 -137t-146 -220.5t-54.5 -288.5zM1372 1688l-375 -177l-32 64l366 203z" />
    <glyph glyph-name="Ocircumflex" unicode="&#xd4;" horiz-adv-x="1658" 
d="M223 645q0 169 59 318t163.5 256.5t255 170t325.5 62.5q300 0 481 -176t181 -467q0 -238 -99.5 -426.5t-278.5 -294.5t-405 -106q-165 0 -295.5 50t-214.5 139t-128 209.5t-44 264.5zM346 651q0 -263 155 -413t410 -150q136 0 256 50.5t208.5 140.5t140 224t51.5 292
q0 251 -149 401t-404 150q-134 0 -255 -49t-212.5 -137t-146 -220.5t-54.5 -288.5zM1137 1772l319 -199l-51 -64l-279 172l-335 -172l-35 66l372 197h9z" />
    <glyph glyph-name="Otilde" unicode="&#xd5;" horiz-adv-x="1658" 
d="M223 645q0 169 59 318t163.5 256.5t255 170t325.5 62.5q300 0 481 -176t181 -467q0 -238 -99.5 -426.5t-278.5 -294.5t-405 -106q-165 0 -295.5 50t-214.5 139t-128 209.5t-44 264.5zM346 651q0 -263 155 -413t410 -150q136 0 256 50.5t208.5 140.5t140 224t51.5 292
q0 251 -149 401t-404 150q-134 0 -255 -49t-212.5 -137t-146 -220.5t-54.5 -288.5zM811 1571l-37 67q82 82 184 82q63 0 164.5 -45t155.5 -45q87 0 152 68l32 -68q-79 -94 -190 -94q-56 0 -161.5 45t-164.5 45q-68 0 -135 -55z" />
    <glyph glyph-name="Odieresis" unicode="&#xd6;" horiz-adv-x="1658" 
d="M223 645q0 169 59 318t163.5 256.5t255 170t325.5 62.5q300 0 481 -176t181 -467q0 -238 -99.5 -426.5t-278.5 -294.5t-405 -106q-165 0 -295.5 50t-214.5 139t-128 209.5t-44 264.5zM346 651q0 -263 155 -413t410 -150q136 0 256 50.5t208.5 140.5t140 224t51.5 292
q0 251 -149 401t-404 150q-134 0 -255 -49t-212.5 -137t-146 -220.5t-54.5 -288.5zM805 1647q0 29 22.5 47t55.5 18q29 0 51 -18.5t22 -46.5q0 -32 -21.5 -51t-51.5 -19q-34 0 -56 18.5t-22 51.5zM1282 1647q0 29 23.5 47t56.5 18q29 0 50.5 -18t21.5 -47q0 -32 -21.5 -51
t-50.5 -19q-34 0 -57 19t-23 51z" />
    <glyph glyph-name="multiply" unicode="&#xd7;" 
d="M371 1026l67 68l287 -291l289 291l65 -68l-286 -289l290 -291l-67 -65l-291 289l-291 -289l-65 65l290 291z" />
    <glyph glyph-name="Oslash" unicode="&#xd8;" horiz-adv-x="1658" 
d="M188 152l136 110q-101 162 -101 383q0 169 59 318t163.5 256.5t255 170t325.5 62.5q313 0 498 -195l127 105l59 -68l-131 -106q109 -159 109 -379q0 -238 -99.5 -426.5t-278.5 -294.5t-405 -106q-349 0 -528 208l-129 -106zM1567 795q0 187 -80 317l-1018 -844
q75 -88 188.5 -134t253.5 -46q136 0 256 50.5t208.5 140.5t140 224t51.5 292zM346 651q0 -183 74 -307l1014 840q-71 78 -179 120t-241 42q-134 0 -255 -49t-212.5 -137t-146 -220.5t-54.5 -288.5z" />
    <glyph glyph-name="Ugrave" unicode="&#xd9;" horiz-adv-x="1538" 
d="M1585 1434l-147 -834q-57 -317 -216.5 -466.5t-435.5 -149.5q-231 0 -360 123.5t-125 355.5q0 58 14 151l146 820h114l-143 -801q-16 -88 -16 -154q-1 -196 100 -292.5t289 -96.5q223 0 350 134.5t174 400.5l144 809h112zM1176 1511l-375 177l41 90l366 -203z" />
    <glyph glyph-name="Uacute" unicode="&#xda;" horiz-adv-x="1538" 
d="M1585 1434l-147 -834q-57 -317 -216.5 -466.5t-435.5 -149.5q-231 0 -360 123.5t-125 355.5q0 58 14 151l146 820h114l-143 -801q-16 -88 -16 -154q-1 -196 100 -292.5t289 -96.5q223 0 350 134.5t174 400.5l144 809h112zM1329 1688l-375 -177l-32 64l366 203z" />
    <glyph glyph-name="Ucircumflex" unicode="&#xdb;" horiz-adv-x="1538" 
d="M1585 1434l-147 -834q-57 -317 -216.5 -466.5t-435.5 -149.5q-231 0 -360 123.5t-125 355.5q0 58 14 151l146 820h114l-143 -801q-16 -88 -16 -154q-1 -196 100 -292.5t289 -96.5q223 0 350 134.5t174 400.5l144 809h112zM1075 1772l320 -199l-52 -64l-278 172l-336 -172
l-35 66l373 197h8z" />
    <glyph glyph-name="Udieresis" unicode="&#xdc;" horiz-adv-x="1538" 
d="M1585 1434l-147 -834q-57 -317 -216.5 -466.5t-435.5 -149.5q-231 0 -360 123.5t-125 355.5q0 58 14 151l146 820h114l-143 -801q-16 -88 -16 -154q-1 -196 100 -292.5t289 -96.5q223 0 350 134.5t174 400.5l144 809h112zM737 1647q0 29 22.5 47t55.5 18q29 0 51.5 -18.5
t22.5 -46.5q0 -32 -22 -51t-52 -19q-34 0 -56 18.5t-22 51.5zM1214 1647q0 29 23.5 47t56.5 18q29 0 50.5 -18t21.5 -47q0 -32 -21.5 -51t-50.5 -19q-34 0 -57 19t-23 51z" />
    <glyph glyph-name="Yacute" unicode="&#xdd;" horiz-adv-x="1204" 
d="M1419 1434l-659 -807l-109 -627h-112l108 627l-366 807h120l318 -701l567 701h133zM1145 1688l-375 -177l-33 64l367 203z" />
    <glyph glyph-name="Thorn" unicode="&#xde;" horiz-adv-x="1198" 
d="M340 0h-113l252 1434h113l-37 -220q33 0 120 2.5t111 2.5q121 0 210 -28.5t139.5 -79.5t74 -113t23.5 -138q0 -229 -159 -370.5t-435 -141.5q-132 0 -236 8zM770 1112q-70 0 -235 -6l-113 -641q133 -10 229 -10q217 0 340 108.5t123 280.5q0 268 -344 268z" />
    <glyph glyph-name="germandbls" unicode="&#xdf;" horiz-adv-x="1044" 
d="M915 324q0 44 -17 82t-44 66.5t-59.5 55t-65.5 52.5t-60 53.5t-44 64t-17 78.5q0 46 15.5 86t40.5 68.5t54.5 54t59.5 50t55 49.5t40.5 58.5t15.5 71.5q0 61 -46 99.5t-120 38.5q-119 0 -185.5 -77.5t-93.5 -232.5l-180 -1048h-102l182 1059q32 196 123 297.5t264 101.5
q119 0 194.5 -60.5t75.5 -160.5q0 -65 -29 -117t-70 -86.5t-82 -66.5t-70 -74t-29 -92q0 -38 17 -71t43.5 -59t59.5 -51.5t65.5 -54t59 -60t43.5 -75.5t17 -96q0 -152 -94.5 -249t-245.5 -97q-180 0 -264 147l51 76q69 -123 211 -123q107 0 169 69t62 173z" />
    <glyph glyph-name="agrave" unicode="&#xe0;" horiz-adv-x="1011" 
d="M430 84q59 0 126.5 49t125 123t102.5 151t70 142l47 262q-74 29 -160 29q-205 0 -342 -147.5t-137 -373.5q0 -107 42.5 -171t125.5 -64zM866 0h-106l63 365q-35 -59 -62 -99.5t-74 -98.5t-89 -94t-99 -62.5t-114 -26.5q-114 0 -173.5 88t-59.5 231q0 180 78.5 326.5
t212.5 228.5t294 82q157 0 273 -59zM799 1110l-238 291l84 63l221 -307z" />
    <glyph glyph-name="aacute" unicode="&#xe1;" horiz-adv-x="1011" 
d="M430 84q59 0 126.5 49t125 123t102.5 151t70 142l47 262q-74 29 -160 29q-205 0 -342 -147.5t-137 -373.5q0 -107 42.5 -171t125.5 -64zM866 0h-106l63 365q-35 -59 -62 -99.5t-74 -98.5t-89 -94t-99 -62.5t-114 -26.5q-114 0 -173.5 88t-59.5 231q0 180 78.5 326.5
t212.5 228.5t294 82q157 0 273 -59zM991 1401l-237 -291l-66 47l221 309z" />
    <glyph glyph-name="acircumflex" unicode="&#xe2;" horiz-adv-x="1011" 
d="M430 84q59 0 126.5 49t125 123t102.5 151t70 142l47 262q-74 29 -160 29q-205 0 -342 -147.5t-137 -373.5q0 -107 42.5 -171t125.5 -64zM866 0h-106l63 365q-35 -59 -62 -99.5t-74 -98.5t-89 -94t-99 -62.5t-114 -26.5q-114 0 -173.5 88t-59.5 231q0 180 78.5 326.5
t212.5 228.5t294 82q157 0 273 -59zM786 1448l222 -281l-62 -53l-176 229l-260 -227l-43 62l311 270h8z" />
    <glyph glyph-name="atilde" unicode="&#xe3;" horiz-adv-x="1011" 
d="M430 84q59 0 126.5 49t125 123t102.5 151t70 142l47 262q-74 29 -160 29q-205 0 -342 -147.5t-137 -373.5q0 -107 42.5 -171t125.5 -64zM866 0h-106l63 365q-35 -59 -62 -99.5t-74 -98.5t-89 -94t-99 -62.5t-114 -26.5q-114 0 -173.5 88t-59.5 231q0 180 78.5 326.5
t212.5 228.5t294 82q157 0 273 -59zM473 1174l-45 51q101 106 205 106q41 0 81 -23.5t76.5 -47t71.5 -23.5q37 0 70 19t80 59l41 -55q-111 -111 -199 -111q-39 0 -77.5 23.5l-77 47t-76.5 23.5q-59 0 -150 -69z" />
    <glyph glyph-name="adieresis" unicode="&#xe4;" horiz-adv-x="1011" 
d="M430 84q59 0 126.5 49t125 123t102.5 151t70 142l47 262q-74 29 -160 29q-205 0 -342 -147.5t-137 -373.5q0 -107 42.5 -171t125.5 -64zM866 0h-106l63 365q-35 -59 -62 -99.5t-74 -98.5t-89 -94t-99 -62.5t-114 -26.5q-114 0 -173.5 88t-59.5 231q0 180 78.5 326.5
t212.5 228.5t294 82q157 0 273 -59zM475 1266q0 30 21 48.5t51 18.5q26 0 45.5 -18.5t19.5 -48.5q0 -32 -19.5 -52t-45.5 -20q-30 0 -51 19.5t-21 52.5zM903 1266q0 30 21 48.5t51 18.5q26 0 45.5 -18.5t19.5 -48.5q0 -32 -19.5 -52t-45.5 -20q-30 0 -51 19.5t-21 52.5z" />
    <glyph glyph-name="aring" unicode="&#xe5;" horiz-adv-x="1011" 
d="M430 84q59 0 126.5 49t125 123t102.5 151t70 142l47 262q-74 29 -160 29q-205 0 -342 -147.5t-137 -373.5q0 -107 42.5 -171t125.5 -64zM866 0h-106l63 365q-35 -59 -62 -99.5t-74 -98.5t-89 -94t-99 -62.5t-114 -26.5q-114 0 -173.5 88t-59.5 231q0 180 78.5 326.5
t212.5 228.5t294 82q157 0 273 -59zM537 1257q0 88 62.5 150.5t152.5 62.5q92 0 155.5 -62.5t63.5 -150.5t-63.5 -149t-155.5 -61q-91 0 -153 61t-62 149zM608 1257q0 -62 42.5 -104.5t103.5 -42.5t103 42.5t42 104.5t-42 106t-103 44t-103.5 -44t-42.5 -106z" />
    <glyph glyph-name="ae" unicode="&#xe6;" horiz-adv-x="1591" 
d="M821 348q-32 -54 -62 -98t-74.5 -96t-88 -87t-99 -59t-112.5 -24q-114 0 -173.5 88t-59.5 231q0 180 78.5 326.5t212.5 228.5t294 82q186 0 316 -104q122 104 295 104q134 0 201 -58.5t65 -158.5q0 -145 -147.5 -226.5t-407.5 -99.5q-48 -15 -129 -32q-2 -129 65 -206
t187 -77q152 0 305 125l51 -64q-74 -72 -173 -116.5t-202 -44.5q-132 0 -215 75t-110 193q-17 56 -17 98zM430 84q44 0 91.5 27t89 67.5t84 97t73.5 107t61 104.5q33 98 63.5 161t76.5 114q-95 78 -240 78q-94 0 -180 -39t-149 -107t-100.5 -166t-37.5 -209
q0 -107 42.5 -171t125.5 -64zM1335 840q-145 0 -255 -108.5t-142 -268.5q250 6 396 60t161 153q6 39 -4 72q-9 45 -49.5 68.5t-106.5 23.5z" />
    <glyph glyph-name="ccedilla" unicode="&#xe7;" horiz-adv-x="866" 
d="M236 -354l40 51q64 -43 150 -43q68 0 110 30t42 80q0 80 -129 80h-13l23 138q-149 9 -228 110.5t-79 247.5q0 117 38 225.5t105 191.5t166.5 133t214.5 50q137 0 219 -43l-35 -90q-94 33 -194 33q-116 0 -209 -67t-143 -176t-50 -235q0 -129 64 -204.5t178 -75.5
q54 0 108.5 19.5t88.5 41t79 56.5l49 -66q-135 -135 -311 -149l-14 -86q178 -9 178 -131q0 -84 -68.5 -133.5t-189.5 -49.5q-115 0 -190 62z" />
    <glyph glyph-name="egrave" unicode="&#xe8;" horiz-adv-x="925" 
d="M821 207l49 -64q-74 -73 -171.5 -117t-200.5 -44q-87 0 -155 31t-108.5 83t-61.5 115t-21 133q0 154 65 289.5t188.5 221t276.5 85.5q133 0 200.5 -59t65.5 -158q0 -160 -179 -246t-505 -92v-20q-2 -129 65 -206t187 -77q152 0 305 125zM670 840q-146 0 -256 -108.5
t-142 -268.5q250 6 396 60t161 153q6 39 -4 72q-21 92 -155 92zM815 1110l-237 291l84 63l221 -307z" />
    <glyph glyph-name="eacute" unicode="&#xe9;" horiz-adv-x="925" 
d="M821 207l49 -64q-74 -73 -171.5 -117t-200.5 -44q-87 0 -155 31t-108.5 83t-61.5 115t-21 133q0 154 65 289.5t188.5 221t276.5 85.5q133 0 200.5 -59t65.5 -158q0 -160 -179 -246t-505 -92v-20q-2 -129 65 -206t187 -77q152 0 305 125zM670 840q-146 0 -256 -108.5
t-142 -268.5q250 6 396 60t161 153q6 39 -4 72q-21 92 -155 92zM1016 1401l-238 -291l-65 47l221 309z" />
    <glyph glyph-name="ecircumflex" unicode="&#xea;" horiz-adv-x="925" 
d="M821 207l49 -64q-74 -73 -171.5 -117t-200.5 -44q-87 0 -155 31t-108.5 83t-61.5 115t-21 133q0 154 65 289.5t188.5 221t276.5 85.5q133 0 200.5 -59t65.5 -158q0 -160 -179 -246t-505 -92v-20q-2 -129 65 -206t187 -77q152 0 305 125zM670 840q-146 0 -256 -108.5
t-142 -268.5q250 6 396 60t161 153q6 39 -4 72q-21 92 -155 92zM799 1448l221 -281l-62 -53l-176 229l-260 -227l-43 62l312 270h8z" />
    <glyph glyph-name="edieresis" unicode="&#xeb;" horiz-adv-x="925" 
d="M821 207l49 -64q-74 -73 -171.5 -117t-200.5 -44q-87 0 -155 31t-108.5 83t-61.5 115t-21 133q0 154 65 289.5t188.5 221t276.5 85.5q133 0 200.5 -59t65.5 -158q0 -160 -179 -246t-505 -92v-20q-2 -129 65 -206t187 -77q152 0 305 125zM670 840q-146 0 -256 -108.5
t-142 -268.5q250 6 396 60t161 153q6 39 -4 72q-21 92 -155 92zM455 1266q0 30 20.5 48.5t50.5 18.5q26 0 46 -18.5t20 -48.5q0 -32 -20 -52t-46 -20q-30 0 -50.5 19.5t-20.5 52.5zM883 1266q0 30 20.5 48.5t50.5 18.5q26 0 46 -18.5t20 -48.5q0 -32 -20 -52t-46 -20
q-30 0 -50.5 19.5t-20.5 52.5z" />
    <glyph glyph-name="igrave" unicode="&#xec;" horiz-adv-x="448" 
d="M164 0l158 922h102l-158 -922h-102zM430 1110l-237 291l83 63l222 -307z" />
    <glyph glyph-name="iacute" unicode="&#xed;" horiz-adv-x="448" 
d="M164 0l158 922h102l-158 -922h-102zM653 1401l-237 -291l-66 47l221 309z" />
    <glyph glyph-name="icircumflex" unicode="&#xee;" horiz-adv-x="448" 
d="M164 0l158 922h102l-158 -922h-102zM473 1448l221 -281l-61 -53l-176 229l-260 -227l-43 62l311 270h8z" />
    <glyph glyph-name="idieresis" unicode="&#xef;" horiz-adv-x="446" 
d="M164 0l158 922h102l-158 -922h-102zM244 1264q0 27 19 44t46 17q24 0 42 -17t18 -44q0 -28 -18 -46t-42 -18q-28 0 -46.5 17.5t-18.5 46.5zM504 1264q0 27 18 44t45 17q25 0 42.5 -17t17.5 -44q0 -29 -17.5 -46.5t-42.5 -17.5q-27 0 -45 17.5t-18 46.5z" />
    <glyph glyph-name="eth" unicode="&#xf0;" horiz-adv-x="1056" 
d="M645 821q-164 0 -273.5 -120.5t-109.5 -311.5q0 -142 70 -224.5t192 -82.5q118 0 209.5 71t143 187.5t67.5 265.5q-38 94 -112.5 154.5t-186.5 60.5zM772 1204l-252 -157l-31 88l220 139q-118 93 -217 133l106 45q101 -41 199 -121l204 131l31 -88l-166 -108
q88 -93 137 -219t54 -259q3 -58 0 -114q-7 -143 -45 -266.5t-104 -219.5t-168 -151t-228 -55q-167 0 -263.5 109t-96.5 284q0 145 62 269.5t178 201t261 76.5q105 0 184 -51.5t113 -137.5q-10 311 -178 471z" />
    <glyph glyph-name="ntilde" unicode="&#xf1;" horiz-adv-x="1030" 
d="M305 922h103l-62 -357q30 49 65.5 96t84 99t97 90.5t106.5 64t112 25.5q93 0 137.5 -56t44.5 -149q0 -71 -22 -194l-105 -541h-102l102 520q23 122 23 180q-2 66 -26.5 103t-86.5 37q-77 0 -175 -81.5t-173 -184.5t-111 -189l-67 -385h-103zM483 1174l-45 51
q101 106 205 106q41 0 81 -23.5t76.5 -47t71.5 -23.5q37 0 70 19t80 59l41 -55q-111 -111 -199 -111q-39 0 -77.5 23.5l-77 47t-76.5 23.5q-59 0 -150 -69z" />
    <glyph glyph-name="ograve" unicode="&#xf2;" horiz-adv-x="1005" 
d="M502 -20q-163 0 -256.5 105t-93.5 277q0 85 20 168t62 157t100.5 130.5t141.5 89.5t179 33q162 0 250 -103t88 -270q0 -166 -59 -299t-171.5 -210.5t-260.5 -77.5zM516 80q172 0 270.5 133.5t98.5 335.5q0 136 -62.5 213.5t-181.5 77.5q-174 0 -276.5 -132.5
t-102.5 -328.5q0 -140 67 -219.5t187 -79.5zM731 1110l-237 291l84 63l221 -307z" />
    <glyph glyph-name="oacute" unicode="&#xf3;" horiz-adv-x="1005" 
d="M502 -20q-163 0 -256.5 105t-93.5 277q0 85 20 168t62 157t100.5 130.5t141.5 89.5t179 33q162 0 250 -103t88 -270q0 -166 -59 -299t-171.5 -210.5t-260.5 -77.5zM516 80q172 0 270.5 133.5t98.5 335.5q0 136 -62.5 213.5t-181.5 77.5q-174 0 -276.5 -132.5
t-102.5 -328.5q0 -140 67 -219.5t187 -79.5zM965 1401l-238 -291l-65 47l221 309z" />
    <glyph glyph-name="ocircumflex" unicode="&#xf4;" horiz-adv-x="1005" 
d="M502 -20q-163 0 -256.5 105t-93.5 277q0 85 20 168t62 157t100.5 130.5t141.5 89.5t179 33q162 0 250 -103t88 -270q0 -166 -59 -299t-171.5 -210.5t-260.5 -77.5zM516 80q172 0 270.5 133.5t98.5 335.5q0 136 -62.5 213.5t-181.5 77.5q-174 0 -276.5 -132.5
t-102.5 -328.5q0 -140 67 -219.5t187 -79.5zM762 1448l221 -281l-61 -53l-177 229l-260 -227l-43 62l312 270h8z" />
    <glyph glyph-name="otilde" unicode="&#xf5;" horiz-adv-x="1005" 
d="M502 -20q-163 0 -256.5 105t-93.5 277q0 85 20 168t62 157t100.5 130.5t141.5 89.5t179 33q162 0 250 -103t88 -270q0 -166 -59 -299t-171.5 -210.5t-260.5 -77.5zM516 80q172 0 270.5 133.5t98.5 335.5q0 136 -62.5 213.5t-181.5 77.5q-174 0 -276.5 -132.5
t-102.5 -328.5q0 -140 67 -219.5t187 -79.5zM459 1174l-45 51q101 106 204 106q41 0 81 -23.5t77 -47t72 -23.5q37 0 69 19t80 59l41 -55q-111 -111 -198 -111q-39 0 -78 23.5t-77.5 47t-76.5 23.5q-58 0 -149 -69z" />
    <glyph glyph-name="odieresis" unicode="&#xf6;" horiz-adv-x="1005" 
d="M502 -20q-163 0 -256.5 105t-93.5 277q0 85 20 168t62 157t100.5 130.5t141.5 89.5t179 33q162 0 250 -103t88 -270q0 -166 -59 -299t-171.5 -210.5t-260.5 -77.5zM516 80q172 0 270.5 133.5t98.5 335.5q0 136 -62.5 213.5t-181.5 77.5q-174 0 -276.5 -132.5
t-102.5 -328.5q0 -140 67 -219.5t187 -79.5zM449 1266q0 30 20.5 48.5t50.5 18.5q26 0 46 -18.5t20 -48.5q0 -32 -20 -52t-46 -20q-30 0 -50.5 19.5t-20.5 52.5zM877 1266q0 30 20.5 48.5t50.5 18.5q26 0 46 -18.5t20 -48.5q0 -32 -20 -52t-46 -20q-30 0 -50.5 19.5
t-20.5 52.5z" />
    <glyph glyph-name="divide" unicode="&#xf7;" 
d="M655 1167q0 27 20 48.5t52 21.5q29 0 49.5 -22t20.5 -48q0 -29 -20 -51t-50 -22q-32 0 -52 22t-20 51zM655 309q0 26 20 47t52 21q30 0 50 -21t20 -47q0 -30 -20 -51.5t-50 -21.5q-33 0 -52.5 21.5t-19.5 51.5zM268 690v94h914v-94h-914z" />
    <glyph glyph-name="oslash" unicode="&#xf8;" horiz-adv-x="1005" 
d="M502 -20q-155 0 -250 98l-109 -107l-61 68l117 113q-47 89 -47 210q0 85 20 168t62 157t100.5 130.5t141.5 89.5t179 33q164 0 252 -106l97 94l61 -68l-109 -104q37 -81 37 -189q0 -166 -59 -299t-171.5 -210.5t-260.5 -77.5zM262 379q0 -87 27 -146l534 525
q-60 82 -182 82q-174 0 -276.5 -132.5t-102.5 -328.5zM516 80q172 0 270.5 133.5t98.5 335.5q0 60 -21 121l-528 -516q68 -74 180 -74z" />
    <glyph glyph-name="ugrave" unicode="&#xf9;" horiz-adv-x="995" 
d="M381 82q60 0 131 49t132 122t109.5 150t73.5 140l66 379h102l-159 -922h-103l62 356q-38 -64 -82 -122t-102.5 -118.5t-127 -97t-135.5 -36.5q-93 0 -137.5 56t-44.5 148q0 72 22 195l115 541h103l-113 -521q-23 -117 -23 -180q2 -67 25.5 -103t85.5 -36zM758 1110
l-238 291l84 63l221 -307z" />
    <glyph glyph-name="uacute" unicode="&#xfa;" horiz-adv-x="995" 
d="M381 82q60 0 131 49t132 122t109.5 150t73.5 140l66 379h102l-159 -922h-103l62 356q-38 -64 -82 -122t-102.5 -118.5t-127 -97t-135.5 -36.5q-93 0 -137.5 56t-44.5 148q0 72 22 195l115 541h103l-113 -521q-23 -117 -23 -180q2 -67 25.5 -103t85.5 -36zM944 1401
l-237 -291l-66 47l221 309z" />
    <glyph glyph-name="ucircumflex" unicode="&#xfb;" horiz-adv-x="995" 
d="M381 82q60 0 131 49t132 122t109.5 150t73.5 140l66 379h102l-159 -922h-103l62 356q-38 -64 -82 -122t-102.5 -118.5t-127 -97t-135.5 -36.5q-93 0 -137.5 56t-44.5 148q0 72 22 195l115 541h103l-113 -521q-23 -117 -23 -180q2 -67 25.5 -103t85.5 -36zM764 1448
l221 -281l-61 -53l-176 229l-261 -227l-43 62l312 270h8z" />
    <glyph glyph-name="udieresis" unicode="&#xfc;" horiz-adv-x="995" 
d="M381 82q60 0 131 49t132 122t109.5 150t73.5 140l66 379h102l-159 -922h-103l62 356q-38 -64 -82 -122t-102.5 -118.5t-127 -97t-135.5 -36.5q-93 0 -137.5 56t-44.5 148q0 72 22 195l115 541h103l-113 -521q-23 -117 -23 -180q2 -67 25.5 -103t85.5 -36zM449 1266
q0 30 20.5 48.5t50.5 18.5q26 0 46 -18.5t20 -48.5q0 -32 -20 -52t-46 -20q-30 0 -50.5 19.5t-20.5 52.5zM877 1266q0 30 20.5 48.5t50.5 18.5q26 0 46 -18.5t20 -48.5q0 -32 -20 -52t-46 -20q-30 0 -50.5 19.5t-20.5 52.5z" />
    <glyph glyph-name="yacute" unicode="&#xfd;" horiz-adv-x="825" 
d="M133 -311q44 0 85 25t80 75.5t65 92.5t63 110q-32 179 -116.5 439t-184.5 491h113q68 -152 147 -393t117 -414q81 156 160 383.5t122 423.5h113q-64 -216 -129 -401.5t-143 -361t-155 -298.5t-164 -197t-171 -74q-82 0 -149 50l49 81q58 -32 98 -32zM831 1401l-237 -291
l-66 47l222 309z" />
    <glyph glyph-name="thorn" unicode="&#xfe;" horiz-adv-x="1036" 
d="M125 -113l268 1547h103l-152 -867q38 63 85 123.5t106 119t127 94.5t131 36q79 0 132.5 -46.5t75 -115.5t21.5 -157q0 -175 -75 -321.5t-206.5 -232t-289.5 -85.5q-104 0 -199 43l-74 -435h-100zM313 385l-43 -252q83 -51 187 -51q130 0 236 69.5t165.5 188.5t59.5 262
q0 106 -42.5 172t-127.5 66q-68 0 -159.5 -79.5t-164.5 -183t-111 -192.5z" />
    <glyph glyph-name="ydieresis" unicode="&#xff;" horiz-adv-x="825" 
d="M133 -311q44 0 85 25t80 75.5t65 92.5t63 110q-32 179 -116.5 439t-184.5 491h113q68 -152 147 -393t117 -414q81 156 160 383.5t122 423.5h113q-64 -216 -129 -401.5t-143 -361t-155 -298.5t-164 -197t-171 -74q-82 0 -149 50l49 81q58 -32 98 -32zM285 1266
q0 30 20.5 48.5t50.5 18.5q26 0 46 -18.5t20 -48.5q0 -32 -20 -52t-46 -20q-30 0 -50.5 19.5t-20.5 52.5zM713 1266q0 30 20.5 48.5t50.5 18.5q26 0 46 -18.5t20 -48.5q0 -32 -20 -52t-46 -20q-30 0 -50.5 19.5t-20.5 52.5z" />
    <glyph glyph-name="Amacron" unicode="&#x100;" horiz-adv-x="1427" 
d="M43 0l879 1446h92l370 -1446h-114l-125 487h-686l-295 -487h-121zM944 1290l-422 -696h598zM688 1593l14 88h615l-14 -88h-615z" />
    <glyph glyph-name="amacron" unicode="&#x101;" horiz-adv-x="1011" 
d="M430 84q59 0 126.5 49t125 123t102.5 151t70 142l47 262q-74 29 -160 29q-205 0 -342 -147.5t-137 -373.5q0 -107 42.5 -171t125.5 -64zM866 0h-106l63 365q-35 -59 -62 -99.5t-74 -98.5t-89 -94t-99 -62.5t-114 -26.5q-114 0 -173.5 88t-59.5 231q0 180 78.5 326.5
t212.5 228.5t294 82q157 0 273 -59zM496 1237l16 88h516l-16 -88h-516z" />
    <glyph glyph-name="Abreve" unicode="&#x102;" horiz-adv-x="1427" 
d="M43 0l879 1446h92l370 -1446h-114l-125 487h-686l-295 -487h-121zM944 1290l-422 -696h598zM674 1714l55 55q37 -59 104 -98t164 -39q175 0 312 137l37 -59q-61 -74 -154.5 -123t-202.5 -49q-106 0 -191.5 49.5t-123.5 126.5z" />
    <glyph glyph-name="abreve" unicode="&#x103;" horiz-adv-x="1011" 
d="M430 84q59 0 126.5 49t125 123t102.5 151t70 142l47 262q-74 29 -160 29q-205 0 -342 -147.5t-137 -373.5q0 -107 42.5 -171t125.5 -64zM866 0h-106l63 365q-35 -59 -62 -99.5t-74 -98.5t-89 -94t-99 -62.5t-114 -26.5q-114 0 -173.5 88t-59.5 231q0 180 78.5 326.5
t212.5 228.5t294 82q157 0 273 -59zM500 1341l57 54q78 -133 219 -133q131 0 262 131l35 -56q-146 -163 -305 -163q-101 0 -167 47t-101 120z" />
    <glyph glyph-name="Aogonek" unicode="&#x104;" horiz-adv-x="1427" 
d="M1286 -303l27 -72q-62 -35 -152 -35t-150.5 41.5t-60.5 116.5q0 106 94 183.5t222 95.5l-121 460h-686l-295 -487h-121l879 1446h92l370 -1446h-30q-108 0 -199.5 -63.5t-91.5 -149.5q0 -55 39 -82t90 -27q50 0 94 19zM944 1290l-422 -696h598z" />
    <glyph glyph-name="aogonek" unicode="&#x105;" horiz-adv-x="1011" 
d="M793 -303l24 -70q-63 -37 -155 -37q-90 0 -147.5 40t-57.5 124q0 100 90 171t215 91l61 349q-35 -59 -62 -99.5t-74 -98.5t-89 -94t-99 -62.5t-114 -26.5q-114 0 -173.5 88t-59.5 231q0 180 78.5 326.5t212.5 228.5t294 82q157 0 273 -59l-146 -881q-111 0 -203 -62
t-92 -151q0 -56 36.5 -82.5t92.5 -26.5q51 0 95 19zM430 84q65 0 129.5 45t114.5 112.5t92.5 148t68.5 149.5t37 120l29 152q-74 29 -160 29q-205 0 -342 -147.5t-137 -373.5q0 -107 42.5 -171t125.5 -64z" />
    <glyph glyph-name="Cacute" unicode="&#x106;" horiz-adv-x="1343" 
d="M1313 203l43 -86q-82 -67 -209.5 -101t-247.5 -34q-304 0 -490 184t-186 481q0 166 62.5 314.5t172 256.5t265.5 171t334 63q140 0 251 -32t177 -89l-60 -82q-148 97 -362 97q-154 0 -289 -54t-228.5 -146.5t-147.5 -218t-54 -265.5q0 -256 159.5 -415t414.5 -159
q227 0 395 115zM1358 1688l-375 -177l-33 64l367 203z" />
    <glyph glyph-name="cacute" unicode="&#x107;" horiz-adv-x="866" 
d="M782 199l49 -66q-69 -68 -158.5 -109.5t-185.5 -41.5q-84 0 -149.5 29t-105 79.5t-60 114t-20.5 135.5q0 117 38 225.5t105 191.5t166.5 133t214.5 50q137 0 219 -43l-35 -90q-94 33 -194 33q-116 0 -209 -67t-143 -176t-50 -235q0 -129 64 -204.5t178 -75.5
q54 0 108.5 19.5t88.5 41t79 56.5zM969 1401l-238 -291l-65 47l221 309z" />
    <glyph glyph-name="Ccircumflex" unicode="&#x108;" horiz-adv-x="1343" 
d="M1313 203l43 -86q-82 -67 -209.5 -101t-247.5 -34q-304 0 -490 184t-186 481q0 166 62.5 314.5t172 256.5t265.5 171t334 63q140 0 251 -32t177 -89l-60 -82q-148 97 -362 97q-154 0 -289 -54t-228.5 -146.5t-147.5 -218t-54 -265.5q0 -256 159.5 -415t414.5 -159
q227 0 395 115zM1112 1772l320 -199l-52 -64l-278 172l-336 -172l-35 66l373 197h8z" />
    <glyph glyph-name="ccircumflex" unicode="&#x109;" horiz-adv-x="866" 
d="M782 199l49 -66q-69 -68 -158.5 -109.5t-185.5 -41.5q-84 0 -149.5 29t-105 79.5t-60 114t-20.5 135.5q0 117 38 225.5t105 191.5t166.5 133t214.5 50q137 0 219 -43l-35 -90q-94 33 -194 33q-116 0 -209 -67t-143 -176t-50 -235q0 -129 64 -204.5t178 -75.5
q54 0 108.5 19.5t88.5 41t79 56.5zM772 1448l221 -281l-61 -53l-176 229l-260 -227l-43 62l311 270h8z" />
    <glyph glyph-name="Cdotaccent" unicode="&#x10a;" horiz-adv-x="1343" 
d="M1313 203l43 -86q-82 -67 -209.5 -101t-247.5 -34q-304 0 -490 184t-186 481q0 166 62.5 314.5t172 256.5t265.5 171t334 63q140 0 251 -32t177 -89l-60 -82q-148 97 -362 97q-154 0 -289 -54t-228.5 -146.5t-147.5 -218t-54 -265.5q0 -256 159.5 -415t414.5 -159
q227 0 395 115zM1004 1651q0 33 23.5 53t55.5 20t55 -20t23 -53q0 -35 -23 -55.5t-55 -20.5q-33 0 -56 20.5t-23 55.5z" />
    <glyph glyph-name="cdotaccent" unicode="&#x10b;" horiz-adv-x="866" 
d="M782 199l49 -66q-69 -68 -158.5 -109.5t-185.5 -41.5q-84 0 -149.5 29t-105 79.5t-60 114t-20.5 135.5q0 117 38 225.5t105 191.5t166.5 133t214.5 50q137 0 219 -43l-35 -90q-94 33 -194 33q-116 0 -209 -67t-143 -176t-50 -235q0 -129 64 -204.5t178 -75.5
q54 0 108.5 19.5t88.5 41t79 56.5zM690 1280q0 29 22 48.5t52 19.5q29 0 50.5 -19.5t21.5 -48.5q0 -34 -21.5 -55t-50.5 -21q-30 0 -52 21t-22 55z" />
    <glyph glyph-name="Ccaron" unicode="&#x10c;" horiz-adv-x="1343" 
d="M1313 203l43 -86q-82 -67 -209.5 -101t-247.5 -34q-304 0 -490 184t-186 481q0 166 62.5 314.5t172 256.5t265.5 171t334 63q140 0 251 -32t177 -89l-60 -82q-148 97 -362 97q-154 0 -289 -54t-228.5 -146.5t-147.5 -218t-54 -265.5q0 -256 159.5 -415t414.5 -159
q227 0 395 115zM1071 1516l-319 198l51 64l278 -172l336 172l35 -66l-373 -196h-8z" />
    <glyph glyph-name="ccaron" unicode="&#x10d;" horiz-adv-x="866" 
d="M782 199l49 -66q-69 -68 -158.5 -109.5t-185.5 -41.5q-84 0 -149.5 29t-105 79.5t-60 114t-20.5 135.5q0 117 38 225.5t105 191.5t166.5 133t214.5 50q137 0 219 -43l-35 -90q-94 33 -194 33q-116 0 -209 -67t-143 -176t-50 -235q0 -129 64 -204.5t178 -75.5
q54 0 108.5 19.5t88.5 41t79 56.5zM727 1118l-221 279l61 55l176 -229l261 229l43 -68l-312 -266h-8z" />
    <glyph glyph-name="Dcaron" unicode="&#x10e;" horiz-adv-x="1509" 
d="M227 0l252 1434h23q48 0 164.5 3t181.5 3q181 0 317.5 -46.5t217 -130t120 -190.5t39.5 -237q0 -174 -62.5 -325t-181 -266.5t-304 -182t-416.5 -66.5q-52 0 -166 2t-174 2h-11zM827 1333q-48 0 -90.5 -1t-88.5 -2.5t-75 -2.5l-215 -1221q234 -4 242 -4q197 0 354 55
t258.5 153.5t155 231t53.5 289.5q0 234 -146.5 368t-447.5 134zM963 1516l-320 198l51 64l279 -172l336 172l34 -66l-372 -196h-8z" />
    <glyph glyph-name="dcaron" unicode="&#x10f;" horiz-adv-x="1077" 
d="M1403 1434h104q6 -18 6 -52q0 -100 -59 -185.5t-145 -125.5l-39 49q65 42 103 112t38 142q0 41 -8 60zM758 940q95 0 198 -35l95 529h106l-254 -1434h-106l63 365q-31 -52 -63 -98.5t-79 -100.5t-94 -92.5t-105.5 -64t-115.5 -25.5q-115 0 -177 88.5t-62 230.5
q0 135 47.5 254t128 202.5t189.5 132t229 48.5zM754 840q-201 0 -340.5 -148.5t-139.5 -372.5q0 -106 46.5 -170.5t130.5 -64.5q68 0 146.5 61t140 147t107 171.5t58.5 140.5l33 193q-78 43 -182 43z" />
    <glyph glyph-name="Dcroat" unicode="&#x110;" horiz-adv-x="1533" 
d="M121 680l18 100h248l117 654h24q48 0 163.5 3t180.5 3q184 0 321.5 -48t217.5 -133.5t118 -192t38 -235.5q0 -175 -64.5 -326.5t-184.5 -265t-304 -178.5t-410 -65q-54 0 -168 2t-174 2h-10l119 680h-250zM852 1333q-48 0 -90.5 -1t-88.5 -2.5t-75 -2.5l-96 -547h405
l-18 -100h-406l-100 -574q234 -4 242 -4q193 0 349 54t259 150.5t158 230t55 292.5q0 235 -145.5 369.5t-448.5 134.5z" />
    <glyph glyph-name="dcroat" unicode="&#x111;" horiz-adv-x="1056" 
d="M653 1116l15 88h309l41 230h100l-39 -230h207l-16 -88h-207l-191 -1116h-102l64 365q-226 -381 -449 -381q-112 0 -172.5 88.5t-60.5 230.5q0 180 78.5 326.5t211 228.5t289.5 82q95 0 195 -35l35 211h-308zM725 840q-195 0 -331 -148.5t-136 -372.5q0 -106 44.5 -170.5
t127.5 -64.5q57 0 126.5 50t128.5 123.5t106.5 152.5t72.5 143l41 244q-78 43 -180 43z" />
    <glyph glyph-name="Emacron" unicode="&#x112;" horiz-adv-x="1177" 
d="M227 0l252 1434h793l-19 -107h-680l-96 -547h619l-19 -106h-618l-101 -568h701l-19 -106h-813zM596 1593l14 88h615l-15 -88h-614z" />
    <glyph glyph-name="emacron" unicode="&#x113;" horiz-adv-x="925" 
d="M821 207l49 -64q-74 -73 -171.5 -117t-200.5 -44q-87 0 -155 31t-108.5 83t-61.5 115t-21 133q0 154 65 289.5t188.5 221t276.5 85.5q133 0 200.5 -59t65.5 -158q0 -160 -179 -246t-505 -92v-20q-2 -129 65 -206t187 -77q152 0 305 125zM670 840q-146 0 -256 -108.5
t-142 -268.5q250 6 396 60t161 153q6 39 -4 72q-21 92 -155 92zM494 1237l16 88h516l-16 -88h-516z" />
    <glyph glyph-name="Edotaccent" unicode="&#x116;" horiz-adv-x="1177" 
d="M227 0l252 1434h793l-19 -107h-680l-96 -547h619l-19 -106h-618l-101 -568h701l-19 -106h-813zM840 1651q0 32 24 52.5t56 20.5t54.5 -20t22.5 -53q0 -35 -22.5 -55.5t-54.5 -20.5q-33 0 -56.5 20.5t-23.5 55.5z" />
    <glyph glyph-name="edotaccent" unicode="&#x117;" horiz-adv-x="925" 
d="M821 207l49 -64q-74 -73 -171.5 -117t-200.5 -44q-87 0 -155 31t-108.5 83t-61.5 115t-21 133q0 154 65 289.5t188.5 221t276.5 85.5q133 0 200.5 -59t65.5 -158q0 -160 -179 -246t-505 -92v-20q-2 -129 65 -206t187 -77q152 0 305 125zM670 840q-146 0 -256 -108.5
t-142 -268.5q250 6 396 60t161 153q6 39 -4 72q-21 92 -155 92zM690 1280q0 29 22 48.5t52 19.5q29 0 50.5 -19.5t21.5 -48.5q0 -34 -21.5 -55t-50.5 -21q-30 0 -52 21t-22 55z" />
    <glyph glyph-name="Eogonek" unicode="&#x118;" horiz-adv-x="1177" 
d="M227 0l252 1434h793l-19 -107h-680l-96 -547h619l-19 -106h-618l-101 -568h701l-19 -106q-71 0 -139 -27t-113 -77t-45 -109q0 -55 39 -82t90 -27t95 19l26 -72q-62 -35 -151 -35q-90 0 -150.5 41.5t-60.5 116.5q0 88 65 153.5t168 98.5h-637z" />
    <glyph glyph-name="eogonek" unicode="&#x119;" horiz-adv-x="925" 
d="M694 -303l25 -70q-63 -37 -156 -37q-90 0 -147.5 40t-57.5 124q0 129 181 234q-21 -6 -41 -6q-87 0 -155 31t-108.5 83t-61.5 115t-21 133q0 154 65 289.5t188.5 221t276.5 85.5q133 0 200.5 -59t65.5 -158q0 -160 -179 -246t-505 -92q0 -40 10 -82q12 -100 75 -160.5
t167 -60.5q152 0 305 125l49 -64q-27 -27 -81 -60t-106 -62.5t-101.5 -63.5t-80 -78t-30.5 -92q0 -56 36.5 -82.5t92.5 -26.5q50 0 94 19zM670 840q-146 0 -256 -108.5t-142 -268.5q250 6 396 60t161 153q6 39 -4 72q-21 92 -155 92z" />
    <glyph glyph-name="Ecaron" unicode="&#x11a;" horiz-adv-x="1177" 
d="M227 0l252 1434h793l-19 -107h-680l-96 -547h619l-19 -106h-618l-101 -568h701l-19 -106h-813zM891 1516l-320 198l52 64l278 -172l336 172l35 -66l-373 -196h-8z" />
    <glyph glyph-name="ecaron" unicode="&#x11b;" horiz-adv-x="925" 
d="M821 207l49 -64q-74 -73 -171.5 -117t-200.5 -44q-87 0 -155 31t-108.5 83t-61.5 115t-21 133q0 154 65 289.5t188.5 221t276.5 85.5q133 0 200.5 -59t65.5 -158q0 -160 -179 -246t-505 -92v-20q-2 -129 65 -206t187 -77q152 0 305 125zM670 840q-146 0 -256 -108.5
t-142 -268.5q250 6 396 60t161 153q6 39 -4 72q-21 92 -155 92zM731 1118l-221 279l61 55l177 -229l260 229l43 -68l-312 -266h-8z" />
    <glyph glyph-name="Gcircumflex" unicode="&#x11c;" horiz-adv-x="1488" 
d="M934 588l20 106h527l-92 -516q-89 -90 -228.5 -143t-277.5 -53q-199 0 -351 86.5t-231.5 234.5t-79.5 334q0 170 62.5 320.5t170.5 259.5t261 172t327 63q286 0 439 -141l-68 -82q-59 54 -157 85.5t-222 31.5q-194 0 -352 -88.5t-249 -247t-91 -355.5
q0 -254 150.5 -410.5t390.5 -156.5q244 0 411 148l60 352h-420zM1098 1772l319 -199l-51 -64l-279 172l-335 -172l-35 66l373 197h8z" />
    <glyph glyph-name="gcircumflex" unicode="&#x11d;" horiz-adv-x="917" 
d="M385 207q0 -36 18 -57q46 4 70 4q171 0 275 -67t104 -189q0 -154 -134 -239t-343 -85q-111 0 -196 25t-139 83t-54 144q0 126 94.5 205t243.5 106q-17 25 -17 64q0 66 47 110q-72 34 -112.5 100.5t-40.5 149.5q0 101 45 186.5t135.5 139t210.5 53.5q124 0 207 -70l266 70
l-10 -88l-205 -55q35 -59 35 -140q0 -164 -111 -269t-280 -105q-34 0 -74 8q-35 -35 -35 -84zM387 -338q164 0 265.5 59t101.5 164q0 84 -81 132.5t-214 48.5q-165 0 -270 -61.5t-105 -164.5q0 -89 84.5 -133.5t218.5 -44.5zM299 573q0 -88 56 -145t155 -57q120 0 198 78.5
t78 195.5q0 84 -53.5 145.5t-154.5 61.5q-124 0 -201.5 -81.5t-77.5 -197.5zM680 1448l221 -281l-61 -53l-176 229l-261 -227l-43 62l312 270h8z" />
    <glyph glyph-name="Gbreve" unicode="&#x11e;" horiz-adv-x="1488" 
d="M934 588l20 106h527l-92 -516q-89 -90 -228.5 -143t-277.5 -53q-199 0 -351 86.5t-231.5 234.5t-79.5 334q0 170 62.5 320.5t170.5 259.5t261 172t327 63q286 0 439 -141l-68 -82q-59 54 -157 85.5t-222 31.5q-194 0 -352 -88.5t-249 -247t-91 -355.5
q0 -254 150.5 -410.5t390.5 -156.5q244 0 411 148l60 352h-420zM756 1714l55 55q37 -59 104 -98t164 -39q175 0 312 137l36 -59q-61 -74 -154.5 -123t-201.5 -49q-106 0 -191.5 49.5t-123.5 126.5z" />
    <glyph glyph-name="gbreve" unicode="&#x11f;" horiz-adv-x="917" 
d="M385 207q0 -36 18 -57q46 4 70 4q171 0 275 -67t104 -189q0 -154 -134 -239t-343 -85q-111 0 -196 25t-139 83t-54 144q0 126 94.5 205t243.5 106q-17 25 -17 64q0 66 47 110q-72 34 -112.5 100.5t-40.5 149.5q0 101 45 186.5t135.5 139t210.5 53.5q124 0 207 -70l266 70
l-10 -88l-205 -55q35 -59 35 -140q0 -164 -111 -269t-280 -105q-34 0 -74 8q-35 -35 -35 -84zM387 -338q164 0 265.5 59t101.5 164q0 84 -81 132.5t-214 48.5q-165 0 -270 -61.5t-105 -164.5q0 -89 84.5 -133.5t218.5 -44.5zM299 573q0 -88 56 -145t155 -57q120 0 198 78.5
t78 195.5q0 84 -53.5 145.5t-154.5 61.5q-124 0 -201.5 -81.5t-77.5 -197.5zM385 1341l57 54q78 -133 220 -133q131 0 262 131l34 -56q-146 -163 -305 -163q-101 0 -167 47t-101 120z" />
    <glyph glyph-name="Gdotaccent" unicode="&#x120;" horiz-adv-x="1488" 
d="M934 588l20 106h527l-92 -516q-89 -90 -228.5 -143t-277.5 -53q-199 0 -351 86.5t-231.5 234.5t-79.5 334q0 170 62.5 320.5t170.5 259.5t261 172t327 63q286 0 439 -141l-68 -82q-59 54 -157 85.5t-222 31.5q-194 0 -352 -88.5t-249 -247t-91 -355.5
q0 -254 150.5 -410.5t390.5 -156.5q244 0 411 148l60 352h-420zM999 1651q0 32 24 52.5t56 20.5t55 -20t23 -53q0 -35 -23 -55.5t-55 -20.5q-33 0 -56.5 20.5t-23.5 55.5z" />
    <glyph glyph-name="gdotaccent" unicode="&#x121;" horiz-adv-x="917" 
d="M385 207q0 -36 18 -57q46 4 70 4q171 0 275 -67t104 -189q0 -154 -134 -239t-343 -85q-111 0 -196 25t-139 83t-54 144q0 126 94.5 205t243.5 106q-17 25 -17 64q0 66 47 110q-72 34 -112.5 100.5t-40.5 149.5q0 101 45 186.5t135.5 139t210.5 53.5q124 0 207 -70l266 70
l-10 -88l-205 -55q35 -59 35 -140q0 -164 -111 -269t-280 -105q-34 0 -74 8q-35 -35 -35 -84zM387 -338q164 0 265.5 59t101.5 164q0 84 -81 132.5t-214 48.5q-165 0 -270 -61.5t-105 -164.5q0 -89 84.5 -133.5t218.5 -44.5zM299 573q0 -88 56 -145t155 -57q120 0 198 78.5
t78 195.5q0 84 -53.5 145.5t-154.5 61.5q-124 0 -201.5 -81.5t-77.5 -197.5zM600 1280q0 29 22 48.5t52 19.5q28 0 49.5 -19.5t21.5 -48.5q0 -34 -21 -55t-50 -21q-30 0 -52 21t-22 55z" />
    <glyph glyph-name="uni0122" unicode="&#x122;" horiz-adv-x="1488" 
d="M934 588l20 106h527l-92 -516q-89 -90 -228.5 -143t-277.5 -53q-199 0 -351 86.5t-231.5 234.5t-79.5 334q0 170 62.5 320.5t170.5 259.5t261 172t327 63q286 0 439 -141l-68 -82q-59 54 -157 85.5t-222 31.5q-194 0 -352 -88.5t-249 -247t-91 -355.5
q0 -254 150.5 -410.5t390.5 -156.5q244 0 411 148l60 352h-420zM778 -145l94 30q23 -4 37.5 -23.5t16.5 -45.5q1 -5 1 -11.5t-0.5 -14t-0.5 -11.5q-9 -71 -65 -121.5t-144 -71.5l-25 52q127 44 127 149q0 57 -41 68z" />
    <glyph glyph-name="uni0123" unicode="&#x123;" horiz-adv-x="917" 
d="M385 207q0 -36 18 -57q46 4 70 4q171 0 275 -67t104 -189q0 -154 -134 -239t-343 -85q-111 0 -196 25t-139 83t-54 144q0 126 94.5 205t243.5 106q-17 25 -17 64q0 66 47 110q-72 34 -112.5 100.5t-40.5 149.5q0 101 45 186.5t135.5 139t210.5 53.5q124 0 207 -70l266 70
l-10 -88l-205 -55q35 -59 35 -140q0 -164 -111 -269t-280 -105q-34 0 -74 8q-35 -35 -35 -84zM387 -338q164 0 265.5 59t101.5 164q0 84 -81 132.5t-214 48.5q-165 0 -270 -61.5t-105 -164.5q0 -89 84.5 -133.5t218.5 -44.5zM299 573q0 -88 56 -145t155 -57q120 0 198 78.5
t78 195.5q0 84 -53.5 145.5t-154.5 61.5q-124 0 -201.5 -81.5t-77.5 -197.5zM719 1163l-94 -30q-23 4 -37.5 23.5t-16.5 45.5q-1 5 -1 11.5t0.5 14t0.5 11.5q9 71 65 121.5t144 71.5l25 -52q-127 -44 -127 -149q0 -57 41 -68z" />
    <glyph glyph-name="Hcircumflex" unicode="&#x124;" horiz-adv-x="1566" 
d="M1227 0l119 678h-887l-119 -678h-113l252 1434h113l-113 -650h887l113 650h112l-252 -1434h-112zM1092 1772l319 -199l-51 -64l-279 172l-336 -172l-34 66l372 197h9z" />
    <glyph glyph-name="hcircumflex" unicode="&#x125;" horiz-adv-x="1024" 
d="M772 840q-58 0 -130 -48t-134.5 -119t-113.5 -148t-77 -140l-67 -385h-103l246 1434h103l-150 -869q31 49 65.5 96t82.5 99t96 90.5t105 64t110 25.5q93 0 137.5 -56t44.5 -149q0 -71 -22 -194l-105 -541h-102l102 520q25 132 23 180q-2 66 -26 103t-85 37zM637 1772
l319 -199l-51 -64l-278 172l-336 -172l-35 66l373 197h8z" />
    <glyph glyph-name="Hbar" unicode="&#x126;" horiz-adv-x="1595" 
d="M244 1067l18 100h182l45 267h113l-45 -267h895l45 267h113l-45 -267h182l-18 -100h-183l-188 -1067h-113l119 678h-895l-119 -678h-112l188 1067h-182zM489 784h895l50 283h-895z" />
    <glyph glyph-name="hbar" unicode="&#x127;" horiz-adv-x="1064" 
d="M813 840q-59 0 -131 -48t-134 -119t-113 -148t-77 -140l-67 -385h-103l185 1090h-250l18 100h250l43 244h103l-43 -244h348l-17 -100h-348l-90 -525q31 49 65 96t82 99t96 90.5t105 64t111 25.5q93 0 137.5 -56t44.5 -149q0 -71 -22 -194l-105 -541h-102l102 520
q23 122 23 180q-2 66 -26 103t-85 37z" />
    <glyph glyph-name="Imacron" unicode="&#x12a;" horiz-adv-x="632" 
d="M268 0l252 1434h113l-252 -1434h-113zM301 1593l14 88h615l-15 -88h-614z" />
    <glyph glyph-name="imacron" unicode="&#x12b;" horiz-adv-x="448" 
d="M164 0l158 922h102l-158 -922h-102zM180 1237l17 88h516l-17 -88h-516z" />
    <glyph glyph-name="Iogonek" unicode="&#x12e;" horiz-adv-x="649" 
d="M307 -303l27 -72q-62 -35 -150 -35q-93 0 -153 41t-60 119q0 108 88 180.5t213 94.5l248 1409h113l-252 -1434h-12q-107 -2 -196 -64.5t-89 -148.5q0 -55 38 -82t89 -27q52 0 96 19z" />
    <glyph glyph-name="iogonek" unicode="&#x12f;" horiz-adv-x="507" 
d="M246 -303l24 -70q-66 -37 -157 -37q-88 0 -146.5 40.5t-58.5 123.5q0 101 91 171.5t218 90.5l156 906h102l-149 -873h2l-11 -49q-111 0 -204 -63t-93 -150q0 -56 37.5 -82.5t92.5 -26.5q52 0 96 19zM418 1280q0 29 20.5 48.5t50.5 19.5q27 0 47.5 -19.5t20.5 -48.5
q0 -34 -20 -55t-48 -21q-30 0 -50.5 21t-20.5 55z" />
    <glyph glyph-name="Idotaccent" unicode="&#x130;" horiz-adv-x="632" 
d="M268 0l252 1434h113l-252 -1434h-113zM537 1651q0 33 23.5 53t55.5 20t55 -20t23 -53q0 -35 -23 -55.5t-55 -20.5q-33 0 -56 20.5t-23 55.5z" />
    <glyph glyph-name="dotlessi" unicode="&#x131;" horiz-adv-x="448" 
d="M164 0l158 922h102l-158 -922h-102z" />
    <glyph glyph-name="Jcircumflex" unicode="&#x134;" horiz-adv-x="739" 
d="M764 1434l-197 -1119q-29 -161 -111.5 -247t-232.5 -86q-59 0 -109 19t-77 46l55 86q55 -45 137 -45q105 0 156.5 65.5t73.5 178.5l194 1102h111zM758 1772l319 -199l-51 -64l-278 172l-336 -172l-35 66l373 197h8z" />
    <glyph glyph-name="jcircumflex" unicode="&#x135;" horiz-adv-x="442" 
d="M442 922l-174 -990q-62 -358 -327 -358q-111 0 -174 53l47 84q56 -37 120 -37q180 0 228 265l174 983h106zM481 1448l221 -281l-61 -53l-176 229l-260 -227l-43 62l311 270h8z" />
    <glyph glyph-name="uni0136" unicode="&#x136;" horiz-adv-x="1304" 
d="M1473 1434l-803 -697l569 -737h-137l-563 748l782 686h152zM227 0l252 1434h113l-252 -1434h-113zM578 -145l94 30q23 -4 37 -23t16 -46q1 -5 1 -11.5t-0.5 -14t-0.5 -11.5q-9 -71 -65 -121.5t-144 -71.5l-24 52q126 44 126 149q0 57 -40 68z" />
    <glyph glyph-name="uni0137" unicode="&#x137;" horiz-adv-x="892" 
d="M1004 922l-490 -445l377 -477h-135l-367 481l477 441h138zM147 0l246 1434h103l-246 -1434h-103zM406 -145l94 30q23 -4 37 -23t16 -46q1 -5 1 -11.5t-0.5 -14t-0.5 -11.5q-9 -71 -65 -121.5t-144 -71.5l-25 52q127 44 127 149q0 57 -40 68z" />
    <glyph glyph-name="Lacute" unicode="&#x139;" horiz-adv-x="1130" 
d="M227 0l252 1434h113l-234 -1328h756l-18 -106h-869zM1161 1688l-375 -177l-32 64l366 203z" />
    <glyph glyph-name="lacute" unicode="&#x13a;" horiz-adv-x="524" 
d="M188 266l209 1168h105l-211 -1170q-6 -40 -6 -76q-2 -50 19.5 -75t70.5 -25q65 0 127 41l16 -88q-92 -53 -178 -53q-160 0 -160 176q0 61 8 102zM819 1688l-375 -177l-32 64l366 203z" />
    <glyph glyph-name="uni013B" unicode="&#x13b;" horiz-adv-x="1130" 
d="M227 0l252 1434h113l-234 -1328h756l-18 -106h-869zM582 -145l94 30q23 -4 37 -23t16 -46q1 -5 1 -11.5t-0.5 -14t-0.5 -11.5q-9 -71 -65 -121.5t-144 -71.5l-24 52q127 44 127 149q0 57 -41 68z" />
    <glyph glyph-name="uni013C" unicode="&#x13c;" horiz-adv-x="524" 
d="M188 266l209 1168h105l-211 -1170q-6 -40 -6 -76q-2 -50 19.5 -75t70.5 -25q65 0 127 41l16 -88q-92 -53 -178 -53q-160 0 -160 176q0 61 8 102zM246 -145l94 30q23 -4 37 -23t16 -46v-37q-9 -71 -65 -121.5t-144 -71.5l-24 52q127 44 127 149q0 57 -41 68z" />
    <glyph glyph-name="Lcaron" unicode="&#x13d;" horiz-adv-x="1130" 
d="M1059 1434h104q4 -24 4 -52q0 -100 -59 -185.5t-145 -125.5l-39 49q65 42 104 112.5t39 141.5q0 32 -8 60zM227 0l252 1434h113l-234 -1328h756l-18 -106h-869z" />
    <glyph glyph-name="lcaron" unicode="&#x13e;" horiz-adv-x="559" 
d="M739 1434h105q6 -18 6 -52q0 -99 -59.5 -185t-145.5 -126l-41 49q65 42 104.5 112.5t39.5 141.5q0 28 -9 60zM190 266l216 1168h106l-215 -1170q-6 -27 -6 -76q-2 -51 20 -75.5t72 -24.5q67 0 129 41l16 -88q-92 -53 -182 -53q-166 0 -166 176q0 50 10 102z" />
    <glyph glyph-name="Ldot" unicode="&#x13f;" horiz-adv-x="1130" 
d="M227 0l252 1434h113l-234 -1328h756l-18 -106h-869zM909 766q0 29 23 51.5t57 22.5q32 0 55 -23t23 -51q0 -33 -22 -57.5t-56 -24.5q-37 0 -58.5 24t-21.5 58z" />
    <glyph glyph-name="ldot" unicode="&#x140;" horiz-adv-x="604" 
d="M188 266l209 1168h105l-211 -1170q-6 -40 -6 -76q-2 -50 19.5 -75t70.5 -25q65 0 127 41l16 -88q-92 -53 -178 -53q-160 0 -160 176q0 61 8 102zM547 649q0 29 22 48.5t52 19.5q28 0 49.5 -19.5t21.5 -48.5q0 -34 -21 -55t-50 -21q-30 0 -52 21t-22 55z" />
    <glyph glyph-name="Lslash" unicode="&#x141;" horiz-adv-x="1150" 
d="M139 473l21 115l209 96l133 750h112l-125 -695l420 197l-20 -115l-418 -194l-92 -521h756l-19 -106h-868l100 571z" />
    <glyph glyph-name="lslash" unicode="&#x142;" horiz-adv-x="600" 
d="M119 487l18 119l180 86l134 742h104l-125 -691l227 109l-20 -117l-227 -108l-66 -363q-6 -41 -6 -76q-3 -100 92 -100q66 0 125 41l16 -88q-86 -53 -182 -53q-156 0 -156 180q0 33 7 84l57 321z" />
    <glyph glyph-name="Nacute" unicode="&#x143;" horiz-adv-x="1632" 
d="M1405 0h-90l-762 1251l-219 -1251h-107l252 1434h90l762 -1250l219 1250h107zM1413 1688l-375 -177l-32 64l366 203z" />
    <glyph glyph-name="nacute" unicode="&#x144;" horiz-adv-x="1030" 
d="M305 922h103l-62 -357q30 49 65.5 96t84 99t97 90.5t106.5 64t112 25.5q93 0 137.5 -56t44.5 -149q0 -71 -22 -194l-105 -541h-102l102 520q23 122 23 180q-2 66 -26.5 103t-86.5 37q-77 0 -175 -81.5t-173 -184.5t-111 -189l-67 -385h-103zM977 1401l-238 -291l-65 47
l221 309z" />
    <glyph glyph-name="uni0145" unicode="&#x145;" horiz-adv-x="1632" 
d="M1405 0h-90l-762 1251l-219 -1251h-107l252 1434h90l762 -1250l219 1250h107zM713 -145l94 30q23 -4 37 -23t16 -46q1 -5 1 -11.5t-0.5 -14t-0.5 -11.5q-9 -71 -65 -121.5t-144 -71.5l-24 52q127 44 127 149q0 57 -41 68z" />
    <glyph glyph-name="uni0146" unicode="&#x146;" horiz-adv-x="1030" 
d="M305 922h103l-62 -357q30 49 65.5 96t84 99t97 90.5t106.5 64t112 25.5q93 0 137.5 -56t44.5 -149q0 -71 -22 -194l-105 -541h-102l102 520q23 122 23 180q-2 66 -26.5 103t-86.5 37q-77 0 -175 -81.5t-173 -184.5t-111 -189l-67 -385h-103zM449 -145l94 30q23 -4 37 -23
t16 -46q1 -5 1 -11.5t-0.5 -14t-0.5 -11.5q-9 -71 -65 -121.5t-144 -71.5l-25 52q127 44 127 149q0 57 -40 68z" />
    <glyph glyph-name="Ncaron" unicode="&#x147;" horiz-adv-x="1632" 
d="M1405 0h-90l-762 1251l-219 -1251h-107l252 1434h90l762 -1250l219 1250h107zM1090 1516l-320 198l51 64l279 -172l336 172l34 -66l-372 -196h-8z" />
    <glyph glyph-name="ncaron" unicode="&#x148;" horiz-adv-x="1030" 
d="M305 922h103l-62 -357q30 49 65.5 96t84 99t97 90.5t106.5 64t112 25.5q93 0 137.5 -56t44.5 -149q0 -71 -22 -194l-105 -541h-102l102 520q23 122 23 180q-2 66 -26.5 103t-86.5 37q-77 0 -175 -81.5t-173 -184.5t-111 -189l-67 -385h-103zM729 1118l-221 279l61 55
l176 -229l261 229l43 -68l-312 -266h-8z" />
    <glyph glyph-name="Eng" unicode="&#x14a;" horiz-adv-x="1632" 
d="M1405 0l-16 -92q-29 -162 -109.5 -248t-230.5 -86q-59 0 -109.5 19.5t-77.5 46.5l56 86q55 -45 137 -45q55 0 96 19t66.5 54.5t41 75.5t25.5 94l12 78l-743 1249l-219 -1251h-107l252 1434h90l756 -1270l225 1270h107z" />
    <glyph glyph-name="eng" unicode="&#x14b;" horiz-adv-x="1030" 
d="M305 922h103l-62 -357q30 49 65.5 96t84 99t97 90.5t106.5 64t112 25.5q93 0 137.5 -56t44.5 -149q0 -71 -22 -194l-115 -609q-31 -167 -107.5 -262.5t-218.5 -95.5q-111 0 -174 53l47 84q56 -37 121 -37q177 0 228 265l114 581q23 122 23 180q-2 66 -26.5 103t-86.5 37
q-77 0 -175 -81.5t-173 -184.5t-111 -189l-67 -385h-103z" />
    <glyph glyph-name="Omacron" unicode="&#x14c;" horiz-adv-x="1658" 
d="M223 645q0 169 59 318t163.5 256.5t255 170t325.5 62.5q300 0 481 -176t181 -467q0 -238 -99.5 -426.5t-278.5 -294.5t-405 -106q-165 0 -295.5 50t-214.5 139t-128 209.5t-44 264.5zM346 651q0 -263 155 -413t410 -150q136 0 256 50.5t208.5 140.5t140 224t51.5 292
q0 251 -149 401t-404 150q-134 0 -255 -49t-212.5 -137t-146 -220.5t-54.5 -288.5zM766 1593l14 88h615l-15 -88h-614z" />
    <glyph glyph-name="omacron" unicode="&#x14d;" horiz-adv-x="1005" 
d="M502 -20q-163 0 -256.5 105t-93.5 277q0 85 20 168t62 157t100.5 130.5t141.5 89.5t179 33q162 0 250 -103t88 -270q0 -166 -59 -299t-171.5 -210.5t-260.5 -77.5zM516 80q172 0 270.5 133.5t98.5 335.5q0 136 -62.5 213.5t-181.5 77.5q-174 0 -276.5 -132.5
t-102.5 -328.5q0 -140 67 -219.5t187 -79.5zM475 1237l17 88h516l-17 -88h-516z" />
    <glyph glyph-name="Ohungarumlaut" unicode="&#x150;" horiz-adv-x="1658" 
d="M223 645q0 169 59 318t163.5 256.5t255 170t325.5 62.5q300 0 481 -176t181 -467q0 -238 -99.5 -426.5t-278.5 -294.5t-405 -106q-165 0 -295.5 50t-214.5 139t-128 209.5t-44 264.5zM346 651q0 -263 155 -413t410 -150q136 0 256 50.5t208.5 140.5t140 224t51.5 292
q0 251 -149 401t-404 150q-134 0 -255 -49t-212.5 -137t-146 -220.5t-54.5 -288.5zM1612 1708l-346 -197l-45 50l319 217zM1233 1726l-326 -215l-45 45l285 222z" />
    <glyph glyph-name="ohungarumlaut" unicode="&#x151;" horiz-adv-x="1005" 
d="M502 -20q-163 0 -256.5 105t-93.5 277q0 85 20 168t62 157t100.5 130.5t141.5 89.5t179 33q162 0 250 -103t88 -270q0 -166 -59 -299t-171.5 -210.5t-260.5 -77.5zM516 80q172 0 270.5 133.5t98.5 335.5q0 136 -62.5 213.5t-181.5 77.5q-174 0 -276.5 -132.5
t-102.5 -328.5q0 -140 67 -219.5t187 -79.5zM1126 1399l-243 -289l-66 47l230 301zM805 1409l-227 -299l-66 47l217 309z" />
    <glyph glyph-name="OE" unicode="&#x152;" horiz-adv-x="2142" 
d="M1190 0l12 72q-141 -90 -328 -90q-197 0 -345.5 84t-227 231.5t-78.5 335.5q0 171 56.5 320t160 260t259 175t343.5 64q244 0 390 -96l12 78h792l-18 -107h-678l-96 -547h614l-16 -106h-617l-100 -568h698l-20 -106h-813zM891 88q178 0 334 107l182 1038
q-137 113 -377 113q-150 0 -278.5 -52.5t-217 -144t-138.5 -219.5t-50 -275q0 -163 62 -290t187 -202t296 -75z" />
    <glyph glyph-name="oe" unicode="&#x153;" horiz-adv-x="1548" 
d="M838 129q-136 -149 -336 -149q-163 0 -256.5 104.5t-93.5 277.5q0 85 20 168t62 157t100.5 130.5t141.5 89.5t179 33q102 0 174.5 -45t112.5 -123q69 79 163 123.5t200 44.5q133 0 200.5 -59t65.5 -158q0 -98 -71.5 -169.5t-198 -110t-302.5 -48.5q-27 -9 -112 -30
q-2 -129 65 -206t187 -77q152 0 305 125l49 -64q-74 -73 -172 -117t-201 -44q-191 0 -282 147zM793 225q-19 59 -19 119q0 177 90 334q-24 77 -81 119.5t-142 42.5q-174 0 -276.5 -132.5t-102.5 -328.5q0 -140 67 -219.5t187 -79.5q176 0 277 145zM1292 840
q-145 0 -255 -108.5t-142 -268.5q250 6 396 60t161 153q6 39 -4 72q-10 45 -51 68.5t-105 23.5z" />
    <glyph glyph-name="Racute" unicode="&#x154;" horiz-adv-x="1288" 
d="M340 0h-113l252 1434q44 0 188 2t162 2q120 0 206.5 -26t135.5 -73t71 -105.5t22 -131.5q0 -192 -117.5 -319t-302.5 -160l391 -623h-137l-371 602h-281zM805 1331q-96 0 -232 -4l-108 -618h223q197 0 326 100t129 272q0 250 -338 250zM1122 1688l-374 -177l-33 64
l366 203z" />
    <glyph glyph-name="racute" unicode="&#x155;" horiz-adv-x="655" 
d="M305 922h103l-50 -295q31 58 68.5 110t84.5 99.5t101.5 75.5t108.5 28q55 0 88 -20l-53 -99q-36 19 -76 19q-50 0 -105 -41.5t-102.5 -108t-85 -135.5t-65.5 -137l-72 -418h-103zM872 1401l-237 -291l-66 47l222 309z" />
    <glyph glyph-name="uni0156" unicode="&#x156;" horiz-adv-x="1288" 
d="M340 0h-113l252 1434q44 0 188 2t162 2q120 0 206.5 -26t135.5 -73t71 -105.5t22 -131.5q0 -192 -117.5 -319t-302.5 -160l391 -623h-137l-371 602h-281zM805 1331q-96 0 -232 -4l-108 -618h223q197 0 326 100t129 272q0 250 -338 250zM590 -145l94 30q23 -4 37 -23
t16 -46q1 -5 1 -11.5t-0.5 -14t-0.5 -11.5q-9 -71 -65 -121.5t-144 -71.5l-24 52q127 44 127 149q0 57 -41 68z" />
    <glyph glyph-name="uni0157" unicode="&#x157;" horiz-adv-x="655" 
d="M305 922h103l-50 -295q31 58 68.5 110t84.5 99.5t101.5 75.5t108.5 28q55 0 88 -20l-53 -99q-36 19 -76 19q-50 0 -105 -41.5t-102.5 -108t-85 -135.5t-65.5 -137l-72 -418h-103zM125 -145l94 30q23 -4 37 -23t16 -46q1 -5 1 -11.5t-0.5 -14t-0.5 -11.5
q-9 -71 -65 -121.5t-144 -71.5l-24 52q127 44 127 149q0 57 -41 68z" />
    <glyph glyph-name="Rcaron" unicode="&#x158;" horiz-adv-x="1288" 
d="M340 0h-113l252 1434q44 0 188 2t162 2q120 0 206.5 -26t135.5 -73t71 -105.5t22 -131.5q0 -192 -117.5 -319t-302.5 -160l391 -623h-137l-371 602h-281zM805 1331q-96 0 -232 -4l-108 -618h223q197 0 326 100t129 272q0 250 -338 250zM850 1516l-320 198l52 64l278 -172
l336 172l35 -66l-373 -196h-8z" />
    <glyph glyph-name="rcaron" unicode="&#x159;" horiz-adv-x="655" 
d="M305 922h103l-50 -295q31 58 68.5 110t84.5 99.5t101.5 75.5t108.5 28q55 0 88 -20l-53 -99q-36 19 -76 19q-50 0 -105 -41.5t-102.5 -108t-85 -135.5t-65.5 -137l-72 -418h-103zM602 1118l-221 279l61 55l176 -229l261 229l43 -68l-312 -266h-8z" />
    <glyph glyph-name="Sacute" unicode="&#x15a;" horiz-adv-x="1120" 
d="M961 383q0 67 -35 120.5t-90.5 90t-123 69.5t-134.5 69.5t-122.5 79t-90.5 108t-35 147.5q0 76 31 144.5t89.5 122.5t153.5 86t213 32q112 0 210 -40t153 -105l-70 -84q-54 56 -132.5 89.5t-172.5 33.5q-166 0 -260 -74.5t-94 -192.5q0 -60 27 -109t71.5 -81.5t101 -65
t115.5 -58.5t115.5 -62t101 -75t71.5 -98.5t27 -132.5q0 -188 -129 -301.5t-336 -113.5q-162 0 -280.5 62t-171.5 163l74 74q55 -88 152.5 -140.5t223.5 -52.5q92 0 169 32t127.5 101t50.5 162zM1118 1688l-375 -177l-32 64l366 203z" />
    <glyph glyph-name="sacute" unicode="&#x15b;" horiz-adv-x="722" 
d="M567 240q0 41 -20 75t-51.5 58.5t-70 47t-77 47.5t-70 54t-51.5 72t-20 96q0 106 82.5 178t228.5 72q175 0 260 -57l-49 -80q-79 43 -207 43q-100 0 -152.5 -41.5t-52.5 -110.5q0 -39 20 -71t51.5 -55.5t70.5 -46t77.5 -48t70 -55.5t51.5 -75t20 -101q0 -120 -90.5 -190
t-235.5 -70q-189 0 -289 77l54 82q101 -65 231 -65q99 0 159 44t60 120zM819 1401l-237 -291l-66 47l221 309z" />
    <glyph glyph-name="Scircumflex" unicode="&#x15c;" horiz-adv-x="1120" 
d="M961 383q0 67 -35 120.5t-90.5 90t-123 69.5t-134.5 69.5t-122.5 79t-90.5 108t-35 147.5q0 76 31 144.5t89.5 122.5t153.5 86t213 32q112 0 210 -40t153 -105l-70 -84q-54 56 -132.5 89.5t-172.5 33.5q-166 0 -260 -74.5t-94 -192.5q0 -60 27 -109t71.5 -81.5t101 -65
t115.5 -58.5t115.5 -62t101 -75t71.5 -98.5t27 -132.5q0 -188 -129 -301.5t-336 -113.5q-162 0 -280.5 62t-171.5 163l74 74q55 -88 152.5 -140.5t223.5 -52.5q92 0 169 32t127.5 101t50.5 162zM862 1772l320 -199l-52 -64l-278 172l-336 -172l-35 66l373 197h8z" />
    <glyph glyph-name="scircumflex" unicode="&#x15d;" horiz-adv-x="722" 
d="M567 240q0 41 -20 75t-51.5 58.5t-70 47t-77 47.5t-70 54t-51.5 72t-20 96q0 106 82.5 178t228.5 72q175 0 260 -57l-49 -80q-79 43 -207 43q-100 0 -152.5 -41.5t-52.5 -110.5q0 -39 20 -71t51.5 -55.5t70.5 -46t77.5 -48t70 -55.5t51.5 -75t20 -101q0 -120 -90.5 -190
t-235.5 -70q-189 0 -289 77l54 82q101 -65 231 -65q99 0 159 44t60 120zM610 1448l221 -281l-61 -53l-176 229l-260 -227l-43 62l311 270h8z" />
    <glyph glyph-name="Scedilla" unicode="&#x15e;" horiz-adv-x="1120" 
d="M346 -354l41 57q69 -49 152 -49q69 0 111 29t42 81q0 80 -131 80h-12l24 138q-146 9 -253 70t-156 155l74 74q55 -88 152.5 -140.5t223.5 -52.5q92 0 169 32t127.5 101t50.5 162q0 67 -35 120.5t-90.5 90t-123 69.5t-134.5 69.5t-122.5 79t-90.5 108t-35 147.5
q0 76 31 144.5t89.5 122.5t153.5 86t213 32q112 0 210 -40t153 -105l-70 -84q-54 56 -132.5 89.5t-172.5 33.5q-166 0 -260 -74.5t-94 -192.5q0 -60 27 -109t71.5 -81.5t101 -65t115.5 -58.5t115.5 -62t101 -75t71.5 -98.5t27 -132.5q0 -184 -124 -295.5t-324 -119.5
l-15 -84q149 -6 175 -88q10 -33 0 -76q-12 -70 -78.5 -110t-161.5 -40q-120 0 -207 62z" />
    <glyph glyph-name="scedilla" unicode="&#x15f;" horiz-adv-x="722" 
d="M78 -354l41 51q49 -34 114 -41q45 0 68 2q92 12 111 80q8 27 2 47q-16 59 -125 59h-13l25 140q-152 9 -238 75l54 82q101 -65 231 -65q99 0 159 44t60 120q0 41 -20 75t-51.5 58.5t-70 47t-77 47.5t-70 54t-51.5 72t-20 96q0 106 82.5 178t228.5 72q175 0 260 -57
l-49 -80q-79 43 -207 43q-100 0 -152.5 -41.5t-52.5 -110.5q0 -39 20 -71t51.5 -55.5t70.5 -46t77.5 -48t70 -55.5t51.5 -75t20 -101q0 -116 -88.5 -188t-227.5 -72l-14 -84q178 -9 178 -131q0 -84 -69 -133.5t-191 -49.5q-113 0 -188 62z" />
    <glyph glyph-name="Scaron" unicode="&#x160;" horiz-adv-x="1120" 
d="M961 383q0 67 -35 120.5t-90.5 90t-123 69.5t-134.5 69.5t-122.5 79t-90.5 108t-35 147.5q0 76 31 144.5t89.5 122.5t153.5 86t213 32q112 0 210 -40t153 -105l-70 -84q-54 56 -132.5 89.5t-172.5 33.5q-166 0 -260 -74.5t-94 -192.5q0 -60 27 -109t71.5 -81.5t101 -65
t115.5 -58.5t115.5 -62t101 -75t71.5 -98.5t27 -132.5q0 -188 -129 -301.5t-336 -113.5q-162 0 -280.5 62t-171.5 163l74 74q55 -88 152.5 -140.5t223.5 -52.5q92 0 169 32t127.5 101t50.5 162zM823 1516l-319 198l51 64l279 -172l335 172l35 -66l-373 -196h-8z" />
    <glyph glyph-name="scaron" unicode="&#x161;" horiz-adv-x="722" 
d="M567 240q0 41 -20 75t-51.5 58.5t-70 47t-77 47.5t-70 54t-51.5 72t-20 96q0 106 82.5 178t228.5 72q175 0 260 -57l-49 -80q-79 43 -207 43q-100 0 -152.5 -41.5t-52.5 -110.5q0 -39 20 -71t51.5 -55.5t70.5 -46t77.5 -48t70 -55.5t51.5 -75t20 -101q0 -120 -90.5 -190
t-235.5 -70q-189 0 -289 77l54 82q101 -65 231 -65q99 0 159 44t60 120zM551 1118l-221 279l61 55l176 -229l260 229l43 -68l-311 -266h-8z" />
    <glyph glyph-name="uni0162" unicode="&#x162;" horiz-adv-x="1214" 
d="M342 -354l45 57q69 -49 143 -49q68 0 114 29t46 81q0 80 -135 80l25 156h-29l233 1327h-530l18 107h1174l-19 -107h-530l-233 -1327h-27l-16 -102q182 -9 182 -131q0 -80 -72.5 -131.5t-189.5 -51.5q-109 0 -199 62z" />
    <glyph glyph-name="uni0163" unicode="&#x163;" horiz-adv-x="636" 
d="M115 -354l41 51q64 -43 149 -43q67 0 109.5 30t42.5 80q0 80 -131 80h-13l27 148q-162 30 -162 233q0 58 19 166l143 787h104l-47 -256h334q-11 -62 -16 -101h-332l-86 -454q-12 -59 -12 -115q0 -85 35 -124.5t106 -39.5q78 0 156 53l28 -88q-65 -48 -151 -59
q-36 -4 -58 -4l-16 -92q178 -9 178 -131q0 -84 -69.5 -133.5t-190.5 -49.5q-113 0 -188 62z" />
    <glyph glyph-name="Tcaron" unicode="&#x164;" horiz-adv-x="1224" 
d="M254 1327l18 107h1174l-19 -107h-530l-233 -1327h-113l233 1327h-530zM870 1516l-319 198l51 64l279 -172l336 172l34 -66l-372 -196h-9z" />
    <glyph glyph-name="tcaron" unicode="&#x165;" horiz-adv-x="673" 
d="M190 350l150 828h104l-47 -256h334l-16 -101h-332l-86 -454q-12 -59 -12 -115q-3 -164 141 -164q78 0 156 53l28 -88q-37 -28 -95 -46.5t-120 -18.5q-108 0 -162.5 61t-54.5 176q0 61 12 125zM723 1434h104q7 -21 7 -52q0 -95 -54 -180t-151 -131l-45 55
q68 42 107.5 109.5t39.5 138.5q0 32 -8 60z" />
    <glyph glyph-name="Umacron" unicode="&#x16a;" horiz-adv-x="1538" 
d="M1585 1434l-147 -834q-57 -317 -216.5 -466.5t-435.5 -149.5q-231 0 -360 123.5t-125 355.5q0 58 14 151l146 820h114l-143 -801q-16 -88 -16 -154q-1 -196 100 -292.5t289 -96.5q223 0 350 134.5t174 400.5l144 809h112zM748 1593l14 88h614l-14 -88h-614z" />
    <glyph glyph-name="umacron" unicode="&#x16b;" horiz-adv-x="995" 
d="M381 82q60 0 131 49t132 122t109.5 150t73.5 140l66 379h102l-159 -922h-103l62 356q-38 -64 -82 -122t-102.5 -118.5t-127 -97t-135.5 -36.5q-93 0 -137.5 56t-44.5 148q0 72 22 195l115 541h103l-113 -521q-23 -117 -23 -180q2 -67 25.5 -103t85.5 -36zM453 1237l16 88
h516l-16 -88h-516z" />
    <glyph glyph-name="Ubreve" unicode="&#x16c;" horiz-adv-x="1538" 
d="M1585 1434l-147 -834q-57 -317 -216.5 -466.5t-435.5 -149.5q-231 0 -360 123.5t-125 355.5q0 58 14 151l146 820h114l-143 -801q-16 -88 -16 -154q-1 -196 100 -292.5t289 -96.5q223 0 350 134.5t174 400.5l144 809h112zM735 1714l56 55q37 -59 104 -98t164 -39
q174 0 311 137l37 -59q-61 -74 -154.5 -123t-201.5 -49q-106 0 -192 49.5t-124 126.5z" />
    <glyph glyph-name="ubreve" unicode="&#x16d;" horiz-adv-x="995" 
d="M381 82q60 0 131 49t132 122t109.5 150t73.5 140l66 379h102l-159 -922h-103l62 356q-38 -64 -82 -122t-102.5 -118.5t-127 -97t-135.5 -36.5q-93 0 -137.5 56t-44.5 148q0 72 22 195l115 541h103l-113 -521q-23 -117 -23 -180q2 -67 25.5 -103t85.5 -36zM428 1341l57 54
q78 -133 220 -133q131 0 262 131l34 -56q-146 -163 -305 -163q-101 0 -167 47t-101 120z" />
    <glyph glyph-name="Uring" unicode="&#x16e;" horiz-adv-x="1538" 
d="M1585 1434l-147 -834q-57 -317 -216.5 -466.5t-435.5 -149.5q-231 0 -360 123.5t-125 355.5q0 58 14 151l146 820h114l-143 -801q-16 -88 -16 -154q-1 -196 100 -292.5t289 -96.5q223 0 350 134.5t174 400.5l144 809h112zM823 1608q0 89 64 134.5t164 45.5q103 0 167 -45
t64 -135q0 -89 -65 -138t-166 -49q-98 0 -163 49t-65 138zM905 1608q0 -59 41 -91t107 -32q65 0 106 32t41 91t-40.5 87.5t-106.5 28.5q-67 0 -107.5 -28.5t-40.5 -87.5z" />
    <glyph glyph-name="uring" unicode="&#x16f;" horiz-adv-x="995" 
d="M381 82q60 0 131 49t132 122t109.5 150t73.5 140l66 379h102l-159 -922h-103l62 356q-38 -64 -82 -122t-102.5 -118.5t-127 -97t-135.5 -36.5q-93 0 -137.5 56t-44.5 148q0 72 22 195l115 541h103l-113 -521q-23 -117 -23 -180q2 -67 25.5 -103t85.5 -36zM496 1257
q0 88 62.5 150.5t152.5 62.5q92 0 155.5 -62.5t63.5 -150.5t-63.5 -149t-155.5 -61q-91 0 -153 61t-62 149zM567 1257q0 -62 42.5 -104.5t103.5 -42.5t103 42.5t42 104.5t-42 106t-103 44t-103.5 -44t-42.5 -106z" />
    <glyph glyph-name="Uhungarumlaut" unicode="&#x170;" horiz-adv-x="1538" 
d="M1585 1434l-147 -834q-57 -317 -216.5 -466.5t-435.5 -149.5q-231 0 -360 123.5t-125 355.5q0 58 14 151l146 820h114l-143 -801q-16 -88 -16 -154q-1 -196 100 -292.5t289 -96.5q223 0 350 134.5t174 400.5l144 809h112zM1528 1708l-346 -197l-45 50l319 217zM1149 1726
l-326 -215l-45 45l285 222z" />
    <glyph glyph-name="uhungarumlaut" unicode="&#x171;" horiz-adv-x="995" 
d="M381 82q60 0 131 49t132 122t109.5 150t73.5 140l66 379h102l-159 -922h-103l62 356q-38 -64 -82 -122t-102.5 -118.5t-127 -97t-135.5 -36.5q-93 0 -137.5 56t-44.5 148q0 72 22 195l115 541h103l-113 -521q-23 -117 -23 -180q2 -67 25.5 -103t85.5 -36zM1098 1399
l-244 -289l-66 47l230 301zM776 1409l-227 -299l-66 47l217 309z" />
    <glyph glyph-name="Uogonek" unicode="&#x172;" horiz-adv-x="1538" 
d="M942 -303l27 -72q-62 -35 -152 -35q-91 0 -151 41.5t-60 116.5q0 154 209 238q-4 0 -14.5 -1t-14.5 -1q-231 0 -360 123.5t-125 355.5q0 58 14 151l146 820h114l-143 -801q-16 -88 -16 -154q-1 -196 100 -292.5t289 -96.5q223 0 350 134.5t174 400.5l144 809h112
l-147 -834q-50 -274 -174.5 -422t-333.5 -182q-93 -33 -152 -87t-59 -122q0 -55 38 -82t89 -27q52 0 96 19z" />
    <glyph glyph-name="uogonek" unicode="&#x173;" horiz-adv-x="995" 
d="M764 -303l24 -70q-66 -37 -157 -37q-88 0 -145.5 40t-57.5 124q0 102 90.5 172.5t216.5 89.5l60 340q-38 -64 -82 -122t-102.5 -118.5t-127 -97t-135.5 -36.5q-93 0 -137.5 56t-44.5 148q0 72 22 195l115 541h103l-113 -521q-23 -117 -23 -180q2 -67 25.5 -103t85.5 -36
q60 0 131 49t132 122t109.5 150t73.5 140l66 379h102l-159 -922q-113 0 -204 -62.5t-91 -150.5q0 -56 36 -82.5t91 -26.5q52 0 96 19z" />
    <glyph glyph-name="Ydieresis" unicode="&#x178;" horiz-adv-x="1204" 
d="M1419 1434l-659 -807l-109 -627h-112l108 627l-366 807h120l318 -701l567 701h133zM565 1647q0 29 22.5 47t55.5 18q29 0 51.5 -18.5t22.5 -46.5q0 -32 -22 -51t-52 -19q-34 0 -56 18.5t-22 51.5zM1042 1647q0 29 23.5 47t56.5 18q29 0 50.5 -18t21.5 -47
q0 -32 -21.5 -51t-50.5 -19q-34 0 -57 19t-23 51z" />
    <glyph glyph-name="Zacute" unicode="&#x179;" horiz-adv-x="1312" 
d="M369 1327l18 107h1063l-12 -72l-1162 -1256h961l-18 -106h-1125l12 72l1160 1255h-897zM1227 1688l-375 -177l-33 64l367 203z" />
    <glyph glyph-name="zacute" unicode="&#x17a;" horiz-adv-x="815" 
d="M217 821q11 62 16 101h670l-12 -70l-678 -752h541l-17 -100h-688l12 70l674 751h-518zM883 1401l-238 -291l-65 47l221 309z" />
    <glyph glyph-name="Zdotaccent" unicode="&#x17b;" horiz-adv-x="1312" 
d="M369 1327l18 107h1063l-12 -72l-1162 -1256h961l-18 -106h-1125l12 72l1160 1255h-897zM866 1651q0 32 24 52.5t56 20.5t55 -20t23 -53q0 -35 -23 -55.5t-55 -20.5q-33 0 -56.5 20.5t-23.5 55.5z" />
    <glyph glyph-name="zdotaccent" unicode="&#x17c;" horiz-adv-x="815" 
d="M217 821q11 62 16 101h670l-12 -70l-678 -752h541l-17 -100h-688l12 70l674 751h-518zM578 1280q0 29 21.5 48.5t51.5 19.5q29 0 50.5 -19.5t21.5 -48.5q0 -34 -21.5 -55t-50.5 -21q-30 0 -51.5 21t-21.5 55z" />
    <glyph glyph-name="Zcaron" unicode="&#x17d;" horiz-adv-x="1312" 
d="M369 1327l18 107h1063l-12 -72l-1162 -1256h961l-18 -106h-1125l12 72l1160 1255h-897zM920 1516l-320 198l51 64l279 -172l336 172l34 -66l-372 -196h-8z" />
    <glyph glyph-name="zcaron" unicode="&#x17e;" horiz-adv-x="815" 
d="M217 821q11 62 16 101h670l-12 -70l-678 -752h541l-17 -100h-688l12 70l674 751h-518zM618 1118l-221 279l62 55l176 -229l260 229l43 -68l-311 -266h-9z" />
    <glyph glyph-name="longs" unicode="&#x17f;" horiz-adv-x="526" 
d="M147 0l189 1065q67 387 383 387q151 0 225 -78l-53 -82q-63 60 -172 60q-226 0 -279 -299l-186 -1053h-107z" />
    <glyph glyph-name="uni018F" unicode="&#x18f;" horiz-adv-x="1603" 
d="M246 784h1265q7 162 -51 288.5t-180.5 200t-292.5 73.5q-243 0 -420 -121l-45 84q192 143 479 143q300 0 465.5 -172.5t165.5 -476.5q0 -166 -58 -315t-161.5 -261.5t-258 -178.5t-337.5 -66q-220 0 -368 102t-201.5 284.5t-1.5 415.5zM825 88q136 0 255.5 45.5
t207 124.5t144.5 187t73 233h-1157q-18 -122 7 -230t85.5 -187.5t160 -126t224.5 -46.5z" />
    <glyph glyph-name="florin" unicode="&#x192;" 
d="M823 1053l-24 -131h338v-101h-357l-157 -889q-33 -181 -106 -269.5t-220 -88.5q-57 0 -107.5 16t-80.5 39l32 86q68 -41 133 -41q106 0 162 67t80 204l156 876h-320v101h338l27 149q38 199 118 290t230 91q152 0 238 -78l-39 -82q-77 60 -183 60q-109 0 -169 -70
t-89 -229z" />
    <glyph glyph-name="uni01DD" unicode="&#x1dd;" horiz-adv-x="911" 
d="M236 715l-52 63q77 75 175 118.5t200 43.5q86 0 152 -29.5t106 -81t60 -116.5t20 -142q0 -111 -39 -217t-106.5 -188.5t-167 -133t-213.5 -50.5q-127 0 -199 54t-72 159q0 324 684 335q2 12 2 39q2 117 -58.5 194t-178.5 77q-89 0 -162.5 -33t-150.5 -92zM381 82
q139 0 250 105.5t143 265.5q-110 -2 -203.5 -15t-176.5 -39t-131 -72.5t-48 -109.5q0 -135 166 -135z" />
    <glyph glyph-name="uni0218" unicode="&#x218;" horiz-adv-x="1120" 
d="M961 383q0 67 -35 120.5t-90.5 90t-123 69.5t-134.5 69.5t-122.5 79t-90.5 108t-35 147.5q0 76 31 144.5t89.5 122.5t153.5 86t213 32q112 0 210 -40t153 -105l-70 -84q-54 56 -132.5 89.5t-172.5 33.5q-166 0 -260 -74.5t-94 -192.5q0 -60 27 -109t71.5 -81.5t101 -65
t115.5 -58.5t115.5 -62t101 -75t71.5 -98.5t27 -132.5q0 -188 -129 -301.5t-336 -113.5q-162 0 -280.5 62t-171.5 163l74 74q55 -88 152.5 -140.5t223.5 -52.5q92 0 169 32t127.5 101t50.5 162zM512 -145l94 30q23 -4 37 -23t16 -46q1 -5 1 -11.5t-0.5 -14t-0.5 -11.5
q-9 -71 -64.5 -121.5t-143.5 -71.5l-25 52q127 44 127 149q0 57 -41 68z" />
    <glyph glyph-name="uni0219" unicode="&#x219;" horiz-adv-x="722" 
d="M567 240q0 41 -20 75t-51.5 58.5t-70 47t-77 47.5t-70 54t-51.5 72t-20 96q0 106 82.5 178t228.5 72q175 0 260 -57l-49 -80q-79 43 -207 43q-100 0 -152.5 -41.5t-52.5 -110.5q0 -39 20 -71t51.5 -55.5t70.5 -46t77.5 -48t70 -55.5t51.5 -75t20 -101q0 -120 -90.5 -190
t-235.5 -70q-189 0 -289 77l54 82q101 -65 231 -65q99 0 159 44t60 120zM266 -145l94 30q23 -4 37.5 -23.5t16.5 -45.5v-37q-9 -71 -65 -121.5t-144 -71.5l-25 52q127 44 127 149q0 57 -41 68z" />
    <glyph glyph-name="uni021A" unicode="&#x21a;" horiz-adv-x="1224" 
d="M254 1327l18 107h1174l-19 -107h-530l-233 -1327h-113l233 1327h-530zM512 -145l94 30q23 -4 37 -23t16 -46q1 -5 1 -11.5t-0.5 -14t-0.5 -11.5q-9 -71 -64.5 -121.5t-143.5 -71.5l-25 52q127 44 127 149q0 57 -41 68z" />
    <glyph glyph-name="uni021B" unicode="&#x21b;" horiz-adv-x="636" 
d="M190 350l150 828h104l-47 -256h334l-16 -101h-332l-86 -454q-12 -59 -12 -115q-3 -164 141 -164q78 0 156 53l28 -88q-37 -28 -95 -46.5t-120 -18.5q-108 0 -162.5 61t-54.5 176q0 61 12 125zM295 -145l94 30q23 -4 37 -23t16 -46v-37q-9 -71 -65 -121.5t-144 -71.5
l-24 52q127 44 127 149q0 57 -41 68z" />
    <glyph glyph-name="uni0237" unicode="&#x237;" horiz-adv-x="442" 
d="M442 922l-174 -990q-62 -358 -327 -358q-111 0 -174 53l47 84q56 -37 120 -37q180 0 228 265l174 983h106z" />
    <glyph glyph-name="uni0259" unicode="&#x259;" horiz-adv-x="911" 
d="M236 715l-52 63q77 75 175 118.5t200 43.5q86 0 152 -29.5t106 -81t60 -116.5t20 -142q0 -111 -39 -217t-106.5 -188.5t-167 -133t-213.5 -50.5q-127 0 -199 54t-72 159q0 324 684 335q2 12 2 39q2 117 -58.5 194t-178.5 77q-89 0 -162.5 -33t-150.5 -92zM381 82
q139 0 250 105.5t143 265.5q-110 -2 -203.5 -15t-176.5 -39t-131 -72.5t-48 -109.5q0 -135 166 -135z" />
    <glyph glyph-name="uni02BC" unicode="&#x2bc;" horiz-adv-x="462" 
d="M344 1294l96 54q31 -50 31 -115q0 -209 -203 -303l-45 55q70 39 106 96.5t36 124.5q0 64 -21 88z" />
    <glyph glyph-name="circumflex" unicode="&#x2c6;" horiz-adv-x="786" 
d="M567 1448l221 -281l-61 -53l-176 229l-260 -227l-43 62l311 270h8z" />
    <glyph glyph-name="caron" unicode="&#x2c7;" horiz-adv-x="786" 
d="M492 1118l-222 279l62 55l176 -229l260 229l43 -68l-311 -266h-8z" />
    <glyph glyph-name="breve" unicode="&#x2d8;" horiz-adv-x="819" 
d="M264 1341l58 54q78 -133 219 -133q131 0 262 131l35 -56q-146 -163 -306 -163q-101 0 -167 47t-101 120z" />
    <glyph glyph-name="dotaccent" unicode="&#x2d9;" horiz-adv-x="391" 
d="M123 1280q0 29 22 48.5t52 19.5q28 0 49.5 -19.5t21.5 -48.5q0 -34 -21 -55t-50 -21q-30 0 -52 21t-22 55z" />
    <glyph glyph-name="ring" unicode="&#x2da;" horiz-adv-x="679" 
d="M123 1257q0 88 62.5 150.5t152.5 62.5q92 0 155.5 -62.5t63.5 -150.5t-63.5 -149t-155.5 -61q-91 0 -153 61t-62 149zM195 1257q0 -62 42 -104.5t103 -42.5t103 42.5t42 104.5t-42 106t-103 44t-103 -44t-42 -106z" />
    <glyph glyph-name="ogonek" unicode="&#x2db;" horiz-adv-x="643" 
d="M434 -303l25 -70q-66 -37 -158 -37q-88 0 -146.5 40.5t-58.5 123.5q0 82 66 146.5t159.5 96.5t188.5 32l-4 -29q-109 0 -203 -63t-94 -150q0 -56 37 -82.5t92 -26.5q52 0 96 19z" />
    <glyph glyph-name="tilde" unicode="&#x2dc;" horiz-adv-x="870" 
d="M168 1174l-45 51q101 106 205 106q41 0 81 -23.5t76.5 -47t71.5 -23.5q37 0 70 19t80 59l41 -55q-111 -111 -199 -111q-39 0 -78 23.5t-77.5 47t-76.5 23.5q-58 0 -149 -69z" />
    <glyph glyph-name="hungarumlaut" unicode="&#x2dd;" horiz-adv-x="860" 
d="M737 1399l-243 -289l-66 47l229 301zM416 1409l-228 -299l-65 47l217 309z" />
    <glyph glyph-name="gravecomb" unicode="&#x300;" horiz-adv-x="0" 
d="M-344 1110l-238 291l84 63l222 -307z" />
    <glyph glyph-name="acutecomb" unicode="&#x301;" horiz-adv-x="0" 
d="M-57 1401l-238 -291l-65 47l221 309z" />
    <glyph glyph-name="Delta" unicode="&#x394;" horiz-adv-x="1462" 
d="M115 0l723 1450h67l533 -1450h-1323zM864 1257l-583 -1151h989z" />
    <glyph glyph-name="Delta" unicode="&#x2206;" horiz-adv-x="1462" 
d="M115 0l723 1450h67l533 -1450h-1323zM864 1257l-583 -1151h989z" />
    <glyph glyph-name="uni03A9" unicode="&#x3a9;" horiz-adv-x="1660" 
d="M238 0v106h366q-157 54 -261.5 215.5t-104.5 372.5q0 161 61.5 303t165.5 241t245.5 156.5t297.5 57.5q190 0 342 -84.5t237.5 -236t85.5 -343.5q0 -124 -38 -238t-103 -200.5t-149 -149.5t-179 -94h367v-106h-541v106q228 53 376 239.5t148 424.5q0 159 -67.5 290
t-193.5 208.5t-287 77.5q-182 0 -331.5 -90t-234 -243t-84.5 -335q0 -133 51 -252.5t148 -205t223 -114.5v-106h-540z" />
    <glyph glyph-name="uni03A9" unicode="&#x2126;" horiz-adv-x="1660" 
d="M238 0v106h366q-157 54 -261.5 215.5t-104.5 372.5q0 161 61.5 303t165.5 241t245.5 156.5t297.5 57.5q190 0 342 -84.5t237.5 -236t85.5 -343.5q0 -124 -38 -238t-103 -200.5t-149 -149.5t-179 -94h367v-106h-541v106q228 53 376 239.5t148 424.5q0 159 -67.5 290
t-193.5 208.5t-287 77.5q-182 0 -331.5 -90t-234 -243t-84.5 -335q0 -133 51 -252.5t148 -205t223 -114.5v-106h-540z" />
    <glyph glyph-name="pi" unicode="&#x3c0;" horiz-adv-x="1312" 
d="M248 821l16 101h1100l-16 -101h-205l-99 -567q-6 -42 -9 -78.5t17 -62t66 -25.5q65 0 123 39l10 -86q-77 -53 -166 -53q-104 0 -139 64.5t-14 185.5l104 583h-473l-26 -149q-68 -382 -169 -532.5t-292 -147.5l12 104q121 -2 202 122.5t136 426.5l31 176h-209z" />
    <glyph glyph-name="uni0401" unicode="&#x401;" horiz-adv-x="1177" 
d="M227 0l252 1434h793l-19 -107h-680l-96 -547h619l-19 -106h-618l-101 -568h701l-19 -106h-813zM604 1647q0 29 22.5 47t55.5 18q29 0 51.5 -18.5t22.5 -46.5q0 -32 -22 -51t-52 -19q-34 0 -56 18.5t-22 51.5zM1081 1647q0 29 23.5 47t56.5 18q29 0 50.5 -18t21.5 -47
q0 -32 -21.5 -51t-50.5 -19q-34 0 -57 19t-23 51z" />
    <glyph glyph-name="uni0402" unicode="&#x402;" horiz-adv-x="1564" 
d="M1532 504q0 -238 -115.5 -380t-312.5 -142q-126 0 -195 69l54 84q61 -47 141 -47q147 0 229 110t82 296q0 134 -74 200t-213 66q-34 0 -65.5 -3t-63.5 -12.5t-51 -15t-51.5 -22t-40.5 -20t-43 -23.5l-35 -21l-114 -643h-113l233 1327h-530l18 107h1174l-19 -107h-530
l-102 -575q86 53 171.5 83.5t198.5 30.5q168 0 267.5 -89.5t99.5 -272.5z" />
    <glyph glyph-name="uni0403" unicode="&#x403;" horiz-adv-x="1048" 
d="M227 0l252 1434h791l-19 -107h-678l-233 -1327h-113zM1233 1688l-375 -177l-33 64l367 203z" />
    <glyph glyph-name="uni0404" unicode="&#x404;" horiz-adv-x="1353" 
d="M1122 784l-18 -106h-764q-6 -263 153 -426.5t418 -163.5q226 0 410 121l41 -90q-86 -64 -207.5 -100.5t-249.5 -36.5q-203 0 -356.5 80.5t-239.5 234t-86 360.5q0 159 61 303.5t169.5 253.5t269 173.5t348.5 64.5q132 0 242.5 -32.5t181.5 -94.5l-63 -78q-155 99 -363 99
q-179 0 -331.5 -68.5t-255 -197t-132.5 -296.5h772z" />
    <glyph glyph-name="uni0405" unicode="&#x405;" horiz-adv-x="1120" 
d="M961 383q0 67 -35 120.5t-90.5 90t-123 69.5t-134.5 69.5t-122.5 79t-90.5 108t-35 147.5q0 76 31 144.5t89.5 122.5t153.5 86t213 32q112 0 210 -40t153 -105l-70 -84q-54 56 -132.5 89.5t-172.5 33.5q-166 0 -260 -74.5t-94 -192.5q0 -60 27 -109t71.5 -81.5t101 -65
t115.5 -58.5t115.5 -62t101 -75t71.5 -98.5t27 -132.5q0 -188 -129 -301.5t-336 -113.5q-162 0 -280.5 62t-171.5 163l74 74q55 -88 152.5 -140.5t223.5 -52.5q92 0 169 32t127.5 101t50.5 162z" />
    <glyph glyph-name="uni0406" unicode="&#x406;" horiz-adv-x="632" 
d="M268 0l252 1434h113l-252 -1434h-113z" />
    <glyph glyph-name="uni0407" unicode="&#x407;" horiz-adv-x="649" 
d="M268 0l252 1434h113l-252 -1434h-113zM389 1647q0 29 22.5 47t55.5 18q29 0 51.5 -18.5t22.5 -46.5q0 -32 -22 -51t-52 -19q-35 0 -56.5 18.5t-21.5 51.5zM688 1647q0 29 23 47t57 18q29 0 50.5 -18t21.5 -47q0 -32 -21.5 -51t-50.5 -19q-35 0 -57.5 18.5t-22.5 51.5z
" />
    <glyph glyph-name="uni0408" unicode="&#x408;" horiz-adv-x="739" 
d="M764 1434l-197 -1119q-29 -161 -111.5 -247t-232.5 -86q-59 0 -109 19t-77 46l55 86q55 -45 137 -45q105 0 156.5 65.5t73.5 178.5l194 1102h111z" />
    <glyph glyph-name="uni0409" unicode="&#x409;" horiz-adv-x="2115" 
d="M1143 0l233 1327h-604l-70 -270q-53 -203 -106 -365.5t-100.5 -273t-97.5 -190.5t-92 -125t-88.5 -70t-83 -31t-79.5 -2l21 113q25 -2 47.5 3t58 27.5t69.5 62.5t78.5 118t88 184.5t95.5 270.5t103 368l72 287h819l-100 -566q165 11 233 11q222 0 337.5 -93t115.5 -262
q0 -253 -170 -390.5t-471 -137.5q-60 0 -165.5 2t-143.5 2zM1616 772q-98 0 -227 -12l-115 -651q20 -1 59.5 -3t76 -3t71.5 -1q228 0 359.5 107t131.5 297q0 130 -91 198t-265 68z" />
    <glyph glyph-name="uni040A" unicode="&#x40a;" horiz-adv-x="2183" 
d="M227 0l252 1434h113l-105 -598h875l104 598h113l-102 -592q147 10 227 10q223 0 341 -90.5t118 -255.5q0 -241 -174 -375.5t-467 -134.5q-60 0 -164 2t-144 2l129 729h-874l-129 -729h-113zM1456 733l-110 -624q5 0 81.5 -3.5t124.5 -3.5q216 0 353 102t137 281
q0 127 -94.5 193.5t-268.5 66.5q-94 0 -223 -12z" />
    <glyph glyph-name="uni040B" unicode="&#x40b;" horiz-adv-x="1564" 
d="M254 1327l18 107h1174l-19 -107h-530l-102 -575q178 114 391 114q87 0 155.5 -27.5t117 -86t63 -149.5t-5.5 -218l-70 -385h-113l68 383q68 377 -258 377q-75 0 -150.5 -21.5t-116 -41.5t-98.5 -54l-114 -643h-113l233 1327h-530z" />
    <glyph glyph-name="uni040C" unicode="&#x40c;" horiz-adv-x="1304" 
d="M1473 1434l-803 -697l569 -737h-137l-563 748l782 686h152zM227 0l252 1434h113l-252 -1434h-113zM1270 1688l-375 -177l-33 64l367 203z" />
    <glyph glyph-name="uni040E" unicode="&#x40e;" horiz-adv-x="1331" 
d="M1548 1434l-696 -1110q-104 -169 -191 -246.5t-196 -77.5q-97 0 -150 47l54 90q46 -33 112 -33q120 0 234 185l39 59l-471 1086h123l415 -977l606 977h121zM633 1745h106q11 -70 64 -108t166 -38q93 0 167 38t119 108h95q-47 -102 -153 -164.5t-243 -62.5
q-151 0 -233 59.5t-88 167.5z" />
    <glyph glyph-name="uni040F" unicode="&#x40f;" horiz-adv-x="1548" 
d="M227 0l252 1434h113l-234 -1328h869l233 1328h113l-252 -1434h-496l-55 -322h-106l55 322h-492z" />
    <glyph glyph-name="uni0410" unicode="&#x410;" horiz-adv-x="1427" 
d="M43 0l879 1446h92l370 -1446h-114l-125 487h-686l-295 -487h-121zM944 1290l-422 -696h598z" />
    <glyph glyph-name="uni0411" unicode="&#x411;" horiz-adv-x="1245" 
d="M227 0l252 1434h791l-19 -107h-678l-86 -485q132 12 246 12q225 0 338 -90.5t113 -253.5q0 -256 -171.5 -386t-480.5 -130q-60 0 -163.5 3t-141.5 3zM711 748q-100 0 -240 -13l-113 -629q204 -6 209 -6q240 0 370 102t130 283q0 131 -85.5 197t-270.5 66z" />
    <glyph glyph-name="uni0412" unicode="&#x412;" horiz-adv-x="1263" 
d="M227 2l252 1430q320 8 379 8q397 0 397 -312q0 -143 -89.5 -248.5t-233.5 -138.5l-2 -2q124 -23 192 -97t68 -185q0 -116 -45.5 -206t-126.5 -145.5t-186.5 -83.5t-231.5 -28q-205 0 -373 8zM737 682h-276l-103 -573q128 -9 267 -9q210 0 327 88t117 250q0 244 -332 244z
M838 1333q-94 0 -265 -6l-96 -545h279q163 0 272 91.5t109 234.5q0 225 -299 225z" />
    <glyph glyph-name="uni0413" unicode="&#x413;" horiz-adv-x="1048" 
d="M227 0l252 1434h791l-19 -107h-678l-233 -1327h-113z" />
    <glyph glyph-name="uni0414" unicode="&#x414;" horiz-adv-x="1521" 
d="M-14 -274l67 380h154q33 33 78.5 106t105.5 195t126.5 316.5t119.5 423.5l68 287h804l-233 -1328h194l-67 -380h-107l50 274h-1205l-49 -274h-106zM729 1065q-50 -207 -111 -386.5t-116 -292.5t-98 -182t-72 -98h831l215 1221h-585z" />
    <glyph glyph-name="uni0415" unicode="&#x415;" horiz-adv-x="1177" 
d="M227 0l252 1434h793l-19 -107h-680l-96 -547h619l-19 -106h-618l-101 -568h701l-19 -106h-813z" />
    <glyph glyph-name="uni0416" unicode="&#x416;" horiz-adv-x="1871" 
d="M2048 1434l-733 -693l504 -741h-125l-504 748l717 686h141zM879 0l251 1434h113l-252 -1434h-112zM817 758l-489 676h125l491 -686l-749 -748h-142z" />
    <glyph glyph-name="uni0417" unicode="&#x417;" horiz-adv-x="1175" 
d="M590 -18q-155 0 -277 60.5t-188 158.5l76 75q60 -88 166 -138t237 -50q170 0 275.5 93.5t105.5 252.5q0 114 -76 180t-225 66h-139l20 106h144q138 0 239 95.5t101 224.5q0 117 -75.5 178.5t-215.5 61.5q-183 0 -361 -134l-53 80q90 77 199.5 118.5t224.5 41.5
q193 0 294 -87t101 -247q0 -120 -74 -224.5t-208 -152.5v-4q102 -23 159.5 -102.5t57.5 -198.5q0 -202 -141 -328t-367 -126z" />
    <glyph glyph-name="uni0418" unicode="&#x418;" horiz-adv-x="1632" 
d="M328 0h-101l252 1434h113l-217 -1237l1181 1237h101l-252 -1434h-113l219 1237z" />
    <glyph glyph-name="uni0419" unicode="&#x419;" horiz-adv-x="1632" 
d="M328 0h-101l252 1434h113l-217 -1237l1181 1237h101l-252 -1434h-113l219 1237zM752 1745h106q11 -70 63.5 -108t165.5 -38q93 0 167.5 38.5t119.5 107.5h94q-47 -102 -152.5 -164.5t-242.5 -62.5q-151 0 -233 59.5t-88 167.5z" />
    <glyph glyph-name="uni041A" unicode="&#x41a;" horiz-adv-x="1304" 
d="M1473 1434l-803 -697l569 -737h-137l-563 748l782 686h152zM227 0l252 1434h113l-252 -1434h-113z" />
    <glyph glyph-name="uni041B" unicode="&#x41b;" horiz-adv-x="1482" 
d="M1143 0l233 1327h-604l-70 -270q-53 -203 -106 -365.5t-100.5 -273t-97.5 -190.5t-92 -125t-88.5 -70t-83 -31t-79.5 -2l21 113q25 -2 47.5 3t58.5 27.5t69.5 62.5t78.5 118t88.5 184.5t95 270.5t102.5 368l72 287h819l-252 -1434h-112z" />
    <glyph glyph-name="uni041C" unicode="&#x41c;" horiz-adv-x="1810" 
d="M227 0l252 1434h101l436 -787l696 787h123l-252 -1434h-113l222 1255l-688 -772h-19l-426 768l-219 -1251h-113z" />
    <glyph glyph-name="uni041D" unicode="&#x41d;" horiz-adv-x="1566" 
d="M1227 0l119 678h-887l-119 -678h-113l252 1434h113l-113 -650h887l113 650h112l-252 -1434h-112z" />
    <glyph glyph-name="uni041E" unicode="&#x41e;" horiz-adv-x="1658" 
d="M223 645q0 169 59 318t163.5 256.5t255 170t325.5 62.5q300 0 481 -176t181 -467q0 -238 -99.5 -426.5t-278.5 -294.5t-405 -106q-165 0 -295.5 50t-214.5 139t-128 209.5t-44 264.5zM346 651q0 -263 155 -413t410 -150q136 0 256 50.5t208.5 140.5t140 224t51.5 292
q0 251 -149 401t-404 150q-134 0 -255 -49t-212.5 -137t-146 -220.5t-54.5 -288.5z" />
    <glyph glyph-name="uni041F" unicode="&#x41f;" horiz-adv-x="1568" 
d="M1229 0l233 1327h-889l-233 -1327h-113l252 1434h1114l-252 -1434h-112z" />
    <glyph glyph-name="uni0420" unicode="&#x420;" horiz-adv-x="1198" 
d="M340 0h-113l252 1434q40 0 174.5 2t173.5 2q99 0 177.5 -20t128 -53.5t82 -80t46 -96t13.5 -105.5q0 -106 -36.5 -197.5t-107.5 -163.5t-186.5 -113.5t-263.5 -41.5q-133 0 -240 8zM819 1331q-110 0 -246 -4l-112 -643q130 -10 233 -10q218 0 338.5 110t120.5 283
q0 121 -82 192.5t-252 71.5z" />
    <glyph glyph-name="uni0421" unicode="&#x421;" horiz-adv-x="1343" 
d="M1313 203l43 -86q-82 -67 -209.5 -101t-247.5 -34q-304 0 -490 184t-186 481q0 166 62.5 314.5t172 256.5t265.5 171t334 63q140 0 251 -32t177 -89l-60 -82q-148 97 -362 97q-154 0 -289 -54t-228.5 -146.5t-147.5 -218t-54 -265.5q0 -256 159.5 -415t414.5 -159
q227 0 395 115z" />
    <glyph glyph-name="uni0422" unicode="&#x422;" horiz-adv-x="1224" 
d="M254 1327l18 107h1174l-19 -107h-530l-233 -1327h-113l233 1327h-530z" />
    <glyph glyph-name="uni0423" unicode="&#x423;" horiz-adv-x="1331" 
d="M1548 1434l-696 -1110q-104 -169 -191 -246.5t-196 -77.5q-97 0 -150 47l54 90q46 -33 112 -33q120 0 234 185l39 59l-471 1086h123l415 -977l606 977h121z" />
    <glyph glyph-name="uni0424" unicode="&#x424;" horiz-adv-x="1699" 
d="M786 -16l33 186q-285 0 -447.5 132.5t-162.5 361.5q0 194 103.5 340.5t287 223.5t420.5 77l24 145h113l-24 -145q289 0 452.5 -126t163.5 -352q0 -204 -102.5 -354t-284.5 -226.5t-422 -76.5h-8l-33 -186h-113zM1122 1198h-8l-164 -924q194 -1 345.5 57.5t242 179.5
t90.5 288q0 193 -132.5 296t-373.5 103zM330 670q0 -193 134.5 -294.5t373.5 -101.5l163 924q-302 0 -486.5 -141t-184.5 -387z" />
    <glyph glyph-name="uni0425" unicode="&#x425;" horiz-adv-x="1343" 
d="M1524 1434l-650 -705l416 -729h-125l-372 645l-596 -645h-144l676 729l-401 705h127l358 -623l569 623h142z" />
    <glyph glyph-name="uni0426" unicode="&#x426;" horiz-adv-x="1595" 
d="M227 0l252 1434h113l-234 -1328h879l233 1328h113l-233 -1328h194l-67 -380h-107l49 274h-1192z" />
    <glyph glyph-name="uni0427" unicode="&#x427;" horiz-adv-x="1302" 
d="M1327 1434l-252 -1434h-112l116 657q-80 -49 -186.5 -84.5t-214.5 -35.5q-180 0 -282.5 85.5t-102.5 254.5q4 74 12 116l78 441h113l-74 -414q-12 -64 -12 -125q0 -252 299 -252q104 0 207 35.5t182 85.5l116 670h113z" />
    <glyph glyph-name="uni0428" unicode="&#x428;" horiz-adv-x="2033" 
d="M227 0l252 1434h113l-234 -1328h621l233 1328h113l-233 -1328h620l234 1328h112l-252 -1434h-1579z" />
    <glyph glyph-name="uni0429" unicode="&#x429;" horiz-adv-x="2070" 
d="M227 0l252 1434h113l-234 -1328h621l233 1328h113l-233 -1328h620l234 1328h112l-233 -1328h194l-67 -380h-107l49 274h-1667z" />
    <glyph glyph-name="uni042A" unicode="&#x42a;" horiz-adv-x="1361" 
d="M238 1327l20 107h475l-98 -566q161 11 248 11q225 0 340.5 -93.5t115.5 -257.5q0 -255 -166 -393.5t-475 -138.5q-69 0 -180.5 2t-148.5 2l233 1327h-364zM858 772q-112 0 -244 -12l-114 -651q220 -7 231 -7q230 0 359 106t129 296q0 128 -94 198t-267 70z" />
    <glyph glyph-name="uni042B" unicode="&#x42b;" horiz-adv-x="1697" 
d="M1358 0l252 1434h112l-252 -1434h-112zM700 772q-98 0 -227 -12l-115 -651q20 -1 59 -3t77 -3t79 -1q225 0 354.5 107t129.5 297q0 127 -91 196.5t-266 69.5zM592 1434l-98 -566q161 11 231 11q223 0 338 -93.5t115 -257.5q0 -251 -164.5 -391.5t-468.5 -140.5
q-70 0 -176 2t-142 2l252 1434h113z" />
    <glyph glyph-name="uni042C" unicode="&#x42c;" horiz-adv-x="1220" 
d="M717 772q-115 0 -244 -12l-115 -651q221 -7 230 -7q225 0 357 106t132 296q0 129 -89 198.5t-271 69.5zM592 1434l-98 -566q161 11 247 11q226 0 341.5 -93.5t115.5 -257.5q0 -258 -172 -395t-469 -137q-69 0 -181 2t-149 2l252 1434h113z" />
    <glyph glyph-name="uni042D" unicode="&#x42d;" horiz-adv-x="1392" 
d="M524 678l19 106h764q15 258 -123.5 410t-390.5 152q-251 0 -441 -123l-43 86q88 67 230 105t280 38q283 0 442.5 -167.5t159.5 -473.5q0 -254 -105.5 -443.5t-289 -287.5t-420.5 -98q-160 0 -288 48.5t-212 129.5l68 86q182 -161 434 -158q283 0 470.5 162.5t215.5 427.5
h-770z" />
    <glyph glyph-name="uni042E" unicode="&#x42e;" horiz-adv-x="2181" 
d="M459 678l-119 -678h-113l252 1434h113l-113 -650h340q19 138 81.5 259.5t159 212.5t230.5 143.5t287 52.5q284 0 458.5 -177t174.5 -466q0 -176 -57 -330t-156.5 -263t-240 -171.5t-302.5 -62.5q-129 0 -236 35t-181.5 96t-126.5 145t-76.5 181.5t-24.5 205.5v33h-350z
M924 651q0 -252 146.5 -407.5t389.5 -155.5q132 0 248 52t200 143.5t132.5 224t48.5 287.5q0 247 -144.5 399t-379.5 152q-101 0 -196 -31t-175.5 -91t-141 -143t-94.5 -194t-34 -236z" />
    <glyph glyph-name="uni042F" unicode="&#x42f;" horiz-adv-x="1259" 
d="M920 0l98 561h-318l-499 -561h-138l535 592q-114 39 -183 127t-69 215q0 100 36.5 188.5t109.5 160.5t195 114.5t280 42.5q52 0 164.5 -3t152.5 -3l-252 -1434h-112zM702 668h336l115 659q-171 6 -223 6q-117 0 -208 -32t-145.5 -87.5t-82 -123.5t-27.5 -146
q0 -105 63 -179.5t172 -96.5z" />
    <glyph glyph-name="uni0430" unicode="&#x430;" horiz-adv-x="1011" 
d="M430 84q59 0 126.5 49t125 123t102.5 151t70 142l47 262q-74 29 -160 29q-205 0 -342 -147.5t-137 -373.5q0 -107 42.5 -171t125.5 -64zM866 0h-106l63 365q-35 -59 -62 -99.5t-74 -98.5t-89 -94t-99 -62.5t-114 -26.5q-114 0 -173.5 88t-59.5 231q0 180 78.5 326.5
t212.5 228.5t294 82q157 0 273 -59z" />
    <glyph glyph-name="uni0431" unicode="&#x431;" horiz-adv-x="1050" 
d="M614 1268q80 32 185.5 55t173 49t121.5 82l24 -94q-39 -45 -95.5 -73t-108 -38.5t-130 -29.5t-139.5 -45q-333 -137 -369 -689q34 78 90 155.5t123 140.5t144 102t147 39q121 0 188.5 -83.5t67.5 -226.5q0 -119 -37 -232t-102 -201.5t-161.5 -142.5t-207.5 -54
q-169 0 -262.5 123t-93.5 315q0 305 121.5 536.5t320.5 311.5zM924 596q0 102 -46.5 163.5t-129.5 61.5t-184 -78t-178.5 -190.5t-104.5 -214.5q16 -115 78.5 -185.5t172.5 -70.5t202 76t141 193t49 245z" />
    <glyph glyph-name="uni0432" unicode="&#x432;" horiz-adv-x="966" 
d="M963 725q-1 -82 -51.5 -139.5t-149.5 -98.5q77 -12 120.5 -54t43.5 -103q0 -136 -118.5 -242t-299.5 -106q-86 0 -155.5 30.5t-112.5 82t-65.5 115.5t-22.5 134q0 158 67 293.5t191.5 219t279.5 83.5q133 0 204 -59.5t69 -155.5zM819 328q0 52 -37.5 86t-109.5 43
q-180 -45 -408 -60v-30q-1 -131 70 -208t192 -77q119 0 206 73.5t87 172.5zM678 840q-150 0 -261.5 -107t-144.5 -274q123 11 217.5 27t173.5 41.5t125 64t54 88.5q7 41 -4 68q-10 45 -52.5 68.5t-107.5 23.5z" />
    <glyph glyph-name="uni0433" unicode="&#x433;" horiz-adv-x="817" 
d="M98 217q0 64 34 114t88 81.5t120 57t132 48.5t120.5 48t89 63.5t35.5 87.5q0 57 -42 90t-124 33q-127 0 -272 -74l-37 80q152 94 319 94q127 0 197.5 -59t70.5 -154q0 -66 -34.5 -117.5t-89 -83.5t-120.5 -58.5t-131.5 -49t-120 -47t-88.5 -60.5t-34 -82q0 -67 48 -107
t138 -40q159 0 316 115l51 -66q-75 -69 -172.5 -109t-196.5 -40q-140 0 -218.5 65t-78.5 170z" />
    <glyph glyph-name="uni0434" unicode="&#x434;" horiz-adv-x="1024" 
d="M489 -18q-156 0 -246.5 104t-90.5 274q0 109 35.5 213t98 185.5t156 131.5t201.5 50q94 0 166 -42.5t117 -104.5v12q0 526 -457 551l16 96q265 -7 406 -169t141 -449q0 -129 -21.5 -251.5t-66.5 -231.5t-108 -191t-152.5 -130t-194.5 -48zM504 82q88 0 163 51.5
t125.5 138.5t83 191.5t44.5 218.5q-63 78 -129 118t-150 40q-164 0 -271.5 -134.5t-107.5 -330.5q0 -131 64 -212t178 -81z" />
    <glyph glyph-name="uni0435" unicode="&#x435;" horiz-adv-x="925" 
d="M821 207l49 -64q-74 -73 -171.5 -117t-200.5 -44q-87 0 -155 31t-108.5 83t-61.5 115t-21 133q0 154 65 289.5t188.5 221t276.5 85.5q133 0 200.5 -59t65.5 -158q0 -160 -179 -246t-505 -92v-20q-2 -129 65 -206t187 -77q152 0 305 125zM670 840q-146 0 -256 -108.5
t-142 -268.5q250 6 396 60t161 153q6 39 -4 72q-21 92 -155 92z" />
    <glyph glyph-name="uni0436" unicode="&#x436;" horiz-adv-x="1220" 
d="M1346 922l-426 -449l294 -473h-120l-291 479l409 443h134zM553 0l160 922h100l-158 -922h-102zM455 489l-279 433h121l274 -443l-436 -479h-131z" />
    <glyph glyph-name="uni0437" unicode="&#x437;" horiz-adv-x="823" 
d="M389 -18q-104 0 -195.5 32.5t-136.5 83.5l60 74q111 -94 278 -94q118 0 198.5 60.5t80.5 152.5q0 63 -52 97t-153 34h-117l17 88h102q102 0 170 53t68 135q0 67 -51.5 106.5t-145.5 39.5q-84 0 -147.5 -20t-137.5 -60l-41 78q166 98 355 98q136 0 209 -56t73 -153
q0 -89 -49.5 -158t-148.5 -100v-4q155 -32 155 -178q0 -138 -111.5 -223.5t-279.5 -85.5z" />
    <glyph glyph-name="uni0438" unicode="&#x438;" horiz-adv-x="995" 
d="M381 82q60 0 131 49t132 122t109.5 150t73.5 140l66 379h102l-159 -922h-103l62 356q-38 -64 -82 -122t-102.5 -118.5t-127 -97t-135.5 -36.5q-93 0 -137.5 56t-44.5 148q0 72 22 195l115 541h103l-113 -521q-23 -117 -23 -180q2 -67 25.5 -103t85.5 -36z" />
    <glyph glyph-name="uni0439" unicode="&#x439;" horiz-adv-x="995" 
d="M381 82q60 0 131 49t132 122t109.5 150t73.5 140l66 379h102l-159 -922h-103l62 356q-38 -64 -82 -122t-102.5 -118.5t-127 -97t-135.5 -36.5q-93 0 -137.5 56t-44.5 148q0 72 22 195l115 541h103l-113 -521q-23 -117 -23 -180q2 -67 25.5 -103t85.5 -36zM442 1393h97
q-13 -80 26.5 -129.5t128.5 -49.5q75 0 139 48.5t82 130.5h82q-24 -111 -112.5 -182.5t-210.5 -71.5q-126 0 -186 68.5t-46 185.5z" />
    <glyph glyph-name="uni043A" unicode="&#x43a;" horiz-adv-x="903" 
d="M1016 922l-498 -449l379 -473h-129l-375 475l477 447h146zM147 0l158 922h103l-158 -922h-103z" />
    <glyph glyph-name="uni043B" unicode="&#x43b;" horiz-adv-x="976" 
d="M717 0l141 815h-362l-47 -201q-38 -157 -82.5 -272.5t-85.5 -181.5t-89.5 -105t-87.5 -51t-86 -12l11 104q21 -1 46 7.5t62.5 42t72.5 89t74.5 159.5t71.5 241l64 287h557l-158 -922h-102z" />
    <glyph glyph-name="uni043C" unicode="&#x43c;" horiz-adv-x="1200" 
d="M147 0l158 922h90l273 -512l432 512h100l-158 -922h-102l131 760l-424 -498h-4l-262 498l-131 -760h-103z" />
    <glyph glyph-name="uni043D" unicode="&#x43d;" horiz-adv-x="1036" 
d="M776 0l72 418h-526l-72 -418h-103l158 922h103l-68 -404h524l70 404h102l-157 -922h-103z" />
    <glyph glyph-name="uni043E" unicode="&#x43e;" horiz-adv-x="1005" 
d="M502 -20q-163 0 -256.5 105t-93.5 277q0 85 20 168t62 157t100.5 130.5t141.5 89.5t179 33q162 0 250 -103t88 -270q0 -166 -59 -299t-171.5 -210.5t-260.5 -77.5zM516 80q172 0 270.5 133.5t98.5 335.5q0 136 -62.5 213.5t-181.5 77.5q-174 0 -276.5 -132.5
t-102.5 -328.5q0 -140 67 -219.5t187 -79.5z" />
    <glyph glyph-name="uni043F" unicode="&#x43f;" horiz-adv-x="1030" 
d="M305 922h103l-62 -357q30 49 65.5 96t84 99t97 90.5t106.5 64t112 25.5q93 0 137.5 -56t44.5 -149q0 -71 -22 -194l-105 -541h-102l102 520q23 122 23 180q-2 66 -26.5 103t-86.5 37q-77 0 -175 -81.5t-173 -184.5t-111 -189l-67 -385h-103z" />
    <glyph glyph-name="uni0440" unicode="&#x440;" horiz-adv-x="1036" 
d="M178 -410h-104l229 1332h105l-64 -355q35 56 79 112.5t105.5 118t135 99.5t143.5 37q59 -1 102.5 -29.5t67 -76t34.5 -99.5t11 -108q0 -175 -75 -321.5t-206.5 -232t-289.5 -85.5q-104 0 -199 43zM313 385l-43 -252q83 -51 187 -51q130 0 236 69.5t165.5 188.5t59.5 262
q0 106 -42.5 172t-127.5 66q-68 0 -159.5 -79.5t-164.5 -183t-111 -192.5z" />
    <glyph glyph-name="uni0441" unicode="&#x441;" horiz-adv-x="866" 
d="M782 199l49 -66q-69 -68 -158.5 -109.5t-185.5 -41.5q-84 0 -149.5 29t-105 79.5t-60 114t-20.5 135.5q0 117 38 225.5t105 191.5t166.5 133t214.5 50q137 0 219 -43l-35 -90q-94 33 -194 33q-116 0 -209 -67t-143 -176t-50 -235q0 -129 64 -204.5t178 -75.5
q54 0 108.5 19.5t88.5 41t79 56.5z" />
    <glyph glyph-name="uni0442" unicode="&#x442;" horiz-adv-x="1503" 
d="M147 0l158 922h103l-60 -355q31 61 68.5 118.5t90.5 118.5t119 98.5t132 37.5q86 0 126 -53t40 -125q0 -52 -15 -164q27 48 54 90.5t67 90.5t80 82t90 56.5t100 22.5q86 0 126 -53.5t40 -128.5q0 -81 -26 -234l-107 -524h-106l102 506q31 137 29 201q-2 61 -25.5 97
t-85.5 36q-56 0 -117 -49t-111.5 -125t-89 -149t-63.5 -138l-73 -379h-107l100 506q29 123 29 203q-4 131 -110 131q-48 0 -101.5 -38t-98 -95t-85 -125.5t-67.5 -127.5t-42 -104l-61 -350h-103z" />
    <glyph glyph-name="uni0443" unicode="&#x443;" horiz-adv-x="825" 
d="M133 -311q44 0 85 25t80 75.5t65 92.5t63 110q-32 179 -116.5 439t-184.5 491h113q68 -152 147 -393t117 -414q81 156 160 383.5t122 423.5h113q-64 -216 -129 -401.5t-143 -361t-155 -298.5t-164 -197t-171 -74q-82 0 -149 50l49 81q58 -32 98 -32z" />
    <glyph glyph-name="uni0444" unicode="&#x444;" horiz-adv-x="1302" 
d="M520 -410l74 418q-27 -14 -74 -20q-41 -7 -98 0q-124 12 -197 119.5t-73 269.5q0 225 128.5 383.5t323.5 175.5q58 4 86 2q39 -3 60 -8l86 504h102l-88 -521q46 27 127 27q145 0 228 -98.5t83 -263.5q0 -259 -128 -416.5t-324 -175.5q-54 -4 -84 -2q-43 4 -62 10
l-69 -404h-101zM262 377q-2 -119 50 -196.5t147 -92.5q47 -7 88 -2q42 4 59 10l127 742q-40 8 -78 8q-172 0 -282.5 -129.5t-110.5 -339.5zM932 840q-62 0 -96 -15l-129 -741q40 -8 69 -8q186 0 294 132.5t108 354.5q0 129 -62 203t-184 74z" />
    <glyph glyph-name="uni0445" unicode="&#x445;" horiz-adv-x="851" 
d="M965 922l-398 -445l260 -477h-114l-213 395l-353 -395h-131l422 473l-245 449h118l197 -375l328 375h129z" />
    <glyph glyph-name="uni0446" unicode="&#x446;" horiz-adv-x="1030" 
d="M1001 922l-122 -701q-24 -118 69 -121h68l-68 -333h-96l49 233h-45q-56 0 -79.5 38.5t-14.5 100.5l37 215q-30 -49 -62 -94t-78.5 -98t-92.5 -91t-103 -63.5t-111 -25.5q-92 0 -137 55t-45 145q0 78 23 199l114 541h103l-117 -539q-20 -96 -17 -170q4 -131 105 -131
q63 0 135 49t133 123t108 148t74 135l66 385h104z" />
    <glyph glyph-name="uni0447" unicode="&#x447;" horiz-adv-x="882" 
d="M387 399q59 0 120.5 38.5t109 96.5t83 119t52.5 113l28 156h101l-156 -922h-104l100 586q-32 -52 -70.5 -100t-86.5 -91.5t-104 -69.5t-110 -26q-92 0 -134 53t-40 142q0 66 23 174l59 254h104l-61 -256q-18 -80 -18 -140q0 -61 23.5 -94t80.5 -33z" />
    <glyph glyph-name="uni0448" unicode="&#x448;" horiz-adv-x="1437" 
d="M387 82q43 0 88.5 30.5t84 77.5t75 107.5t62.5 116t46 108.5l91 400h106l-113 -506q-30 -153 -30 -203q0 -131 106 -131q56 0 115 48.5t107.5 125t84 150t60.5 143.5l63 373h103l-156 -922h-102l59 346q-183 -364 -381 -364q-60 0 -99.5 30t-54 69.5t-14.5 84.5
q0 75 14 147q-176 -331 -362 -331q-87 0 -128.5 56.5t-41.5 131.5q0 74 33 227l119 525h106l-117 -506q-1 -7 -8.5 -43t-11.5 -56.5t-8 -50.5t-4 -51q0 -133 108 -133z" />
    <glyph glyph-name="uni0449" unicode="&#x449;" horiz-adv-x="1466" 
d="M743 522l91 400h106l-113 -506q-30 -153 -30 -203q0 -131 106 -131q54 0 110 44.5t103 117t82 140.5t64 140l69 398h107l-125 -721q-9 -49 -6 -88q33 -13 73 -13h72l-66 -333h-96l49 233h-24q-144 0 -119 145l33 187q-27 -51 -51 -91.5t-62 -91.5t-75 -85t-86 -58
t-99 -24q-60 0 -99.5 30t-54 69.5t-14.5 84.5q0 75 14 147q-176 -331 -362 -331q-87 0 -128.5 56.5t-41.5 131.5q0 62 33 227l119 525h106l-117 -506q-32 -150 -32 -201q0 -59 25.5 -96t82.5 -37q43 0 88.5 30.5t84 77.5t75 107.5t62.5 116t46 108.5z" />
    <glyph glyph-name="uni044A" unicode="&#x44a;" horiz-adv-x="923" 
d="M160 922h450l-10 -60q-74 -94 -120.5 -159t-100 -161t-76.5 -177q80 109 205.5 193.5t234.5 84.5q81 0 136 -59t55 -154q0 -82 -51.5 -164.5t-130 -142.5t-175.5 -97.5t-186 -37.5q-108 0 -159.5 61.5t-51.5 155.5q0 244 291 616h-328q3 23 17 101zM279 246
q-2 -68 31 -113t106 -45q89 0 186 47.5t163 125.5t66 157q0 54 -33 89.5t-93 35.5q-98 0 -225.5 -90t-200.5 -207z" />
    <glyph glyph-name="uni044B" unicode="&#x44b;" horiz-adv-x="1232" 
d="M188 315q12 71 38 178.5t61 238.5t49 190h106q-121 -461 -129 -494q74 99 177 167.5t204 68.5q81 0 137 -59t56 -154q0 -86 -47 -172t-120.5 -149t-167 -102.5t-181.5 -39.5q-73 0 -120 31.5t-64 77t-17 104.5q0 48 18 114zM276 272q-4 -36 -4 -53q0 -131 121 -131
q89 0 180 49.5t150 129t59 159.5q0 59 -36 98t-89 39q-98 0 -213.5 -92t-167.5 -199zM1130 922h105l-160 -922h-102z" />
    <glyph glyph-name="uni044C" unicode="&#x44c;" horiz-adv-x="872" 
d="M688 664q83 0 138 -59t55 -154q0 -87 -46 -172.5t-118.5 -148.5t-165 -102.5t-180.5 -39.5q-73 0 -120 31.5t-64 77t-17 104.5q0 63 26 182t78.5 310.5t61.5 228.5h106q-121 -461 -129 -494q74 100 175 168t200 68zM776 426q0 60 -35 98.5t-88 38.5q-66 0 -156 -53
t-157.5 -135.5t-67.5 -155.5q0 -57 28.5 -94t92.5 -37q89 0 178.5 50t147 129t57.5 159z" />
    <glyph glyph-name="uni044D" unicode="&#x44d;" horiz-adv-x="864" 
d="M354 422l17 88h374q11 160 -58 245t-208 85q-79 0 -141 -20.5t-127 -61.5l-43 73q145 109 326 109q183 0 270.5 -101.5t87.5 -281.5q0 -131 -39.5 -241t-107 -182t-155 -112t-183.5 -40q-171 0 -289 118l61 74q92 -92 228 -92q140 0 239.5 91t128.5 249h-381z" />
    <glyph glyph-name="uni044E" unicode="&#x44e;" horiz-adv-x="1378" 
d="M893 -20q-157 0 -247.5 108t-90.5 291q0 27 2 39h-238l-73 -418h-99l154 922h100l-67 -404h235q18 85 55.5 159t94 134t138 94.5t177.5 34.5q159 0 244.5 -103t85.5 -270q0 -166 -57 -299t-165.5 -210.5t-248.5 -77.5zM1022 840q-114 0 -199 -63t-126.5 -166.5
t-41.5 -231.5q0 -138 64 -218.5t182 -80.5q167 0 263 133.5t96 335.5q0 136 -61 213.5t-177 77.5z" />
    <glyph glyph-name="uni044F" unicode="&#x44f;" horiz-adv-x="870" 
d="M623 922h247l-157 -922h-103l58 344h-197l-309 -344h-127l342 373q-80 18 -129 75.5t-49 145.5q0 62 21.5 117t68 104t132.5 78t202 29zM307 606q0 -77 49.5 -119.5t143.5 -42.5h186l66 377h-160q-76 0 -133 -18.5t-89 -50t-47.5 -68t-15.5 -78.5z" />
    <glyph glyph-name="uni0451" unicode="&#x451;" horiz-adv-x="925" 
d="M821 207l49 -64q-74 -73 -171.5 -117t-200.5 -44q-87 0 -155 31t-108.5 83t-61.5 115t-21 133q0 154 65 289.5t188.5 221t276.5 85.5q133 0 200.5 -59t65.5 -158q0 -160 -179 -246t-505 -92v-20q-2 -129 65 -206t187 -77q152 0 305 125zM670 840q-146 0 -256 -108.5
t-142 -268.5q250 6 396 60t161 153q6 39 -4 72q-21 92 -155 92zM457 1266q0 30 20.5 48.5t50.5 18.5q26 0 46 -18.5t20 -48.5q0 -32 -20 -52t-46 -20q-30 0 -50.5 19.5t-20.5 52.5zM885 1266q0 30 20.5 48.5t50.5 18.5q26 0 46 -18.5t20 -48.5q0 -32 -20 -52t-46 -20
q-30 0 -50.5 19.5t-20.5 52.5z" />
    <glyph glyph-name="uni0452" unicode="&#x452;" horiz-adv-x="1071" 
d="M121 987l14 88h281l61 359h103l-62 -359h397l-16 -88h-395l-101 -547q93 140 202.5 231t221.5 91q60 0 104.5 -24.5t70 -69.5t37.5 -102t12 -128q0 -243 -137 -484.5t-357 -363.5h-121q162 96 279.5 238.5t174 295.5t56.5 304q0 234 -164 234q-46 0 -102 -33.5
t-109.5 -88.5t-100 -114.5t-85.5 -120.5l-53 -305h-101l168 987h-278z" />
    <glyph glyph-name="uni0453" unicode="&#x453;" horiz-adv-x="817" 
d="M98 217q0 64 34 114t88 81.5t120 57t132 48.5t120.5 48t89 63.5t35.5 87.5q0 57 -42 90t-124 33q-127 0 -272 -74l-37 80q152 94 319 94q127 0 197.5 -59t70.5 -154q0 -66 -34.5 -117.5t-89 -83.5t-120.5 -58.5t-131.5 -49t-120 -47t-88.5 -60.5t-34 -82q0 -67 48 -107
t138 -40q159 0 316 115l51 -66q-75 -69 -172.5 -109t-196.5 -40q-140 0 -218.5 65t-78.5 170zM860 1401l-237 -291l-66 47l221 309z" />
    <glyph glyph-name="uni0454" unicode="&#x454;" horiz-adv-x="917" 
d="M686 514l-14 -88h-406q-18 -165 45.5 -254.5t210.5 -89.5q141 0 277 82l30 -80q-148 -102 -329 -102q-168 0 -258 98.5t-90 265.5q0 157 66 292.5t189 218.5t275 83q176 0 266 -90l-55 -80q-84 70 -231 70q-146 0 -243.5 -92.5t-135.5 -233.5h403z" />
    <glyph glyph-name="uni0455" unicode="&#x455;" horiz-adv-x="722" 
d="M567 240q0 41 -20 75t-51.5 58.5t-70 47t-77 47.5t-70 54t-51.5 72t-20 96q0 106 82.5 178t228.5 72q175 0 260 -57l-49 -80q-79 43 -207 43q-100 0 -152.5 -41.5t-52.5 -110.5q0 -39 20 -71t51.5 -55.5t70.5 -46t77.5 -48t70 -55.5t51.5 -75t20 -101q0 -120 -90.5 -190
t-235.5 -70q-189 0 -289 77l54 82q101 -65 231 -65q99 0 159 44t60 120z" />
    <glyph glyph-name="uni0456" unicode="&#x456;" horiz-adv-x="448" 
d="M164 0l158 922h102l-158 -922h-102zM367 1280q0 29 20.5 48.5t50.5 19.5q27 0 47.5 -19.5t20.5 -48.5q0 -34 -20 -55t-48 -21q-30 0 -50.5 21t-20.5 55z" />
    <glyph glyph-name="uni0457" unicode="&#x457;" horiz-adv-x="440" 
d="M164 0l158 922h102l-158 -922h-102zM244 1264q0 27 19 44t46 17q24 0 42 -17t18 -44q0 -28 -18 -46t-42 -18q-28 0 -46.5 17.5t-18.5 46.5zM504 1264q0 27 18.5 44t44.5 17q25 0 42.5 -17t17.5 -44q0 -29 -17.5 -46.5t-42.5 -17.5q-27 0 -45 17.5t-18 46.5z" />
    <glyph glyph-name="uni0458" unicode="&#x458;" horiz-adv-x="442" 
d="M442 922l-174 -990q-62 -358 -327 -358q-111 0 -174 53l47 84q56 -37 120 -37q180 0 228 265l174 983h106zM379 1280q0 29 21 48.5t51 19.5q27 0 48 -20t21 -48q0 -34 -20.5 -55t-48.5 -21q-30 0 -51 21t-21 55z" />
    <glyph glyph-name="uni0459" unicode="&#x459;" horiz-adv-x="1427" 
d="M991 922q-11 -44 -56.5 -221.5t-68.5 -272.5q74 100 175 168t202 68q81 0 136 -59t55 -154q0 -87 -46 -172.5t-118.5 -148.5t-165 -102.5t-180.5 -39.5q-73 0 -120 31.5t-64 77t-17 104.5q0 41 16.5 124.5t34 152t48.5 185.5t40 152h-364l-49 -201q-146 -622 -431 -622
l11 104q90 0 180.5 144.5t146.5 394.5l66 287h569zM1331 426q0 59 -36 98t-89 39q-66 0 -156 -53t-157.5 -135.5t-67.5 -155.5q0 -57 28.5 -94t92.5 -37q89 0 179 50t148 129t58 159z" />
    <glyph glyph-name="uni045A" unicode="&#x45a;" horiz-adv-x="1499" 
d="M834 430h-508l-76 -430h-103l158 922h103l-68 -392h518q13 57 45.5 193.5t46.5 198.5h105q-103 -434 -115 -494q74 100 174.5 168t200.5 68q81 0 136.5 -59t55.5 -154q0 -87 -46 -172.5t-118.5 -148.5t-165.5 -102.5t-182 -39.5q-55 0 -95.5 17.5t-62 48.5t-31 67
t-9.5 80q0 63 26 176q1 8 11 53zM1403 426q0 60 -35.5 98.5t-89.5 38.5q-66 0 -156 -53t-157.5 -135.5t-67.5 -155.5q0 -57 28.5 -94t92.5 -37q89 0 179 50t148 129t58 159z" />
    <glyph glyph-name="uni045B" unicode="&#x45b;" horiz-adv-x="1067" 
d="M121 987l14 88h281l61 359h103l-62 -359h397l-16 -88h-395l-101 -547q220 322 435 322q198 0 192 -219q0 -60 -24 -195l-68 -348h-100l65 334q31 168 19 221q-14 107 -113 107q-183 0 -424 -359l-53 -303h-101l168 987h-278z" />
    <glyph glyph-name="uni045C" unicode="&#x45c;" horiz-adv-x="903" 
d="M1016 922l-498 -449l379 -473h-129l-375 475l477 447h146zM147 0l158 922h103l-158 -922h-103zM934 1401l-238 -291l-65 47l221 309z" />
    <glyph glyph-name="uni045E" unicode="&#x45e;" horiz-adv-x="825" 
d="M133 -225q44 0 85 25t80 75.5t65 92.5t63 110q-32 179 -116.5 439t-184.5 491h113q68 -152 147 -393t117 -414q81 156 160 383.5t122 423.5h113q-64 -216 -129 -401.5t-143 -361t-155 -298.5t-164 -197t-171 -74q-82 0 -149 50l49 81q58 -32 98 -32zM342 1393h96
q-13 -80 27 -129.5t129 -49.5q75 0 139 48.5t82 130.5h82q-24 -111 -113 -182.5t-211 -71.5q-126 0 -185.5 68.5t-45.5 185.5z" />
    <glyph glyph-name="uni045F" unicode="&#x45f;" horiz-adv-x="1038" 
d="M147 0l158 922h103l-142 -822h527l141 822h102l-157 -922h-318l-45 -268h-96l45 268h-318z" />
    <glyph glyph-name="uni0462" unicode="&#x462;" horiz-adv-x="1292" 
d="M666 1434l-41 -238h338l-19 -106h-338l-43 -246q150 10 248 10q229 0 344 -90t115 -258q0 -243 -172.5 -376.5t-466.5 -133.5q-69 0 -181 2t-149 2l191 1090h-287l18 106h289l41 238h113zM786 748q-103 0 -243 -13l-109 -626q214 -7 225 -7q142 0 251.5 43t174 131
t64.5 211q0 129 -92.5 195t-270.5 66z" />
    <glyph glyph-name="uni0463" unicode="&#x463;" horiz-adv-x="925" 
d="M287 315q8 52 98 506h-274l18 101h277l102 512h102l-102 -512h321l-16 -101h-324l-77 -397q63 81 150 140t171 59q83 0 140 -56t57 -151q0 -76 -38 -153.5t-99.5 -137.5t-146 -98.5t-171.5 -38.5q-107 0 -156 60.5t-49 152.5q0 42 17 114zM825 393q0 57 -37 93t-92 36
q-45 0 -101 -25.5t-106 -66t-84 -98t-34 -113.5t31.5 -93.5t97.5 -37.5q64 0 125.5 29t104.5 73.5t69 98.5t26 104z" />
    <glyph glyph-name="uni0472" unicode="&#x472;" horiz-adv-x="1658" 
d="M223 645q0 169 59 318t163.5 256.5t255 170t325.5 62.5q300 0 481 -176t181 -467q0 -238 -99.5 -426.5t-278.5 -294.5t-405 -106q-165 0 -295.5 50t-214.5 139t-128 209.5t-44 264.5zM698 762q-89 0 -182 -40.5t-170 -98.5q10 -252 163.5 -393.5t401.5 -141.5
q169 0 309.5 74.5t231.5 215.5t109 327q-178 -121 -326 -121q-68 0 -128 18.5t-105 44.5t-89 52t-99 44.5t-116 18.5zM1243 684q81 0 169.5 37.5t152.5 87.5q-5 244 -153 390.5t-398 146.5q-126 0 -240.5 -43.5t-204 -121.5t-148 -195t-71.5 -257q198 133 357 133
q68 0 127.5 -18.5t104.5 -44.5t88.5 -52t99 -44.5t116.5 -18.5z" />
    <glyph glyph-name="uni0473" unicode="&#x473;" horiz-adv-x="1005" 
d="M152 369q0 100 31.5 198.5t91 183t158.5 137t222 52.5q89 0 156.5 -32t106 -86t57 -117t18.5 -134q0 -122 -32.5 -228.5t-93.5 -187.5t-155 -128t-210 -47q-167 0 -258.5 106.5t-91.5 282.5zM262 385q0 -141 64.5 -223t189.5 -82q142 0 233 93.5t117 236.5
q-68 -41 -127 -41q-46 0 -92 19.5t-78 43t-75 43t-82 19.5q-69 0 -148 -52q0 -9 -1 -29t-1 -28zM756 444q39 0 64.5 9t60.5 30q4 36 4 62q0 58 -12 108t-38.5 93.5t-75 68.5t-114.5 25q-144 0 -237 -88.5t-129 -233.5q83 49 145 49q47 0 94.5 -19t80.5 -42.5t76 -42.5
t81 -19z" />
    <glyph glyph-name="uni0474" unicode="&#x474;" horiz-adv-x="1345" 
d="M1292 1057l-575 -1069h-80l-363 1446h115l313 -1272l508 956q37 71 66.5 119.5t62 92t63.5 67t67 37t76.5 10t88.5 -20.5l-35 -94q-24 10 -45.5 12.5t-42 -4.5t-36.5 -15t-36 -31t-33.5 -40.5t-36 -55t-36.5 -63t-41 -75.5z" />
    <glyph glyph-name="uni0475" unicode="&#x475;" horiz-adv-x="931" 
d="M848 623l-348 -635h-70l-274 934h108l172 -582q20 -68 47 -195q31 52 84.5 154.5t63.5 120.5l145 268q27 51 49 86t48 68.5t51.5 52t55.5 29.5t64.5 8.5t73.5 -17.5l-33 -94q-23 12 -43.5 14t-41 -11t-35.5 -25.5t-37 -45.5t-34.5 -53t-38.5 -65q-5 -8 -7 -12z" />
    <glyph glyph-name="uni0490" unicode="&#x490;" horiz-adv-x="1030" 
d="M227 0l252 1434h684l47 268h107l-66 -375h-678l-233 -1327h-113z" />
    <glyph glyph-name="uni0491" unicode="&#x491;" horiz-adv-x="724" 
d="M158 0l159 922h420l39 227h98l-57 -328h-414l-141 -821h-104z" />
    <glyph glyph-name="uni0492" unicode="&#x492;" horiz-adv-x="1069" 
d="M248 0l119 678h-248l18 106h248l115 650h790l-18 -107h-678l-96 -543h399l-18 -106h-400l-119 -678h-112z" />
    <glyph glyph-name="uni0493" unicode="&#x493;" horiz-adv-x="774" 
d="M166 0l72 418h-185l19 100h184l68 404h553l-19 -101h-448l-52 -303h308l-19 -100h-307l-72 -418h-102z" />
    <glyph glyph-name="uni0494" unicode="&#x494;" horiz-adv-x="1234" 
d="M227 0l252 1434h791l-19 -107h-678l-102 -575q85 51 174 82.5t203 31.5q161 0 257.5 -86t96.5 -248q0 -62 -20 -184l-60 -330q-80 -444 -415 -444q-59 0 -117.5 22t-75.5 44l57 88q22 -19 63.5 -33t80.5 -14q235 0 295 335l59 330q18 110 18 156q0 128 -71.5 193
t-208.5 65q-30 0 -59.5 -3.5t-52.5 -7.5t-51 -14t-43.5 -15.5t-42.5 -19t-36.5 -18.5t-36.5 -20.5t-32 -18.5l-113 -643h-113z" />
    <glyph glyph-name="uni0495" unicode="&#x495;" horiz-adv-x="968" 
d="M147 0l160 922h551l-18 -101h-449l-61 -352q142 129 319 129q124 0 211.5 -72.5t87.5 -214.5q0 -213 -123 -402.5t-323 -318.5h-121q84 50 165 125.5t146.5 164.5t105.5 191.5t40 196.5q0 104 -61 167t-175 63q-160 0 -289 -125l-63 -373h-103z" />
    <glyph glyph-name="uni0496" unicode="&#x496;" horiz-adv-x="1892" 
d="M2048 1434l-733 -693l430 -635h186l-67 -380h-107l49 274h-112l-504 748l717 686h141zM817 758l-489 676h125l491 -686l-749 -748h-142zM879 0l251 1434h113l-252 -1434h-112z" />
    <glyph glyph-name="uni0497" unicode="&#x497;" horiz-adv-x="1253" 
d="M1346 922l-426 -449l198 -321q19 -30 40.5 -41t62.5 -11h79l-67 -333h-96l49 233h-17q-73 0 -125 84l-241 395l409 443h134zM455 489l-279 433h121l274 -443l-436 -479h-131zM553 0l160 922h100l-158 -922h-102z" />
    <glyph glyph-name="uni0498" unicode="&#x498;" horiz-adv-x="1175" 
d="M565 -322h-106l53 308q-129 13 -229 70.5t-158 144.5l76 75q60 -88 166 -138t237 -50q170 0 275.5 93.5t105.5 252.5q0 114 -76 180t-225 66h-139l20 106h144q138 0 239 95.5t101 224.5q0 117 -75.5 178.5t-215.5 61.5q-183 0 -361 -134l-53 80q90 77 199.5 118.5
t224.5 41.5q193 0 294 -87t101 -247q0 -120 -74 -224.5t-208 -152.5v-4q102 -23 159.5 -102.5t57.5 -198.5q0 -196 -133 -320.5t-349 -133.5z" />
    <glyph glyph-name="uni0499" unicode="&#x499;" horiz-adv-x="823" 
d="M391 -268h-96l41 252q-89 7 -165 38.5t-114 75.5l60 74q111 -94 278 -94q118 0 198.5 60.5t80.5 152.5q0 63 -52 97t-153 34h-117l17 88h102q102 0 170 53t68 135q0 67 -51.5 106.5t-145.5 39.5q-84 0 -147.5 -20t-137.5 -60l-41 78q166 98 355 98q136 0 209 -56t73 -153
q0 -89 -49.5 -158t-148.5 -100v-4q155 -32 155 -178q0 -128 -97 -211.5t-251 -95.5z" />
    <glyph glyph-name="uni049A" unicode="&#x49a;" horiz-adv-x="1325" 
d="M1473 1434l-803 -697l487 -631h180l-67 -380h-107l49 274h-110l-563 748l782 686h152zM227 0l252 1434h113l-252 -1434h-113z" />
    <glyph glyph-name="uni049B" unicode="&#x49b;" horiz-adv-x="923" 
d="M1016 922l-498 -449l258 -321q40 -52 103 -52h79l-67 -333h-96l49 233h-21q-58 0 -96 51l-334 424l477 447h146zM147 0l158 922h103l-158 -922h-103z" />
    <glyph glyph-name="uni049C" unicode="&#x49c;" horiz-adv-x="1329" 
d="M1497 1434l-803 -697l570 -737h-138l-462 612l-46 -258h-108l133 758h109l-43 -235l637 557h151zM227 0l252 1434h113l-252 -1434h-113z" />
    <glyph glyph-name="uni049D" unicode="&#x49d;" horiz-adv-x="923" 
d="M1036 922l-497 -449l379 -473h-130l-282 358l-31 -174h-98l98 553h98l-24 -135l342 320h145zM147 0l158 922h103l-158 -922h-103z" />
    <glyph glyph-name="uni04A0" unicode="&#x4a0;" horiz-adv-x="1507" 
d="M430 0l234 1327h-426l18 107h539l-252 -1434h-113zM1675 1434l-803 -697l570 -737h-137l-564 748l783 686h151z" />
    <glyph glyph-name="uni04A1" unicode="&#x4a1;" horiz-adv-x="1064" 
d="M309 0l140 821h-306l19 101h407l-157 -922h-103zM1178 922l-498 -449l379 -473h-129l-375 475l477 447h146z" />
    <glyph glyph-name="uni04A2" unicode="&#x4a2;" horiz-adv-x="1603" 
d="M1227 0l119 678h-887l-119 -678h-113l252 1434h113l-113 -650h887l113 650h112l-233 -1328h194l-67 -380h-107l49 274h-200z" />
    <glyph glyph-name="uni04A3" unicode="&#x4a3;" horiz-adv-x="1067" 
d="M799 106q0 39 14 109l35 203h-526l-72 -418h-103l158 922h103l-68 -404h524l70 404h102l-108 -637q-15 -81 -15 -105q0 -80 72 -80h68l-68 -333h-96l49 233h-41q-50 0 -74 28.5t-24 77.5z" />
    <glyph glyph-name="uni04A4" unicode="&#x4a4;" horiz-adv-x="2007" 
d="M1206 0l119 678h-866l-119 -678h-113l252 1434h113l-113 -650h864l115 650h770l-18 -107h-658l-233 -1327h-113z" />
    <glyph glyph-name="uni04A5" unicode="&#x4a5;" horiz-adv-x="1353" 
d="M756 0l71 418h-505l-72 -418h-103l158 922h103l-68 -404h504l69 404h543l-18 -101h-439l-141 -821h-102z" />
    <glyph glyph-name="uni04AA" unicode="&#x4aa;" horiz-adv-x="1343" 
d="M1313 203l43 -86q-73 -61 -186 -94.5t-226 -38.5l-51 -306h-107l52 306q-278 19 -446.5 200.5t-168.5 462.5q0 166 62.5 314.5t172 256.5t265.5 171t334 63q140 0 251 -32t177 -89l-60 -82q-148 97 -362 97q-154 0 -289 -54t-228.5 -146.5t-147.5 -218t-54 -265.5
q0 -256 159.5 -415t414.5 -159q227 0 395 115z" />
    <glyph glyph-name="uni04AB" unicode="&#x4ab;" horiz-adv-x="866" 
d="M782 199l49 -66q-136 -132 -303 -149l-41 -252h-96l43 254q-94 11 -159 63.5t-94 126.5t-29 164q0 117 38 225.5t105 191.5t166.5 133t214.5 50q137 0 219 -43l-35 -90q-94 33 -194 33q-116 0 -209 -67t-143 -176t-50 -235q0 -129 64 -204.5t178 -75.5q54 0 108.5 19.5
t88.5 41t79 56.5z" />
    <glyph glyph-name="uni04AE" unicode="&#x4ae;" horiz-adv-x="1204" 
d="M1419 1434l-659 -807l-109 -627h-112l108 627l-366 807h120l318 -701l567 701h133z" />
    <glyph glyph-name="uni04AF" unicode="&#x4af;" horiz-adv-x="815" 
d="M365 -410h-105l68 410q-72 484 -193 922h111q132 -476 162 -811q146 168 240 384.5t116 426.5h115q-29 -261 -157 -514.5t-288 -407.5z" />
    <glyph glyph-name="uni04B0" unicode="&#x4b0;" horiz-adv-x="1204" 
d="M1419 1434l-618 -756h315l-18 -107h-348l-99 -571h-112l98 571h-348l18 107h316l-342 756h120l318 -701l567 701h133z" />
    <glyph glyph-name="uni04B1" unicode="&#x4b1;" horiz-adv-x="815" 
d="M365 -410h-105l68 410h-256l16 100h223q-68 429 -176 822h111q132 -476 162 -811q146 168 240 384.5t116 426.5h115q-25 -221 -125 -440.5t-234 -381.5h197l-17 -100h-266z" />
    <glyph glyph-name="uni04B2" unicode="&#x4b2;" horiz-adv-x="1376" 
d="M1524 1434l-650 -705l355 -623h184l-67 -380h-107l49 274h-123l-372 645l-596 -645h-144l676 729l-401 705h127l358 -623l569 623h142z" />
    <glyph glyph-name="uni04B3" unicode="&#x4b3;" horiz-adv-x="882" 
d="M965 922l-398 -445l176 -321q31 -56 105 -56h67l-67 -333h-96l49 233h-10q-68 0 -107 66l-184 329l-353 -395h-131l422 473l-245 449h118l197 -375l328 375h129z" />
    <glyph glyph-name="uni04B6" unicode="&#x4b6;" horiz-adv-x="1339" 
d="M1327 1434l-233 -1328h194l-67 -380h-107l49 274h-200l116 657q-80 -49 -186.5 -84.5t-214.5 -35.5q-180 0 -282.5 85.5t-102.5 254.5q4 74 12 116l78 441h113l-74 -414q-12 -64 -12 -125q0 -252 299 -252q104 0 207 35.5t182 85.5l116 670h113z" />
    <glyph glyph-name="uni04B7" unicode="&#x4b7;" horiz-adv-x="911" 
d="M387 399q59 0 120.5 38.5t109 96.5t83 119t52.5 113l28 156h101l-119 -701q-10 -59 4.5 -90t62.5 -31h68l-68 -333h-96l49 233h-41q-50 0 -74 28.5t-24 77.5q0 25 14 109l64 371q-32 -52 -70.5 -100t-86.5 -91.5t-104 -69.5t-110 -26q-92 0 -134 53t-40 142q0 66 23 174
l59 254h104l-61 -256q-18 -80 -18 -140q0 -61 23.5 -94t80.5 -33z" />
    <glyph glyph-name="uni04B8" unicode="&#x4b8;" horiz-adv-x="1302" 
d="M1327 1434l-252 -1434h-112l116 657q-154 -95 -323 -112l-47 -273h-113l47 269q-163 8 -256.5 92.5t-93.5 243.5q4 74 12 116l78 441h113l-74 -414q-12 -64 -12 -125q0 -231 252 -248l67 383h113l-68 -381q170 14 324 115l116 670h113z" />
    <glyph glyph-name="uni04B9" unicode="&#x4b9;" horiz-adv-x="882" 
d="M528 676l-45 -248q88 44 163.5 145.5t105.5 192.5l28 156h101l-156 -922h-104l100 586q-47 -80 -114 -150t-140 -104l-37 -209h-106l30 180h-4q-83 0 -129.5 53t-44.5 138q0 68 23 174l59 254h104l-61 -256q-18 -80 -18 -140q0 -118 90 -123l49 273h106z" />
    <glyph glyph-name="uni04BA" unicode="&#x4ba;" horiz-adv-x="1300" 
d="M479 1434h113l-121 -682q74 47 181 80.5t225 33.5q80 0 148.5 -22.5t123 -68t85.5 -120.5t30 -172q0 -29 -23 -164l-57 -319h-113l57 324q19 109 19 143q1 147 -81 220t-226 73q-200 0 -385 -117l-115 -643h-113z" />
    <glyph glyph-name="uni04BB" unicode="&#x4bb;" horiz-adv-x="1024" 
d="M772 840q-58 0 -130 -48t-134.5 -119t-113.5 -148t-77 -140l-67 -385h-103l246 1434h103l-150 -869q31 49 65.5 96t82.5 99t96 90.5t105 64t110 25.5q93 0 137.5 -56t44.5 -149q0 -71 -22 -194l-105 -541h-102l102 520q25 132 23 180q-2 66 -26 103t-85 37z" />
    <glyph glyph-name="uni04C0" unicode="&#x4c0;" horiz-adv-x="411" 
d="M496 1434l-246 -1434h-103l246 1434h103z" />
    <glyph glyph-name="uni04CB" unicode="&#x4cb;" horiz-adv-x="1302" 
d="M1327 1434l-252 -1434h-201l-49 -274h-106l67 380h195l98 551q-80 -49 -186.5 -84.5t-214.5 -35.5q-180 0 -282.5 85.5t-102.5 254.5q4 74 12 116l78 441h113l-74 -414q-12 -64 -12 -125q0 -252 299 -252q104 0 207 35.5t182 85.5l116 670h113z" />
    <glyph glyph-name="uni04CC" unicode="&#x4cc;" horiz-adv-x="882" 
d="M387 399q59 0 120.5 38.5t109 96.5t83 119t52.5 113l28 156h101l-121 -707q-7 -41 -12 -66t-17 -57t-27.5 -49.5t-42 -30t-61.5 -12.5h-41l-35 -233h-96l51 333h68q50 0 75.5 29.5t36.5 91.5l62 365q-32 -52 -70.5 -100t-86.5 -91.5t-104 -69.5t-110 -26q-92 0 -134 53
t-40 142q0 66 23 174l59 254h104l-61 -256q-18 -80 -18 -140q0 -61 23.5 -94t80.5 -33z" />
    <glyph glyph-name="uni04CF" unicode="&#x4cf;" horiz-adv-x="632" 
d="M268 0l252 1434h113l-252 -1434h-113z" />
    <glyph glyph-name="uni04D0" unicode="&#x4d0;" horiz-adv-x="1427" 
d="M43 0l879 1446h92l370 -1446h-114l-125 487h-686l-295 -487h-121zM944 1290l-422 -696h598zM655 1745h107q11 -70 63.5 -108t165.5 -38q93 0 167.5 38.5t119.5 107.5h94q-47 -102 -152.5 -164.5t-242.5 -62.5q-151 0 -233.5 59.5t-88.5 167.5z" />
    <glyph glyph-name="uni04D1" unicode="&#x4d1;" horiz-adv-x="1011" 
d="M430 84q59 0 126.5 49t125 123t102.5 151t70 142l47 262q-74 29 -160 29q-205 0 -342 -147.5t-137 -373.5q0 -107 42.5 -171t125.5 -64zM866 0h-106l63 365q-35 -59 -62 -99.5t-74 -98.5t-89 -94t-99 -62.5t-114 -26.5q-114 0 -173.5 88t-59.5 231q0 180 78.5 326.5
t212.5 228.5t294 82q157 0 273 -59zM532 1393h97q-13 -80 26.5 -129.5t128.5 -49.5q75 0 139.5 48.5t82.5 130.5h81q-24 -111 -112.5 -182.5t-210.5 -71.5q-126 0 -186 68.5t-46 185.5z" />
    <glyph glyph-name="uni04D2" unicode="&#x4d2;" horiz-adv-x="1427" 
d="M43 0l879 1446h92l370 -1446h-114l-125 487h-686l-295 -487h-121zM944 1290l-422 -696h598zM674 1647q0 29 22.5 47t55.5 18q29 0 51 -18.5t22 -46.5q0 -32 -21.5 -51t-51.5 -19q-34 0 -56 18.5t-22 51.5zM1151 1647q0 29 23.5 47t56.5 18q29 0 50.5 -18t21.5 -47
q0 -32 -21.5 -51t-50.5 -19q-34 0 -57 19t-23 51z" />
    <glyph glyph-name="uni04D3" unicode="&#x4d3;" horiz-adv-x="1011" 
d="M430 84q59 0 126.5 49t125 123t102.5 151t70 142l47 262q-74 29 -160 29q-205 0 -342 -147.5t-137 -373.5q0 -107 42.5 -171t125.5 -64zM866 0h-106l63 365q-35 -59 -62 -99.5t-74 -98.5t-89 -94t-99 -62.5t-114 -26.5q-114 0 -173.5 88t-59.5 231q0 180 78.5 326.5
t212.5 228.5t294 82q157 0 273 -59zM504 1225q0 30 20.5 48.5t50.5 18.5q26 0 46 -19t20 -48q0 -32 -20 -52t-46 -20q-30 0 -50.5 19.5t-20.5 52.5zM932 1225q0 30 21 48.5t51 18.5q26 0 45.5 -18.5t19.5 -48.5q0 -32 -19.5 -52t-45.5 -20q-30 0 -51 19.5t-21 52.5z" />
    <glyph glyph-name="uni04D4" unicode="&#x4d4;" horiz-adv-x="1966" 
d="M2060 1434l-18 -107h-680l-96 -547h618l-18 -106h-619l-100 -568h700l-18 -106h-813l88 500h-537l-440 -500h-137l1276 1434h794zM1237 1253l-573 -647h458z" />
    <glyph glyph-name="uni04D5" unicode="&#x4d5;" horiz-adv-x="1591" 
d="M821 348q-32 -54 -62 -98t-74.5 -96t-88 -87t-99 -59t-112.5 -24q-114 0 -173.5 88t-59.5 231q0 180 78.5 326.5t212.5 228.5t294 82q186 0 316 -104q122 104 295 104q134 0 201 -58.5t65 -158.5q0 -145 -147.5 -226.5t-407.5 -99.5q-48 -15 -129 -32q-2 -129 65 -206
t187 -77q152 0 305 125l51 -64q-74 -72 -173 -116.5t-202 -44.5q-132 0 -215 75t-110 193q-17 56 -17 98zM430 84q44 0 91.5 27t89 67.5t84 97t73.5 107t61 104.5q33 98 63.5 161t76.5 114q-95 78 -240 78q-94 0 -180 -39t-149 -107t-100.5 -166t-37.5 -209
q0 -107 42.5 -171t125.5 -64zM1335 840q-145 0 -255 -108.5t-142 -268.5q250 6 396 60t161 153q6 39 -4 72q-9 45 -49.5 68.5t-106.5 23.5z" />
    <glyph glyph-name="uni04D6" unicode="&#x4d6;" horiz-adv-x="1177" 
d="M227 0l252 1434h793l-19 -107h-680l-96 -547h619l-19 -106h-618l-101 -568h701l-19 -106h-813zM559 1745h107q11 -70 63.5 -108t165.5 -38q93 0 167.5 38.5t119.5 107.5h94q-47 -102 -152.5 -164.5t-242.5 -62.5q-151 0 -233.5 59.5t-88.5 167.5z" />
    <glyph glyph-name="uni04D7" unicode="&#x4d7;" horiz-adv-x="925" 
d="M821 207l49 -64q-74 -73 -171.5 -117t-200.5 -44q-87 0 -155 31t-108.5 83t-61.5 115t-21 133q0 154 65 289.5t188.5 221t276.5 85.5q133 0 200.5 -59t65.5 -158q0 -160 -179 -246t-505 -92v-20q-2 -129 65 -206t187 -77q152 0 305 125zM670 840q-146 0 -256 -108.5
t-142 -268.5q250 6 396 60t161 153q6 39 -4 72q-21 92 -155 92zM459 1393h96q-13 -80 27 -129.5t129 -49.5q75 0 139 48.5t82 130.5h82q-24 -111 -113 -182.5t-211 -71.5q-126 0 -185.5 68.5t-45.5 185.5z" />
    <glyph glyph-name="uni04D8" unicode="&#x4d8;" horiz-adv-x="1603" 
d="M246 784h1265q7 162 -51 288.5t-180.5 200t-292.5 73.5q-243 0 -420 -121l-45 84q192 143 479 143q300 0 465.5 -172.5t165.5 -476.5q0 -166 -58 -315t-161.5 -261.5t-258 -178.5t-337.5 -66q-220 0 -368 102t-201.5 284.5t-1.5 415.5zM825 88q136 0 255.5 45.5
t207 124.5t144.5 187t73 233h-1157q-18 -122 7 -230t85.5 -187.5t160 -126t224.5 -46.5z" />
    <glyph glyph-name="uni04D9" unicode="&#x4d9;" horiz-adv-x="911" 
d="M236 715l-52 63q77 75 175 118.5t200 43.5q86 0 152 -29.5t106 -81t60 -116.5t20 -142q0 -111 -39 -217t-106.5 -188.5t-167 -133t-213.5 -50.5q-127 0 -199 54t-72 159q0 324 684 335q2 12 2 39q2 117 -58.5 194t-178.5 77q-89 0 -162.5 -33t-150.5 -92zM381 82
q139 0 250 105.5t143 265.5q-110 -2 -203.5 -15t-176.5 -39t-131 -72.5t-48 -109.5q0 -135 166 -135z" />
    <glyph glyph-name="uni04DC" unicode="&#x4dc;" horiz-adv-x="1871" 
d="M2048 1434l-733 -693l504 -741h-125l-504 748l717 686h141zM879 0l251 1434h113l-252 -1434h-112zM817 758l-489 676h125l491 -686l-749 -748h-142zM901 1647q0 29 22.5 47t55.5 18q29 0 51.5 -18.5t22.5 -46.5q0 -32 -22 -51t-52 -19q-34 0 -56 18.5t-22 51.5z
M1378 1647q0 29 23.5 47t56.5 18q29 0 50.5 -18t21.5 -47q0 -32 -21.5 -51t-50.5 -19q-34 0 -57 19t-23 51z" />
    <glyph glyph-name="uni04DD" unicode="&#x4dd;" horiz-adv-x="1220" 
d="M1346 922l-426 -449l294 -473h-120l-291 479l409 443h134zM553 0l160 922h100l-158 -922h-102zM455 489l-279 433h121l274 -443l-436 -479h-131zM522 1225q0 30 21 48.5t51 18.5q26 0 45.5 -18.5t19.5 -48.5q0 -32 -19.5 -52t-45.5 -20q-30 0 -51 19.5t-21 52.5z
M950 1225q0 30 21 48.5t51 18.5q26 0 45.5 -18.5t19.5 -48.5q0 -32 -19.5 -52t-45.5 -20q-30 0 -51 19.5t-21 52.5z" />
    <glyph glyph-name="uni04DE" unicode="&#x4de;" horiz-adv-x="1175" 
d="M590 -18q-155 0 -277 60.5t-188 158.5l76 75q60 -88 166 -138t237 -50q170 0 275.5 93.5t105.5 252.5q0 114 -76 180t-225 66h-139l20 106h144q138 0 239 95.5t101 224.5q0 117 -75.5 178.5t-215.5 61.5q-183 0 -361 -134l-53 80q90 77 199.5 118.5t224.5 41.5
q193 0 294 -87t101 -247q0 -120 -74 -224.5t-208 -152.5v-4q102 -23 159.5 -102.5t57.5 -198.5q0 -202 -141 -328t-367 -126zM492 1647q0 29 22 47t55 18q29 0 51.5 -18.5t22.5 -46.5q0 -32 -22 -51t-52 -19q-33 0 -55 18.5t-22 51.5zM969 1647q0 29 23.5 47t56.5 18
q29 0 50 -17.5t21 -47.5q0 -32 -21 -51t-50 -19q-34 0 -57 19t-23 51z" />
    <glyph glyph-name="uni04DF" unicode="&#x4df;" horiz-adv-x="823" 
d="M389 -18q-104 0 -195.5 32.5t-136.5 83.5l60 74q111 -94 278 -94q118 0 198.5 60.5t80.5 152.5q0 63 -52 97t-153 34h-117l17 88h102q102 0 170 53t68 135q0 67 -51.5 106.5t-145.5 39.5q-84 0 -147.5 -20t-137.5 -60l-41 78q166 98 355 98q136 0 209 -56t73 -153
q0 -89 -49.5 -158t-148.5 -100v-4q155 -32 155 -178q0 -138 -111.5 -223.5t-279.5 -85.5zM281 1225q0 30 20.5 48.5t50.5 18.5q26 0 46 -19t20 -48q0 -32 -20 -52t-46 -20q-30 0 -50.5 19.5t-20.5 52.5zM709 1225q0 30 20.5 48.5t50.5 18.5q26 0 46 -19t20 -48
q0 -32 -20 -52t-46 -20q-30 0 -50.5 19.5t-20.5 52.5z" />
    <glyph glyph-name="uni04E2" unicode="&#x4e2;" horiz-adv-x="1632" 
d="M328 0h-101l252 1434h113l-217 -1237l1181 1237h101l-252 -1434h-113l219 1237zM801 1593l14 88h615l-15 -88h-614z" />
    <glyph glyph-name="uni04E3" unicode="&#x4e3;" horiz-adv-x="995" 
d="M381 82q60 0 131 49t132 122t109.5 150t73.5 140l66 379h102l-159 -922h-103l62 356q-38 -64 -82 -122t-102.5 -118.5t-127 -97t-135.5 -36.5q-93 0 -137.5 56t-44.5 148q0 72 22 195l115 541h103l-113 -521q-23 -117 -23 -180q2 -67 25.5 -103t85.5 -36zM455 1237l16 88
h516l-16 -88h-516z" />
    <glyph glyph-name="uni04E4" unicode="&#x4e4;" horiz-adv-x="1632" 
d="M328 0h-101l252 1434h113l-217 -1237l1181 1237h101l-252 -1434h-113l219 1237zM799 1647q0 29 22.5 47t55.5 18q29 0 51 -18.5t22 -46.5q0 -32 -21.5 -51t-51.5 -19q-34 0 -56 18.5t-22 51.5zM1276 1647q0 29 23.5 47t56.5 18q29 0 50 -17.5t21 -47.5q0 -32 -21 -51
t-50 -19q-34 0 -57 19t-23 51z" />
    <glyph glyph-name="uni04E5" unicode="&#x4e5;" horiz-adv-x="995" 
d="M381 82q60 0 131 49t132 122t109.5 150t73.5 140l66 379h102l-159 -922h-103l62 356q-38 -64 -82 -122t-102.5 -118.5t-127 -97t-135.5 -36.5q-93 0 -137.5 56t-44.5 148q0 72 22 195l115 541h103l-113 -521q-23 -117 -23 -180q2 -67 25.5 -103t85.5 -36zM412 1225
q0 30 20.5 48.5t50.5 18.5q26 0 46 -19t20 -48q0 -32 -20 -52t-46 -20q-30 0 -50.5 19.5t-20.5 52.5zM840 1225q0 30 20.5 48.5t50.5 18.5q26 0 46 -19t20 -48q0 -32 -20 -52t-46 -20q-30 0 -50.5 19.5t-20.5 52.5z" />
    <glyph glyph-name="uni04E6" unicode="&#x4e6;" horiz-adv-x="1658" 
d="M223 645q0 169 59 318t163.5 256.5t255 170t325.5 62.5q300 0 481 -176t181 -467q0 -238 -99.5 -426.5t-278.5 -294.5t-405 -106q-165 0 -295.5 50t-214.5 139t-128 209.5t-44 264.5zM346 651q0 -263 155 -413t410 -150q136 0 256 50.5t208.5 140.5t140 224t51.5 292
q0 251 -149 401t-404 150q-134 0 -255 -49t-212.5 -137t-146 -220.5t-54.5 -288.5zM764 1647q0 29 22.5 47t55.5 18q29 0 51 -18.5t22 -46.5q0 -32 -21.5 -51t-51.5 -19q-34 0 -56 18.5t-22 51.5zM1241 1647q0 29 23.5 47t56.5 18q29 0 50.5 -18t21.5 -47q0 -32 -21.5 -51
t-50.5 -19q-34 0 -57 19t-23 51z" />
    <glyph glyph-name="uni04E7" unicode="&#x4e7;" horiz-adv-x="1005" 
d="M502 -20q-163 0 -256.5 105t-93.5 277q0 85 20 168t62 157t100.5 130.5t141.5 89.5t179 33q162 0 250 -103t88 -270q0 -166 -59 -299t-171.5 -210.5t-260.5 -77.5zM516 80q172 0 270.5 133.5t98.5 335.5q0 136 -62.5 213.5t-181.5 77.5q-174 0 -276.5 -132.5
t-102.5 -328.5q0 -140 67 -219.5t187 -79.5zM418 1225q0 30 20.5 48.5t50.5 18.5q26 0 46 -19t20 -48q0 -32 -20 -52t-46 -20q-30 0 -50.5 19.5t-20.5 52.5zM846 1225q0 30 21 48.5t51 18.5q26 0 45.5 -18.5t19.5 -48.5q0 -32 -19.5 -52t-45.5 -20q-30 0 -51 19.5t-21 52.5z
" />
    <glyph glyph-name="uni04E8" unicode="&#x4e8;" horiz-adv-x="1658" 
d="M223 645q0 169 59 318t163.5 256.5t255 170t325.5 62.5q300 0 481 -176t181 -467q0 -238 -99.5 -426.5t-278.5 -294.5t-405 -106q-165 0 -295.5 50t-214.5 139t-128 209.5t-44 264.5zM346 651q0 -263 155 -413t410 -150q252 0 432.5 160.5t215.5 429.5h-1213v-27z
M1014 1346q-159 0 -298 -67t-235.5 -196t-124.5 -299h1211v11q0 251 -149 401t-404 150z" />
    <glyph glyph-name="uni04E9" unicode="&#x4e9;" horiz-adv-x="1005" 
d="M502 -20q-163 0 -256.5 105t-93.5 277q0 85 20 168t62 157t100.5 130.5t141.5 89.5t179 33q162 0 250 -103t88 -270q0 -166 -59 -299t-171.5 -210.5t-260.5 -77.5zM516 80q141 0 233 92.5t123 245.5h-610v-39q0 -140 67 -219.5t187 -79.5zM641 840q-141 0 -236 -89
t-129 -233h607q0 5 1 15.5t1 15.5q0 136 -62.5 213.5t-181.5 77.5z" />
    <glyph glyph-name="uni04EE" unicode="&#x4ee;" horiz-adv-x="1331" 
d="M1548 1434l-696 -1110q-104 -169 -191 -246.5t-196 -77.5q-97 0 -150 47l54 90q46 -33 112 -33q120 0 234 185l39 59l-471 1086h123l415 -977l606 977h121zM639 1593l14 88h615l-15 -88h-614z" />
    <glyph glyph-name="uni04EF" unicode="&#x4ef;" horiz-adv-x="825" 
d="M133 -311q44 0 85 25t80 75.5t65 92.5t63 110q-32 179 -116.5 439t-184.5 491h113q68 -152 147 -393t117 -414q81 156 160 383.5t122 423.5h113q-64 -216 -129 -401.5t-143 -361t-155 -298.5t-164 -197t-171 -74q-82 0 -149 50l49 81q58 -32 98 -32zM274 1237l17 88h516
l-16 -88h-517z" />
    <glyph glyph-name="uni04F0" unicode="&#x4f0;" horiz-adv-x="1331" 
d="M1548 1434l-696 -1110q-104 -169 -191 -246.5t-196 -77.5q-97 0 -150 47l54 90q46 -33 112 -33q120 0 234 185l39 59l-471 1086h123l415 -977l606 977h121zM627 1647q0 29 22.5 47t55.5 18q29 0 51 -18.5t22 -46.5q0 -32 -21.5 -51t-51.5 -19q-34 0 -56 18.5t-22 51.5z
M1104 1647q0 29 23.5 47t56.5 18q29 0 50 -17.5t21 -47.5q0 -32 -21 -51t-50 -19q-34 0 -57 19t-23 51z" />
    <glyph glyph-name="uni04F1" unicode="&#x4f1;" horiz-adv-x="825" 
d="M133 -311q44 0 85 25t80 75.5t65 92.5t63 110q-32 179 -116.5 439t-184.5 491h113q68 -152 147 -393t117 -414q81 156 160 383.5t122 423.5h113q-64 -216 -129 -401.5t-143 -361t-155 -298.5t-164 -197t-171 -74q-82 0 -149 50l49 81q58 -32 98 -32zM242 1225
q0 30 20.5 48.5t50.5 18.5q26 0 46 -19t20 -48q0 -32 -20 -52t-46 -20q-30 0 -50.5 19.5t-20.5 52.5zM670 1225q0 30 20.5 48.5t50.5 18.5q26 0 46 -19t20 -48q0 -32 -20 -52t-46 -20q-30 0 -50.5 19.5t-20.5 52.5z" />
    <glyph glyph-name="uni04F2" unicode="&#x4f2;" horiz-adv-x="1331" 
d="M1548 1434l-696 -1110q-104 -169 -191 -246.5t-196 -77.5q-97 0 -150 47l54 90q46 -33 112 -33q120 0 234 185l39 59l-471 1086h123l415 -977l606 977h121zM1386 1708l-346 -197l-45 50l320 217zM1008 1726l-326 -215l-45 45l285 222z" />
    <glyph glyph-name="uni04F3" unicode="&#x4f3;" horiz-adv-x="825" 
d="M133 -311q44 0 85 25t80 75.5t65 92.5t63 110q-32 179 -116.5 439t-184.5 491h113q68 -152 147 -393t117 -414q81 156 160 383.5t122 423.5h113q-64 -216 -129 -401.5t-143 -361t-155 -298.5t-164 -197t-171 -74q-82 0 -149 50l49 81q58 -32 98 -32zM922 1399l-244 -289
l-66 47l230 301zM600 1409l-227 -299l-66 47l217 309z" />
    <glyph glyph-name="uni04F4" unicode="&#x4f4;" horiz-adv-x="1302" 
d="M1327 1434l-252 -1434h-112l116 657q-80 -49 -186.5 -84.5t-214.5 -35.5q-180 0 -282.5 85.5t-102.5 254.5q4 74 12 116l78 441h113l-74 -414q-12 -64 -12 -125q0 -252 299 -252q104 0 207 35.5t182 85.5l116 670h113zM561 1647q0 29 22.5 47t55.5 18q29 0 51.5 -18.5
t22.5 -46.5q0 -32 -22 -51t-52 -19q-34 0 -56 18.5t-22 51.5zM1038 1647q0 29 23.5 47t56.5 18q29 0 50.5 -18t21.5 -47q0 -32 -21.5 -51t-50.5 -19q-34 0 -57 19t-23 51z" />
    <glyph glyph-name="uni04F5" unicode="&#x4f5;" horiz-adv-x="882" 
d="M387 399q59 0 120.5 38.5t109 96.5t83 119t52.5 113l28 156h101l-156 -922h-104l100 586q-32 -52 -70.5 -100t-86.5 -91.5t-104 -69.5t-110 -26q-92 0 -134 53t-40 142q0 66 23 174l59 254h104l-61 -256q-18 -80 -18 -140q0 -61 23.5 -94t80.5 -33zM336 1225
q0 30 21 48.5t51 18.5q26 0 45.5 -18.5t19.5 -48.5q0 -32 -19.5 -52t-45.5 -20q-30 0 -51 19.5t-21 52.5zM764 1225q0 30 21 48.5t51 18.5q26 0 45.5 -18.5t19.5 -48.5q0 -32 -19.5 -52t-45.5 -20q-30 0 -51 19.5t-21 52.5z" />
    <glyph glyph-name="uni04F6" unicode="&#x4f6;" horiz-adv-x="1048" 
d="M227 0l252 1434h791l-19 -107h-678l-215 -1221h195l-68 -380h-106l49 274h-201z" />
    <glyph glyph-name="uni04F7" unicode="&#x4f7;" horiz-adv-x="761" 
d="M272 0q-50 0 -74 28.5t-24 77.5q0 25 14 109l121 707h555l-18 -101h-449l-106 -600q-21 -121 69 -121h68l-68 -333h-96l49 233h-41z" />
    <glyph glyph-name="uni04F8" unicode="&#x4f8;" horiz-adv-x="1697" 
d="M1358 0l252 1434h112l-252 -1434h-112zM700 772q-98 0 -227 -12l-115 -651q20 -1 59 -3t77 -3t79 -1q225 0 354.5 107t129.5 297q0 127 -91 196.5t-266 69.5zM592 1434l-98 -566q161 11 231 11q223 0 338 -93.5t115 -257.5q0 -251 -164.5 -391.5t-468.5 -140.5
q-70 0 -176 2t-142 2l252 1434h113zM819 1647q0 29 22.5 47t55.5 18q29 0 51.5 -18.5t22.5 -46.5q0 -32 -22 -51t-52 -19q-34 0 -56 18.5t-22 51.5zM1296 1647q0 29 23.5 47t56.5 18q29 0 50.5 -18t21.5 -47q0 -32 -21.5 -51t-50.5 -19q-34 0 -57 19t-23 51z" />
    <glyph glyph-name="uni04F9" unicode="&#x4f9;" horiz-adv-x="1232" 
d="M188 315q12 71 38 178.5t61 238.5t49 190h106q-121 -461 -129 -494q74 99 177 167.5t204 68.5q81 0 137 -59t56 -154q0 -86 -47 -172t-120.5 -149t-167 -102.5t-181.5 -39.5q-73 0 -120 31.5t-64 77t-17 104.5q0 48 18 114zM276 272q-4 -36 -4 -53q0 -131 121 -131
q89 0 180 49.5t150 129t59 159.5q0 59 -36 98t-89 39q-98 0 -213.5 -92t-167.5 -199zM1130 922h105l-160 -922h-102zM553 1225q0 30 21 48.5t51 18.5q26 0 45.5 -18.5t19.5 -48.5q0 -32 -19.5 -52t-45.5 -20q-30 0 -51 19.5t-21 52.5zM981 1225q0 30 21 48.5t51 18.5
q26 0 45.5 -18.5t19.5 -48.5q0 -32 -19.5 -52t-45.5 -20q-30 0 -51 19.5t-21 52.5z" />
    <glyph glyph-name="uni1E9E" unicode="&#x1e9e;" horiz-adv-x="1243" 
d="M1096 369q0 54 -20.5 108.5t-50 99t-81 97.5t-94.5 90.5t-109 91.5l349 412q-85 78 -216 78q-297 0 -356 -326l-180 -1026h-113l183 1032q36 209 150.5 317.5t322.5 108.5q209 0 352 -164l-356 -407q57 -47 98.5 -84t90 -90t78.5 -101.5t50 -109.5t20 -123
q0 -173 -106 -282t-281 -109q-180 0 -299 131l64 80q101 -105 227 -105t201.5 77.5t75.5 203.5z" />
    <glyph glyph-name="uni2010" unicode="&#x2010;" horiz-adv-x="817" 
d="M250 506l18 100h469l-18 -100h-469z" />
    <glyph glyph-name="uni2011" unicode="&#x2011;" horiz-adv-x="817" 
d="M250 506l18 100h469l-18 -100h-469z" />
    <glyph glyph-name="figuredash" unicode="&#x2012;" horiz-adv-x="1155" 
d="M303 678l16 94h787l-16 -94h-787z" />
    <glyph glyph-name="endash" unicode="&#x2013;" horiz-adv-x="1208" 
d="M281 506l16 94h823l-16 -94h-823z" />
    <glyph glyph-name="emdash" unicode="&#x2014;" horiz-adv-x="1630" 
d="M281 506l16 94h1245l-16 -94h-1245z" />
    <glyph glyph-name="uni2015" unicode="&#x2015;" horiz-adv-x="1591" 
d="M262 506l17 94h1245l-17 -94h-1245z" />
    <glyph glyph-name="quoteleft" unicode="&#x2018;" horiz-adv-x="487" 
d="M502 1130l-96 -53q-33 48 -33 115q0 100 49.5 179t152.5 124l46 -53q-142 -83 -142 -223q0 -60 23 -89z" />
    <glyph glyph-name="quoteright" unicode="&#x2019;" horiz-adv-x="487" 
d="M440 1438l95 53q30 -43 30 -115q0 -211 -203 -303l-43 55q69 39 105.5 97t36.5 125q0 64 -21 88z" />
    <glyph glyph-name="quotesinglbase" unicode="&#x201a;" horiz-adv-x="487" 
d="M201 76l94 53q31 -45 31 -115q0 -211 -203 -303l-43 56q69 39 105 96.5t36 124.5q0 66 -20 88z" />
    <glyph glyph-name="quotedblleft" unicode="&#x201c;" horiz-adv-x="755" 
d="M502 1130l-96 -53q-33 48 -33 115q0 100 49.5 179t152.5 124l46 -53q-142 -83 -142 -223q0 -60 23 -89zM770 1130l-96 -53q-33 48 -33 115q0 100 50 178.5t153 124.5l45 -53q-69 -41 -105 -98.5t-36 -124.5q0 -61 22 -89z" />
    <glyph glyph-name="quotedblright" unicode="&#x201d;" horiz-adv-x="755" 
d="M440 1438l95 53q30 -43 30 -115q0 -211 -203 -303l-43 55q69 39 105.5 97t36.5 125q0 64 -21 88zM709 1438l94 53q31 -45 31 -115q0 -211 -203 -303l-43 55q141 80 141 222q0 66 -20 88z" />
    <glyph glyph-name="quotedblbase" unicode="&#x201e;" horiz-adv-x="755" 
d="M201 76l94 53q31 -45 31 -115q0 -211 -203 -303l-43 56q69 39 105 96.5t36 124.5q0 66 -20 88zM469 76l94 53q31 -45 31 -115q0 -211 -203 -303l-43 56q141 80 141 221q0 66 -20 88z" />
    <glyph glyph-name="dagger" unicode="&#x2020;" horiz-adv-x="886" 
d="M205 864v94h311v476h100v-476h312v-94h-312v-1069h-100v1069h-311z" />
    <glyph glyph-name="daggerdbl" unicode="&#x2021;" horiz-adv-x="886" 
d="M205 864v94h311v476h100v-476h312v-94h-312v-438h312v-94h-312v-537h-100v537h-311v94h311v438h-311z" />
    <glyph glyph-name="bullet" unicode="&#x2022;" horiz-adv-x="380" 
d="M166 537q0 50 35 85t84 35q51 0 87 -35t36 -85t-36 -85.5t-87 -35.5q-49 0 -84 35.5t-35 85.5z" />
    <glyph glyph-name="ellipsis" unicode="&#x2026;" horiz-adv-x="1720" 
d="M801 78q0 29 23 51.5t57 22.5q31 0 54 -23t23 -51q0 -34 -21.5 -58t-55.5 -24q-37 0 -58.5 24t-21.5 58zM186 78q0 29 23 51.5t57 22.5q32 0 55 -23t23 -51q0 -33 -22 -57.5t-56 -24.5q-37 0 -58.5 24t-21.5 58zM1415 78q0 29 23 51.5t57 22.5q32 0 55 -23t23 -51
q0 -33 -22 -57.5t-56 -24.5q-37 0 -58.5 24t-21.5 58z" />
    <glyph glyph-name="perthousand" unicode="&#x2030;" horiz-adv-x="2588" 
d="M428 27l1067 1425l64 -45l-1067 -1425zM229 1079q0 159 102 260t259 101q119 0 205 -67.5t108 -180.5q12 -50 6 -105q-9 -141 -107.5 -234t-248.5 -93q-140 0 -232 89.5t-92 229.5zM324 1083q0 -101 65 -166t168 -65q123 0 192.5 75t69.5 189q0 90 -51.5 151.5
t-138.5 75.5q-38 6 -80 3q-103 -10 -164 -82.5t-61 -180.5zM1073 315q0 159 102 260t259 101q119 0 205 -67.5t108 -180.5q12 -49 6 -104q-9 -141 -107.5 -234.5t-248.5 -93.5q-140 0 -232 89.5t-92 229.5zM1167 319q0 -101 65.5 -166t168.5 -65q123 0 192.5 75t69.5 189
q0 91 -52 152.5t-138 75.5q-34 5 -80 2q-103 -10 -164.5 -82.5t-61.5 -180.5zM1921 315q0 159 101.5 260t258.5 101q119 0 205.5 -67.5t108.5 -180.5q12 -49 6 -104q-9 -141 -107.5 -234.5t-248.5 -93.5q-140 0 -232 89.5t-92 229.5zM2015 319q0 -101 65.5 -166t168.5 -65
q123 0 192.5 75t69.5 189q0 90 -52 152t-139 76q-34 5 -79 2q-103 -10 -164.5 -82.5t-61.5 -180.5z" />
    <glyph glyph-name="guilsinglleft" unicode="&#x2039;" horiz-adv-x="679" 
d="M487 76l-297 442l3 8l423 418l64 -70l-371 -362l258 -379z" />
    <glyph glyph-name="guilsinglright" unicode="&#x203a;" horiz-adv-x="679" 
d="M369 944l297 -442l-2 -6l-420 -420l-64 67l367 367l-258 377z" />
    <glyph glyph-name="fraction" unicode="&#x2044;" horiz-adv-x="393" 
d="M-246 27l1067 1425l64 -45l-1067 -1425z" />
    <glyph glyph-name="zerosuperior" unicode="&#x2070;" horiz-adv-x="763" 
d="M270 1004q0 62 12 122t39.5 118t67.5 101.5t100 70t132 26.5q69 0 120 -26t78.5 -70.5t40 -94t12.5 -106.5q0 -84 -22.5 -161t-64.5 -139t-109.5 -99t-151.5 -37q-122 0 -188 81t-66 214zM371 1010q0 -219 159 -219q76 0 132 50.5t83 127.5t27 168q0 223 -158 223
q-61 0 -109 -31.5t-76.5 -83t-43 -112t-14.5 -123.5z" />
    <glyph glyph-name="foursuperior" unicode="&#x2074;" horiz-adv-x="690" 
d="M561 717l31 178h-399l10 59l452 480h101l-439 -463h289l37 207h88l-37 -207h127l-14 -76h-127l-31 -178h-88z" />
    <glyph glyph-name="fivesuperior" unicode="&#x2075;" horiz-adv-x="673" 
d="M334 1073l110 361h398l-13 -76h-329l-70 -211q50 12 100 12q111 0 172.5 -55t61.5 -143q0 -116 -87.5 -185t-225.5 -69q-192 0 -248 120l57 47q50 -92 193 -92q96 0 152.5 49.5t56.5 126.5q0 65 -47.5 98.5t-133.5 33.5q-91 0 -147 -17z" />
    <glyph glyph-name="sixsuperior" unicode="&#x2076;" horiz-adv-x="753" 
d="M254 936q0 124 72 237.5t198 187t273 83.5l8 -68q-154 -26 -267 -106t-161 -211q36 45 97 72.5t132 27.5q115 0 175.5 -51t60.5 -141q0 -120 -87.5 -190t-224.5 -70q-134 0 -205 63.5t-71 165.5zM354 967q-11 -84 36.5 -134.5t146.5 -50.5q89 0 145.5 49t56.5 127
q0 61 -40 96.5t-119 35.5q-76 0 -136.5 -37.5t-89.5 -85.5z" />
    <glyph glyph-name="sevensuperior" unicode="&#x2077;" horiz-adv-x="614" 
d="M281 1352l14 82h530l-10 -56l-446 -661h-111l434 635h-411z" />
    <glyph glyph-name="eightsuperior" unicode="&#x2078;" horiz-adv-x="776" 
d="M569 1120h35q67 0 120.5 39t53.5 98q0 52 -42 81.5t-107 29.5q-76 0 -133.5 -38.5t-57.5 -100.5q0 -47 37.5 -78t93.5 -31zM592 1051h-31q-83 0 -146 -43.5t-63 -104.5q0 -56 48.5 -88.5t129.5 -32.5q89 0 154.5 43t65.5 111q0 53 -44.5 84t-113.5 31zM524 707
q-113 0 -191.5 46.5t-78.5 133.5q0 68 56.5 123.5t146.5 72.5v4q-51 15 -81 55t-30 91q0 94 81.5 152.5t207.5 58.5q108 0 173.5 -46t65.5 -124q0 -61 -47.5 -114t-128.5 -73v-2q69 -12 107.5 -54t38.5 -97q0 -106 -91.5 -166.5t-228.5 -60.5z" />
    <glyph glyph-name="ninesuperior" unicode="&#x2079;" horiz-adv-x="753" 
d="M879 1210q0 -136 -73.5 -250t-201.5 -181.5t-282 -71.5l-3 69q167 17 292 108t151 216q-89 -115 -240 -115q-106 0 -168.5 54t-62.5 143q0 115 88.5 188.5t222.5 73.5q136 0 206.5 -64.5t70.5 -169.5zM776 1178q10 82 -34.5 136t-145.5 54q-86 0 -144.5 -51t-58.5 -125
q0 -63 39.5 -100t118.5 -37q77 0 137 36.5t88 86.5z" />
    <glyph glyph-name="uni207A" unicode="&#x207a;" horiz-adv-x="737" 
d="M174 1047v75h234v232h75v-232h236v-75h-236v-232h-75v232h-234z" />
    <glyph glyph-name="uni207B" unicode="&#x207b;" horiz-adv-x="737" 
d="M174 1047v75h545v-75h-545z" />
    <glyph glyph-name="uni207C" unicode="&#x207c;" horiz-adv-x="737" 
d="M174 1182v75h545v-75h-545zM174 911v76h545v-76h-545z" />
    <glyph glyph-name="uni207D" unicode="&#x207d;" horiz-adv-x="397" 
d="M496 686l-58 -53q-98 61 -147 160t-49 204q0 333 348 514l43 -59q-295 -162 -295 -444q0 -96 41 -181t117 -141z" />
    <glyph glyph-name="uni207E" unicode="&#x207e;" horiz-adv-x="397" 
d="M281 1458l55 53q99 -60 147.5 -161t48.5 -207q0 -161 -91.5 -292.5t-256.5 -217.5l-41 59q295 167 295 441q0 96 -40.5 182t-116.5 143z" />
    <glyph glyph-name="zeroinferior" unicode="&#x2080;" horiz-adv-x="763" 
d="M145 287q0 62 12 122t39.5 118t67.5 101.5t100 70t132 26.5q69 0 120 -26t78.5 -70.5t40.5 -94t13 -106.5q0 -84 -22.5 -161t-65 -139t-110 -99t-151.5 -37q-122 0 -188 81t-66 214zM246 293q0 -219 160 -219q76 0 132 50.5t82.5 127.5t26.5 168q0 223 -158 223
q-61 0 -109 -31.5t-76.5 -83t-43 -112t-14.5 -123.5z" />
    <glyph glyph-name="oneinferior" unicode="&#x2081;" horiz-adv-x="489" 
d="M158 584l227 137h66l-127 -721h-95l105 600l-146 -86z" />
    <glyph glyph-name="twoinferior" unicode="&#x2082;" horiz-adv-x="694" 
d="M80 0l12 70q13 8 67.5 41.5t80.5 50t79 52.5t82 59.5t68.5 60t60.5 65.5t36.5 64t15.5 67q0 51 -34.5 82t-101.5 31t-115.5 -34.5t-68.5 -96.5l-78 29q22 86 98 135t171 49q111 0 170 -49.5t59 -130.5q0 -59 -33 -120t-81.5 -110.5t-113.5 -96.5t-121.5 -78.5
t-111.5 -57.5h422l-14 -82h-549z" />
    <glyph glyph-name="threeinferior" unicode="&#x2083;" horiz-adv-x="700" 
d="M350 -10q-88 0 -160.5 34t-101.5 105l59 47q46 -106 207 -106q88 0 140.5 41t52.5 110q0 50 -38.5 79.5t-109.5 29.5h-73l10 69h65q76 0 125 42t49 102q0 104 -141 104q-129 0 -201 -98l-47 51q83 127 265 127q110 0 169.5 -44t59.5 -126q0 -65 -52 -117.5t-124 -66.5v-2
q68 -9 105.5 -50.5t37.5 -97.5q0 -109 -81.5 -171t-215.5 -62z" />
    <glyph glyph-name="fourinferior" unicode="&#x2084;" horiz-adv-x="690" 
d="M434 0l31 178h-399l10 60l452 479h101l-439 -463h289l37 207h88l-37 -207h127l-14 -76h-127l-31 -178h-88z" />
    <glyph glyph-name="fiveinferior" unicode="&#x2085;" horiz-adv-x="673" 
d="M207 356l110 361h398l-13 -76h-329l-70 -211q50 12 100 12q111 0 172.5 -55t61.5 -143q0 -116 -87.5 -185t-225.5 -69q-89 0 -154.5 30t-93.5 91l57 47q50 -92 193 -92q96 0 152.5 49.5t56.5 126.5q0 65 -47.5 98t-133.5 33q-91 0 -147 -17z" />
    <glyph glyph-name="sixinferior" unicode="&#x2086;" horiz-adv-x="753" 
d="M129 219q0 124 72 237.5t198 187t273 83.5l8 -68q-154 -26 -267 -106t-161 -211q36 45 97 72.5t132 27.5q115 0 175.5 -51t60.5 -141q0 -120 -87 -190t-224 -70q-134 0 -205.5 64t-71.5 165zM229 250q-11 -84 36.5 -134t146.5 -50q89 0 145.5 49t56.5 127q0 61 -40 96
t-119 35q-76 0 -136.5 -37.5t-89.5 -85.5z" />
    <glyph glyph-name="seveninferior" unicode="&#x2087;" horiz-adv-x="614" 
d="M154 635l14 82h530l-10 -55l-446 -662h-111l434 635h-411z" />
    <glyph glyph-name="eightinferior" unicode="&#x2088;" horiz-adv-x="776" 
d="M442 403h35q66 0 120 39.5t54 98.5q0 52 -41.5 81t-107.5 29q-76 0 -133.5 -38.5t-57.5 -100.5q0 -47 37.5 -78t93.5 -31zM465 334h-31q-83 0 -146 -43.5t-63 -104.5q0 -56 48.5 -88t129.5 -32q89 0 154.5 42.5t65.5 110.5q0 53 -44.5 84t-113.5 31zM397 -10
q-113 0 -191.5 46.5t-78.5 133.5q0 68 56.5 124t146.5 73v4q-51 15 -81 54.5t-30 90.5q0 94 81.5 152.5t207.5 58.5q108 0 174 -46t66 -124q0 -61 -48 -113.5t-129 -72.5v-2q69 -12 107.5 -54.5t38.5 -97.5q0 -106 -91.5 -166.5t-228.5 -60.5z" />
    <glyph glyph-name="nineinferior" unicode="&#x2089;" horiz-adv-x="753" 
d="M752 494q0 -136 -73.5 -250.5t-201.5 -182t-282 -71.5l-2 69q167 17 291.5 108t150.5 216q-89 -115 -240 -115q-106 0 -168.5 54t-62.5 143q0 115 88.5 188.5t222.5 73.5q136 0 206.5 -64t70.5 -169zM649 461q10 82 -34.5 136t-145.5 54q-86 0 -144.5 -51t-58.5 -125
q0 -63 39.5 -100t118.5 -37q77 0 137 36.5t88 86.5z" />
    <glyph glyph-name="uni208A" unicode="&#x208a;" horiz-adv-x="737" 
d="M123 330v76h233v231h76v-231h236v-76h-236v-232h-76v232h-233z" />
    <glyph glyph-name="uni208B" unicode="&#x208b;" horiz-adv-x="737" 
d="M123 330v76h545v-76h-545z" />
    <glyph glyph-name="uni208C" unicode="&#x208c;" horiz-adv-x="737" 
d="M123 465v76h545v-76h-545zM123 195v75h545v-75h-545z" />
    <glyph glyph-name="uni208D" unicode="&#x208d;" horiz-adv-x="397" 
d="M371 -31l-58 -53q-98 61 -147 160.5t-49 204.5q0 333 348 514l43 -60q-295 -162 -295 -444q0 -96 41 -181t117 -141z" />
    <glyph glyph-name="uni208E" unicode="&#x208e;" horiz-adv-x="397" 
d="M154 741l55 54q99 -60 148 -161.5t49 -207.5q0 -160 -92 -292t-257 -218l-41 59q295 167 295 441q0 96 -40.5 182t-116.5 143z" />
    <glyph glyph-name="Euro" unicode="&#x20ac;" 
d="M180 860l51 88h134q89 232 286 368t473 136q177 0 291 -57l-55 -90q-106 41 -252 41q-195 0 -362.5 -104t-251.5 -294h694l-47 -88h-682q-22 -68 -25 -143q-2 -37 -2 -109h600l-43 -88h-540q34 -190 175 -311t341 -121q134 0 213 33l4 -101q-84 -38 -234 -38
q-137 0 -252.5 46t-192.5 123t-123.5 171.5t-57.5 197.5h-201l51 88h139q0 90 2 109q7 85 25 143h-158z" />
    <glyph glyph-name="uni20AE" unicode="&#x20ae;" horiz-adv-x="1228" 
d="M274 1327l19 107h1132l-18 -107h-510l-72 -397l316 145l-19 -110l-315 -148l-45 -250l315 146l-20 -111l-314 -145l-79 -457h-113l70 399l-314 -145l21 113l313 143l43 252l-311 -146l18 113l314 143l79 455h-510z" />
    <glyph glyph-name="uni20B4" unicode="&#x20b4;" horiz-adv-x="1228" 
d="M309 862l17 88h641q100 97 100 219q0 81 -53.5 129t-159.5 48q-177 0 -313 -117l-47 86q143 137 372 137q152 0 237 -70t85 -186q0 -139 -111 -246h162l-16 -88h-215q-64 -53 -201.5 -130.5t-194.5 -121.5h566l-15 -88h-647q-123 -107 -123 -237q0 -93 71.5 -145
t201.5 -52q204 0 340 152l49 -76q-69 -89 -173.5 -135.5t-228.5 -46.5q-159 0 -263.5 73.5t-104.5 206.5q0 142 118 260h-153l14 88h217q67 55 203 131.5t193 120.5h-568z" />
    <glyph glyph-name="uni20B8" unicode="&#x20b8;" horiz-adv-x="1228" 
d="M236 987l20 107h1092l-21 -107h-489l-172 -987h-113l172 987h-489zM299 1346l16 88h1092l-16 -88h-1092z" />
    <glyph glyph-name="uni20BA" unicode="&#x20ba;" horiz-adv-x="1228" 
d="M166 836l20 112l187 86l71 400h113l-61 -342l440 202l-21 -110l-438 -203l-45 -252l440 203l-20 -111l-438 -203l-90 -512q106 -4 215 -4q122 0 217 32.5t159 87t111.5 138.5t75 172.5t47.5 204.5v4h119v-4q-16 -94 -36.5 -170.5t-52 -155t-71.5 -138.5t-97 -114
t-127.5 -88.5t-163.5 -54.5t-204 -20q-51 0 -148.5 2t-156.5 2h-18l98 561l-189 -88l21 113l186 86l45 252z" />
    <glyph glyph-name="uni20BD" unicode="&#x20bd;" horiz-adv-x="1228" 
d="M164 649l14 88h230l122 697q40 0 178 2t179 2q122 0 210 -26t138 -73.5t73 -107t23 -135.5q0 -95 -33.5 -174.5t-101 -141.5t-180 -96.5t-260.5 -34.5h-250l-45 -252h370l-14 -88h-371l-55 -309h-112l55 309h-230l15 88h229l45 252h-229zM879 1331q-118 0 -254 -4
l-105 -590h246q213 0 327.5 92t114.5 263q0 239 -329 239z" />
    <glyph glyph-name="uni20BF" unicode="&#x20bf;" horiz-adv-x="1228" 
d="M211 2l252 1430q11 0 48 1t60 1l33 184h107l-33 -180q28 0 83.5 1t80.5 1q44 0 88 -6l33 184h106l-37 -203q207 -62 207 -287q0 -143 -90 -248.5t-234 -138.5l-2 -2q124 -23 192.5 -97.5t68.5 -184.5q0 -182 -105 -293t-285 -150l-36 -219h-107l35 203q-62 -4 -92 -4
q-105 0 -160 2l-35 -201h-106l34 203zM721 682h-277l-102 -573q128 -9 266 -9q210 0 327.5 88t117.5 250q0 244 -332 244zM821 1333q-93 0 -264 -6l-96 -545h278q163 0 272 91.5t109 234.5q0 225 -299 225z" />
    <glyph glyph-name="uni20C0" unicode="&#x20c0;" horiz-adv-x="1228" 
d="M1159 0h-1087l14 88h1088zM1137 461l32 -88q-163 -125 -444 -125q-71 0 -142.5 19t-139.5 60t-120.5 99.5t-84 143.5t-31.5 186q0 135 54 262.5t146.5 223t224.5 153t279 57.5q133 0 228.5 -27.5t177.5 -95.5l-66 -80q-80 59 -164.5 78t-197.5 19q-155 0 -284 -78.5
t-203 -214t-74 -297.5q0 -82 24 -150t64.5 -114t95 -77.5t115 -46t125.5 -14.5q230 0 385 107z" />
    <glyph glyph-name="uni2116" unicode="&#x2116;" horiz-adv-x="2387" 
d="M1364 0h-90l-721 1245l-219 -1245h-107l252 1434h90l721 -1248l219 1248h107zM1706 975q0 159 104.5 266t292.5 107q135 0 226.5 -80t91.5 -207q0 -164 -105 -271.5t-282 -107.5q-149 0 -238.5 81t-89.5 212zM1806 983q0 -97 61 -155t171 -58q131 0 205.5 81t74.5 198
q0 95 -60.5 153t-160.5 58q-132 0 -211.5 -77t-79.5 -200zM1679 444q3 23 17 101h567q-5 -39 -16 -101h-568z" />
    <glyph glyph-name="trademark" unicode="&#x2122;" horiz-adv-x="1703" 
d="M930 788l69 646h86l265 -338l313 338h96l-69 -646h-101l49 515l-303 -328h-4l-252 328l-47 -515h-102zM229 1335l15 99h643l-15 -99h-272l-53 -547h-101l54 547h-271z" />
    <glyph glyph-name="arrowleft" unicode="&#x2190;" horiz-adv-x="1316" 
d="M752 1137l73 -74l-448 -451h948v-106h-952l452 -453l-73 -73l-580 579z" />
    <glyph glyph-name="arrowup" unicode="&#x2191;" horiz-adv-x="1320" 
d="M258 498l-74 75l578 580l579 -580l-73 -75l-453 452v-950h-106v948z" />
    <glyph glyph-name="arrowright" unicode="&#x2192;" horiz-adv-x="1316" 
d="M682 1063l76 74l579 -578l-579 -579l-76 73l453 453h-951v106h949z" />
    <glyph glyph-name="arrowdown" unicode="&#x2193;" horiz-adv-x="1320" 
d="M762 -41l-578 580l74 73l451 -448v948h106v-952l453 452l73 -73z" />
    <glyph glyph-name="partialdiff" unicode="&#x2202;" horiz-adv-x="1173" 
d="M195 416q0 140 63.5 259.5t179.5 192t258 72.5q150 0 249.5 -68.5t135.5 -158.5q0 98 -18.5 185t-61.5 168t-107 141t-162 100t-220 49l16 96q317 -17 491.5 -213.5t174.5 -529.5q0 -139 -37.5 -268t-106.5 -232t-178 -165t-241 -62q-191 0 -313.5 123t-122.5 311z
M307 424q0 -143 93.5 -242.5t242.5 -99.5q93 0 172.5 45.5t132.5 120t85 165.5t40 187q-22 48 -53 88t-75 76t-107 56t-138 20q-164 0 -278.5 -123.5t-114.5 -292.5z" />
    <glyph glyph-name="product" unicode="&#x220f;" horiz-adv-x="1798" 
d="M1585 -410v1737h-1118v-1737h-113v1844h1344v-1844h-113z" />
    <glyph glyph-name="summation" unicode="&#x2211;" horiz-adv-x="1288" 
d="M852 512l-641 850v72h1124v-107h-962l610 -815l-616 -815h968v-107h-1124v72z" />
    <glyph glyph-name="minus" unicode="&#x2212;" 
d="M268 690v94h914v-94h-914z" />
    <glyph glyph-name="uni2215" unicode="&#x2215;" horiz-adv-x="649" 
d="M-45 -395l688 1847l84 -31l-686 -1847z" />
    <glyph glyph-name="radical" unicode="&#x221a;" horiz-adv-x="1202" 
d="M55 815v107h301l373 -742l281 1254h544v-107h-450l-307 -1339h-86l-428 827h-228z" />
    <glyph glyph-name="infinity" unicode="&#x221e;" horiz-adv-x="1511" 
d="M1235 399q-57 0 -109 18t-97 52.5t-78.5 70t-73.5 85.5q-39 -53 -68.5 -86.5t-71.5 -69t-91.5 -53t-106.5 -17.5q-74 0 -142.5 34t-116 104.5t-47.5 160.5q0 124 88 213.5t224 89.5q51 0 98 -17.5t89.5 -53t73.5 -69.5t71 -85q38 52 67.5 85.5t73.5 69t97.5 53
t117.5 17.5q133 0 212 -87t79 -224q0 -72 -32 -137t-99.5 -109.5t-157.5 -44.5zM1214 907q-46 0 -86.5 -15.5t-76 -47.5t-61 -62.5t-60.5 -79.5q38 -49 66.5 -80t66.5 -63.5t79 -48.5t85 -16q92 0 144 60.5t52 137.5q0 91 -55.5 153t-153.5 62zM547 494q46 0 85.5 15
t74 46.5t58.5 61t56 77.5q-40 54 -64 83t-60 64t-71.5 50.5t-74.5 15.5q-96 0 -156.5 -61t-60.5 -148q0 -93 67 -148.5t146 -55.5z" />
    <glyph glyph-name="integral" unicode="&#x222b;" horiz-adv-x="684" 
d="M442 -47q0 -166 -52 -260.5t-173 -112.5q-19 -4 -94 -4q-96 6 -158 53l33 86q68 -41 133 -41q110 0 157.5 72.5t47.5 210.5v1114q0 167 64.5 261.5t187.5 111.5q49 10 98 4q124 -5 205 -74l-39 -82q-74 56 -164 58q-74 3 -129 -25q-117 -62 -117 -272v-1100z" />
    <glyph glyph-name="approxequal" unicode="&#x2248;" 
d="M291 836l-51 69q131 131 262 131q56 0 122 -23.5t117.5 -51t116 -51t117.5 -23.5q95 0 190 92l45 -72q-120 -114 -237 -114q-55 0 -120.5 23.5t-117 51t-115.5 51t-116 23.5q-102 0 -213 -106zM291 483l-51 70q131 131 262 131q56 0 122 -23.5t117.5 -51t116 -51
t117.5 -23.5q95 0 190 92l45 -72q-121 -115 -237 -115q-55 0 -120.5 23.5t-117 51.5t-115.5 51.5t-116 23.5q-101 0 -213 -107z" />
    <glyph glyph-name="notequal" unicode="&#x2260;" 
d="M268 866v95h484l184 491l84 -31l-172 -460h334v-95h-369l-96 -258h465v-94h-500l-197 -532l-86 30l187 502h-318v94h353l96 258h-449z" />
    <glyph glyph-name="lessequal" unicode="&#x2264;" 
d="M236 543l16 102l803 -534l-17 -105zM1077 358l-803 537l9 45l915 533l-18 -117l-752 -438l668 -443z" />
    <glyph glyph-name="greaterequal" unicode="&#x2265;" 
d="M1194 645l-16 -102l-916 -537l17 105zM1217 895l-916 -537l18 117l754 443l-670 438l19 117l803 -533z" />
    <glyph glyph-name="angleleft" unicode="&#x2329;" horiz-adv-x="878" 
d="M879 1434l-574 -729l303 -705h-108l-310 713l3 8l559 713h127z" />
    <glyph glyph-name="angleright" unicode="&#x232a;" horiz-adv-x="878" 
d="M190 0l574 729l-303 705h108l310 -713l-2 -8l-560 -713h-127z" />
    <glyph glyph-name="lozenge" unicode="&#x25ca;" horiz-adv-x="962" 
d="M543 -12l-342 522l344 549h80l342 -527l-344 -544h-80zM309 512l275 -420l274 440l-274 418z" />
    <glyph glyph-name="spade" unicode="&#x2660;" horiz-adv-x="1294" 
d="M729 1044q112 -70 230.5 -181.5t206 -239t87.5 -215.5q0 -87 -60.5 -150t-178.5 -63q-164 0 -269 147q28 -119 79.5 -203.5t140.5 -138.5h-471q150 107 215 336q-103 -141 -265 -141q-118 0 -178.5 63.5t-60.5 151.5q0 66 51.5 157t130 179t169.5 167.5t173 130.5z" />
    <glyph glyph-name="club" unicode="&#x2663;" horiz-adv-x="1253" 
d="M457 780q0 109 77.5 186.5t186.5 77.5t186.5 -77.5t77.5 -186.5q0 -15 -4 -39q102 -8 173 -84t71 -178q0 -109 -77.5 -186.5t-186.5 -77.5q-65 0 -121 29.5t-92 79.5q64 -236 208 -324h-471q130 92 205 319q-37 -46 -93 -75t-116 -29q-109 0 -186.5 77.5t-77.5 186.5
q0 103 70.5 178.5t171.5 83.5q-2 12 -2 39z" />
    <glyph glyph-name="heart" unicode="&#x2665;" horiz-adv-x="1329" 
d="M795 0q-86 65 -179 158.5t-175.5 197.5t-135.5 212.5t-53 189.5q0 51 14.5 97t43.5 84.5t78 61.5t112 23q182 0 295 -213q109 213 292 213q83 0 141 -40t82.5 -98t24.5 -126q0 -82 -53 -191t-135 -213t-174 -197.5t-178 -158.5z" />
    <glyph glyph-name="diamond" unicode="&#x2666;" horiz-adv-x="1193" 
d="M1169 510q-222 -222 -475 -549q-213 280 -473 549q221 231 473 551q256 -324 475 -551z" />
    <glyph glyph-name="uniF350" unicode="&#xf350;" horiz-adv-x="1175" 
d="M35 0l696 1083h94l314 -1083h-113l-96 340h-557l-217 -340h-121zM758 942l-318 -496h459z" />
    <glyph glyph-name="uniF351" unicode="&#xf351;" horiz-adv-x="1032" 
d="M182 0l191 1075h669l-20 -106h-555l-57 -330q84 8 192 8q178 0 278.5 -72t100.5 -206q0 -189 -126 -281t-355 -92q-73 0 -182.5 2t-135.5 2zM588 543q-106 0 -197 -8l-76 -431q25 0 91 -1t108 -1q352 0 352 256q0 185 -278 185z" />
    <glyph glyph-name="uniF352" unicode="&#xf352;" horiz-adv-x="1048" 
d="M182 2l189 1071q264 8 319 8q176 0 259 -64.5t83 -178.5q0 -101 -73 -178.5t-189 -100.5q100 -17 157.5 -77.5t57.5 -151.5q0 -170 -123 -253t-327 -83q-217 0 -353 8zM608 498h-225l-68 -389q92 -9 232 -9q152 0 237.5 57t85.5 175q0 80 -67.5 123t-194.5 43zM684 975
q-88 0 -217 -6l-68 -371h230q121 0 203.5 61.5t82.5 161.5q0 154 -231 154z" />
    <glyph glyph-name="uniF353" unicode="&#xf353;" horiz-adv-x="851" 
d="M182 0l191 1075h657l-20 -106h-543l-170 -969h-115z" />
    <glyph glyph-name="uniF354" unicode="&#xf354;" horiz-adv-x="1245" 
d="M-10 -203l55 309h127q27 25 63 78.5t83.5 142.5t97 229.5t86.5 303.5l49 215h670l-170 -969h157l-55 -309h-109l37 203h-946l-37 -203h-108zM596 786q-69 -279 -156 -454.5t-143 -225.5h639l151 863h-444z" />
    <glyph glyph-name="uniF355" unicode="&#xf355;" horiz-adv-x="983" 
d="M182 0l191 1075h663l-20 -106h-549l-64 -371h498l-18 -106h-500l-68 -386h566l-19 -106h-680z" />
    <glyph glyph-name="uniF356" unicode="&#xf356;" horiz-adv-x="1544" 
d="M1679 1075l-579 -520l405 -555h-125l-409 561l563 514h145zM715 0l190 1075h113l-191 -1075h-112zM641 571l-387 504h127l389 -514l-586 -561h-153z" />
    <glyph glyph-name="uniF357" unicode="&#xf357;" horiz-adv-x="976" 
d="M494 -16q-143 0 -243 49.5t-147 126.5l72 71q111 -141 320 -141q143 0 228 64.5t85 173.5q0 79 -55.5 123.5t-161.5 44.5h-160l19 106h147q114 0 182 59.5t68 151.5q0 80 -58.5 125t-162.5 45q-187 0 -310 -109l-53 82q134 134 371 134q152 0 240 -74t88 -189
q0 -101 -55.5 -172.5t-155.5 -97.5v-4q168 -55 168 -217q0 -161 -114.5 -256.5t-311.5 -95.5z" />
    <glyph glyph-name="uniF358" unicode="&#xf358;" horiz-adv-x="1331" 
d="M283 0h-101l191 1075h112l-153 -878l907 878h100l-190 -1075h-113l156 883z" />
    <glyph glyph-name="uniF359" unicode="&#xf359;" horiz-adv-x="1331" 
d="M283 0h-101l191 1075h112l-153 -878l907 878h100l-190 -1075h-113l156 883zM614 1360h101q-9 -74 32.5 -114t124.5 -40q177 0 220 154h88q-25 -101 -109.5 -168.5t-206.5 -67.5q-136 0 -197.5 60.5t-52.5 175.5z" />
    <glyph glyph-name="uniF35A" unicode="&#xf35a;" horiz-adv-x="1079" 
d="M1212 1075l-630 -516l458 -559h-145l-455 561l615 514h157zM182 0l191 1075h112l-190 -1075h-113z" />
    <glyph glyph-name="uniF35B" unicode="&#xf35b;" 
d="M911 0l170 969h-463l-55 -203q-54 -204 -109 -349.5t-103.5 -228.5t-104 -128t-101.5 -56t-104 -4l18 109q21 -2 40 1.5t47.5 20t54.5 46t60.5 86t67 134.5t71.5 196.5t77 266.5l55 215h682l-190 -1075h-113z" />
    <glyph glyph-name="uniF35C" unicode="&#xf35c;" horiz-adv-x="1482" 
d="M182 0l191 1075h114l357 -567l532 567h115l-191 -1075h-114l160 897l-517 -545h-16l-354 561l-164 -913h-113z" />
    </font>
</defs>
</svg>
