<?xml version="1.0" standalone="no"?>
<!DOCTYPE svg PUBLIC "-//W3C//DTD SVG 1.1//EN" "http://www.w3.org/Graphics/SVG/1.1/DTD/svg11.dtd" >
<svg xmlns="http://www.w3.org/2000/svg" xmlns:xlink="http://www.w3.org/1999/xlink" version="1.1">
<metadata>
Created by FontForge 20170731 at Wed Mar 15 10:29:51 2023
 By Aleksey,,,
Copyright (c) 2011 Paratype, Inc., ParaType Ltd. All rights reserved.
</metadata>
<defs>
<font id="Circe-ExtraLightItalic" horiz-adv-x="1200" >
  <font-face 
    font-family="Circe Extra Light"
    font-weight="280"
    font-style="italic"
    font-stretch="normal"
    units-per-em="2048"
    panose-1="2 11 3 2 2 2 3 9 2 3"
    ascent="1583"
    descent="-465"
    x-height="922"
    cap-height="1434"
    bbox="-981 -709 3252 2036"
    underline-thickness="102"
    underline-position="-307"
    slope="-10"
    unicode-range="U+0020-FEFF"
  />
<missing-glyph horiz-adv-x="497" 
 />
    <glyph glyph-name="uniF350.var.accented" unicode="&#xf350;`" horiz-adv-x="1146" 
d="M43 0l700 1085h45l314 -1085h-62l-110 387h-574l-247 -387h-66zM754 1004l-361 -562h522zM1022 1497l-238 -280l-32 30l233 291z" />
    <glyph glyph-name="uniF355.var.accented" unicode="&#xf355;`" horiz-adv-x="970" 
d="M190 0l191 1075h637l-10 -57h-576l-80 -443h527l-11 -57h-526l-80 -461h592l-10 -57h-654zM961 1497l-238 -280l-33 30l234 291z" />
    <glyph glyph-name="uniF358.var.accented" unicode="&#xf358;`" horiz-adv-x="1320" 
d="M248 0h-58l191 1075h61l-172 -971l996 971h55l-191 -1075h-61l172 971zM1090 1497l-238 -280l-33 30l234 291z" />
    <glyph glyph-name="uniF35E.var.accented" unicode="&#xf35e;`" horiz-adv-x="1318" 
d="M174 473q0 272 176 443t461 171q221 0 369.5 -137.5t148.5 -345.5q0 -127 -43 -239t-122 -196.5t-201 -133.5t-271 -49q-223 0 -370.5 139.5t-147.5 347.5zM238 473q0 -184 130.5 -307t327.5 -123q173 0 303.5 74t198.5 200.5t68 286.5q0 181 -132 303.5t-323 122.5
q-256 0 -414.5 -152.5t-158.5 -404.5zM1104 1497l-238 -280l-32 30l233 291z" />
    <glyph glyph-name="uniF363.var.accented" unicode="&#xf363;`" horiz-adv-x="1040" 
d="M1202 1075l-551 -833q-40 -61 -65.5 -95t-63 -73t-78 -56.5t-86.5 -17.5q-66 0 -116 33l28 51q44 -29 92 -29q101 0 203 156l31 47l-391 817h67l361 -760l502 760h67zM961 1497l-238 -280l-33 30l234 291z" />
    <glyph glyph-name="uniF36B.var.accented" unicode="&#xf36b;`" horiz-adv-x="1355" 
d="M1104 0l190 1075h62l-191 -1075h-61zM541 588q-86 0 -187 -8l-92 -523q25 0 89.5 -2t103.5 -2q203 0 308 81t105 237q0 112 -87 164.5t-240 52.5zM442 1075l-77 -436q117 6 184 6q178 0 281.5 -67.5t103.5 -202.5q0 -188 -129.5 -283.5t-353.5 -95.5q-53 0 -142 2t-119 2
l191 1075h61zM1079 1497l-237 -280l-33 30l233 291z" />
    <glyph glyph-name="uniF36D.var.accented" unicode="&#xf36d;`" horiz-adv-x="1126" 
d="M426 520l6 58h643q0 452 -440 452q-204 0 -352 -94l-23 45q75 51 177.5 80t201.5 29q110 0 196.5 -26.5t142.5 -72t93 -109t52.5 -133t15.5 -149.5q0 -134 -43 -247t-123 -194.5t-200 -127t-267 -45.5q-136 0 -227 32.5t-170 100.5l38 47q76 -63 157 -92t202 -29
q130 0 235 38.5t173 105.5t107 151t48 180h-643zM924 1497l-238 -280l-33 30l234 291z" />
    <glyph glyph-name="uniF36E.var.accented" unicode="&#xf36e;`" horiz-adv-x="1763" 
d="M190 0l191 1075h61l-90 -497h314q25 160 115 278t219 176t280 58q111 0 205 -38t157 -102.5t98.5 -150.5t35.5 -183q0 -280 -171.5 -455t-459.5 -175q-160 0 -277 74.5t-170 195t-39 264.5h-317l-90 -520h-62zM721 467q0 -185 118 -303.5t308 -118.5q257 0 410 157.5
t153 411.5q0 181 -122 298.5t-310 117.5q-167 0 -294.5 -73t-195 -200.5t-67.5 -289.5zM1204 1497l-237 -280l-33 30l233 291z" />
    <glyph glyph-name="uniF36F.var.accented" unicode="&#xf36f;`" horiz-adv-x="1017" 
d="M766 0l78 430h-285l-416 -430h-77l428 442q-99 22 -158.5 90.5t-59.5 169.5q0 150 96 246.5t265 118.5q70 12 151 12q45 0 123.5 -2t106.5 -2l-191 -1075h-61zM553 487h301l92 531q-23 0 -92 2t-111 2q-179 0 -290 -82t-111 -227q0 -91 55.5 -152t155.5 -74zM1008 1497
l-238 -280l-33 30l234 291z" />
    <glyph glyph-name="uniF371.var.accented" unicode="&#xf371;`" horiz-adv-x="970" 
d="M504 1360q0 20 15 33.5t36 13.5q14 0 25.5 -12t11.5 -27q0 -18 -11.5 -30.5t-27.5 -14.5h-14q-14 2 -24.5 12.5t-10.5 24.5zM899 1360q0 20 15 33.5t34 13.5q16 0 27.5 -11t11.5 -28q0 -18 -11.5 -30.5t-27.5 -14.5h-14q-14 2 -24.5 12.5t-10.5 24.5zM893 1507l-238 -290
l-32 22l227 299zM190 0l191 1075h637l-10 -57h-578l-78 -443h527l-11 -57h-526l-82 -461h594l-10 -57h-654z" />
    <glyph glyph-name="uni0410.var.accented" unicode="&#x410;`" horiz-adv-x="1413" 
d="M53 0l887 1448h43l377 -1448h-62l-137 532h-717l-325 -532h-66zM948 1358l-469 -768h666zM1278 1698l-340 -182l-20 36l337 193z" />
    <glyph glyph-name="uni0415.var.accented" unicode="&#x415;`" horiz-adv-x="1177" 
d="M238 0l251 1434h779l-8 -58h-719l-109 -618h658l-13 -58h-655l-113 -643h738l-11 -57h-798zM1145 1698l-340 -182l-21 36l338 193z" />
    <glyph glyph-name="uni0418.var.accented" unicode="&#x418;`" horiz-adv-x="1636" 
d="M293 0h-55l251 1434h62l-234 -1330l1278 1330h56l-252 -1434h-62l236 1329zM1331 1698l-340 -182l-20 36l338 193z" />
    <glyph glyph-name="uni041E.var.accented" unicode="&#x41e;`" horiz-adv-x="1652" 
d="M231 645q0 171 59.5 321t163 256.5t250 168t314.5 61.5q304 0 479.5 -177t175.5 -468q0 -236 -98 -424t-275 -294.5t-401 -106.5q-162 0 -289.5 48.5t-210 136.5t-125.5 209.5t-43 268.5zM295 649q0 -285 163 -446.5t445 -161.5q146 0 275.5 54.5t225 151.5t151 239.5
t55.5 310.5q0 271 -160 433.5t-438 162.5q-144 0 -274.5 -53.5t-228.5 -148t-156 -235.5t-58 -307zM1352 1698l-340 -182l-21 36l338 193z" />
    <glyph glyph-name="uni0423.var.accented" unicode="&#x423;`" horiz-adv-x="1302" 
d="M1518 1434l-701 -1115q-49 -77 -84.5 -126t-82 -98t-95.5 -72t-104 -23q-87 0 -138 43l31 47q48 -35 115 -35q74 0 141 63.5t119 149.5l41 64l-477 1102h65l451 -1043l651 1043h68zM1223 1698l-340 -182l-21 36l338 193z" />
    <glyph glyph-name="uni042B.var.accented" unicode="&#x42b;`" horiz-adv-x="1669" 
d="M1372 0l252 1434h59l-251 -1434h-60zM700 793q-139 0 -264 -13l-127 -723q28 0 107.5 -2t144.5 -2q251 0 392 118t141 327q0 140 -100 217.5t-294 77.5zM551 1434l-105 -594q163 10 267 10q219 0 332.5 -90t113.5 -250q0 -246 -162.5 -380t-447.5 -134q-73 0 -174 2
t-137 2l251 1434h62zM1341 1698l-340 -182l-20 36l338 193z" />
    <glyph glyph-name="uni042D.var.accented" unicode="&#x42d;`" horiz-adv-x="1396" 
d="M537 702l10 58h809q14 191 -45.5 333t-189 221t-316.5 79q-123 0 -248 -32.5t-217 -96.5l-25 47q89 67 231.5 104t270.5 37q285 0 443.5 -167.5t158.5 -473.5q0 -254 -104 -443t-288 -287.5t-423 -98.5q-303 0 -487 176l37 45q190 -165 452 -162q212 0 376.5 85.5
t257.5 234.5t110 341h-813zM1128 1698l-340 -182l-20 36l338 193z" />
    <glyph glyph-name="uni042E.var.accented" unicode="&#x42e;`" horiz-adv-x="2189" 
d="M422 702l-123 -702h-61l251 1434h62l-119 -674h402q14 139 75 264.5t157 220.5t232 151t289 56q187 0 329.5 -83t218 -229.5t75.5 -334.5q0 -232 -97 -420t-269 -295.5t-386 -107.5q-128 0 -233.5 36t-178.5 98.5t-123.5 147.5t-74 181t-23.5 202v55h-403zM887 649
q0 -127 38 -237.5t109.5 -193t181.5 -130t246 -47.5q193 0 349.5 98t245.5 271t89 387q0 266 -156.5 431t-408.5 165q-138 0 -264 -54t-221.5 -149t-152 -236t-56.5 -305zM1597 1698l-340 -182l-20 36l338 193z" />
    <glyph glyph-name="uni042F.var.accented" unicode="&#x42f;`" horiz-adv-x="1245" 
d="M948 0l103 586h-363l-541 -586h-73l559 600q-120 29 -197.5 120t-77.5 226q0 100 36.5 187t108 156t188.5 109t267 40q53 0 157.5 -2t144.5 -2l-252 -1434h-60zM688 643h373l129 733q-30 0 -115.5 2t-134.5 2q-132 0 -234 -36t-162.5 -98t-91 -137t-30.5 -159
q0 -121 73.5 -203.5t192.5 -103.5zM1251 1698l-340 -182l-20 36l338 193z" />
    <glyph glyph-name="uni0401.var.accented" unicode="&#x401;`" horiz-adv-x="1177" 
d="M238 0l251 1434h779l-8 -58h-719l-109 -618h658l-13 -58h-655l-113 -643h738l-11 -57h-798zM614 1630q0 18 14.5 30.5t35.5 12.5q18 0 31.5 -12.5t13.5 -30.5q0 -21 -13.5 -33t-31.5 -12q-21 0 -35.5 12t-14.5 33zM1116 1630q0 18 15 30.5t36 12.5q18 0 31.5 -12
t13.5 -31q0 -21 -13.5 -33t-31.5 -12q-21 0 -36 12t-15 33zM1092 1698l-340 -182l-21 36l338 193z" />
    <glyph glyph-name="uni0430.var.accented" unicode="&#x430;`" horiz-adv-x="985" 
d="M422 43q36 0 74.5 17.5t71.5 43.5t71 68.5t65.5 79t62 89t53.5 83.5t46 78l58 344q-55 22 -94 30.5t-93 8.5q-103 0 -195.5 -41.5t-162 -115t-110 -181.5t-40.5 -234q0 -122 48 -196t145 -74zM840 0h-58l66 397q-21 -35 -32.5 -54.5t-36 -58t-42 -62t-45 -58t-51 -56.5
t-54 -47t-59 -39.5t-62 -24t-67.5 -9.5q-112 0 -170.5 87.5t-58.5 227.5q0 137 45 256.5t121.5 202.5t180.5 130.5t220 47.5q131 0 248 -57zM958 1419l-229 -289l-37 25l223 299z" />
    <glyph glyph-name="uni0435.var.accented" unicode="&#x435;`" horiz-adv-x="903" 
d="M829 174l29 -37q-165 -155 -362 -155q-82 0 -146 31t-102.5 84t-58 117.5t-19.5 137.5q0 112 39 219t105 188.5t160 131t198 49.5q123 0 190.5 -55.5t67.5 -155.5q0 -86 -54.5 -151.5t-151 -104t-221 -56.5t-272.5 -16q-2 -12 -2 -36q-2 -143 69.5 -235.5t205.5 -92.5
q172 0 325 137zM668 885q-159 0 -280.5 -128t-149.5 -311q174 -3 311 23t224 86.5t91 149.5q3 55 -16 92q-37 88 -180 88zM973 1419l-230 -289l-36 25l223 299z" />
    <glyph glyph-name="uni0438.var.accented" unicode="&#x438;`" horiz-adv-x="980" 
d="M391 37q59 0 127 46t131.5 122.5t109.5 142.5t89 139l76 435h57l-162 -922h-55l67 387q-251 -405 -454 -405q-182 0 -182 208q0 57 22 185l115 547h55l-113 -535q-22 -105 -22 -178q2 -81 31.5 -126.5t107.5 -45.5zM924 1419l-230 -289l-37 25l224 299z" />
    <glyph glyph-name="uni043E.var.accented" unicode="&#x43e;`" horiz-adv-x="983" 
d="M498 -18q-160 0 -244 105t-84 278q0 81 17.5 161t55.5 155.5t92 132.5t134.5 91.5t175.5 34.5q83 0 146.5 -31t101 -84t56 -118.5t18.5 -141.5q0 -163 -55 -294.5t-162.5 -210t-251.5 -78.5zM504 37q77 0 143 27t113.5 74.5t80.5 112.5t49.5 142t16.5 162
q0 151 -67.5 240.5t-200.5 89.5q-81 0 -149.5 -29t-116 -78.5t-80.5 -115.5t-48.5 -139t-15.5 -150q0 -156 70.5 -246t204.5 -90zM913 1419l-229 -289l-37 25l223 299z" />
    <glyph glyph-name="uni0443.var.accented" unicode="&#x443;`" horiz-adv-x="796" 
d="M121 -354q49 0 93 25.5t82.5 75.5t67 96.5t65.5 114.5q11 21 17 32q-46 215 -126.5 463t-176.5 469h62q82 -190 159.5 -426t122.5 -439q172 329 316 865h63q-396 -1332 -745 -1332q-70 0 -135 43l28 45q53 -32 107 -32zM813 1419l-229 -289l-37 25l223 299z" />
    <glyph glyph-name="uni044B.var.accented" unicode="&#x44b;`" 
d="M682 637q77 0 125.5 -57t48.5 -138q0 -75 -41 -155.5t-107 -145t-155.5 -106t-179.5 -41.5q-95 0 -135.5 58t-40.5 151q0 63 28 188t78 310t59 221h58q-11 -45 -65.5 -247t-78.5 -308q74 114 184.5 192t221.5 78zM799 430q0 64 -36.5 108t-96.5 44q-69 0 -146 -42
t-134.5 -100.5t-95.5 -121.5t-38 -105q0 -70 30 -117t101 -47q75 0 152 35.5t134 90t93.5 123.5t36.5 132zM1143 922h55l-160 -922h-55zM1042 1419l-229 -289l-37 25l223 299z" />
    <glyph glyph-name="uni044D.var.accented" unicode="&#x44d;`" horiz-adv-x="849" 
d="M369 444l8 50h397q14 184 -58.5 287.5t-234.5 103.5q-84 0 -145 -20t-131 -66l-25 41q73 52 144.5 76t162.5 24q179 0 263 -102t84 -283q0 -165 -65 -297.5t-172.5 -204t-234.5 -71.5q-91 0 -153.5 28.5t-118.5 79.5l33 41q50 -45 104.5 -69.5t134.5 -24.5
q155 0 266.5 113.5t139.5 293.5h-399zM811 1419l-229 -289l-37 25l223 299z" />
    <glyph glyph-name="uni044E.var.accented" unicode="&#x44e;`" horiz-adv-x="1359" 
d="M881 -18q-158 0 -240 106t-82 283q0 21 4 71h-262l-78 -442h-55l160 922h53l-74 -424h264q15 87 49.5 163t88.5 140t135 101.5t180 37.5q83 0 145.5 -30.5t99 -84t54.5 -119t18 -141.5q0 -163 -53.5 -294.5t-159 -210t-247.5 -78.5zM1018 885q-100 0 -179 -44t-127 -118
t-73 -163.5t-25 -186.5q0 -155 69 -245.5t202 -90.5q96 0 172.5 41t125.5 112.5t75 164.5t26 200q0 151 -66.5 240.5t-199.5 89.5zM1092 1419l-230 -289l-37 25l224 299z" />
    <glyph glyph-name="uni044F.var.accented" unicode="&#x44f;`" horiz-adv-x="833" 
d="M610 922h221l-159 -922h-56l64 375h-219l-346 -375h-72l360 389q-89 9 -143.5 68.5t-54.5 150.5q0 61 20 113.5t63.5 99t126 74t195.5 27.5zM266 614q0 -87 53.5 -135.5t151.5 -48.5h219l78 436h-176q-88 0 -153.5 -21t-102 -57.5t-53.5 -80t-17 -93.5zM858 1419
l-229 -289l-37 25l223 299z" />
    <glyph glyph-name="uni0451.var.accented" unicode="&#x451;`" horiz-adv-x="903" 
d="M829 174l29 -37q-165 -155 -362 -155q-82 0 -146 31t-102.5 84t-58 117.5t-19.5 137.5q0 112 39 219t105 188.5t160 131t198 49.5q123 0 190.5 -55.5t67.5 -155.5q0 -86 -54.5 -151.5t-151 -104t-221 -56.5t-272.5 -16q-2 -12 -2 -36q-2 -143 69.5 -235.5t205.5 -92.5
q172 0 325 137zM668 885q-159 0 -280.5 -128t-149.5 -311q174 -3 311 23t224 86.5t91 149.5q3 55 -16 92q-37 88 -180 88zM510 1282q0 17 13 29t32 12q17 0 30 -12t13 -29q0 -21 -12.5 -34t-30.5 -13q-19 0 -32 13t-13 34zM944 1282q0 17 13 29t32 12q17 0 30 -12t13 -29
q0 -21 -12.5 -34t-30.5 -13q-19 0 -32 13t-13 34zM909 1419l-229 -289l-37 25l223 299z" />
    <glyph glyph-name="fi" unicode="fi" horiz-adv-x="933" 
d="M162 -45l196 1116q33 184 134 282.5t272 98.5q145 0 229 -80l-28 -45q-83 70 -203 70q-290 0 -348 -338l-25 -137h526l-161 -922h-56l152 866h-471l-162 -915q-10 -60 -23.5 -109.5t-37.5 -101t-55 -86.5t-77.5 -57.5t-103.5 -22.5q-82 0 -149 41l26 47q64 -33 123 -33
q57 0 100.5 28t71 78.5t43 102t27.5 117.5z" />
    <glyph glyph-name="fl" unicode="fl" horiz-adv-x="1071" 
d="M731 242l193 1089q-75 66 -191 66q-131 0 -210.5 -82.5t-108.5 -255.5l-25 -137h250l-10 -56h-250l-162 -915q-11 -61 -24.5 -109.5t-37 -101t-54 -87t-77 -57t-104.5 -22.5q-82 0 -149 41l26 47q64 -33 123 -33q160 0 221 234q45 171 81.5 372.5t75 455.5t60.5 380
q64 381 375 381q39 0 60 -18q116 0 196 -54l-198 -1120q-12 -70 -9 -115q5 -50 32.5 -74t82.5 -24q84 0 154 47l12 -49q-84 -53 -182 -53q-95 0 -131 54.5t-21 166.5q0 21 2 29z" />
    <glyph glyph-name=".notdef" horiz-adv-x="497" 
 />
    <glyph glyph-name=".null" horiz-adv-x="0" 
 />
    <glyph glyph-name="nonmarkingreturn" horiz-adv-x="682" 
 />
    <glyph glyph-name="space" unicode=" " horiz-adv-x="497" 
 />
    <glyph glyph-name="exclam" unicode="!" horiz-adv-x="634" 
d="M346 356l191 1078h59l-188 -1078h-62zM274 49q0 18 14.5 31.5t35.5 13.5q20 0 33.5 -13.5t13.5 -31.5q0 -21 -13.5 -36t-33.5 -15q-21 0 -35.5 15t-14.5 36z" />
    <glyph glyph-name="quotedbl" unicode="&#x22;" horiz-adv-x="796" 
d="M410 1034l71 400h58l-72 -400h-57zM694 1034l72 400h57l-71 -400h-58z" />
    <glyph glyph-name="numbersign" unicode="#" horiz-adv-x="1380" 
d="M770 0l164 444h-475l-172 -462l-47 18l163 444h-213v54h232l164 438h-396v53h416l172 463l47 -18l-166 -445h478l172 463l47 -16l-166 -447h217v-53h-238l-161 -438h399v-54h-420l-170 -462zM641 936l-164 -438h475l164 438h-475z" />
    <glyph glyph-name="dollar" unicode="$" 
d="M1044 397q0 59 -22.5 106.5t-60.5 79.5t-87 59t-103.5 49.5t-108.5 45t-103 51t-87 63t-60.5 85t-22.5 113.5q0 166 123.5 279t329.5 122l30 168h58l-31 -168q105 -6 191.5 -44t130.5 -99l-43 -43q-103 129 -320 129q-181 0 -292 -93t-111 -241q0 -73 36 -127.5t93.5 -88
t127.5 -62.5t139.5 -59.5t127 -68t93.5 -99.5t36 -144q0 -182 -134 -296t-333 -128l-33 -191h-57l33 189q-125 3 -233.5 57.5t-151.5 142.5l43 39q49 -84 150 -133t208 -49q113 0 211.5 38.5t165.5 121.5t67 196z" />
    <glyph glyph-name="percent" unicode="%" horiz-adv-x="1693" 
d="M233 1077q0 161 100.5 260t266.5 99q127 0 211 -80.5t84 -208.5q0 -70 -23.5 -134t-67.5 -114.5t-113.5 -80.5t-155.5 -30q-133 0 -217.5 80.5t-84.5 208.5zM285 1081q0 -108 69.5 -174.5t184.5 -66.5q98 0 169 44t103.5 111t32.5 148q0 106 -69 173.5t-179 67.5
q-141 0 -226 -83t-85 -220zM1038 287q0 161 100.5 259.5t266.5 98.5q128 0 212.5 -80.5t84.5 -208.5q0 -70 -24 -134t-68.5 -114t-114 -80t-154.5 -30q-135 0 -219 80.5t-84 208.5zM1090 291q0 -108 69 -175t184 -67q74 0 133.5 25t96.5 68t56.5 96.5t19.5 113.5
q0 106 -69 174t-177 68q-142 0 -227.5 -83t-85.5 -220zM412 10l1079 1442l37 -27l-1079 -1443z" />
    <glyph glyph-name="ampersand" unicode="&#x26;" horiz-adv-x="1497" 
d="M1278 0l-150 246q-232 -264 -516 -264q-169 0 -272.5 96.5t-103.5 251.5q0 78 30.5 153.5t75.5 133.5t113.5 116.5t125.5 97.5t130 82q-32 24 -48.5 37.5t-48.5 44.5t-49 56.5t-31 63t-14 75.5q0 112 84 187t217 75q120 0 192 -66t72 -169q0 -107 -72 -178t-222 -138
l348 -567q92 121 157 274.5t95 313.5h57q-30 -172 -103.5 -339t-179.5 -296l178 -287h-65zM616 41q140 0 265 69.5t219 182.5l-357 584q-73 -45 -129 -84t-118 -94t-103 -108t-67.5 -119.5t-26.5 -135.5q0 -135 91.5 -215t225.5 -80zM580 1194q0 -35 12.5 -69t28.5 -57
t45 -50t46 -40.5t48 -35.5q57 24 99 46.5t83.5 54.5t63.5 72.5t22 88.5q0 86 -55.5 141.5t-153.5 55.5q-106 0 -172.5 -59t-66.5 -148z" />
    <glyph glyph-name="quotesingle" unicode="'" horiz-adv-x="512" 
d="M410 1034l71 400h58l-72 -400h-57z" />
    <glyph glyph-name="parenleft" unicode="(" horiz-adv-x="534" 
d="M465 -387l-41 -35q-143 146 -212 332.5t-69 376.5q0 108 15.5 205t55.5 206t105 210.5t169.5 213.5t244.5 221l33 -36q-166 -132 -280 -262.5t-174.5 -257.5t-85.5 -242.5t-25 -245.5q0 -190 66 -370.5t198 -315.5z" />
    <glyph glyph-name="parenright" unicode=")" horiz-adv-x="544" 
d="M-37 -422l-31 39q195 147 323.5 317.5t184.5 341.5t56 353q0 403 -263 680l43 34q145 -152 211 -336t66 -376q0 -612 -590 -1053z" />
    <glyph glyph-name="asterisk" unicode="*" horiz-adv-x="909" 
d="M608 1403q0 20 14 33.5t33 13.5q20 0 33.5 -13.5t13.5 -33.5t-13.5 -32.5t-33.5 -12.5q-19 0 -33 12.5t-14 32.5zM606 899q0 20 14 34.5t33 14.5t33 -14.5t14 -34.5q0 -19 -14 -32t-33 -13t-33 13t-14 32zM819 1276q0 20 13 34.5t32 14.5q20 0 34.5 -14.5t14.5 -34.5
q0 -19 -14.5 -33t-34.5 -14q-19 0 -32 14t-13 33zM819 1040q0 20 13 33.5t32 13.5q20 0 34.5 -13.5t14.5 -33.5t-14.5 -33.5t-34.5 -13.5q-19 0 -32 13.5t-13 33.5zM387 1040q0 20 14 33.5t33 13.5q20 0 33.5 -13.5t13.5 -33.5t-13.5 -33.5t-33.5 -13.5q-19 0 -33 13.5
t-14 33.5zM387 1276q0 20 14 34.5t33 14.5q20 0 33.5 -14.5t13.5 -34.5q0 -19 -13.5 -33t-33.5 -14q-19 0 -33 14t-14 33z" />
    <glyph glyph-name="plus" unicode="+" 
d="M279 711v53h419v422h56v-422h424v-53h-424v-426h-56v426h-419z" />
    <glyph glyph-name="comma" unicode="," horiz-adv-x="370" 
d="M139 41q0 18 12 31t33 16q14 3 31 -4q32 -7 51 -39.5t19 -79.5q0 -99 -67 -171t-161 -95l-10 31q68 20 123 76t59 135q3 55 -24 77q-6 -18 -25 -18q-20 0 -30.5 11.5t-10.5 29.5z" />
    <glyph glyph-name="hyphen" unicode="-" horiz-adv-x="833" 
d="M281 526l10 56h450l-10 -56h-450z" />
    <glyph glyph-name="period" unicode="." horiz-adv-x="331" 
d="M125 49q0 18 14.5 31.5t36.5 13.5q19 0 33 -14t14 -31q0 -21 -13.5 -36t-33.5 -15q-23 0 -37 15t-14 36z" />
    <glyph glyph-name="slash" unicode="/" horiz-adv-x="616" 
d="M-8 -408l692 1860l47 -18l-690 -1860z" />
    <glyph glyph-name="zero" unicode="0" horiz-adv-x="1185" 
d="M250 494q0 116 13 226.5t39.5 219.5t71.5 200t105.5 161t145.5 109.5t186 39.5q123 0 209.5 -66.5t127 -179t40.5 -260.5q0 -95 -8 -187.5t-26.5 -189t-47 -180.5t-73 -159t-100 -128.5t-131.5 -84.5t-165 -31q-127 0 -215.5 66.5t-130 180t-41.5 263.5zM311 494
q0 -205 86 -330t242 -125q107 0 192.5 54.5t139.5 143t90.5 208.5t51.5 244t15 257q0 203 -83.5 326t-237.5 123q-84 0 -155 -32.5t-121 -87t-89.5 -130t-63.5 -156t-39.5 -171t-21.5 -169t-6 -155.5z" />
    <glyph glyph-name="one" unicode="1" horiz-adv-x="749" 
d="M322 1196l354 252h37l-256 -1448h-58l240 1356l-289 -205z" />
    <glyph glyph-name="two" unicode="2" horiz-adv-x="1087" 
d="M115 0l8 49q267 221 362 306q487 437 532 710q5 30 5 57q0 123 -72.5 197t-204.5 74q-125 0 -223 -77.5t-143 -215.5l-47 24q43 145 158 235.5t264 90.5q165 0 247 -89.5t82 -230.5q0 -56 -19 -118.5t-47 -119t-78 -125t-91.5 -120t-110.5 -121t-113 -112t-120 -109
t-109.5 -95t-104 -86.5t-83.5 -69h754l-9 -55h-837z" />
    <glyph glyph-name="three" unicode="3" horiz-adv-x="1093" 
d="M530 -18q-149 0 -251 64t-134 196l54 24q29 -117 117.5 -171t209.5 -54q187 0 305.5 115t118.5 280q0 120 -78 194.5t-204 74.5h-125l10 57h111q143 0 249.5 103.5t106.5 262.5q0 121 -74 193t-203 72q-112 0 -200 -55t-142 -152l-45 28q58 111 163.5 174.5t228.5 63.5
q157 0 245 -87t88 -237q0 -136 -85.5 -247t-213.5 -142l-2 -4q110 -24 171 -104.5t61 -190.5q0 -131 -66 -236.5t-176 -163.5t-240 -58z" />
    <glyph glyph-name="four" unicode="4" horiz-adv-x="1081" 
d="M725 0l70 395h-670l6 35l832 1004h69l-811 -979h584l82 467h57l-82 -467h221l-10 -60h-221l-70 -395h-57z" />
    <glyph glyph-name="five" unicode="5" horiz-adv-x="1048" 
d="M377 774l203 660h600l-11 -58h-551l-163 -536q86 24 166 24q174 0 279.5 -99.5t105.5 -264.5q0 -152 -68 -271.5t-180.5 -183t-247.5 -63.5q-126 0 -230 58.5t-151 176.5l45 33q43 -103 136 -156t202 -53q188 0 310 129.5t122 318.5q0 142 -91.5 232t-258.5 90
q-96 0 -217 -37z" />
    <glyph glyph-name="six" unicode="6" horiz-adv-x="1105" 
d="M197 414q0 159 52.5 311t140 271t199 216t232 157.5t236.5 82.5l16 -51q-93 -19 -189.5 -63.5t-194 -117t-179.5 -164t-146 -214t-92 -258.5q70 133 187 211.5t266 78.5q169 0 267 -100t98 -266q0 -100 -35.5 -194.5t-98 -168t-156 -118.5t-200.5 -45q-197 0 -300 122
t-103 310zM262 498q-7 -51 -4 -95q2 -100 38 -180t113.5 -131t186.5 -51q129 0 230 68.5t151.5 172.5t50.5 220q0 139 -82.5 228t-234.5 89q-158 0 -279 -96t-170 -225z" />
    <glyph glyph-name="seven" unicode="7" horiz-adv-x="940" 
d="M305 1376l8 58h799l-4 -31l-807 -1403h-68l793 1376h-721z" />
    <glyph glyph-name="eight" unicode="8" horiz-adv-x="1204" 
d="M713 766h65q85 0 165 43t133.5 126t53.5 185q0 126 -84 199.5t-208 73.5q-94 0 -180.5 -42t-144.5 -125t-58 -188q0 -110 71 -191t187 -81zM752 709h-56q-191 0 -304 -105t-113 -270q0 -134 96 -213.5t250 -79.5q192 0 314 105t122 282q0 131 -83.5 206t-225.5 75z
M625 -18q-178 0 -294 92.5t-116 251.5q0 166 102.5 278.5t272.5 138.5v5q-90 29 -142.5 109.5t-52.5 184.5q0 174 134.5 292t320.5 118q153 0 247.5 -86.5t94.5 -230.5q0 -133 -80 -244t-229 -150v-6q111 -20 174 -101.5t63 -201.5q0 -107 -40 -193.5t-108 -142t-157 -85
t-190 -29.5z" />
    <glyph glyph-name="nine" unicode="9" horiz-adv-x="1093" 
d="M1151 999q0 -197 -68 -375.5t-184.5 -311t-275.5 -220t-338 -110.5l-15 53q142 20 275 85t244 166.5t188.5 248t101.5 317.5q-61 -123 -183 -201t-271 -78q-169 0 -268 106.5t-99 270.5q0 132 67 248t181.5 185t245.5 69q107 0 187 -38t124.5 -103.5t66 -143.5t21.5 -168
zM1083 946q5 68 0 132t-31 121.5t-64 100.5t-99 68t-137 25q-115 0 -215.5 -61t-159 -161.5t-58.5 -212.5q0 -140 85.5 -234.5t242.5 -94.5q148 0 264 92.5t172 224.5z" />
    <glyph glyph-name="colon" unicode=":" horiz-adv-x="663" 
d="M436 893q0 18 14 31.5t35 13.5q20 0 33.5 -13.5t13.5 -31.5q0 -21 -13.5 -36t-33.5 -15q-22 0 -35.5 15t-13.5 36zM287 49q0 18 14.5 31.5t36.5 13.5q19 0 33 -14t14 -31q0 -21 -13.5 -36t-33.5 -15q-23 0 -37 15t-14 36z" />
    <glyph glyph-name="semicolon" unicode=";" horiz-adv-x="665" 
d="M281 41q0 18 12 31t33 16q13 3 30 -4q32 -7 51 -39.5t19 -79.5q0 -99 -66.5 -171t-160.5 -95l-11 31q68 20 123.5 76t59.5 135q3 54 -25 77q-6 -18 -24 -18q-20 0 -30.5 11.5t-10.5 29.5zM432 893q0 18 14.5 31.5t36.5 13.5q19 0 33 -14t14 -31q0 -21 -13.5 -36
t-33.5 -15q-23 0 -37 15t-14 36z" />
    <glyph glyph-name="less" unicode="&#x3c;" 
d="M1096 199l-824 530v25l824 524v-64l-744 -473l744 -477v-65z" />
    <glyph glyph-name="equal" unicode="=" 
d="M276 541v53h902v-53h-902zM276 881v53h902v-53h-902z" />
    <glyph glyph-name="greater" unicode="&#x3e;" 
d="M1184 729l-824 -530v65l742 477l-742 473v64l824 -524v-25z" />
    <glyph glyph-name="question" unicode="?" horiz-adv-x="915" 
d="M975 1139q0 113 -74 183.5t-209 70.5q-105 0 -202.5 -47.5t-170.5 -135.5l-32 37q70 94 180.5 149.5t237.5 55.5q159 0 245 -85.5t86 -215.5q0 -91 -30.5 -163.5t-79.5 -119.5t-108 -88t-118.5 -79.5t-108.5 -81t-80 -106t-32 -142.5q-7 0 -24 -1t-25 -1q-1 67 17.5 123
t50 96.5t72 75.5t86 65t91 59.5t86.5 64t72.5 73.5t50.5 93.5t19 119.5zM342 41q0 18 14 32.5t35 14.5q18 0 32.5 -14.5t14.5 -32.5q0 -20 -14 -34.5t-33 -14.5q-21 0 -35 14t-14 35z" />
    <glyph glyph-name="at" unicode="@" horiz-adv-x="2097" 
d="M1108 -377q63 0 146 13t135 32l10 -51q-58 -21 -142 -35t-153 -14q-194 0 -356 65.5t-272 181t-171 274.5t-61 343q0 186 73.5 355.5t198.5 293t302 196.5t374 73q249 0 440 -92.5t295.5 -260.5t104.5 -387q0 -130 -36 -240t-106.5 -193t-182 -130t-253.5 -47h-59
q-44 0 -68 12q5 79 25 187l32 198q-48 -82 -86 -138.5t-100.5 -121.5t-124.5 -96q-88 -50 -172 -41q-92 10 -143 90.5t-51 214.5q0 180 74 325.5t204.5 227.5t292.5 82q77 0 126 -12.5t118 -44.5l-138 -828h72q240 0 380 147.5t140 401.5q0 203 -97 360t-275.5 243.5
t-413.5 86.5q-184 0 -349.5 -68t-284 -183t-188 -274t-69.5 -335q0 -236 100 -420t284.5 -287.5t424.5 -103.5zM1401 498l61 348q-3 1 -10 3q-87 32 -149 35q-11 1 -23 1q-223 0 -368.5 -161t-145.5 -411q0 -131 51.5 -200.5t136.5 -69.5q66 0 133.5 44t127 119t102.5 143.5
t84 148.5z" />
    <glyph glyph-name="A" unicode="A" horiz-adv-x="1413" 
d="M53 0l887 1448h43l377 -1448h-62l-137 532h-717l-325 -532h-66zM948 1358l-469 -768h666z" />
    <glyph glyph-name="B" unicode="B" horiz-adv-x="1263" 
d="M238 0l251 1434q35 0 168.5 2t196.5 2q209 0 300 -79.5t91 -223.5q0 -148 -99 -258.5t-255 -135.5l-2 -4q141 -19 217 -96.5t76 -196.5q0 -113 -44.5 -200.5t-124.5 -140.5t-183.5 -80t-227.5 -27q-63 0 -194.5 2t-169.5 2zM739 709h-315l-115 -652q28 0 139 -2t168 -2
q232 0 366 99.5t134 281.5q0 133 -95 204t-282 71zM844 1380q-177 0 -303 -4l-109 -612h320q187 0 308.5 103t121.5 257q0 128 -81.5 192t-256.5 64z" />
    <glyph glyph-name="C" unicode="C" horiz-adv-x="1345" 
d="M1327 162l23 -47q-83 -66 -210 -99.5t-243 -33.5q-193 0 -343.5 78.5t-237.5 230t-87 354.5q0 162 61 309t168 257.5t263 175.5t336 65q278 0 424 -121l-33 -43q-149 105 -387 105q-135 0 -256 -39t-213 -109t-160 -162.5t-103.5 -202.5t-35.5 -227q0 -141 46.5 -257.5
t129 -193.5t194.5 -119t242 -42q246 0 422 121z" />
    <glyph glyph-name="D" unicode="D" horiz-adv-x="1505" 
d="M238 0l251 1434h23q52 0 154 3t172 3q146 0 263 -31t196.5 -85t133 -131t77.5 -166t24 -193q0 -136 -38 -259.5t-117 -229.5t-192 -183.5t-271.5 -121.5t-346.5 -44q-57 0 -160.5 2t-158.5 2h-10zM827 1382q-69 0 -155.5 -3t-130.5 -3l-232 -1319q37 0 78 -0.5t73.5 -1
t59.5 -1t43 -1t17 -0.5q217 0 389 62.5t279.5 170.5t163.5 247t56 298q0 120 -36.5 218t-111 173.5t-200.5 117.5t-293 42z" />
    <glyph glyph-name="E" unicode="E" horiz-adv-x="1177" 
d="M238 0l251 1434h779l-8 -58h-719l-109 -618h658l-13 -58h-655l-113 -643h738l-11 -57h-798z" />
    <glyph glyph-name="F" unicode="F" horiz-adv-x="1114" 
d="M238 0l251 1434h795l-10 -58h-733l-117 -659h672l-9 -58h-671l-117 -659h-61z" />
    <glyph glyph-name="G" unicode="G" horiz-adv-x="1488" 
d="M950 606l13 58h505l-86 -486q-97 -94 -232.5 -145t-270.5 -51q-145 0 -268 49.5t-206.5 136.5t-130.5 207.5t-47 259.5q0 171 63.5 322.5t172.5 260t262.5 171.5t327.5 63q272 0 422 -135l-39 -45q-130 121 -387 121q-158 0 -298 -57t-240.5 -156t-159 -238.5
t-58.5 -298.5q0 -266 164.5 -434t421.5 -168q127 0 244 44.5t206 123.5l70 397h-449z" />
    <glyph glyph-name="H" unicode="H" horiz-adv-x="1566" 
d="M1268 0l125 702h-971l-123 -702h-61l251 1434h62l-119 -674h971l117 674h61l-252 -1434h-61z" />
    <glyph glyph-name="I" unicode="I" horiz-adv-x="587" 
d="M279 0l251 1434h62l-252 -1434h-61z" />
    <glyph glyph-name="J" unicode="J" horiz-adv-x="716" 
d="M731 1434l-199 -1127q-28 -157 -102 -241t-215 -84q-105 0 -172 59l31 45q65 -45 145 -45q63 0 109 22t74.5 63t44.5 85t26 102l199 1121h59z" />
    <glyph glyph-name="K" unicode="K" horiz-adv-x="1277" 
d="M1438 1434l-840 -693l602 -741h-74l-602 748l828 686h86zM238 0l251 1434h62l-252 -1434h-61z" />
    <glyph glyph-name="L" unicode="L" horiz-adv-x="1134" 
d="M238 0l251 1434h62l-242 -1377h797l-10 -57h-858z" />
    <glyph glyph-name="M" unicode="M" horiz-adv-x="1796" 
d="M238 0l251 1434h56l461 -830l739 830h65l-251 -1434h-60l236 1337l-736 -823h-10l-457 823l-233 -1337h-61z" />
    <glyph glyph-name="N" unicode="N" horiz-adv-x="1636" 
d="M1399 0h-49l-820 1333l-235 -1333h-57l251 1434h50l819 -1336l233 1336h60z" />
    <glyph glyph-name="O" unicode="O" horiz-adv-x="1652" 
d="M231 645q0 171 59.5 321t163 256.5t250 168t314.5 61.5q304 0 479.5 -177t175.5 -468q0 -236 -98 -424t-275 -294.5t-401 -106.5q-162 0 -289.5 48.5t-210 136.5t-125.5 209.5t-43 268.5zM295 649q0 -285 163 -446.5t445 -161.5q146 0 275.5 54.5t225 151.5t151 239.5
t55.5 310.5q0 271 -160 433.5t-438 162.5q-144 0 -274.5 -53.5t-228.5 -148t-156 -235.5t-58 -307z" />
    <glyph glyph-name="P" unicode="P" horiz-adv-x="1177" 
d="M299 0h-61l251 1434q42 0 166.5 2t155.5 2q97 0 174 -19.5t125 -52.5t80 -78.5t44.5 -93.5t12.5 -102q0 -79 -20.5 -151t-65.5 -137t-111.5 -112.5t-165.5 -75.5t-220 -28q-118 0 -261 10zM807 1380q-130 0 -266 -4l-127 -721q143 -10 258 -10q126 0 225.5 34.5t161 95.5
t93.5 139t32 169q0 133 -91.5 215t-285.5 82z" />
    <glyph glyph-name="Q" unicode="Q" horiz-adv-x="1652" 
d="M1450 0h-70l-65 98q-179 -116 -420 -116q-314 0 -489 179t-175 484q0 173 60.5 324t165 256.5t249 166t308.5 60.5q309 0 484 -177.5t175 -469.5q0 -215 -81.5 -390.5t-229.5 -285.5zM295 649q0 -283 162 -445.5t446 -162.5q214 0 379 106l-115 175l45 34l117 -176
q131 101 206 261t75 358q0 271 -160.5 432.5t-437.5 161.5q-147 0 -278.5 -54.5t-228.5 -151t-153.5 -236.5t-56.5 -302z" />
    <glyph glyph-name="R" unicode="R" horiz-adv-x="1261" 
d="M299 0h-61l251 1434q44 0 171.5 2t148.5 2q424 0 424 -328q0 -190 -119 -316t-321 -157l407 -637h-72l-397 627h-321zM795 1380q-118 0 -254 -4l-123 -692h268q131 0 239.5 48t176 144t67.5 224q0 280 -374 280z" />
    <glyph glyph-name="S" unicode="S" horiz-adv-x="1118" 
d="M1006 381q0 56 -23 103t-61.5 81t-89 63t-106 55t-111 52.5t-106 59.5t-89 71.5t-61.5 92.5t-23 120q0 75 31 141.5t88.5 118.5t149 82.5t204.5 30.5q112 0 207 -40t151 -105l-39 -45q-118 131 -325 131q-185 0 -293.5 -86t-108.5 -224q0 -74 37 -132.5t96 -97t130 -73
t142 -69.5t130 -76t96 -103t37 -141q0 -188 -127.5 -298.5t-325.5 -110.5q-154 0 -271.5 60t-170.5 161l41 39q55 -91 157.5 -146t241.5 -55q60 0 116 13t106.5 40.5t88 67t59.5 96t22 123.5z" />
    <glyph glyph-name="T" unicode="T" horiz-adv-x="1228" 
d="M264 1376l10 58h1170l-10 -58h-555l-244 -1376h-60l244 1376h-555z" />
    <glyph glyph-name="U" unicode="U" horiz-adv-x="1538" 
d="M1573 1434l-146 -832q-56 -313 -210.5 -464.5t-430.5 -151.5q-230 0 -354 119.5t-123 347.5q3 85 17 163l143 818h61l-143 -809q-14 -83 -14 -164q-1 -210 111 -314t313 -104q250 0 386 145.5t185 427.5l145 818h60z" />
    <glyph glyph-name="V" unicode="V" horiz-adv-x="1343" 
d="M1563 1434l-869 -1448h-39l-370 1448h61l344 -1350l807 1350h66z" />
    <glyph glyph-name="W" unicode="W" horiz-adv-x="1941" 
d="M2157 1434l-672 -1434h-47l-230 1325l-684 -1325h-47l-190 1434h63l174 -1319l676 1319h51l228 -1317l616 1317h62z" />
    <glyph glyph-name="X" unicode="X" horiz-adv-x="1329" 
d="M1499 1434l-665 -705l432 -729h-68l-410 684l-647 -684h-78l693 731l-418 703h70l393 -658l620 658h78z" />
    <glyph glyph-name="Y" unicode="Y" horiz-adv-x="1175" 
d="M1378 1434l-659 -797l-111 -637h-59l110 637l-372 797h63l346 -740l611 740h71z" />
    <glyph glyph-name="Z" unicode="Z" horiz-adv-x="1323" 
d="M389 1376l8 58h1053l-6 -33l-1237 -1344h1022l-10 -57h-1115l7 33l1237 1343h-959z" />
    <glyph glyph-name="bracketleft" unicode="[" horiz-adv-x="565" 
d="M51 -410l307 1741h437l-11 -55h-378l-287 -1630h379l-11 -56h-436z" />
    <glyph glyph-name="backslash" unicode="\" horiz-adv-x="616" 
d="M109 1452l692 -1860l-49 -18l-691 1860z" />
    <glyph glyph-name="bracketright" unicode="]" horiz-adv-x="565" 
d="M678 1331l-307 -1741h-437l9 56h379l288 1630h-379l11 55h436z" />
    <glyph glyph-name="asciicircum" unicode="^" horiz-adv-x="962" 
d="M266 922l352 528h35l351 -528h-66l-301 462l-307 -462h-64z" />
    <glyph glyph-name="underscore" unicode="_" horiz-adv-x="544" 
d="M0 -410v58h545v-58h-545z" />
    <glyph glyph-name="grave" unicode="`" horiz-adv-x="514" 
d="M352 1130l-229 289l45 35l223 -299z" />
    <glyph glyph-name="a" unicode="a" horiz-adv-x="985" 
d="M422 43q36 0 74.5 17.5t71.5 43.5t71 68.5t65.5 79t62 89t53.5 83.5t46 78l58 344q-55 22 -94 30.5t-93 8.5q-103 0 -195.5 -41.5t-162 -115t-110 -181.5t-40.5 -234q0 -122 48 -196t145 -74zM840 0h-58l66 397q-21 -35 -32.5 -54.5t-36 -58t-42 -62t-45 -58t-51 -56.5
t-54 -47t-59 -39.5t-62 -24t-67.5 -9.5q-112 0 -170.5 87.5t-58.5 227.5q0 137 45 256.5t121.5 202.5t180.5 130.5t220 47.5q131 0 248 -57z" />
    <glyph glyph-name="b" unicode="b" horiz-adv-x="1007" 
d="M471 1430l-154 -875q39 64 85.5 125.5t106 123t127.5 99t130 37.5q64 0 111 -28.5t71.5 -77t35.5 -101t11 -112.5q0 -174 -71 -320t-199 -232.5t-285 -86.5q-77 0 -147 22t-117 59l240 1367h55zM299 455l-63 -359q93 -59 208 -59q140 0 253 77t176 208t63 288
q0 122 -45.5 198.5t-145.5 76.5q-56 0 -121.5 -42t-125.5 -110t-109.5 -138t-89.5 -140z" />
    <glyph glyph-name="c" unicode="c" horiz-adv-x="845" 
d="M786 158l29 -37q-150 -139 -323 -139q-152 0 -237 101.5t-85 262.5q0 156 65 292t181.5 219t257.5 83q121 0 205 -37l-21 -51q-91 33 -188 33q-122 0 -224 -74.5t-159.5 -196t-57.5 -258.5q0 -147 73 -233t198 -86q59 0 114.5 19.5t89 41.5t82.5 60z" />
    <glyph glyph-name="d" unicode="d" horiz-adv-x="1007" 
d="M737 940q108 0 207 -47l96 541h56l-250 -1434h-55l69 403q-25 -42 -43.5 -71.5t-50.5 -76.5t-59.5 -80t-65.5 -71t-73.5 -61.5t-79 -39t-85.5 -15.5q-113 0 -173 87.5t-60 227.5q0 137 45.5 256.5t122.5 202.5t181 130.5t218 47.5zM733 885q-100 0 -192 -41.5
t-161.5 -115t-111 -181.5t-41.5 -234q0 -120 49 -195t140 -75q56 0 121 41t122 105t107 139.5t83.5 148.5t45.5 127l39 232q-96 49 -201 49z" />
    <glyph glyph-name="e" unicode="e" horiz-adv-x="903" 
d="M829 174l29 -37q-165 -155 -362 -155q-82 0 -146 31t-102.5 84t-58 117.5t-19.5 137.5q0 112 39 219t105 188.5t160 131t198 49.5q123 0 190.5 -55.5t67.5 -155.5q0 -86 -54.5 -151.5t-151 -104t-221 -56.5t-272.5 -16q-2 -12 -2 -36q-2 -143 69.5 -235.5t205.5 -92.5
q172 0 325 137zM668 885q-159 0 -280.5 -128t-149.5 -311q174 -3 311 23t224 86.5t91 149.5q3 55 -16 92q-37 88 -180 88z" />
    <glyph glyph-name="f" unicode="f" horiz-adv-x="499" 
d="M162 -45l196 1116q65 381 336 381q124 0 183 -45l-31 -47q-56 37 -152 37q-123 0 -188 -87.5t-92 -248.5l-25 -139h250l-10 -56h-250l-162 -915q-10 -60 -23.5 -109.5t-37.5 -101t-55 -86.5t-77.5 -57.5t-103.5 -22.5q-82 0 -149 41l26 47q64 -33 123 -33q57 0 100.5 28
t71 78.5t43 102t27.5 117.5z" />
    <glyph glyph-name="g" unicode="g" horiz-adv-x="874" 
d="M358 207q0 -43 25 -68q27 4 84 4q160 0 258 -67.5t98 -184.5q0 -149 -127 -233t-327 -84q-103 0 -184.5 23.5t-136 81.5t-54.5 145q0 121 94.5 202t247.5 105q-23 33 -23 72q0 66 54 114q-72 32 -113 98.5t-41 151.5q0 99 40.5 182.5t125.5 137t199 53.5q117 0 198 -74
l266 72l-6 -49l-229 -64q49 -71 49 -163q0 -162 -101.5 -265.5t-260.5 -103.5q-49 0 -91 10q-45 -40 -45 -96zM375 -377q173 0 284 70t111 192q0 96 -87 152.5t-224 56.5q-176 0 -294 -71.5t-118 -192.5q0 -71 48.5 -119.5t120 -68t159.5 -19.5zM268 573q0 -98 62 -164.5
t172 -66.5q133 0 217 90t84 223q0 41 -13 80t-39.5 74.5t-73.5 57.5t-108 22q-139 0 -220 -92.5t-81 -223.5z" />
    <glyph glyph-name="h" unicode="h" horiz-adv-x="1001" 
d="M766 885q-194 0 -465 -449l-76 -436h-57l250 1434h55l-156 -899q41 67 85.5 126.5t107 128t133.5 109.5t137 41q93 0 137 -56t44 -153q0 -37 -21 -184l-109 -547h-55l107 535q20 114 20 178q-2 81 -31 126.5t-106 45.5z" />
    <glyph glyph-name="i" unicode="i" horiz-adv-x="417" 
d="M182 0l160 922h57l-161 -922h-56zM389 1288q0 19 14 32t33 13q16 0 29.5 -13.5t13.5 -31.5q0 -19 -13.5 -33t-29.5 -14q-19 0 -33 13.5t-14 33.5z" />
    <glyph glyph-name="j" unicode="j" horiz-adv-x="415" 
d="M406 922l-175 -990q-62 -358 -307 -358q-94 0 -153 47l26 47q56 -39 127 -39q197 0 250 305l174 988h58zM393 1288q0 19 14 32t33 13q18 0 31.5 -13.5t13.5 -31.5q0 -20 -13.5 -33.5t-31.5 -13.5q-19 0 -33 13.5t-14 33.5z" />
    <glyph glyph-name="k" unicode="k" horiz-adv-x="851" 
d="M979 922l-520 -445l401 -477h-76l-397 481l514 441h78zM168 0l250 1434h55l-248 -1434h-57z" />
    <glyph glyph-name="l" unicode="l" horiz-adv-x="512" 
d="M211 254l209 1180h55l-207 -1174q-10 -48 -10 -90q0 -61 26 -92t85 -31q57 0 125 37l10 -47q-75 -45 -152 -45q-149 0 -149 166q0 55 8 96z" />
    <glyph glyph-name="m" unicode="m" horiz-adv-x="1488" 
d="M168 0l160 922h57l-68 -387q26 48 53.5 92.5t72 104.5t88 103.5t98.5 74t106 30.5q48 0 83.5 -18.5t52.5 -48t24.5 -58t7.5 -57.5q0 -95 -20 -189q39 67 75 119t90 116t113.5 100t118.5 36q49 0 84 -18.5t52 -48.5t24.5 -60t7.5 -61q0 -98 -31 -234l-102 -518h-60
l103 510l10 48q9 47 15.5 92t5.5 73q0 70 -27 116t-90 46q-45 0 -95.5 -31.5t-89 -71.5t-87 -109t-74 -110.5t-64.5 -109.5l-88 -453h-57l98 510q31 142 31 217q-2 68 -29 113t-90 45q-174 0 -428 -463l-74 -422h-57z" />
    <glyph glyph-name="n" unicode="n" horiz-adv-x="1011" 
d="M328 922h57l-68 -387q40 64 87 126t110.5 129t135.5 108.5t138 41.5q94 0 138.5 -56t44.5 -153q0 -61 -21 -184l-106 -547h-58l107 535q22 125 20 178q-2 80 -32 126t-107 46q-46 0 -100.5 -30.5t-104 -76.5t-101.5 -108.5t-91.5 -119t-75.5 -114.5l-76 -436h-57z" />
    <glyph glyph-name="o" unicode="o" horiz-adv-x="983" 
d="M498 -18q-160 0 -244 105t-84 278q0 81 17.5 161t55.5 155.5t92 132.5t134.5 91.5t175.5 34.5q83 0 146.5 -31t101 -84t56 -118.5t18.5 -141.5q0 -163 -55 -294.5t-162.5 -210t-251.5 -78.5zM504 37q77 0 143 27t113.5 74.5t80.5 112.5t49.5 142t16.5 162
q0 151 -67.5 240.5t-200.5 89.5q-81 0 -149.5 -29t-116 -78.5t-80.5 -115.5t-48.5 -139t-15.5 -150q0 -156 70.5 -246t204.5 -90z" />
    <glyph glyph-name="p" unicode="p" horiz-adv-x="1019" 
d="M152 -410h-56l234 1332h55l-70 -387q12 17 44 64t53 75.5t56 73t67 72.5t71 56.5t82.5 42t89.5 13.5q63 0 109.5 -29t70.5 -77t35 -99t11 -106q0 -173 -72 -319.5t-200 -233t-283 -86.5q-113 0 -218 59zM299 434l-57 -332q97 -65 211 -65q139 0 252.5 77t177 208
t63.5 288q0 119 -44 193t-136 74q-38 0 -77 -14.5t-77.5 -46t-70 -61.5t-70 -80t-61 -81t-60 -85.5t-51.5 -74.5z" />
    <glyph glyph-name="q" unicode="q" horiz-adv-x="1007" 
d="M719 -410l143 816q-37 -62 -63.5 -103.5t-76.5 -107t-94.5 -106t-105 -71t-119.5 -30.5q-113 0 -173 87.5t-60 227.5q0 137 45.5 256.5t123 202.5t182 130.5t220.5 47.5q142 0 258 -72l-225 -1278h-55zM420 43q34 0 69 12t69 38t63.5 52t63 69t55.5 72.5t53.5 80t46 73.5
t41.5 70l57 324q-97 51 -201 51q-102 0 -194.5 -41.5t-162 -115t-110.5 -181.5t-41 -234q0 -122 47.5 -196t143.5 -74z" />
    <glyph glyph-name="r" unicode="r" horiz-adv-x="632" 
d="M328 922h57l-59 -340q32 62 72 121t89 114t105 89t108 34t91 -20l-29 -54q-43 19 -70 19q-41 0 -87 -28.5t-86 -71t-82 -102t-72 -110t-60 -106.5l-80 -467h-57z" />
    <glyph glyph-name="s" unicode="s" horiz-adv-x="675" 
d="M584 231q0 53 -27 95.5t-67 68.5t-87.5 56.5t-87.5 59t-67 77t-27 110.5q0 102 77.5 172t215.5 70q72 0 138.5 -14.5t105.5 -40.5l-29 -45q-82 47 -213 47q-110 0 -172.5 -51t-62.5 -134q0 -62 37.5 -108.5t90.5 -78.5t106 -65.5t90.5 -87.5t37.5 -126q0 -116 -84.5 -185
t-222.5 -69q-164 0 -273 73l31 47q110 -67 242 -67q105 0 176.5 53.5t71.5 142.5z" />
    <glyph glyph-name="t" unicode="t" horiz-adv-x="616" 
d="M221 350l148 828h57l-47 -256h340l-8 -56h-340l-90 -497q-15 -81 -15 -133q-1 -95 41 -143t123 -48q78 0 154 49l18 -47q-88 -57 -186 -57q-104 0 -156.5 61t-50.5 172q0 65 12 127z" />
    <glyph glyph-name="u" unicode="u" horiz-adv-x="980" 
d="M391 37q59 0 127 46t131.5 122.5t109.5 142.5t89 139l76 435h57l-162 -922h-55l67 387q-251 -405 -454 -405q-182 0 -182 208q0 57 22 185l115 547h55l-113 -535q-22 -105 -22 -178q2 -81 31.5 -126.5t107.5 -45.5z" />
    <glyph glyph-name="v" unicode="v" horiz-adv-x="792" 
d="M848 922q-35 -278 -165.5 -529t-301.5 -407h-35q-57 449 -199 936h60q140 -473 178 -861q163 175 267.5 397.5t133.5 463.5h62z" />
    <glyph glyph-name="w" unicode="w" horiz-adv-x="1284" 
d="M1280 922h59q-33 -285 -152.5 -535t-285.5 -401h-35q-36 350 -114 667q-56 -206 -156 -378.5t-225 -288.5h-35q-52 465 -189 936h60q124 -422 168 -861q256 273 354 695q-40 131 -51 166h59q127 -432 170 -861q156 170 250.5 392t122.5 469z" />
    <glyph glyph-name="x" unicode="x" horiz-adv-x="815" 
d="M928 922l-400 -447l263 -475h-64l-235 432l-390 -432h-71l426 475l-248 447h67l220 -406l358 406h74z" />
    <glyph glyph-name="y" unicode="y" horiz-adv-x="796" 
d="M121 -354q49 0 93 25.5t82.5 75.5t67 96.5t65.5 114.5q11 21 17 32q-46 215 -126.5 463t-176.5 469h62q82 -190 159.5 -426t122.5 -439q172 329 316 865h63q-396 -1332 -745 -1332q-70 0 -135 43l28 45q53 -32 107 -32z" />
    <glyph glyph-name="z" unicode="z" horiz-adv-x="792" 
d="M233 866l7 56h653l-4 -33l-739 -834h587l-8 -55h-674l6 33l736 833h-564z" />
    <glyph glyph-name="braceleft" unicode="{" horiz-adv-x="602" 
d="M197 -166l71 399q15 95 -22 148.5t-127 52.5l8 53q31 0 62.5 10.5t65 34t59.5 70t38 111.5l64 366q23 125 84.5 188.5t181.5 63.5h115l-11 -55h-102q-94 0 -143 -50t-70 -161l-65 -371q-17 -99 -67.5 -160t-125.5 -75q67 -11 98 -69t13 -163l-66 -374q-20 -107 18 -157
t134 -50h90l-11 -56h-106q-231 0 -186 244z" />
    <glyph glyph-name="bar" unicode="|" horiz-adv-x="645" 
d="M416 0v1434h59v-1434h-59z" />
    <glyph glyph-name="braceright" unicode="}" horiz-adv-x="602" 
d="M420 229l-72 -395q-22 -126 -88.5 -185t-183.5 -59h-107l11 56h90q96 0 150 49.5t73 157.5l72 395q35 200 190 219q-145 41 -111 238l64 360q19 110 -13 160.5t-126 50.5h-103l10 55h113q121 0 161 -64.5t17 -187.5l-63 -366q-16 -99 15.5 -158.5t129.5 -67.5l-10 -53
q-93 0 -148.5 -53.5t-70.5 -151.5z" />
    <glyph glyph-name="asciitilde" unicode="~" 
d="M285 686l-33 39q123 117 248 117q56 0 122 -24t116.5 -52t115 -52t117.5 -24q97 0 194 94l27 -41q-112 -106 -223 -106q-55 0 -120.5 24t-116.5 53t-116 53t-118 24q-105 0 -213 -105z" />
    <glyph glyph-name="uni00A0" unicode="&#xa0;" horiz-adv-x="497" 
 />
    <glyph glyph-name="exclamdown" unicode="&#xa1;" horiz-adv-x="634" 
d="M453 580l-191 -1076h-59l188 1076h62zM524 889q0 -18 -14 -32.5t-35 -14.5q-20 0 -33.5 14.5t-13.5 32.5q0 21 13.5 36t33.5 15q21 0 35 -15t14 -36z" />
    <glyph glyph-name="cent" unicode="&#xa2;" 
d="M586 -246l41 234q-166 13 -265.5 127.5t-99.5 281.5q0 238 146.5 387t384.5 154l41 225h57l-39 -225q195 -13 287 -113l-35 -43q-94 103 -293 103q-215 0 -351 -128.5t-136 -350.5q0 -165 97.5 -267t258.5 -102q195 0 334 104l24 -45q-133 -109 -354 -112l-41 -230h-57z
" />
    <glyph glyph-name="sterling" unicode="&#xa3;" 
d="M281 594l8 49h157q-5 29 -20 90.5t-24 118.5t-9 115q0 136 56 244.5t169 173.5t265 65q249 0 352 -147l-39 -39q-103 129 -315 129q-191 0 -307.5 -119t-116.5 -305q0 -75 26.5 -193.5t28.5 -132.5h371l-11 -49h-358v-53q-9 -245 -170 -396q53 10 94 7q57 -4 130 -30
t146 -49.5t134 -23.5q124 0 252 103l24 -48q-137 -112 -280 -112q-68 0 -148.5 26.5t-159.5 53t-145 26.5q-124 0 -262 -112l-25 47q39 31 107.5 72t103.5 73q130 160 136 350q0 12 1 35.5t1 30.5h-172z" />
    <glyph glyph-name="currency" unicode="&#xa4;" 
d="M385 1024l-190 197l38 36l191 -196q121 114 291 117q51 0 76 -4q144 -13 247 -113l213 207l35 -39l-209 -207q103 -131 103 -295q0 -89 -31 -173t-86 -148l190 -199l-39 -37l-192 199q-125 -119 -307 -119q-188 0 -312 117l-215 -207l-34 39l215 211q-87 100 -99 241
q-5 30 -2 70q6 180 117 303zM322 705q0 -109 45 -200t136 -147.5t212 -56.5q122 0 217.5 61t143.5 156.5t48 206.5q0 109 -45.5 199t-136.5 146t-211 56q-121 0 -216 -59t-144 -154.5t-49 -207.5z" />
    <glyph glyph-name="yen" unicode="&#xa5;" 
d="M260 635l8 49h391l-344 750h64l338 -740l602 740h70l-611 -750h389l-8 -49h-420l-49 -283h420l-8 -51h-420l-53 -301h-62l54 301h-420l10 51h418l51 283h-420z" />
    <glyph glyph-name="brokenbar" unicode="&#xa6;" horiz-adv-x="645" 
d="M475 901h-59v533h59v-533zM475 0h-59v532h59v-532z" />
    <glyph glyph-name="section" unicode="&#xa7;" horiz-adv-x="1073" 
d="M240 467q0 170 103.5 281t285.5 126q-72 33 -122 95t-50 145q0 137 99 228.5t243 91.5q93 0 148.5 -29.5t96.5 -89.5l-40 -37q-38 53 -81.5 76.5t-123.5 23.5q-120 0 -202.5 -78t-82.5 -192q0 -82 58 -142t153 -89q135 -22 212 -106.5t77 -217.5q0 -162 -106.5 -280.5
t-284.5 -127.5q74 -34 122 -99t48 -146q0 -130 -96.5 -220t-243.5 -90q-56 0 -99.5 11t-72 31t-44.5 37t-30 40l39 37q18 -23 29 -35t36 -30t60.5 -26.5t83.5 -8.5q118 0 199 75.5t81 182.5q0 81 -55 145t-145 96q-130 11 -212.5 99t-82.5 223zM299 469q0 -122 77.5 -198
t207.5 -76q172 0 271 101t99 249q0 128 -77.5 204t-210.5 76q-164 0 -265.5 -101.5t-101.5 -254.5z" />
    <glyph glyph-name="dieresis" unicode="&#xa8;" horiz-adv-x="768" 
d="M123 1282q0 17 13 29t32 12q17 0 30 -12t13 -29q0 -21 -12.5 -34t-30.5 -13q-19 0 -32 13t-13 34zM557 1282q0 17 13 29t32 12q17 0 30 -12t13 -29q0 -21 -12.5 -34t-30.5 -13q-19 0 -32 13t-13 34z" />
    <glyph glyph-name="copyright" unicode="&#xa9;" horiz-adv-x="2084" 
d="M244 453q0 180 67 342.5t182.5 280.5t280 187.5t350.5 69.5t350.5 -69.5t280.5 -187.5t183 -280.5t67 -342.5t-67 -342.5t-183 -281t-280.5 -188t-350.5 -69.5t-350.5 69.5t-280 188t-182.5 281t-67 342.5zM295 453q0 -169 63 -322t172 -264.5t264 -177.5t330 -66
q234 0 425 112t298 302t107 416q0 169 -63 322t-172.5 264.5t-264.5 177t-330 65.5t-330 -65.5t-264 -177t-172 -264.5t-63 -322zM1452 170l29 -39q-57 -71 -148.5 -110t-189.5 -39q-213 0 -348.5 131.5t-135.5 347.5q0 201 130.5 340t322.5 139q229 0 350 -113l-28 -47
q-116 105 -314 105q-165 0 -283 -122.5t-118 -301.5q0 -192 120 -308t306 -116q93 0 173.5 36.5t133.5 96.5z" />
    <glyph glyph-name="ordfeminine" unicode="&#xaa;" horiz-adv-x="808" 
d="M430 1241l-20 37q46 33 105.5 51.5t113.5 18.5q123 0 181 -63t36 -179l-68 -387h-51l16 102q-112 -108 -262 -108q-97 0 -152 48.5t-55 123.5q0 104 82 161.5t201 57.5q136 0 227 -60l9 50q16 99 -22 152.5t-146 53.5q-103 0 -195 -59zM496 760q148 0 258 110l22 136
q-81 57 -213 57q-93 0 -162 -44.5t-69 -127.5q0 -59 45.5 -95t118.5 -36z" />
    <glyph glyph-name="guillemotleft" unicode="&#xab;" horiz-adv-x="993" 
d="M489 88l-286 426l2 6l424 412l37 -39l-398 -383l264 -389zM817 88l-287 426l2 6l424 412l37 -39l-397 -383l264 -389z" />
    <glyph glyph-name="logicalnot" unicode="&#xac;" 
d="M260 711v53h911v-322h-53v269h-858z" />
    <glyph glyph-name="uni00AD" unicode="&#xad;" horiz-adv-x="833" 
d="M281 526l10 56h450l-10 -56h-450z" />
    <glyph glyph-name="registered" unicode="&#xae;" horiz-adv-x="1128" 
d="M270 1016q0 186 131 316t318 130q121 0 223.5 -59.5t162.5 -162t60 -224.5t-60 -225.5t-162.5 -163.5t-223.5 -60q-187 0 -318 131.5t-131 317.5zM319 1016q0 -164 117 -281t281 -117t280.5 117t116.5 281t-116.5 280.5t-280.5 116.5t-281 -116.5t-117 -280.5zM600 737
h-45v574h143q110 0 156.5 -45t46.5 -117q0 -57 -39 -102t-104 -60l196 -250h-57l-190 244h-107v-244zM696 1274h-96v-256h109q57 0 102 36.5t45 94.5q0 59 -41.5 92t-118.5 33z" />
    <glyph glyph-name="macron" unicode="&#xaf;" horiz-adv-x="741" 
d="M119 1278l8 51h496l-9 -51h-495z" />
    <glyph glyph-name="degree" unicode="&#xb0;" horiz-adv-x="794" 
d="M305 1167q0 115 81.5 197t197.5 82q117 0 198.5 -80t81.5 -197t-81.5 -199.5t-198.5 -82.5q-116 0 -197.5 81.5t-81.5 198.5zM358 1167q0 -94 67 -160.5t161 -66.5t160.5 66.5t66.5 160.5t-66.5 161t-160.5 67t-161 -67t-67 -161z" />
    <glyph glyph-name="plusminus" unicode="&#xb1;" 
d="M272 862v53h420v420h56v-420h426v-53h-426v-313h-56v313h-420zM272 369v51h902v-51h-902z" />
    <glyph glyph-name="twosuperior" unicode="&#xb2;" horiz-adv-x="675" 
d="M213 717l8 41q12 8 66.5 42.5t82 53t82 56.5t86 65t73 67t64.5 73t39.5 72t16.5 75q0 60 -39.5 96.5t-120.5 36.5q-69 0 -123 -36t-81 -104l-43 15q23 77 93 124.5t158 47.5q105 0 158 -48.5t53 -125.5q0 -61 -38.5 -128t-91.5 -119.5t-127 -107.5t-126 -87t-106 -62h444
l-8 -47h-520z" />
    <glyph glyph-name="threesuperior" unicode="&#xb3;" horiz-adv-x="684" 
d="M471 707q-203 0 -248 133l37 26q41 -112 213 -112q103 0 163 49.5t60 130.5q0 60 -42.5 93.5t-121.5 33.5h-77l8 43h67q87 0 141 48.5t54 119.5q0 125 -162 125q-137 0 -207 -107l-28 29q35 60 98 91.5t145 31.5q102 0 157.5 -41.5t55.5 -122.5q0 -66 -48 -121t-120 -70
v-2q64 -10 100 -51.5t36 -97.5q0 -106 -78 -167.5t-203 -61.5z" />
    <glyph glyph-name="acute" unicode="&#xb4;" horiz-adv-x="512" 
d="M389 1419l-229 -289l-37 25l223 299z" />
    <glyph glyph-name="mu" unicode="&#xb5;" horiz-adv-x="1124" 
d="M1112 922l-164 -922h-57l29 158q-75 -75 -181.5 -125.5t-212.5 -50.5q-125 0 -193 49.5t-85 150.5l-105 -592h-57l236 1332h57l-90 -510q-34 -190 27.5 -282.5t230.5 -92.5q105 0 213 56t170 124l125 705h57z" />
    <glyph glyph-name="mu" unicode="&#x3bc;" horiz-adv-x="1124" 
d="M1112 922l-164 -922h-57l29 158q-75 -75 -181.5 -125.5t-212.5 -50.5q-125 0 -193 49.5t-85 150.5l-105 -592h-57l236 1332h57l-90 -510q-34 -190 27.5 -282.5t230.5 -92.5q105 0 213 56t170 124l125 705h57z" />
    <glyph glyph-name="paragraph" unicode="&#xb6;" horiz-adv-x="854" 
d="M238 985q0 210 110 329.5t305 119.5h246v-56h-192v-1466q0 -164 -61.5 -251t-209.5 -87q-108 0 -182 59l27 45q65 -49 151 -49q54 0 93.5 15t62.5 39.5t37 62.5t19 77t5 89v627q-180 2 -295.5 121.5t-115.5 324.5z" />
    <glyph glyph-name="periodcentered" unicode="&#xb7;" horiz-adv-x="497" 
d="M307 604q0 18 14.5 31.5t36.5 13.5q19 0 33.5 -14t14.5 -31q0 -21 -14 -36t-34 -15q-23 0 -37 15t-14 36z" />
    <glyph glyph-name="cedilla" unicode="&#xb8;" horiz-adv-x="653" 
d="M106 -362l25 32q61 -41 148 -41q80 0 132 35t52 94q0 92 -152 92h-12l29 150h37l-21 -115q176 -8 176 -125q0 -78 -67 -125t-177 -47q-94 0 -170 50z" />
    <glyph glyph-name="onesuperior" unicode="&#xb9;" horiz-adv-x="466" 
d="M295 1311l215 129h35l-129 -723h-51l114 651l-166 -98z" />
    <glyph glyph-name="ordmasculine" unicode="&#xba;" horiz-adv-x="915" 
d="M297 993q0 160 101.5 260.5t265.5 100.5q119 0 200 -72.5t90 -187.5q3 -51 -2 -95q-20 -127 -113 -209.5t-241 -82.5q-133 0 -217 80t-84 206zM348 997q0 -107 69.5 -174t184.5 -67q74 0 133 25t96 68t56.5 96.5t19.5 113.5q0 102 -62.5 168.5t-166.5 70.5q-42 3 -90 -4
q-111 -20 -175.5 -99.5t-64.5 -197.5z" />
    <glyph glyph-name="guillemotright" unicode="&#xbb;" horiz-adv-x="993" 
d="M352 932l289 -424l-2 -6l-422 -414l-35 37l393 385l-266 389zM680 932l289 -424l-2 -6l-422 -414l-35 37l393 385l-266 389z" />
    <glyph glyph-name="onequarter" unicode="&#xbc;" horiz-adv-x="1316" 
d="M330 1311l215 129h35l-129 -723h-52l115 651l-166 -98zM244 10l1079 1442l35 -27l-1077 -1443zM1096 0l32 190h-401l6 33l473 494h58l-461 -481h334l39 225h49l-37 -225h131l-8 -46h-133l-33 -190h-49z" />
    <glyph glyph-name="onehalf" unicode="&#xbd;" horiz-adv-x="1349" 
d="M330 1311l215 129h35l-129 -723h-52l115 651l-166 -98zM172 10l1079 1442l35 -27l-1077 -1443zM748 0l8 41q12 8 66.5 42.5t82 53t82 56.5t86 65t73 67t64.5 73t39.5 72t16.5 75q0 60 -39.5 96.5t-120.5 36.5q-69 0 -123.5 -35.5t-81.5 -103.5l-43 14q23 77 93 124.5
t159 47.5q105 0 158 -48.5t53 -125.5q0 -61 -38.5 -128t-92 -119.5t-127.5 -107.5t-125.5 -87t-106.5 -62h445l-8 -47h-520z" />
    <glyph glyph-name="threequarters" unicode="&#xbe;" horiz-adv-x="1394" 
d="M473 707q-203 0 -248 133l37 26q41 -112 213 -112q103 0 163 49.5t60 130.5q0 60 -42 93.5t-121 33.5h-78l8 43h67q87 0 141 48.5t54 119.5q0 125 -162 125q-137 0 -207 -107l-28 29q35 60 98 91.5t145 31.5q102 0 157.5 -41.5t55.5 -122.5q0 -66 -48 -121t-120 -70v-2
q64 -10 100 -51.5t36 -97.5q0 -106 -78 -167.5t-203 -61.5zM336 10l1079 1442l35 -27l-1077 -1443zM1174 0l32 190h-401l6 33l473 494h57l-460 -481h333l39 225h50l-37 -225h131l-8 -46h-134l-32 -190h-49z" />
    <glyph glyph-name="questiondown" unicode="&#xbf;" horiz-adv-x="931" 
d="M113 -201q0 -113 73.5 -184.5t208.5 -71.5q105 0 202 48.5t171 136.5l35 -37q-70 -94 -181.5 -149.5t-236.5 -55.5q-161 0 -247.5 85t-86.5 216q0 91 30.5 163.5t79.5 119.5t108 88t118.5 79.5t108.5 81t80 106t32 142.5q8 0 25 1t24 1q1 -67 -17.5 -123.5t-49.5 -97
t-72 -75.5t-86 -64.5t-90.5 -59t-86.5 -64t-73 -73.5t-50.5 -93.5t-18.5 -119.5zM748 895q0 -18 -14.5 -31.5t-37.5 -13.5q-18 0 -31.5 13.5t-13.5 31.5q0 20 13 35.5t32 15.5q23 0 37.5 -15t14.5 -36z" />
    <glyph glyph-name="Agrave" unicode="&#xc0;" horiz-adv-x="1413" 
d="M53 0l887 1448h43l377 -1448h-62l-137 532h-717l-325 -532h-66zM948 1358l-469 -768h666zM1047 1516l-342 182l22 47l340 -193z" />
    <glyph glyph-name="Aacute" unicode="&#xc1;" horiz-adv-x="1413" 
d="M53 0l887 1448h43l377 -1448h-62l-137 532h-717l-325 -532h-66zM948 1358l-469 -768h666zM1274 1698l-340 -182l-21 36l338 193z" />
    <glyph glyph-name="Acircumflex" unicode="&#xc2;" horiz-adv-x="1413" 
d="M53 0l887 1448h43l377 -1448h-62l-137 532h-717l-325 -532h-66zM948 1358l-469 -768h666zM1012 1743l311 -191l-29 -36l-288 178l-349 -178l-20 38l367 189h8z" />
    <glyph glyph-name="Atilde" unicode="&#xc3;" horiz-adv-x="1413" 
d="M53 0l887 1448h43l377 -1448h-62l-137 532h-717l-325 -532h-66zM948 1358l-469 -768h666zM680 1581l-23 37q79 72 166 72q63 0 170.5 -49.5t161.5 -49.5q82 0 148 72l22 -39q-77 -84 -174 -84q-57 0 -167 48t-169 48q-67 0 -135 -55z" />
    <glyph glyph-name="Adieresis" unicode="&#xc4;" horiz-adv-x="1413" 
d="M53 0l887 1448h43l377 -1448h-62l-137 532h-717l-325 -532h-66zM948 1358l-469 -768h666zM707 1630q0 19 14 31t35 12q18 0 31.5 -12.5t13.5 -30.5q0 -21 -13.5 -33t-31.5 -12q-21 0 -35 12t-14 33zM1184 1630q0 18 15 30.5t36 12.5q18 0 31.5 -12t13.5 -31
q0 -21 -13.5 -33t-31.5 -12q-21 0 -36 12t-15 33z" />
    <glyph glyph-name="Aring" unicode="&#xc5;" horiz-adv-x="1413" 
d="M760 1595q0 82 57.5 124t147.5 42q92 0 150.5 -42t58.5 -124q0 -75 -52.5 -119.5t-134.5 -50.5l373 -1425h-62l-139 532h-715l-325 -532h-66l873 1427q-74 9 -120 53t-46 115zM948 1358l-469 -768h666zM807 1595q0 -64 44.5 -97.5t115.5 -33.5q70 0 114.5 34t44.5 97
q0 64 -44 95.5t-115 31.5q-72 0 -116 -31.5t-44 -95.5z" />
    <glyph glyph-name="AE" unicode="&#xc6;" horiz-adv-x="1972" 
d="M2064 1434l-10 -58h-717l-110 -618h657l-10 -58h-657l-113 -643h739l-10 -57h-801l96 547h-561l-485 -547h-76l1276 1434h782zM1270 1339l-652 -735h521z" />
    <glyph glyph-name="Ccedilla" unicode="&#xc7;" horiz-adv-x="1345" 
d="M614 -362l27 34q64 -43 145 -43t134 35t53 94q0 92 -152 92h-12l22 136q-268 19 -435 195.5t-167 463.5q0 162 61 309t168 257.5t263 175.5t336 65q278 0 424 -121l-33 -43q-149 105 -387 105q-135 0 -256 -39t-213 -109t-160 -162.5t-103.5 -202.5t-35.5 -227
q0 -141 46.5 -257.5t129 -193.5t194.5 -119t242 -42q246 0 422 121l23 -47q-83 -66 -210 -99.5t-243 -33.5h-27l-16 -97q88 -1 133 -34t45 -89q0 -79 -67.5 -126.5t-173.5 -47.5q-96 0 -177 50z" />
    <glyph glyph-name="Egrave" unicode="&#xc8;" horiz-adv-x="1177" 
d="M238 0l251 1434h779l-8 -58h-719l-109 -618h658l-13 -58h-655l-113 -643h738l-11 -57h-798zM1020 1516l-342 182l22 47l340 -193z" />
    <glyph glyph-name="Eacute" unicode="&#xc9;" horiz-adv-x="1177" 
d="M238 0l251 1434h779l-8 -58h-719l-109 -618h658l-13 -58h-655l-113 -643h738l-11 -57h-798zM1137 1698l-340 -182l-21 36l338 193z" />
    <glyph glyph-name="Ecircumflex" unicode="&#xca;" horiz-adv-x="1177" 
d="M238 0l251 1434h779l-8 -58h-719l-109 -618h658l-13 -58h-655l-113 -643h738l-11 -57h-798zM936 1743l311 -191l-28 -36l-289 178l-348 -178l-21 38l367 189h8z" />
    <glyph glyph-name="Edieresis" unicode="&#xcb;" horiz-adv-x="1177" 
d="M238 0l251 1434h779l-8 -58h-719l-109 -618h658l-13 -58h-655l-113 -643h738l-11 -57h-798zM633 1630q0 19 14 31t35 12q18 0 31.5 -12.5t13.5 -30.5q0 -21 -13.5 -33t-31.5 -12q-21 0 -35 12t-14 33zM1110 1630q0 18 15 30.5t36 12.5q18 0 31.5 -12t13.5 -31
q0 -21 -13.5 -33t-31.5 -12q-21 0 -36 12t-15 33z" />
    <glyph glyph-name="Igrave" unicode="&#xcc;" horiz-adv-x="587" 
d="M279 0l251 1434h62l-252 -1434h-61zM635 1516l-342 182l22 47l340 -193z" />
    <glyph glyph-name="Iacute" unicode="&#xcd;" horiz-adv-x="587" 
d="M279 0l251 1434h62l-252 -1434h-61zM889 1698l-340 -182l-21 36l338 193z" />
    <glyph glyph-name="Icircumflex" unicode="&#xce;" horiz-adv-x="587" 
d="M279 0l251 1434h62l-252 -1434h-61zM614 1743l312 -191l-29 -36l-289 178l-348 -178l-20 38l366 189h8z" />
    <glyph glyph-name="Idieresis" unicode="&#xcf;" horiz-adv-x="618" 
d="M279 0l251 1434h62l-252 -1434h-61zM377 1630q0 19 14 31t35 12q18 0 32.5 -12.5t14.5 -30.5q0 -21 -14 -33t-33 -12q-21 0 -35 12t-14 33zM719 1630q0 19 14 31t35 12q18 0 31.5 -12t13.5 -31q0 -21 -13.5 -33t-31.5 -12q-21 0 -35 12t-14 33z" />
    <glyph glyph-name="Eth" unicode="&#xd0;" horiz-adv-x="1550" 
d="M137 707l10 55h269l121 672h22q51 0 153 3t171 3q150 0 269.5 -32.5t198 -88.5t130.5 -135t74 -166.5t22 -188.5q0 -140 -40.5 -265.5t-121.5 -229t-195 -179t-268.5 -117.5t-335.5 -42q-59 0 -163.5 2t-159.5 2h-10l123 707h-269zM872 1382q-67 0 -154.5 -3t-131.5 -3
l-107 -614h422l-10 -55h-422l-115 -650q37 0 78.5 -0.5t74 -1t59.5 -1t43.5 -1t17.5 -0.5q210 0 379.5 60t279.5 165t168.5 245.5t58.5 303.5q0 121 -35 218.5t-108.5 174.5t-200 119.5t-297.5 42.5z" />
    <glyph glyph-name="Ntilde" unicode="&#xd1;" horiz-adv-x="1636" 
d="M1399 0h-49l-820 1333l-235 -1333h-57l251 1434h50l819 -1336l233 1336h60zM801 1581l-23 37q79 72 166 72q63 0 170.5 -49.5t161.5 -49.5q81 0 147 72l23 -39q-77 -84 -174 -84q-57 0 -167 48t-169 48q-67 0 -135 -55z" />
    <glyph glyph-name="Ograve" unicode="&#xd2;" horiz-adv-x="1652" 
d="M231 645q0 171 59.5 321t163 256.5t250 168t314.5 61.5q304 0 479.5 -177t175.5 -468q0 -236 -98 -424t-275 -294.5t-401 -106.5q-162 0 -289.5 48.5t-210 136.5t-125.5 209.5t-43 268.5zM295 649q0 -285 163 -446.5t445 -161.5q146 0 275.5 54.5t225 151.5t151 239.5
t55.5 310.5q0 271 -160 433.5t-438 162.5q-144 0 -274.5 -53.5t-228.5 -148t-156 -235.5t-58 -307zM1260 1516l-342 182l22 47l340 -193z" />
    <glyph glyph-name="Oacute" unicode="&#xd3;" horiz-adv-x="1652" 
d="M231 645q0 171 59.5 321t163 256.5t250 168t314.5 61.5q304 0 479.5 -177t175.5 -468q0 -236 -98 -424t-275 -294.5t-401 -106.5q-162 0 -289.5 48.5t-210 136.5t-125.5 209.5t-43 268.5zM295 649q0 -285 163 -446.5t445 -161.5q146 0 275.5 54.5t225 151.5t151 239.5
t55.5 310.5q0 271 -160 433.5t-438 162.5q-144 0 -274.5 -53.5t-228.5 -148t-156 -235.5t-58 -307zM1346 1698l-340 -182l-21 36l338 193z" />
    <glyph glyph-name="Ocircumflex" unicode="&#xd4;" horiz-adv-x="1652" 
d="M231 645q0 171 59.5 321t163 256.5t250 168t314.5 61.5q304 0 479.5 -177t175.5 -468q0 -236 -98 -424t-275 -294.5t-401 -106.5q-162 0 -289.5 48.5t-210 136.5t-125.5 209.5t-43 268.5zM295 649q0 -285 163 -446.5t445 -161.5q146 0 275.5 54.5t225 151.5t151 239.5
t55.5 310.5q0 271 -160 433.5t-438 162.5q-144 0 -274.5 -53.5t-228.5 -148t-156 -235.5t-58 -307zM1137 1743l311 -191l-29 -36l-289 178l-348 -178l-20 38l366 189h9z" />
    <glyph glyph-name="Otilde" unicode="&#xd5;" horiz-adv-x="1652" 
d="M231 645q0 171 59.5 321t163 256.5t250 168t314.5 61.5q304 0 479.5 -177t175.5 -468q0 -236 -98 -424t-275 -294.5t-401 -106.5q-162 0 -289.5 48.5t-210 136.5t-125.5 209.5t-43 268.5zM295 649q0 -285 163 -446.5t445 -161.5q146 0 275.5 54.5t225 151.5t151 239.5
t55.5 310.5q0 271 -160 433.5t-438 162.5q-144 0 -274.5 -53.5t-228.5 -148t-156 -235.5t-58 -307zM805 1581l-23 37q79 72 166 72q63 0 170.5 -49.5t161.5 -49.5q81 0 147 72l23 -39q-77 -84 -174 -84q-57 0 -167 48t-169 48q-67 0 -135 -55z" />
    <glyph glyph-name="Odieresis" unicode="&#xd6;" horiz-adv-x="1652" 
d="M231 645q0 171 59.5 321t163 256.5t250 168t314.5 61.5q304 0 479.5 -177t175.5 -468q0 -236 -98 -424t-275 -294.5t-401 -106.5q-162 0 -289.5 48.5t-210 136.5t-125.5 209.5t-43 268.5zM295 649q0 -285 163 -446.5t445 -161.5q146 0 275.5 54.5t225 151.5t151 239.5
t55.5 310.5q0 271 -160 433.5t-438 162.5q-144 0 -274.5 -53.5t-228.5 -148t-156 -235.5t-58 -307zM829 1630q0 18 14.5 30.5t35.5 12.5q18 0 31.5 -12.5t13.5 -30.5q0 -21 -13.5 -33t-31.5 -12q-21 0 -35.5 12t-14.5 33zM1307 1630q0 18 15 30.5t36 12.5q18 0 31.5 -12
t13.5 -31q0 -21 -13.5 -33t-31.5 -12q-21 0 -36 12t-15 33z" />
    <glyph glyph-name="multiply" unicode="&#xd7;" 
d="M387 1036l39 37l297 -299l297 299l37 -37l-297 -299l301 -299l-37 -39l-301 301l-301 -301l-37 39l301 299z" />
    <glyph glyph-name="Oslash" unicode="&#xd8;" horiz-adv-x="1652" 
d="M201 133l135 115q-105 159 -105 397q0 171 59.5 321t163 256.5t250 168t314.5 61.5q165 0 295 -56.5t217 -158.5l133 113l35 -37l-137 -115q112 -157 112 -391q0 -236 -98 -424t-275 -294.5t-401 -106.5q-355 0 -532 225l-131 -111zM1610 797q0 204 -101 358l-1091 -907
q79 -100 202.5 -153.5t282.5 -53.5q146 0 275.5 54.5t225 151.5t151 239.5t55.5 310.5zM295 649q0 -213 94 -358l1090 905q-161 197 -467 197q-144 0 -274.5 -53.5t-228.5 -148t-156 -235.5t-58 -307z" />
    <glyph glyph-name="Ugrave" unicode="&#xd9;" horiz-adv-x="1538" 
d="M1573 1434l-146 -832q-56 -313 -210.5 -464.5t-430.5 -151.5q-230 0 -354 119.5t-123 347.5q3 85 17 163l143 818h61l-143 -809q-14 -83 -14 -164q-1 -210 111 -314t313 -104q250 0 386 145.5t185 427.5l145 818h60zM1176 1516l-342 182l22 47l340 -193z" />
    <glyph glyph-name="Uacute" unicode="&#xda;" horiz-adv-x="1538" 
d="M1573 1434l-146 -832q-56 -313 -210.5 -464.5t-430.5 -151.5q-230 0 -354 119.5t-123 347.5q3 85 17 163l143 818h61l-143 -809q-14 -83 -14 -164q-1 -210 111 -314t313 -104q250 0 386 145.5t185 427.5l145 818h60zM1292 1698l-340 -182l-20 36l338 193z" />
    <glyph glyph-name="Ucircumflex" unicode="&#xdb;" horiz-adv-x="1538" 
d="M1573 1434l-146 -832q-56 -313 -210.5 -464.5t-430.5 -151.5q-230 0 -354 119.5t-123 347.5q3 85 17 163l143 818h61l-143 -809q-14 -83 -14 -164q-1 -210 111 -314t313 -104q250 0 386 145.5t185 427.5l145 818h60zM1073 1743l311 -191l-28 -36l-289 178l-348 -178
l-21 38l367 189h8z" />
    <glyph glyph-name="Udieresis" unicode="&#xdc;" horiz-adv-x="1538" 
d="M1573 1434l-146 -832q-56 -313 -210.5 -464.5t-430.5 -151.5q-230 0 -354 119.5t-123 347.5q3 85 17 163l143 818h61l-143 -809q-14 -83 -14 -164q-1 -210 111 -314t313 -104q250 0 386 145.5t185 427.5l145 818h60zM766 1630q0 19 14 31t35 12q18 0 31.5 -12.5
t13.5 -30.5q0 -21 -13.5 -33t-31.5 -12q-21 0 -35 12t-14 33zM1243 1630q0 18 15 30.5t36 12.5q18 0 31.5 -12t13.5 -31q0 -21 -13.5 -33t-31.5 -12q-21 0 -36 12t-15 33z" />
    <glyph glyph-name="Yacute" unicode="&#xdd;" horiz-adv-x="1175" 
d="M1378 1434l-659 -797l-111 -637h-59l110 637l-372 797h63l346 -740l611 740h71zM1108 1698l-340 -182l-20 36l337 193z" />
    <glyph glyph-name="Thorn" unicode="&#xde;" horiz-adv-x="1177" 
d="M299 0h-61l251 1434h62l-39 -224q40 0 136 2t122 2q117 0 203.5 -27t136 -75.5t73 -110t23.5 -137.5q0 -102 -35.5 -190t-105 -158t-184.5 -110.5t-263 -40.5q-110 0 -253 10zM764 1157q-138 0 -264 -4l-125 -719q147 -10 250 -10q249 0 383.5 121.5t134.5 310.5
q0 138 -90.5 219.5t-288.5 81.5z" />
    <glyph glyph-name="germandbls" unicode="&#xdf;" horiz-adv-x="1019" 
d="M942 317q0 48 -18 89t-46.5 70.5t-63.5 56.5t-70 53.5t-63.5 54.5t-46.5 65t-18 80q0 52 22.5 96.5t56.5 74.5t73 62.5t73 61.5t56.5 70.5t22.5 89.5q0 68 -50.5 112t-134.5 44q-134 0 -212 -85t-109 -263l-185 -1055h-55l186 1069q33 194 125 291.5t254 97.5
q105 0 172.5 -56t67.5 -147q0 -54 -22.5 -101t-56 -78t-73 -64t-73 -60t-56 -66t-22.5 -83q0 -41 18 -76t46.5 -61.5t63.5 -52.5t69.5 -54.5t63 -60.5t46.5 -77t18 -98q0 -148 -92.5 -241.5t-234.5 -93.5q-96 0 -162.5 41t-99.5 114l32 39q64 -139 228 -139q125 0 197.5 80
t72.5 200z" />
    <glyph glyph-name="agrave" unicode="&#xe0;" horiz-adv-x="985" 
d="M422 43q36 0 74.5 17.5t71.5 43.5t71 68.5t65.5 79t62 89t53.5 83.5t46 78l58 344q-55 22 -94 30.5t-93 8.5q-103 0 -195.5 -41.5t-162 -115t-110 -181.5t-40.5 -234q0 -122 48 -196t145 -74zM840 0h-58l66 397q-21 -35 -32.5 -54.5t-36 -58t-42 -62t-45 -58t-51 -56.5
t-54 -47t-59 -39.5t-62 -24t-67.5 -9.5q-112 0 -170.5 87.5t-58.5 227.5q0 137 45 256.5t121.5 202.5t180.5 130.5t220 47.5q131 0 248 -57zM799 1130l-230 289l45 35l224 -299z" />
    <glyph glyph-name="aacute" unicode="&#xe1;" horiz-adv-x="985" 
d="M422 43q36 0 74.5 17.5t71.5 43.5t71 68.5t65.5 79t62 89t53.5 83.5t46 78l58 344q-55 22 -94 30.5t-93 8.5q-103 0 -195.5 -41.5t-162 -115t-110 -181.5t-40.5 -234q0 -122 48 -196t145 -74zM840 0h-58l66 397q-21 -35 -32.5 -54.5t-36 -58t-42 -62t-45 -58t-51 -56.5
t-54 -47t-59 -39.5t-62 -24t-67.5 -9.5q-112 0 -170.5 87.5t-58.5 227.5q0 137 45 256.5t121.5 202.5t180.5 130.5t220 47.5q131 0 248 -57zM967 1419l-230 -289l-37 25l224 299z" />
    <glyph glyph-name="acircumflex" unicode="&#xe2;" horiz-adv-x="985" 
d="M422 43q36 0 74.5 17.5t71.5 43.5t71 68.5t65.5 79t62 89t53.5 83.5t46 78l58 344q-55 22 -94 30.5t-93 8.5q-103 0 -195.5 -41.5t-162 -115t-110 -181.5t-40.5 -234q0 -122 48 -196t145 -74zM840 0h-58l66 397q-21 -35 -32.5 -54.5t-36 -58t-42 -62t-45 -58t-51 -56.5
t-54 -47t-59 -39.5t-62 -24t-67.5 -9.5q-112 0 -170.5 87.5t-58.5 227.5q0 137 45 256.5t121.5 202.5t180.5 130.5t220 47.5q131 0 248 -57zM778 1450l205 -274l-35 -31l-180 246l-266 -244l-27 35l295 268h8z" />
    <glyph glyph-name="atilde" unicode="&#xe3;" horiz-adv-x="985" 
d="M422 43q36 0 74.5 17.5t71.5 43.5t71 68.5t65.5 79t62 89t53.5 83.5t46 78l58 344q-55 22 -94 30.5t-93 8.5q-103 0 -195.5 -41.5t-162 -115t-110 -181.5t-40.5 -234q0 -122 48 -196t145 -74zM840 0h-58l66 397q-21 -35 -32.5 -54.5t-36 -58t-42 -62t-45 -58t-51 -56.5
t-54 -47t-59 -39.5t-62 -24t-67.5 -9.5q-112 0 -170.5 87.5t-58.5 227.5q0 137 45 256.5t121.5 202.5t180.5 130.5t220 47.5q131 0 248 -57zM465 1200l-27 31q102 94 187 94q34 0 66.5 -15.5t54 -33.5t50 -33.5t56.5 -15.5q64 0 156 84l24 -33q-100 -100 -184 -100
q-31 0 -62 15t-52.5 33t-51.5 33t-61 15q-62 0 -156 -74z" />
    <glyph glyph-name="adieresis" unicode="&#xe4;" horiz-adv-x="985" 
d="M422 43q36 0 74.5 17.5t71.5 43.5t71 68.5t65.5 79t62 89t53.5 83.5t46 78l58 344q-55 22 -94 30.5t-93 8.5q-103 0 -195.5 -41.5t-162 -115t-110 -181.5t-40.5 -234q0 -122 48 -196t145 -74zM840 0h-58l66 397q-21 -35 -32.5 -54.5t-36 -58t-42 -62t-45 -58t-51 -56.5
t-54 -47t-59 -39.5t-62 -24t-67.5 -9.5q-112 0 -170.5 87.5t-58.5 227.5q0 137 45 256.5t121.5 202.5t180.5 130.5t220 47.5q131 0 248 -57zM498 1282q0 17 13 29t32 12q17 0 30 -12t13 -29q0 -21 -12.5 -34t-30.5 -13q-19 0 -32 13t-13 34zM932 1282q0 17 13 29t32 12
q17 0 30 -12t13 -29q0 -21 -12.5 -34t-30.5 -13q-19 0 -32 13t-13 34z" />
    <glyph glyph-name="aring" unicode="&#xe5;" horiz-adv-x="985" 
d="M422 43q36 0 74.5 17.5t71.5 43.5t71 68.5t65.5 79t62 89t53.5 83.5t46 78l58 344q-55 22 -94 30.5t-93 8.5q-103 0 -195.5 -41.5t-162 -115t-110 -181.5t-40.5 -234q0 -122 48 -196t145 -74zM840 0h-58l66 397q-21 -35 -32.5 -54.5t-36 -58t-42 -62t-45 -58t-51 -56.5
t-54 -47t-59 -39.5t-62 -24t-67.5 -9.5q-112 0 -170.5 87.5t-58.5 227.5q0 137 45 256.5t121.5 202.5t180.5 130.5t220 47.5q131 0 248 -57zM551 1257q0 84 58.5 142.5t142.5 58.5t143 -59t59 -142q0 -82 -58.5 -139t-143.5 -57t-143 57t-58 139zM594 1260q0 -67 46 -113.5
t112 -46.5t112.5 46.5t46.5 113.5q0 66 -46.5 112.5t-112.5 46.5t-112 -46.5t-46 -112.5z" />
    <glyph glyph-name="ae" unicode="&#xe6;" horiz-adv-x="1576" 
d="M850 391q-30 -50 -53 -86t-60 -88t-72.5 -88t-78.5 -70.5t-90.5 -52.5t-96.5 -18q-112 0 -170.5 87.5t-58.5 227.5q0 137 45 256.5t121.5 202.5t180.5 130.5t220 47.5q181 0 318 -119q129 119 293 119q123 0 190.5 -55.5t67.5 -155.5q-1 -82 -52.5 -145.5t-141.5 -101
t-203 -56t-246 -18.5q-28 -25 -58 -43q-2 -143 69.5 -235.5t205.5 -92.5q91 0 175 39t148 98l31 -37q-165 -155 -365 -155q-74 0 -132.5 26.5t-96 73t-59.5 104.5t-27 125q-7 42 -4 80zM422 43q38 0 77 16.5t71 39.5t69.5 64t62 72.5t58 84t49.5 79.5t45 76q44 182 156 305
q-117 105 -279 105q-100 0 -191.5 -41.5t-160 -115t-109.5 -181.5t-41 -234q0 -122 48 -196t145 -74zM1341 885q-158 0 -279 -128t-151 -311q130 -2 241 12.5t197.5 45.5t137 82.5t53.5 118.5q3 50 -16 92q-40 88 -183 88z" />
    <glyph glyph-name="ccedilla" unicode="&#xe7;" horiz-adv-x="845" 
d="M256 -362l25 32q61 -41 147 -41q80 0 132 35t52 94q0 92 -151 92h-12l22 134q-142 6 -221.5 106.5t-79.5 255.5q0 156 65 292t181.5 219t257.5 83q121 0 205 -37l-21 -51q-91 33 -188 33q-122 0 -224 -74.5t-159.5 -196t-57.5 -258.5q0 -147 73 -233t198 -86
q59 0 114.5 19.5t89 41.5t82.5 60l29 -37q-139 -129 -305 -137l-16 -99q176 -8 176 -125q0 -78 -67.5 -125t-178.5 -47q-92 0 -168 50z" />
    <glyph glyph-name="egrave" unicode="&#xe8;" horiz-adv-x="903" 
d="M829 174l29 -37q-165 -155 -362 -155q-82 0 -146 31t-102.5 84t-58 117.5t-19.5 137.5q0 112 39 219t105 188.5t160 131t198 49.5q123 0 190.5 -55.5t67.5 -155.5q0 -86 -54.5 -151.5t-151 -104t-221 -56.5t-272.5 -16q-2 -12 -2 -36q-2 -143 69.5 -235.5t205.5 -92.5
q172 0 325 137zM668 885q-159 0 -280.5 -128t-149.5 -311q174 -3 311 23t224 86.5t91 149.5q3 55 -16 92q-37 88 -180 88zM836 1130l-230 289l45 35l223 -299z" />
    <glyph glyph-name="eacute" unicode="&#xe9;" horiz-adv-x="903" 
d="M829 174l29 -37q-165 -155 -362 -155q-82 0 -146 31t-102.5 84t-58 117.5t-19.5 137.5q0 112 39 219t105 188.5t160 131t198 49.5q123 0 190.5 -55.5t67.5 -155.5q0 -86 -54.5 -151.5t-151 -104t-221 -56.5t-272.5 -16q-2 -12 -2 -36q-2 -143 69.5 -235.5t205.5 -92.5
q172 0 325 137zM668 885q-159 0 -280.5 -128t-149.5 -311q174 -3 311 23t224 86.5t91 149.5q3 55 -16 92q-37 88 -180 88zM987 1419l-229 -289l-37 25l223 299z" />
    <glyph glyph-name="ecircumflex" unicode="&#xea;" horiz-adv-x="903" 
d="M829 174l29 -37q-165 -155 -362 -155q-82 0 -146 31t-102.5 84t-58 117.5t-19.5 137.5q0 112 39 219t105 188.5t160 131t198 49.5q123 0 190.5 -55.5t67.5 -155.5q0 -86 -54.5 -151.5t-151 -104t-221 -56.5t-272.5 -16q-2 -12 -2 -36q-2 -143 69.5 -235.5t205.5 -92.5
q172 0 325 137zM668 885q-159 0 -280.5 -128t-149.5 -311q174 -3 311 23t224 86.5t91 149.5q3 55 -16 92q-37 88 -180 88zM795 1450l204 -274l-34 -31l-181 246l-266 -244l-26 35l294 268h9z" />
    <glyph glyph-name="edieresis" unicode="&#xeb;" horiz-adv-x="903" 
d="M829 174l29 -37q-165 -155 -362 -155q-82 0 -146 31t-102.5 84t-58 117.5t-19.5 137.5q0 112 39 219t105 188.5t160 131t198 49.5q123 0 190.5 -55.5t67.5 -155.5q0 -86 -54.5 -151.5t-151 -104t-221 -56.5t-272.5 -16q-2 -12 -2 -36q-2 -143 69.5 -235.5t205.5 -92.5
q172 0 325 137zM668 885q-159 0 -280.5 -128t-149.5 -311q174 -3 311 23t224 86.5t91 149.5q3 55 -16 92q-37 88 -180 88zM494 1282q0 17 13 29t32 12q17 0 30 -12t13 -29q0 -21 -12.5 -34t-30.5 -13q-19 0 -32 13t-13 34zM928 1282q0 17 13 29t32 12q17 0 30 -12t13 -29
q0 -21 -12.5 -34t-30.5 -13q-19 0 -32 13t-13 34z" />
    <glyph glyph-name="igrave" unicode="&#xec;" horiz-adv-x="417" 
d="M182 0l160 922h57l-161 -922h-56zM438 1130l-229 289l45 35l223 -299z" />
    <glyph glyph-name="iacute" unicode="&#xed;" horiz-adv-x="417" 
d="M182 0l160 922h57l-161 -922h-56zM643 1419l-229 -289l-37 25l223 299z" />
    <glyph glyph-name="icircumflex" unicode="&#xee;" horiz-adv-x="417" 
d="M182 0l160 922h57l-161 -922h-56zM467 1450l205 -274l-35 -31l-180 246l-267 -244l-26 35l295 268h8z" />
    <glyph glyph-name="idieresis" unicode="&#xef;" horiz-adv-x="415" 
d="M182 0l160 922h55l-159 -922h-56zM270 1280q0 18 12.5 29.5t30.5 11.5q17 0 28 -12t11 -29q0 -19 -11 -31t-28 -12q-20 0 -31.5 12t-11.5 31zM516 1280q0 17 12 29t31 12q15 0 27 -12t12 -29q0 -18 -12 -30.5t-27 -12.5q-20 0 -31.5 12t-11.5 31z" />
    <glyph glyph-name="eth" unicode="&#xf0;" horiz-adv-x="1040" 
d="M641 864q-174 0 -293 -133.5t-119 -339.5q0 -160 76 -257t215 -97q182 0 299.5 145t141.5 379q-12 80 -49 146.5t-107.5 111.5t-163.5 45zM764 1243l-260 -160l-17 45l240 152q-114 94 -223 143l53 29q96 -41 217 -139l213 137l19 -47l-193 -125q196 -196 213 -500
q5 -50 2 -112q-4 -196 -66.5 -350.5t-179 -244t-268.5 -89.5q-164 0 -254 112.5t-90 290.5q0 147 61 269.5t170.5 194t243.5 71.5q122 0 210 -72t116 -193q0 389 -207 588z" />
    <glyph glyph-name="ntilde" unicode="&#xf1;" horiz-adv-x="1011" 
d="M328 922h57l-68 -387q40 64 87 126t110.5 129t135.5 108.5t138 41.5q94 0 138.5 -56t44.5 -153q0 -61 -21 -184l-106 -547h-58l107 535q22 125 20 178q-2 80 -32 126t-107 46q-46 0 -100.5 -30.5t-104 -76.5t-101.5 -108.5t-91.5 -119t-75.5 -114.5l-76 -436h-57z
M473 1200l-27 31q102 94 187 94q34 0 66.5 -15.5t54 -33.5t50 -33.5t56.5 -15.5q64 0 156 84l24 -33q-100 -100 -184 -100q-31 0 -62 15t-52.5 33t-51.5 33t-61 15q-62 0 -156 -74z" />
    <glyph glyph-name="ograve" unicode="&#xf2;" horiz-adv-x="983" 
d="M498 -18q-160 0 -244 105t-84 278q0 81 17.5 161t55.5 155.5t92 132.5t134.5 91.5t175.5 34.5q83 0 146.5 -31t101 -84t56 -118.5t18.5 -141.5q0 -163 -55 -294.5t-162.5 -210t-251.5 -78.5zM504 37q77 0 143 27t113.5 74.5t80.5 112.5t49.5 142t16.5 162
q0 151 -67.5 240.5t-200.5 89.5q-81 0 -149.5 -29t-116 -78.5t-80.5 -115.5t-48.5 -139t-15.5 -150q0 -156 70.5 -246t204.5 -90zM739 1130l-229 289l45 35l223 -299z" />
    <glyph glyph-name="oacute" unicode="&#xf3;" horiz-adv-x="983" 
d="M498 -18q-160 0 -244 105t-84 278q0 81 17.5 161t55.5 155.5t92 132.5t134.5 91.5t175.5 34.5q83 0 146.5 -31t101 -84t56 -118.5t18.5 -141.5q0 -163 -55 -294.5t-162.5 -210t-251.5 -78.5zM504 37q77 0 143 27t113.5 74.5t80.5 112.5t49.5 142t16.5 162
q0 151 -67.5 240.5t-200.5 89.5q-81 0 -149.5 -29t-116 -78.5t-80.5 -115.5t-48.5 -139t-15.5 -150q0 -156 70.5 -246t204.5 -90zM920 1419l-230 -289l-37 25l224 299z" />
    <glyph glyph-name="ocircumflex" unicode="&#xf4;" horiz-adv-x="983" 
d="M498 -18q-160 0 -244 105t-84 278q0 81 17.5 161t55.5 155.5t92 132.5t134.5 91.5t175.5 34.5q83 0 146.5 -31t101 -84t56 -118.5t18.5 -141.5q0 -163 -55 -294.5t-162.5 -210t-251.5 -78.5zM504 37q77 0 143 27t113.5 74.5t80.5 112.5t49.5 142t16.5 162
q0 151 -67.5 240.5t-200.5 89.5q-81 0 -149.5 -29t-116 -78.5t-80.5 -115.5t-48.5 -139t-15.5 -150q0 -156 70.5 -246t204.5 -90zM745 1450l205 -274l-35 -31l-180 246l-266 -244l-27 35l295 268h8z" />
    <glyph glyph-name="otilde" unicode="&#xf5;" horiz-adv-x="983" 
d="M498 -18q-160 0 -244 105t-84 278q0 81 17.5 161t55.5 155.5t92 132.5t134.5 91.5t175.5 34.5q83 0 146.5 -31t101 -84t56 -118.5t18.5 -141.5q0 -163 -55 -294.5t-162.5 -210t-251.5 -78.5zM504 37q77 0 143 27t113.5 74.5t80.5 112.5t49.5 142t16.5 162
q0 151 -67.5 240.5t-200.5 89.5q-81 0 -149.5 -29t-116 -78.5t-80.5 -115.5t-48.5 -139t-15.5 -150q0 -156 70.5 -246t204.5 -90zM438 1200l-26 31q102 94 186 94q43 0 82 -24.5t74.5 -49t70.5 -24.5q64 0 156 84l25 -33q-100 -100 -185 -100q-31 0 -62 15t-52.5 33
t-51.5 33t-61 15q-62 0 -156 -74z" />
    <glyph glyph-name="odieresis" unicode="&#xf6;" horiz-adv-x="983" 
d="M498 -18q-160 0 -244 105t-84 278q0 81 17.5 161t55.5 155.5t92 132.5t134.5 91.5t175.5 34.5q83 0 146.5 -31t101 -84t56 -118.5t18.5 -141.5q0 -163 -55 -294.5t-162.5 -210t-251.5 -78.5zM504 37q77 0 143 27t113.5 74.5t80.5 112.5t49.5 142t16.5 162
q0 151 -67.5 240.5t-200.5 89.5q-81 0 -149.5 -29t-116 -78.5t-80.5 -115.5t-48.5 -139t-15.5 -150q0 -156 70.5 -246t204.5 -90zM455 1282q0 17 13 29t32 12q17 0 30 -12t13 -29q0 -21 -12.5 -34t-30.5 -13q-19 0 -32 13t-13 34zM889 1282q0 17 13 29t32 12q17 0 30 -12
t13 -29q0 -21 -12.5 -34t-30.5 -13q-19 0 -32 13t-13 34z" />
    <glyph glyph-name="divide" unicode="&#xf7;" 
d="M678 1178q0 18 13 30.5t34 12.5q18 0 30.5 -12.5t12.5 -30.5q0 -19 -12.5 -33.5t-30.5 -14.5q-21 0 -34 14t-13 34zM678 299q0 16 13 29.5t34 13.5q18 0 30.5 -13.5t12.5 -29.5q0 -19 -12.5 -33t-30.5 -14q-21 0 -34 14t-13 33zM272 711v53h902v-53h-902z" />
    <glyph glyph-name="oslash" unicode="&#xf8;" horiz-adv-x="983" 
d="M498 -18q-161 0 -244 106l-113 -115l-32 37l114 119q-53 95 -53 236q0 81 17.5 161t55.5 155.5t92 132.5t134.5 91.5t175.5 34.5q164 0 250 -121l100 105l37 -35l-110 -115q45 -89 45 -209q0 -163 -55 -294.5t-162.5 -210t-251.5 -78.5zM229 373q0 -126 41 -201l580 604
q-69 109 -211 109q-81 0 -149.5 -29t-116 -78.5t-80.5 -115.5t-48.5 -139t-15.5 -150zM504 37q77 0 143 27t113.5 74.5t80.5 112.5t49.5 142t16.5 162q0 105 -35 174l-575 -600q76 -92 207 -92z" />
    <glyph glyph-name="ugrave" unicode="&#xf9;" horiz-adv-x="980" 
d="M391 37q59 0 127 46t131.5 122.5t109.5 142.5t89 139l76 435h57l-162 -922h-55l67 387q-251 -405 -454 -405q-182 0 -182 208q0 57 22 185l115 547h55l-113 -535q-22 -105 -22 -178q2 -81 31.5 -126.5t107.5 -45.5zM801 1130l-230 289l45 35l224 -299z" />
    <glyph glyph-name="uacute" unicode="&#xfa;" horiz-adv-x="980" 
d="M391 37q59 0 127 46t131.5 122.5t109.5 142.5t89 139l76 435h57l-162 -922h-55l67 387q-251 -405 -454 -405q-182 0 -182 208q0 57 22 185l115 547h55l-113 -535q-22 -105 -22 -178q2 -81 31.5 -126.5t107.5 -45.5zM936 1419l-229 -289l-37 25l223 299z" />
    <glyph glyph-name="ucircumflex" unicode="&#xfb;" horiz-adv-x="980" 
d="M391 37q59 0 127 46t131.5 122.5t109.5 142.5t89 139l76 435h57l-162 -922h-55l67 387q-251 -405 -454 -405q-182 0 -182 208q0 57 22 185l115 547h55l-113 -535q-22 -105 -22 -178q2 -81 31.5 -126.5t107.5 -45.5zM762 1450l205 -274l-35 -31l-180 246l-267 -244l-26 35
l295 268h8z" />
    <glyph glyph-name="udieresis" unicode="&#xfc;" horiz-adv-x="980" 
d="M391 37q59 0 127 46t131.5 122.5t109.5 142.5t89 139l76 435h57l-162 -922h-55l67 387q-251 -405 -454 -405q-182 0 -182 208q0 57 22 185l115 547h55l-113 -535q-22 -105 -22 -178q2 -81 31.5 -126.5t107.5 -45.5zM467 1282q0 17 13 29t32 12q17 0 30 -12t13 -29
q0 -21 -12.5 -34t-30.5 -13q-19 0 -32 13t-13 34zM901 1282q0 17 13 29t32 12q17 0 30 -12t13 -29q0 -21 -12.5 -34t-30.5 -13q-19 0 -32 13t-13 34z" />
    <glyph glyph-name="yacute" unicode="&#xfd;" horiz-adv-x="796" 
d="M121 -354q49 0 93 25.5t82.5 75.5t67 96.5t65.5 114.5q11 21 17 32q-46 215 -126.5 463t-176.5 469h62q82 -190 159.5 -426t122.5 -439q172 329 316 865h63q-396 -1332 -745 -1332q-70 0 -135 43l28 45q53 -32 107 -32zM815 1419l-229 -289l-37 25l223 299z" />
    <glyph glyph-name="thorn" unicode="&#xfe;" horiz-adv-x="1019" 
d="M119 -281l299 1715h57l-160 -899q40 65 87.5 128.5t109 129.5t131 106.5t131.5 40.5q64 0 110.5 -28.5t71.5 -76.5t36.5 -101.5t11.5 -112.5q0 -173 -72 -319.5t-200 -233t-283 -86.5q-113 0 -218 59l-79 -451h-48zM299 434l-57 -332q97 -65 211 -65q139 0 252.5 77
t177 208t63.5 288q0 121 -46.5 198t-145.5 77q-57 0 -124.5 -45.5t-129.5 -117.5t-112.5 -145t-88.5 -143z" />
    <glyph glyph-name="ydieresis" unicode="&#xff;" horiz-adv-x="796" 
d="M121 -354q49 0 93 25.5t82.5 75.5t67 96.5t65.5 114.5q11 21 17 32q-46 215 -126.5 463t-176.5 469h62q82 -190 159.5 -426t122.5 -439q172 329 316 865h63q-396 -1332 -745 -1332q-70 0 -135 43l28 45q53 -32 107 -32zM299 1282q0 17 13 29t32 12q17 0 30 -12t13 -29
q0 -21 -12.5 -34t-30.5 -13q-19 0 -32 13t-13 34zM733 1282q0 17 13 29t32 12q17 0 30 -12t13 -29q0 -21 -12.5 -34t-30.5 -13q-19 0 -32 13t-13 34z" />
    <glyph glyph-name="Amacron" unicode="&#x100;" horiz-adv-x="1413" 
d="M53 0l887 1448h43l377 -1448h-62l-137 532h-717l-325 -532h-66zM948 1358l-469 -768h666zM686 1608l8 49h609l-9 -49h-608z" />
    <glyph glyph-name="amacron" unicode="&#x101;" horiz-adv-x="985" 
d="M422 43q36 0 74.5 17.5t71.5 43.5t71 68.5t65.5 79t62 89t53.5 83.5t46 78l58 344q-55 22 -94 30.5t-93 8.5q-103 0 -195.5 -41.5t-162 -115t-110 -181.5t-40.5 -234q0 -122 48 -196t145 -74zM840 0h-58l66 397q-21 -35 -32.5 -54.5t-36 -58t-42 -62t-45 -58t-51 -56.5
t-54 -47t-59 -39.5t-62 -24t-67.5 -9.5q-112 0 -170.5 87.5t-58.5 227.5q0 137 45 256.5t121.5 202.5t180.5 130.5t220 47.5q131 0 248 -57zM502 1278l8 51h496l-9 -51h-495z" />
    <glyph glyph-name="Abreve" unicode="&#x102;" horiz-adv-x="1413" 
d="M53 0l887 1448h43l377 -1448h-62l-137 532h-717l-325 -532h-66zM948 1358l-469 -768h666zM686 1710l35 31q36 -62 105 -100.5t163 -38.5q172 0 311 139l23 -31q-61 -70 -148.5 -116t-191.5 -46q-98 0 -179 45t-118 117z" />
    <glyph glyph-name="abreve" unicode="&#x103;" horiz-adv-x="985" 
d="M422 43q36 0 74.5 17.5t71.5 43.5t71 68.5t65.5 79t62 89t53.5 83.5t46 78l58 344q-55 22 -94 30.5t-93 8.5q-103 0 -195.5 -41.5t-162 -115t-110 -181.5t-40.5 -234q0 -122 48 -196t145 -74zM840 0h-58l66 397q-21 -35 -32.5 -54.5t-36 -58t-42 -62t-45 -58t-51 -56.5
t-54 -47t-59 -39.5t-62 -24t-67.5 -9.5q-112 0 -170.5 87.5t-58.5 227.5q0 137 45 256.5t121.5 202.5t180.5 130.5t220 47.5q131 0 248 -57zM496 1364l34 29q73 -138 224 -138q132 0 266 138l22 -31q-146 -158 -292 -158q-94 0 -157.5 45.5t-96.5 114.5z" />
    <glyph glyph-name="Aogonek" unicode="&#x104;" horiz-adv-x="1413" 
d="M1270 -342l14 -41q-58 -27 -125 -27q-86 0 -140 40.5t-54 117.5q0 115 95 191t230 92l-129 501h-717l-325 -532h-66l887 1448h43l377 -1448h-14q-78 0 -151.5 -30t-122 -85t-48.5 -121q0 -63 42.5 -93.5t104.5 -30.5q51 0 99 18zM948 1358l-469 -768h666z" />
    <glyph glyph-name="aogonek" unicode="&#x105;" horiz-adv-x="985" 
d="M770 -342l14 -39q-63 -29 -127 -29q-85 0 -138.5 40.5t-53.5 119.5q0 107 96.5 181t222.5 85l64 381q-21 -35 -32.5 -54.5t-36 -58t-42 -62t-45 -58t-51 -56.5t-54 -47t-59 -39.5t-62 -24t-67.5 -9.5q-112 0 -170.5 87.5t-58.5 227.5q0 137 45 256.5t121.5 202.5
t180.5 130.5t220 47.5q131 0 248 -57l-147 -883q-73 0 -144.5 -29t-120.5 -85t-49 -122q0 -63 42.5 -93.5t105.5 -30.5q50 0 98 18zM422 43q85 0 161.5 55.5t128 134.5t93.5 176.5t63 168.5t31 124l25 144q-55 22 -94 30.5t-93 8.5q-103 0 -195.5 -41.5t-162 -115
t-110 -181.5t-40.5 -234q0 -122 48 -196t145 -74z" />
    <glyph glyph-name="Cacute" unicode="&#x106;" horiz-adv-x="1345" 
d="M1327 162l23 -47q-83 -66 -210 -99.5t-243 -33.5q-193 0 -343.5 78.5t-237.5 230t-87 354.5q0 162 61 309t168 257.5t263 175.5t336 65q278 0 424 -121l-33 -43q-149 105 -387 105q-135 0 -256 -39t-213 -109t-160 -162.5t-103.5 -202.5t-35.5 -227q0 -141 46.5 -257.5
t129 -193.5t194.5 -119t242 -42q246 0 422 121zM1327 1698l-340 -182l-20 36l338 193z" />
    <glyph glyph-name="cacute" unicode="&#x107;" horiz-adv-x="845" 
d="M786 158l29 -37q-150 -139 -323 -139q-152 0 -237 101.5t-85 262.5q0 156 65 292t181.5 219t257.5 83q121 0 205 -37l-21 -51q-91 33 -188 33q-122 0 -224 -74.5t-159.5 -196t-57.5 -258.5q0 -147 73 -233t198 -86q59 0 114.5 19.5t89 41.5t82.5 60zM961 1419l-230 -289
l-37 25l224 299z" />
    <glyph glyph-name="Ccircumflex" unicode="&#x108;" horiz-adv-x="1345" 
d="M1327 162l23 -47q-83 -66 -210 -99.5t-243 -33.5q-193 0 -343.5 78.5t-237.5 230t-87 354.5q0 162 61 309t168 257.5t263 175.5t336 65q278 0 424 -121l-33 -43q-149 105 -387 105q-135 0 -256 -39t-213 -109t-160 -162.5t-103.5 -202.5t-35.5 -227q0 -141 46.5 -257.5
t129 -193.5t194.5 -119t242 -42q246 0 422 121zM1114 1743l311 -191l-28 -36l-289 178l-348 -178l-21 38l367 189h8z" />
    <glyph glyph-name="ccircumflex" unicode="&#x109;" horiz-adv-x="845" 
d="M786 158l29 -37q-150 -139 -323 -139q-152 0 -237 101.5t-85 262.5q0 156 65 292t181.5 219t257.5 83q121 0 205 -37l-21 -51q-91 33 -188 33q-122 0 -224 -74.5t-159.5 -196t-57.5 -258.5q0 -147 73 -233t198 -86q59 0 114.5 19.5t89 41.5t82.5 60zM776 1450l205 -274
l-35 -31l-180 246l-266 -244l-27 35l295 268h8z" />
    <glyph glyph-name="Cdotaccent" unicode="&#x10a;" horiz-adv-x="1345" 
d="M1327 162l23 -47q-83 -66 -210 -99.5t-243 -33.5q-193 0 -343.5 78.5t-237.5 230t-87 354.5q0 162 61 309t168 257.5t263 175.5t336 65q278 0 424 -121l-33 -43q-149 105 -387 105q-135 0 -256 -39t-213 -109t-160 -162.5t-103.5 -202.5t-35.5 -227q0 -141 46.5 -257.5
t129 -193.5t194.5 -119t242 -42q246 0 422 121zM1022 1632q0 21 14 33t35 12q20 0 33.5 -12t13.5 -33q0 -22 -13.5 -35.5t-33.5 -13.5q-21 0 -35 13t-14 36z" />
    <glyph glyph-name="cdotaccent" unicode="&#x10b;" horiz-adv-x="845" 
d="M786 158l29 -37q-150 -139 -323 -139q-152 0 -237 101.5t-85 262.5q0 156 65 292t181.5 219t257.5 83q121 0 205 -37l-21 -51q-91 33 -188 33q-122 0 -224 -74.5t-159.5 -196t-57.5 -258.5q0 -147 73 -233t198 -86q59 0 114.5 19.5t89 41.5t82.5 60zM709 1288q0 19 14 32
t33 13q18 0 31.5 -13.5t13.5 -31.5q0 -20 -13.5 -33.5t-31.5 -13.5q-19 0 -33 13.5t-14 33.5z" />
    <glyph glyph-name="Ccaron" unicode="&#x10c;" horiz-adv-x="1345" 
d="M1327 162l23 -47q-83 -66 -210 -99.5t-243 -33.5q-193 0 -343.5 78.5t-237.5 230t-87 354.5q0 162 61 309t168 257.5t263 175.5t336 65q278 0 424 -121l-33 -43q-149 105 -387 105q-135 0 -256 -39t-213 -109t-160 -162.5t-103.5 -202.5t-35.5 -227q0 -141 46.5 -257.5
t129 -193.5t194.5 -119t242 -42q246 0 422 121zM1075 1520l-311 188l29 37l288 -176l349 176l20 -37l-367 -188h-8z" />
    <glyph glyph-name="ccaron" unicode="&#x10d;" horiz-adv-x="845" 
d="M786 158l29 -37q-150 -139 -323 -139q-152 0 -237 101.5t-85 262.5q0 156 65 292t181.5 219t257.5 83q121 0 205 -37l-21 -51q-91 33 -188 33q-122 0 -224 -74.5t-159.5 -196t-57.5 -258.5q0 -147 73 -233t198 -86q59 0 114.5 19.5t89 41.5t82.5 60zM727 1147l-205 272
l37 33l178 -246l267 244l26 -37l-295 -266h-8z" />
    <glyph glyph-name="Dcaron" unicode="&#x10e;" horiz-adv-x="1505" 
d="M238 0l251 1434h23q52 0 154 3t172 3q146 0 263 -31t196.5 -85t133 -131t77.5 -166t24 -193q0 -136 -38 -259.5t-117 -229.5t-192 -183.5t-271.5 -121.5t-346.5 -44q-57 0 -160.5 2t-158.5 2h-10zM827 1382q-69 0 -155.5 -3t-130.5 -3l-232 -1319q37 0 78 -0.5t73.5 -1
t59.5 -1t43 -1t17 -0.5q217 0 389 62.5t279.5 170.5t163.5 247t56 298q0 120 -36.5 218t-111 173.5t-200.5 117.5t-293 42zM958 1520l-311 188l29 37l289 -176l348 176l20 -37l-366 -188h-9z" />
    <glyph glyph-name="dcaron" unicode="&#x10f;" horiz-adv-x="1026" 
d="M1386 1434h58q6 -18 6 -54q0 -88 -49 -168t-131 -116l-21 30q69 40 107.5 109t38.5 139q0 39 -9 60zM748 940q107 0 206 -47l97 541h55l-250 -1434h-55l69 403q-25 -42 -43 -71.5t-50.5 -76.5t-59.5 -80t-65.5 -71t-74 -61t-78.5 -39t-85 -16q-113 0 -173.5 88t-60.5 227
q0 137 45.5 256.5t123 202.5t181.5 130.5t218 47.5zM743 885q-100 0 -192 -41.5t-161 -115t-110.5 -181.5t-41.5 -234q0 -120 48.5 -195t139.5 -75q56 0 121 41t122 105t107 139.5t83.5 148.5t45.5 127l39 232q-96 49 -201 49z" />
    <glyph glyph-name="Dcroat" unicode="&#x110;" horiz-adv-x="1550" 
d="M137 707l10 55h269l121 672h22q51 0 153 3t171 3q150 0 269.5 -32.5t198 -88.5t130.5 -135t74 -166.5t22 -188.5q0 -140 -40.5 -265.5t-121.5 -229t-195 -179t-268.5 -117.5t-335.5 -42q-59 0 -163.5 2t-159.5 2h-10l123 707h-269zM872 1382q-67 0 -154.5 -3t-131.5 -3
l-107 -614h422l-10 -55h-422l-115 -650q37 0 78.5 -0.5t74 -1t59.5 -1t43.5 -1t17.5 -0.5q210 0 379.5 60t279.5 165t168.5 245.5t58.5 303.5q0 121 -35 218.5t-108.5 174.5t-200 119.5t-297.5 42.5z" />
    <glyph glyph-name="dcroat" unicode="&#x111;" horiz-adv-x="1052" 
d="M680 1135l8 49h307l45 250h56l-43 -250h229l-10 -49h-228l-198 -1135h-55l69 403q-25 -42 -43.5 -71.5t-50.5 -76.5t-59.5 -80t-65.5 -71t-73.5 -61.5t-79 -39t-85.5 -15.5q-113 0 -173 87.5t-60 227.5q0 137 45.5 256.5t122.5 202.5t181 130.5t218 47.5q108 0 207 -47
l43 242h-307zM733 885q-100 0 -192 -41.5t-161.5 -115t-111 -181.5t-41.5 -234q0 -121 50.5 -195.5t146.5 -74.5q53 0 111 34t105.5 83t96 116.5t80.5 122t62 111.5l55 326q-96 49 -201 49z" />
    <glyph glyph-name="Emacron" unicode="&#x112;" horiz-adv-x="1177" 
d="M238 0l251 1434h779l-8 -58h-719l-109 -618h658l-13 -58h-655l-113 -643h738l-11 -57h-798zM606 1608l8 49h609l-9 -49h-608z" />
    <glyph glyph-name="emacron" unicode="&#x113;" horiz-adv-x="903" 
d="M829 174l29 -37q-165 -155 -362 -155q-82 0 -146 31t-102.5 84t-58 117.5t-19.5 137.5q0 112 39 219t105 188.5t160 131t198 49.5q123 0 190.5 -55.5t67.5 -155.5q0 -86 -54.5 -151.5t-151 -104t-221 -56.5t-272.5 -16q-2 -12 -2 -36q-2 -143 69.5 -235.5t205.5 -92.5
q172 0 325 137zM668 885q-159 0 -280.5 -128t-149.5 -311q174 -3 311 23t224 86.5t91 149.5q3 55 -16 92q-37 88 -180 88zM514 1278l8 51h496l-8 -51h-496z" />
    <glyph glyph-name="Edotaccent" unicode="&#x116;" horiz-adv-x="1177" 
d="M238 0l251 1434h779l-8 -58h-719l-109 -618h658l-13 -58h-655l-113 -643h738l-11 -57h-798zM870 1632q0 21 14.5 33t35.5 12q20 0 33.5 -12t13.5 -33q0 -22 -13.5 -35.5t-33.5 -13.5q-21 0 -35.5 13.5t-14.5 35.5z" />
    <glyph glyph-name="edotaccent" unicode="&#x117;" horiz-adv-x="903" 
d="M829 174l29 -37q-165 -155 -362 -155q-82 0 -146 31t-102.5 84t-58 117.5t-19.5 137.5q0 112 39 219t105 188.5t160 131t198 49.5q123 0 190.5 -55.5t67.5 -155.5q0 -86 -54.5 -151.5t-151 -104t-221 -56.5t-272.5 -16q-2 -12 -2 -36q-2 -143 69.5 -235.5t205.5 -92.5
q172 0 325 137zM668 885q-159 0 -280.5 -128t-149.5 -311q174 -3 311 23t224 86.5t91 149.5q3 55 -16 92q-37 88 -180 88zM719 1288q0 19 14 32t33 13q18 0 31.5 -13.5t13.5 -31.5q0 -20 -13.5 -33.5t-31.5 -13.5q-19 0 -33 13.5t-14 33.5z" />
    <glyph glyph-name="Eogonek" unicode="&#x118;" horiz-adv-x="1177" 
d="M238 0l251 1434h779l-8 -58h-719l-109 -618h658l-13 -58h-655l-113 -643h738l-11 -57q-72 0 -143.5 -29t-120.5 -85t-49 -122q0 -63 42.5 -93.5t104.5 -30.5q51 0 99 18l14 -41q-59 -27 -125 -27q-87 0 -141.5 40.5t-54.5 117.5q0 86 66 152.5t165 99.5h-655z" />
    <glyph glyph-name="eogonek" unicode="&#x119;" horiz-adv-x="903" 
d="M690 -342l15 -39q-66 -29 -130 -29q-84 0 -138 40.5t-54 119.5q0 130 188 244q-37 -12 -75 -12q-82 0 -146 31t-102.5 84t-58 117.5t-19.5 137.5q0 112 39 219t105 188.5t160 131t198 49.5q123 0 190.5 -55.5t67.5 -155.5q0 -86 -54.5 -151.5t-151 -104t-221 -56.5
t-272.5 -16q-3 -29 5 -63q3 -131 72 -216t196 -85q172 0 325 137l29 -37q-24 -23 -79 -55t-109 -62.5t-107 -67.5t-86 -86t-33 -102q0 -63 42 -93.5t106 -30.5q50 0 98 18zM668 885q-159 0 -280.5 -128t-149.5 -311q174 -3 311 23t224 86.5t91 149.5q3 55 -16 92
q-37 88 -180 88z" />
    <glyph glyph-name="Ecaron" unicode="&#x11a;" horiz-adv-x="1177" 
d="M238 0l251 1434h779l-8 -58h-719l-109 -618h658l-13 -58h-655l-113 -643h738l-11 -57h-798zM905 1520l-311 188l29 37l288 -176l349 176l20 -37l-367 -188h-8z" />
    <glyph glyph-name="ecaron" unicode="&#x11b;" horiz-adv-x="903" 
d="M829 174l29 -37q-165 -155 -362 -155q-82 0 -146 31t-102.5 84t-58 117.5t-19.5 137.5q0 112 39 219t105 188.5t160 131t198 49.5q123 0 190.5 -55.5t67.5 -155.5q0 -86 -54.5 -151.5t-151 -104t-221 -56.5t-272.5 -16q-2 -12 -2 -36q-2 -143 69.5 -235.5t205.5 -92.5
q172 0 325 137zM668 885q-159 0 -280.5 -128t-149.5 -311q174 -3 311 23t224 86.5t91 149.5q3 55 -16 92q-37 88 -180 88zM719 1147l-205 272l37 33l178 -246l266 244l27 -37l-295 -266h-8z" />
    <glyph glyph-name="Gcircumflex" unicode="&#x11c;" horiz-adv-x="1488" 
d="M950 606l13 58h505l-86 -486q-97 -94 -232.5 -145t-270.5 -51q-145 0 -268 49.5t-206.5 136.5t-130.5 207.5t-47 259.5q0 171 63.5 322.5t172.5 260t262.5 171.5t327.5 63q272 0 422 -135l-39 -45q-130 121 -387 121q-158 0 -298 -57t-240.5 -156t-159 -238.5
t-58.5 -298.5q0 -266 164.5 -434t421.5 -168q127 0 244 44.5t206 123.5l70 397h-449zM1108 1743l311 -191l-28 -36l-289 178l-348 -178l-21 38l367 189h8z" />
    <glyph glyph-name="gcircumflex" unicode="&#x11d;" horiz-adv-x="874" 
d="M358 207q0 -43 25 -68q27 4 84 4q160 0 258 -67.5t98 -184.5q0 -149 -127 -233t-327 -84q-103 0 -184.5 23.5t-136 81.5t-54.5 145q0 121 94.5 202t247.5 105q-23 33 -23 72q0 66 54 114q-72 32 -113 98.5t-41 151.5q0 99 40.5 182.5t125.5 137t199 53.5q117 0 198 -74
l266 72l-6 -49l-229 -64q49 -71 49 -163q0 -162 -101.5 -265.5t-260.5 -103.5q-49 0 -91 10q-45 -40 -45 -96zM375 -377q173 0 284 70t111 192q0 96 -87 152.5t-224 56.5q-176 0 -294 -71.5t-118 -192.5q0 -71 48.5 -119.5t120 -68t159.5 -19.5zM268 573q0 -98 62 -164.5
t172 -66.5q133 0 217 90t84 223q0 41 -13 80t-39.5 74.5t-73.5 57.5t-108 22q-139 0 -220 -92.5t-81 -223.5zM666 1450l204 -274l-34 -31l-181 246l-266 -244l-27 35l295 268h9z" />
    <glyph glyph-name="Gbreve" unicode="&#x11e;" horiz-adv-x="1488" 
d="M950 606l13 58h505l-86 -486q-97 -94 -232.5 -145t-270.5 -51q-145 0 -268 49.5t-206.5 136.5t-130.5 207.5t-47 259.5q0 171 63.5 322.5t172.5 260t262.5 171.5t327.5 63q272 0 422 -135l-39 -45q-130 121 -387 121q-158 0 -298 -57t-240.5 -156t-159 -238.5
t-58.5 -298.5q0 -266 164.5 -434t421.5 -168q127 0 244 44.5t206 123.5l70 397h-449zM788 1710l35 31q36 -62 105.5 -100.5t163.5 -38.5q172 0 311 139l22 -31q-61 -70 -148.5 -116t-191.5 -46q-98 0 -179 45t-118 117z" />
    <glyph glyph-name="gbreve" unicode="&#x11f;" horiz-adv-x="874" 
d="M358 207q0 -43 25 -68q27 4 84 4q160 0 258 -67.5t98 -184.5q0 -149 -127 -233t-327 -84q-103 0 -184.5 23.5t-136 81.5t-54.5 145q0 121 94.5 202t247.5 105q-23 33 -23 72q0 66 54 114q-72 32 -113 98.5t-41 151.5q0 99 40.5 182.5t125.5 137t199 53.5q117 0 198 -74
l266 72l-6 -49l-229 -64q49 -71 49 -163q0 -162 -101.5 -265.5t-260.5 -103.5q-49 0 -91 10q-45 -40 -45 -96zM375 -377q173 0 284 70t111 192q0 96 -87 152.5t-224 56.5q-176 0 -294 -71.5t-118 -192.5q0 -71 48.5 -119.5t120 -68t159.5 -19.5zM268 573q0 -98 62 -164.5
t172 -66.5q133 0 217 90t84 223q0 41 -13 80t-39.5 74.5t-73.5 57.5t-108 22q-139 0 -220 -92.5t-81 -223.5zM385 1364l35 29q73 -138 223 -138q132 0 266 138l23 -31q-146 -158 -293 -158q-94 0 -157.5 45.5t-96.5 114.5z" />
    <glyph glyph-name="Gdotaccent" unicode="&#x120;" horiz-adv-x="1488" 
d="M950 606l13 58h505l-86 -486q-97 -94 -232.5 -145t-270.5 -51q-145 0 -268 49.5t-206.5 136.5t-130.5 207.5t-47 259.5q0 171 63.5 322.5t172.5 260t262.5 171.5t327.5 63q272 0 422 -135l-39 -45q-130 121 -387 121q-158 0 -298 -57t-240.5 -156t-159 -238.5
t-58.5 -298.5q0 -266 164.5 -434t421.5 -168q127 0 244 44.5t206 123.5l70 397h-449zM1032 1632q0 21 14 33t35 12q20 0 33.5 -12t13.5 -33q0 -22 -13.5 -35.5t-33.5 -13.5q-21 0 -35 13t-14 36z" />
    <glyph glyph-name="gdotaccent" unicode="&#x121;" horiz-adv-x="874" 
d="M358 207q0 -43 25 -68q27 4 84 4q160 0 258 -67.5t98 -184.5q0 -149 -127 -233t-327 -84q-103 0 -184.5 23.5t-136 81.5t-54.5 145q0 121 94.5 202t247.5 105q-23 33 -23 72q0 66 54 114q-72 32 -113 98.5t-41 151.5q0 99 40.5 182.5t125.5 137t199 53.5q117 0 198 -74
l266 72l-6 -49l-229 -64q49 -71 49 -163q0 -162 -101.5 -265.5t-260.5 -103.5q-49 0 -91 10q-45 -40 -45 -96zM375 -377q173 0 284 70t111 192q0 96 -87 152.5t-224 56.5q-176 0 -294 -71.5t-118 -192.5q0 -71 48.5 -119.5t120 -68t159.5 -19.5zM268 573q0 -98 62 -164.5
t172 -66.5q133 0 217 90t84 223q0 41 -13 80t-39.5 74.5t-73.5 57.5t-108 22q-139 0 -220 -92.5t-81 -223.5zM614 1288q0 18 14.5 31.5t33.5 13.5q18 0 31.5 -13.5t13.5 -31.5q0 -20 -13.5 -33.5t-31.5 -13.5q-19 0 -33.5 13.5t-14.5 33.5z" />
    <glyph glyph-name="uni0122" unicode="&#x122;" horiz-adv-x="1488" 
d="M950 606l13 58h505l-86 -486q-97 -94 -232.5 -145t-270.5 -51q-145 0 -268 49.5t-206.5 136.5t-130.5 207.5t-47 259.5q0 171 63.5 322.5t172.5 260t262.5 171.5t327.5 63q272 0 422 -135l-39 -45q-130 121 -387 121q-158 0 -298 -57t-240.5 -156t-159 -238.5
t-58.5 -298.5q0 -266 164.5 -434t421.5 -168q127 0 244 44.5t206 123.5l70 397h-449zM807 -156l45 25q53 -9 63 -64q0 -6 1.5 -17t1.5 -17q-9 -134 -177 -183l-12 31q129 48 129 156q0 58 -51 69z" />
    <glyph glyph-name="uni0123" unicode="&#x123;" horiz-adv-x="874" 
d="M358 207q0 -43 25 -68q27 4 84 4q160 0 258 -67.5t98 -184.5q0 -149 -127 -233t-327 -84q-103 0 -184.5 23.5t-136 81.5t-54.5 145q0 121 94.5 202t247.5 105q-23 33 -23 72q0 66 54 114q-72 32 -113 98.5t-41 151.5q0 99 40.5 182.5t125.5 137t199 53.5q117 0 198 -74
l266 72l-6 -49l-229 -64q49 -71 49 -163q0 -162 -101.5 -265.5t-260.5 -103.5q-49 0 -91 10q-45 -40 -45 -96zM375 -377q173 0 284 70t111 192q0 96 -87 152.5t-224 56.5q-176 0 -294 -71.5t-118 -192.5q0 -71 48.5 -119.5t120 -68t159.5 -19.5zM268 573q0 -98 62 -164.5
t172 -66.5q133 0 217 90t84 223q0 41 -13 80t-39.5 74.5t-73.5 57.5t-108 22q-139 0 -220 -92.5t-81 -223.5zM672 1174l-45 -25q-54 9 -64 63q0 6 -1 17.5t-1 17.5q9 134 176 183l13 -31q-129 -48 -129 -156q0 -58 51 -69z" />
    <glyph glyph-name="Hcircumflex" unicode="&#x124;" horiz-adv-x="1566" 
d="M1268 0l125 702h-971l-123 -702h-61l251 1434h62l-119 -674h971l117 674h61l-252 -1434h-61zM1087 1743l312 -191l-29 -36l-289 178l-348 -178l-20 38l366 189h8z" />
    <glyph glyph-name="hcircumflex" unicode="&#x125;" horiz-adv-x="1001" 
d="M766 885q-194 0 -465 -449l-76 -436h-57l250 1434h55l-156 -899q41 67 85.5 126.5t107 128t133.5 109.5t137 41q93 0 137 -56t44 -153q0 -37 -21 -184l-109 -547h-55l107 535q20 114 20 178q-2 81 -31 126.5t-106 45.5zM641 1743l311 -191l-28 -36l-289 178l-348 -178
l-21 38l367 189h8z" />
    <glyph glyph-name="Hbar" unicode="&#x126;" horiz-adv-x="1601" 
d="M250 1079l10 56h189l53 299h59l-51 -299h985l53 299h60l-54 -299h191l-10 -56h-189l-192 -1079h-60l123 702h-985l-123 -702h-61l190 1079h-188zM442 760h985l58 319h-985z" />
    <glyph glyph-name="hbar" unicode="&#x127;" horiz-adv-x="1019" 
d="M782 885q-50 0 -107.5 -32t-107 -80.5t-99 -111.5t-85 -118t-64.5 -107l-77 -436h-56l191 1110h-268l10 55h268l47 269h58l-48 -269h371l-10 -55h-371l-100 -575q32 51 65 98.5t83 106t98 100.5t106 71t111 29q94 0 138 -55.5t44 -153.5q0 -50 -23 -184l-106 -547h-55
l106 535q2 14 6.5 43t7 47.5t5 43.5t2.5 44q-2 81 -32 126.5t-108 45.5z" />
    <glyph glyph-name="Imacron" unicode="&#x12a;" horiz-adv-x="587" 
d="M279 0l251 1434h62l-252 -1434h-61zM289 1608l8 49h608l-8 -49h-608z" />
    <glyph glyph-name="imacron" unicode="&#x12b;" horiz-adv-x="417" 
d="M182 0l160 922h57l-161 -922h-56zM190 1278l9 51h495l-8 -51h-496z" />
    <glyph glyph-name="Iogonek" unicode="&#x12e;" horiz-adv-x="616" 
d="M268 -342l15 -41q-58 -27 -125 -27q-86 0 -140.5 41t-54.5 117q0 115 94 192.5t228 90.5l245 1403h62l-252 -1434h-14q-72 -1 -140 -29t-115 -83t-48 -124q-1 -63 42.5 -93.5t104.5 -30.5q50 0 98 18z" />
    <glyph glyph-name="iogonek" unicode="&#x12f;" horiz-adv-x="471" 
d="M219 -342l14 -39q-63 -29 -129 -29q-84 0 -138 40.5t-54 119.5q0 73 48.5 132.5t120.5 93t152 40.5l160 906h56l-148 -856l-12 -66q-73 0 -145 -29.5t-121.5 -85.5t-49.5 -121q0 -63 42 -93.5t106 -30.5q50 0 98 18zM440 1288q0 19 13 32t32 13q17 0 30 -13t13 -32
q0 -20 -12.5 -33.5t-30.5 -13.5q-19 0 -32 13.5t-13 33.5z" />
    <glyph glyph-name="Idotaccent" unicode="&#x130;" horiz-adv-x="587" 
d="M279 0l251 1434h62l-252 -1434h-61zM549 1632q0 21 14 33t35 12q20 0 33.5 -12t13.5 -33q0 -22 -13.5 -35.5t-33.5 -13.5q-21 0 -35 13t-14 36z" />
    <glyph glyph-name="dotlessi" unicode="&#x131;" horiz-adv-x="417" 
d="M182 0l160 922h57l-161 -922h-56z" />
    <glyph glyph-name="Jcircumflex" unicode="&#x134;" horiz-adv-x="716" 
d="M731 1434l-199 -1127q-28 -157 -102 -241t-215 -84q-105 0 -172 59l31 45q65 -45 145 -45q63 0 109 22t74.5 63t44.5 85t26 102l199 1121h59zM752 1743l311 -191l-29 -36l-289 178l-348 -178l-20 38l366 189h9z" />
    <glyph glyph-name="jcircumflex" unicode="&#x135;" horiz-adv-x="415" 
d="M406 922l-175 -990q-62 -358 -307 -358q-94 0 -153 47l26 47q56 -39 127 -39q197 0 250 305l174 988h58zM473 1450l205 -274l-35 -31l-180 246l-266 -244l-27 35l295 268h8z" />
    <glyph glyph-name="uni0136" unicode="&#x136;" horiz-adv-x="1277" 
d="M1438 1434l-840 -693l602 -741h-74l-602 748l828 686h86zM238 0l251 1434h62l-252 -1434h-61zM594 -156l45 25q53 -9 63 -64q0 -6 1.5 -17t1.5 -17q-9 -134 -177 -183l-12 31q129 48 129 156q0 58 -51 69z" />
    <glyph glyph-name="uni0137" unicode="&#x137;" horiz-adv-x="851" 
d="M979 922l-520 -445l401 -477h-76l-397 481l514 441h78zM168 0l250 1434h55l-248 -1434h-57zM428 -156l45 25q26 -4 42.5 -21.5t21.5 -42.5q0 -6 1 -17t1 -17q-9 -134 -177 -183l-12 31q129 48 129 156q0 58 -51 69z" />
    <glyph glyph-name="Lacute" unicode="&#x139;" horiz-adv-x="1134" 
d="M238 0l251 1434h62l-242 -1377h797l-10 -57h-858zM1139 1698l-340 -182l-21 36l338 193z" />
    <glyph glyph-name="lacute" unicode="&#x13a;" horiz-adv-x="512" 
d="M211 254l209 1180h55l-207 -1174q-10 -48 -10 -90q0 -61 26 -92t85 -31q57 0 125 37l10 -47q-75 -45 -152 -45q-149 0 -149 166q0 55 8 96zM797 1698l-340 -182l-21 36l338 193z" />
    <glyph glyph-name="uni013B" unicode="&#x13b;" horiz-adv-x="1134" 
d="M238 0l251 1434h62l-242 -1377h797l-10 -57h-858zM602 -156l45 25q26 -4 42.5 -21.5t21.5 -42.5q0 -6 1 -17t1 -17q-9 -134 -176 -183l-13 31q129 48 129 156q0 58 -51 69z" />
    <glyph glyph-name="uni013C" unicode="&#x13c;" horiz-adv-x="512" 
d="M211 254l209 1180h55l-207 -1174q-10 -48 -10 -90q0 -61 26 -92t85 -31q57 0 125 37l10 -47q-75 -45 -152 -45q-149 0 -149 166q0 55 8 96zM272 -156l45 25q26 -4 42.5 -21.5t21.5 -42.5q0 -6 1 -17t1 -17q-9 -134 -176 -183l-12 31q129 48 129 156q0 58 -52 69z" />
    <glyph glyph-name="Lcaron" unicode="&#x13d;" horiz-adv-x="1134" 
d="M1071 1434h55q9 -18 9 -54q0 -87 -50 -167.5t-131 -116.5l-20 30q68 40 106.5 109.5t38.5 138.5q0 32 -8 60zM238 0l251 1434h62l-242 -1377h797l-10 -57h-858z" />
    <glyph glyph-name="lcaron" unicode="&#x13e;" horiz-adv-x="557" 
d="M750 1434h57q6 -18 6 -54q0 -88 -49 -168t-131 -116l-21 30q68 40 107 109.5t39 138.5q0 41 -8 60zM211 254l211 1180h59l-211 -1174q-8 -39 -8 -90q-3 -123 109 -123q59 0 127 37l10 -47q-75 -45 -154 -45q-151 0 -151 166q0 55 8 96z" />
    <glyph glyph-name="Ldot" unicode="&#x13f;" horiz-adv-x="1134" 
d="M238 0l251 1434h62l-242 -1377h797l-10 -57h-858zM924 766q0 18 14.5 31.5t36.5 13.5q19 0 33 -14t14 -31q0 -21 -13.5 -36t-33.5 -15q-23 0 -37 15t-14 36z" />
    <glyph glyph-name="ldot" unicode="&#x140;" horiz-adv-x="575" 
d="M211 254l209 1180h55l-207 -1174q-10 -48 -10 -90q0 -61 26 -92t85 -31q57 0 125 37l10 -47q-75 -45 -152 -45q-149 0 -149 166q0 55 8 96zM555 631q0 19 14 32t33 13q18 0 31.5 -13.5t13.5 -31.5q0 -20 -13.5 -33.5t-31.5 -13.5q-19 0 -33 13.5t-14 33.5z" />
    <glyph glyph-name="Lslash" unicode="&#x141;" horiz-adv-x="1155" 
d="M145 494l13 63l217 105l135 772h61l-131 -742l441 211l-11 -61l-440 -213l-100 -572h796l-10 -57h-858l107 598z" />
    <glyph glyph-name="lslash" unicode="&#x142;" horiz-adv-x="577" 
d="M127 516l12 64l191 94l137 760h55l-131 -732l234 113l-11 -63l-233 -113l-68 -379q-8 -58 -8 -90q-3 -123 111 -123q58 0 123 37l12 -47q-75 -45 -156 -45q-147 0 -147 166q0 51 8 90l63 360z" />
    <glyph glyph-name="Nacute" unicode="&#x143;" horiz-adv-x="1636" 
d="M1399 0h-49l-820 1333l-235 -1333h-57l251 1434h50l819 -1336l233 1336h60zM1386 1698l-339 -182l-21 36l338 193z" />
    <glyph glyph-name="nacute" unicode="&#x144;" horiz-adv-x="1011" 
d="M328 922h57l-68 -387q40 64 87 126t110.5 129t135.5 108.5t138 41.5q94 0 138.5 -56t44.5 -153q0 -61 -21 -184l-106 -547h-58l107 535q22 125 20 178q-2 80 -32 126t-107 46q-46 0 -100.5 -30.5t-104 -76.5t-101.5 -108.5t-91.5 -119t-75.5 -114.5l-76 -436h-57z
M963 1419l-230 -289l-37 25l224 299z" />
    <glyph glyph-name="uni0145" unicode="&#x145;" horiz-adv-x="1636" 
d="M1399 0h-49l-820 1333l-235 -1333h-57l251 1434h50l819 -1336l233 1336h60zM729 -156l45 25q26 -4 42.5 -21.5t21.5 -42.5q0 -6 1 -17t1 -17q-9 -134 -176 -183l-13 31q129 48 129 156q0 58 -51 69z" />
    <glyph glyph-name="uni0146" unicode="&#x146;" horiz-adv-x="1011" 
d="M328 922h57l-68 -387q40 64 87 126t110.5 129t135.5 108.5t138 41.5q94 0 138.5 -56t44.5 -153q0 -61 -21 -184l-106 -547h-58l107 535q22 125 20 178q-2 80 -32 126t-107 46q-46 0 -100.5 -30.5t-104 -76.5t-101.5 -108.5t-91.5 -119t-75.5 -114.5l-76 -436h-57z
M469 -156l45 25q26 -4 42.5 -21.5t21.5 -42.5q0 -6 1 -17t1 -17q-9 -134 -177 -183l-12 31q129 48 129 156q0 58 -51 69z" />
    <glyph glyph-name="Ncaron" unicode="&#x147;" horiz-adv-x="1636" 
d="M1399 0h-49l-820 1333l-235 -1333h-57l251 1434h50l819 -1336l233 1336h60zM1085 1520l-311 188l29 37l289 -176l348 176l20 -37l-366 -188h-9z" />
    <glyph glyph-name="ncaron" unicode="&#x148;" horiz-adv-x="1011" 
d="M328 922h57l-68 -387q40 64 87 126t110.5 129t135.5 108.5t138 41.5q94 0 138.5 -56t44.5 -153q0 -61 -21 -184l-106 -547h-58l107 535q22 125 20 178q-2 80 -32 126t-107 46q-46 0 -100.5 -30.5t-104 -76.5t-101.5 -108.5t-91.5 -119t-75.5 -114.5l-76 -436h-57z
M725 1147l-205 272l37 33l178 -246l266 244l27 -37l-295 -266h-8z" />
    <glyph glyph-name="Eng" unicode="&#x14a;" horiz-adv-x="1636" 
d="M1651 1434l-269 -1534q-28 -158 -102 -242t-215 -84q-105 0 -172 59l31 45q65 -45 145 -45q63 0 109 22t74.5 63.5t44.5 85.5t26 102l16 94l-809 1333l-235 -1333h-57l251 1434h50l815 -1348l237 1348h60z" />
    <glyph glyph-name="eng" unicode="&#x14b;" horiz-adv-x="1011" 
d="M328 922h57l-68 -387q40 64 87 126t110.5 129t135.5 108.5t138 41.5q94 0 138.5 -56t44.5 -153q0 -61 -21 -184l-119 -615q-11 -58 -26 -106t-40.5 -96.5t-57.5 -81.5t-80 -53.5t-107 -20.5q-90 0 -149 47l26 47q56 -39 127 -39q59 0 103.5 26t72.5 73.5t45 95.5t29 110
l119 601q22 125 20 178q-2 80 -32 126t-107 46q-46 0 -100.5 -30.5t-104 -76.5t-101.5 -108.5t-91.5 -119t-75.5 -114.5l-76 -436h-57z" />
    <glyph glyph-name="Omacron" unicode="&#x14c;" horiz-adv-x="1652" 
d="M231 645q0 171 59.5 321t163 256.5t250 168t314.5 61.5q304 0 479.5 -177t175.5 -468q0 -236 -98 -424t-275 -294.5t-401 -106.5q-162 0 -289.5 48.5t-210 136.5t-125.5 209.5t-43 268.5zM295 649q0 -285 163 -446.5t445 -161.5q146 0 275.5 54.5t225 151.5t151 239.5
t55.5 310.5q0 271 -160 433.5t-438 162.5q-144 0 -274.5 -53.5t-228.5 -148t-156 -235.5t-58 -307zM786 1608l9 49h608l-8 -49h-609z" />
    <glyph glyph-name="omacron" unicode="&#x14d;" horiz-adv-x="983" 
d="M498 -18q-160 0 -244 105t-84 278q0 81 17.5 161t55.5 155.5t92 132.5t134.5 91.5t175.5 34.5q83 0 146.5 -31t101 -84t56 -118.5t18.5 -141.5q0 -163 -55 -294.5t-162.5 -210t-251.5 -78.5zM504 37q77 0 143 27t113.5 74.5t80.5 112.5t49.5 142t16.5 162
q0 151 -67.5 240.5t-200.5 89.5q-81 0 -149.5 -29t-116 -78.5t-80.5 -115.5t-48.5 -139t-15.5 -150q0 -156 70.5 -246t204.5 -90zM473 1278l8 51h496l-8 -51h-496z" />
    <glyph glyph-name="Ohungarumlaut" unicode="&#x150;" horiz-adv-x="1652" 
d="M231 645q0 171 59.5 321t163 256.5t250 168t314.5 61.5q304 0 479.5 -177t175.5 -468q0 -236 -98 -424t-275 -294.5t-401 -106.5q-162 0 -289.5 48.5t-210 136.5t-125.5 209.5t-43 268.5zM295 649q0 -285 163 -446.5t445 -161.5q146 0 275.5 54.5t225 151.5t151 239.5
t55.5 310.5q0 271 -160 433.5t-438 162.5q-144 0 -274.5 -53.5t-228.5 -148t-156 -235.5t-58 -307zM1589 1706l-329 -190l-25 28l319 201zM1227 1714l-318 -198l-26 28l303 201z" />
    <glyph glyph-name="ohungarumlaut" unicode="&#x151;" horiz-adv-x="983" 
d="M498 -18q-160 0 -244 105t-84 278q0 81 17.5 161t55.5 155.5t92 132.5t134.5 91.5t175.5 34.5q83 0 146.5 -31t101 -84t56 -118.5t18.5 -141.5q0 -163 -55 -294.5t-162.5 -210t-251.5 -78.5zM504 37q77 0 143 27t113.5 74.5t80.5 112.5t49.5 142t16.5 162
q0 151 -67.5 240.5t-200.5 89.5q-81 0 -149.5 -29t-116 -78.5t-80.5 -115.5t-48.5 -139t-15.5 -150q0 -156 70.5 -246t204.5 -90zM1083 1417l-231 -287l-37 25l227 297zM782 1423l-225 -293l-37 25l221 299z" />
    <glyph glyph-name="OE" unicode="&#x152;" horiz-adv-x="2146" 
d="M1206 0l15 88q-165 -106 -359 -106q-294 0 -462.5 181.5t-168.5 475.5q0 231 99.5 416t283 291t418.5 106q258 0 412 -109l14 91h778l-10 -58h-717l-108 -618h655l-8 -58h-657l-113 -643h737l-10 -57h-799zM872 41q184 0 363 117l195 1118q-146 117 -404 117
q-211 0 -378 -95.5t-260 -264.5t-93 -380q0 -133 38 -245t109.5 -194t181.5 -127.5t248 -45.5z" />
    <glyph glyph-name="oe" unicode="&#x153;" horiz-adv-x="1531" 
d="M844 158q-130 -176 -346 -176q-160 0 -244 105t-84 278q0 81 17.5 161t55.5 155.5t92 132.5t134.5 91.5t175.5 34.5q112 0 183 -55t104 -148q71 94 167.5 148.5t203.5 54.5q123 0 190.5 -55.5t65.5 -155.5q0 -82 -51.5 -145.5t-142.5 -101.5t-205.5 -57t-248.5 -19
l-51 -41q-3 -143 69 -235.5t206 -92.5q170 0 323 137l29 -37q-162 -155 -363 -155q-102 0 -172.5 47.5t-107.5 128.5zM819 215q-18 55 -18 137q0 180 90 332q-24 94 -87.5 147.5t-164.5 53.5q-81 0 -149.5 -29t-116 -78.5t-80.5 -115.5t-48.5 -139t-15.5 -150
q0 -156 70.5 -246t204.5 -90q204 0 315 178zM1296 885q-158 0 -279 -128t-151 -311q174 -3 311.5 23t225 86.5t92.5 149.5q3 50 -16 92q-40 88 -183 88z" />
    <glyph glyph-name="Racute" unicode="&#x154;" horiz-adv-x="1261" 
d="M299 0h-61l251 1434q44 0 171.5 2t148.5 2q424 0 424 -328q0 -190 -119 -316t-321 -157l407 -637h-72l-397 627h-321zM795 1380q-118 0 -254 -4l-123 -692h268q131 0 239.5 48t176 144t67.5 224q0 280 -374 280zM1075 1698l-340 -182l-20 36l338 193z" />
    <glyph glyph-name="racute" unicode="&#x155;" horiz-adv-x="632" 
d="M328 922h57l-59 -340q32 62 72 121t89 114t105 89t108 34t91 -20l-29 -54q-43 19 -70 19q-41 0 -87 -28.5t-86 -71t-82 -102t-72 -110t-60 -106.5l-80 -467h-57zM836 1419l-230 -289l-37 25l224 299z" />
    <glyph glyph-name="uni0156" unicode="&#x156;" horiz-adv-x="1261" 
d="M299 0h-61l251 1434q44 0 171.5 2t148.5 2q424 0 424 -328q0 -190 -119 -316t-321 -157l407 -637h-72l-397 627h-321zM795 1380q-118 0 -254 -4l-123 -692h268q131 0 239.5 48t176 144t67.5 224q0 280 -374 280zM608 -156l45 25q26 -4 42.5 -21.5t21.5 -42.5q0 -6 1 -17
t1 -17q-9 -134 -176 -183l-13 31q129 48 129 156q0 58 -51 69z" />
    <glyph glyph-name="uni0157" unicode="&#x157;" horiz-adv-x="632" 
d="M328 922h57l-59 -340q32 62 72 121t89 114t105 89t108 34t91 -20l-29 -54q-43 19 -70 19q-41 0 -87 -28.5t-86 -71t-82 -102t-72 -110t-60 -106.5l-80 -467h-57zM145 -156l45 25q26 -4 42.5 -21.5t21.5 -42.5q0 -6 1 -17t1 -17q-9 -134 -176 -183l-12 31q129 48 129 156
q0 58 -52 69z" />
    <glyph glyph-name="Rcaron" unicode="&#x158;" horiz-adv-x="1261" 
d="M299 0h-61l251 1434q44 0 171.5 2t148.5 2q424 0 424 -328q0 -190 -119 -316t-321 -157l407 -637h-72l-397 627h-321zM795 1380q-118 0 -254 -4l-123 -692h268q131 0 239.5 48t176 144t67.5 224q0 280 -374 280zM829 1520l-311 188l29 37l289 -176l348 176l20 -37
l-366 -188h-9z" />
    <glyph glyph-name="rcaron" unicode="&#x159;" horiz-adv-x="632" 
d="M328 922h57l-59 -340q32 62 72 121t89 114t105 89t108 34t91 -20l-29 -54q-43 19 -70 19q-41 0 -87 -28.5t-86 -71t-82 -102t-72 -110t-60 -106.5l-80 -467h-57zM594 1147l-205 272l37 33l178 -246l266 244l27 -37l-295 -266h-8z" />
    <glyph glyph-name="Sacute" unicode="&#x15a;" horiz-adv-x="1118" 
d="M1006 381q0 56 -23 103t-61.5 81t-89 63t-106 55t-111 52.5t-106 59.5t-89 71.5t-61.5 92.5t-23 120q0 75 31 141.5t88.5 118.5t149 82.5t204.5 30.5q112 0 207 -40t151 -105l-39 -45q-118 131 -325 131q-185 0 -293.5 -86t-108.5 -224q0 -74 37 -132.5t96 -97t130 -73
t142 -69.5t130 -76t96 -103t37 -141q0 -188 -127.5 -298.5t-325.5 -110.5q-154 0 -271.5 60t-170.5 161l41 39q55 -91 157.5 -146t241.5 -55q60 0 116 13t106.5 40.5t88 67t59.5 96t22 123.5zM1092 1698l-340 -182l-21 36l338 193z" />
    <glyph glyph-name="sacute" unicode="&#x15b;" horiz-adv-x="675" 
d="M584 231q0 53 -27 95.5t-67 68.5t-87.5 56.5t-87.5 59t-67 77t-27 110.5q0 102 77.5 172t215.5 70q72 0 138.5 -14.5t105.5 -40.5l-29 -45q-82 47 -213 47q-110 0 -172.5 -51t-62.5 -134q0 -62 37.5 -108.5t90.5 -78.5t106 -65.5t90.5 -87.5t37.5 -126q0 -116 -84.5 -185
t-222.5 -69q-164 0 -273 73l31 47q110 -67 242 -67q105 0 176.5 53.5t71.5 142.5zM782 1419l-229 -289l-37 25l223 299z" />
    <glyph glyph-name="Scircumflex" unicode="&#x15c;" horiz-adv-x="1118" 
d="M1006 381q0 56 -23 103t-61.5 81t-89 63t-106 55t-111 52.5t-106 59.5t-89 71.5t-61.5 92.5t-23 120q0 75 31 141.5t88.5 118.5t149 82.5t204.5 30.5q112 0 207 -40t151 -105l-39 -45q-118 131 -325 131q-185 0 -293.5 -86t-108.5 -224q0 -74 37 -132.5t96 -97t130 -73
t142 -69.5t130 -76t96 -103t37 -141q0 -188 -127.5 -298.5t-325.5 -110.5q-154 0 -271.5 60t-170.5 161l41 39q55 -91 157.5 -146t241.5 -55q60 0 116 13t106.5 40.5t88 67t59.5 96t22 123.5zM854 1743l311 -191l-28 -36l-289 178l-348 -178l-21 38l367 189h8z" />
    <glyph glyph-name="scircumflex" unicode="&#x15d;" horiz-adv-x="675" 
d="M584 231q0 53 -27 95.5t-67 68.5t-87.5 56.5t-87.5 59t-67 77t-27 110.5q0 102 77.5 172t215.5 70q72 0 138.5 -14.5t105.5 -40.5l-29 -45q-82 47 -213 47q-110 0 -172.5 -51t-62.5 -134q0 -62 37.5 -108.5t90.5 -78.5t106 -65.5t90.5 -87.5t37.5 -126q0 -116 -84.5 -185
t-222.5 -69q-164 0 -273 73l31 47q110 -67 242 -67q105 0 176.5 53.5t71.5 142.5zM608 1450l205 -274l-35 -31l-180 246l-266 -244l-27 35l295 268h8z" />
    <glyph glyph-name="Scedilla" unicode="&#x15e;" horiz-adv-x="1118" 
d="M365 -362l26 34q64 -43 146 -43q81 0 133.5 34.5t52.5 94.5q0 92 -152 92h-12l23 134q-142 7 -250 65.5t-158 153.5l41 39q55 -91 157.5 -146t241.5 -55q60 0 116 13t106.5 40.5t88 67t59.5 96t22 123.5q0 56 -23 103t-61.5 81t-89 63t-106 55t-111 52.5t-106 59.5
t-89 71.5t-61.5 92.5t-23 120q0 75 31 141.5t88.5 118.5t149 82.5t204.5 30.5q112 0 207 -40t151 -105l-39 -45q-118 131 -325 131q-185 0 -293.5 -86t-108.5 -224q0 -74 37 -132.5t96 -97t130 -73t142 -69.5t130 -76t96 -103t37 -141q0 -188 -125 -296t-323 -111l-17 -99
q80 -1 123.5 -29t48.5 -75q6 -42 -16 -84q-21 -52 -79.5 -80.5t-139.5 -28.5q-95 0 -176 50z" />
    <glyph glyph-name="scedilla" unicode="&#x15f;" horiz-adv-x="675" 
d="M84 -362l22 32q61 -39 134 -39q21 -2 75 7q51 9 83.5 38t35.5 70q3 31 -8 51q-26 53 -137 53h-13l23 134q-145 9 -236 71l31 47q110 -67 242 -67q105 0 176.5 53.5t71.5 142.5q0 53 -27 95.5t-67 68.5t-87.5 56.5t-87.5 59t-67 77t-27 110.5q0 102 77.5 172t215.5 70
q72 0 138.5 -14.5t105.5 -40.5l-29 -45q-82 47 -213 47q-110 0 -172.5 -51t-62.5 -134q0 -62 37.5 -108.5t90.5 -78.5t106 -65.5t90.5 -87.5t37.5 -126q0 -115 -85 -184.5t-222 -69.5l-17 -97q177 -8 177 -125q0 -78 -67 -125t-177 -47q-95 0 -168 50z" />
    <glyph glyph-name="Scaron" unicode="&#x160;" horiz-adv-x="1118" 
d="M1006 381q0 56 -23 103t-61.5 81t-89 63t-106 55t-111 52.5t-106 59.5t-89 71.5t-61.5 92.5t-23 120q0 75 31 141.5t88.5 118.5t149 82.5t204.5 30.5q112 0 207 -40t151 -105l-39 -45q-118 131 -325 131q-185 0 -293.5 -86t-108.5 -224q0 -74 37 -132.5t96 -97t130 -73
t142 -69.5t130 -76t96 -103t37 -141q0 -188 -127.5 -298.5t-325.5 -110.5q-154 0 -271.5 60t-170.5 161l41 39q55 -91 157.5 -146t241.5 -55q60 0 116 13t106.5 40.5t88 67t59.5 96t22 123.5zM823 1520l-311 188l29 37l288 -176l349 176l20 -37l-367 -188h-8z" />
    <glyph glyph-name="scaron" unicode="&#x161;" horiz-adv-x="675" 
d="M584 231q0 53 -27 95.5t-67 68.5t-87.5 56.5t-87.5 59t-67 77t-27 110.5q0 102 77.5 172t215.5 70q72 0 138.5 -14.5t105.5 -40.5l-29 -45q-82 47 -213 47q-110 0 -172.5 -51t-62.5 -134q0 -62 37.5 -108.5t90.5 -78.5t106 -65.5t90.5 -87.5t37.5 -126q0 -116 -84.5 -185
t-222.5 -69q-164 0 -273 73l31 47q110 -67 242 -67q105 0 176.5 53.5t71.5 142.5zM535 1147l-205 272l37 33l178 -246l266 244l27 -37l-295 -266h-8z" />
    <glyph glyph-name="uni0162" unicode="&#x162;" horiz-adv-x="1228" 
d="M365 -362l26 34q64 -43 144 -43q79 0 133.5 34.5t54.5 94.5q0 92 -154 92l4 44h-16l262 1482h-555l10 58h1170l-10 -58h-555l-230 -1304l-26 -80l-19 -107q91 -1 135.5 -34t44.5 -91q0 -75 -69 -123.5t-178 -48.5q-88 0 -172 50z" />
    <glyph glyph-name="uni0163" unicode="&#x163;" horiz-adv-x="616" 
d="M133 -362l23 32q61 -41 149 -41q80 0 131 35t51 94q0 92 -149 92h-12l26 146q-143 36 -143 227q0 64 14 146l146 809h57l-47 -256h340l-8 -56h-340l-90 -497q-15 -81 -15 -133q0 -95 42 -143t122 -48q78 0 154 49l18 -47q-77 -50 -158 -53q-31 -3 -55 0l-18 -109
q174 -8 174 -125q0 -78 -67 -125t-177 -47q-95 0 -168 50z" />
    <glyph glyph-name="Tcaron" unicode="&#x164;" horiz-adv-x="1228" 
d="M264 1376l10 58h1170l-10 -58h-555l-244 -1376h-60l244 1376h-555zM872 1520l-311 188l29 37l289 -176l348 176l20 -37l-366 -188h-9z" />
    <glyph glyph-name="tcaron" unicode="&#x165;" horiz-adv-x="632" 
d="M221 350l148 828h57l-47 -256h340l-8 -56h-340l-90 -497q-15 -81 -15 -133q-1 -95 41 -143t123 -48q78 0 154 49l18 -47q-88 -57 -186 -57q-104 0 -156.5 61t-50.5 172q0 65 12 127zM731 1434h57q7 -21 7 -54q0 -86 -47 -165.5t-134 -118.5l-22 32q69 40 108 108.5
t39 137.5q0 41 -8 60z" />
    <glyph glyph-name="Umacron" unicode="&#x16a;" horiz-adv-x="1538" 
d="M1573 1434l-146 -832q-56 -313 -210.5 -464.5t-430.5 -151.5q-230 0 -354 119.5t-123 347.5q3 85 17 163l143 818h61l-143 -809q-14 -83 -14 -164q-1 -210 111 -314t313 -104q250 0 386 145.5t185 427.5l145 818h60zM750 1608l8 49h608l-8 -49h-608z" />
    <glyph glyph-name="umacron" unicode="&#x16b;" horiz-adv-x="980" 
d="M391 37q59 0 127 46t131.5 122.5t109.5 142.5t89 139l76 435h57l-162 -922h-55l67 387q-251 -405 -454 -405q-182 0 -182 208q0 57 22 185l115 547h55l-113 -535q-22 -105 -22 -178q2 -81 31.5 -126.5t107.5 -45.5zM483 1278l9 51h495l-8 -51h-496z" />
    <glyph glyph-name="Ubreve" unicode="&#x16c;" horiz-adv-x="1538" 
d="M1573 1434l-146 -832q-56 -313 -210.5 -464.5t-430.5 -151.5q-230 0 -354 119.5t-123 347.5q3 85 17 163l143 818h61l-143 -809q-14 -83 -14 -164q-1 -210 111 -314t313 -104q250 0 386 145.5t185 427.5l145 818h60zM752 1710l34 31q36 -62 105.5 -100.5t163.5 -38.5
q172 0 311 139l23 -31q-61 -70 -148.5 -116t-191.5 -46q-98 0 -179 45t-118 117z" />
    <glyph glyph-name="ubreve" unicode="&#x16d;" horiz-adv-x="980" 
d="M391 37q59 0 127 46t131.5 122.5t109.5 142.5t89 139l76 435h57l-162 -922h-55l67 387q-251 -405 -454 -405q-182 0 -182 208q0 57 22 185l115 547h55l-113 -535q-22 -105 -22 -178q2 -81 31.5 -126.5t107.5 -45.5zM446 1364l35 29q73 -138 224 -138q132 0 266 138
l22 -31q-146 -158 -293 -158q-94 0 -157.5 45.5t-96.5 114.5z" />
    <glyph glyph-name="Uring" unicode="&#x16e;" horiz-adv-x="1538" 
d="M1573 1434l-146 -832q-56 -313 -210.5 -464.5t-430.5 -151.5q-230 0 -354 119.5t-123 347.5q3 85 17 163l143 818h61l-143 -809q-14 -83 -14 -164q-1 -210 111 -314t313 -104q250 0 386 145.5t185 427.5l145 818h60zM842 1595q0 82 57.5 124t147.5 42q92 0 150 -42
t58 -124q0 -80 -59 -125t-149 -45q-89 0 -147 45t-58 125zM889 1595q0 -64 44.5 -97.5t115.5 -33.5q70 0 114.5 34t44.5 97q0 64 -44 95.5t-115 31.5q-72 0 -116 -31.5t-44 -95.5z" />
    <glyph glyph-name="uring" unicode="&#x16f;" horiz-adv-x="980" 
d="M391 37q59 0 127 46t131.5 122.5t109.5 142.5t89 139l76 435h57l-162 -922h-55l67 387q-251 -405 -454 -405q-182 0 -182 208q0 57 22 185l115 547h55l-113 -535q-22 -105 -22 -178q2 -81 31.5 -126.5t107.5 -45.5zM518 1257q0 84 58.5 142.5t142.5 58.5q85 0 144 -59
t59 -142q0 -82 -59 -139t-144 -57t-143 57t-58 139zM561 1260q0 -67 46 -113.5t112 -46.5t113 46.5t47 113.5q0 66 -47 112.5t-113 46.5t-112 -46.5t-46 -112.5z" />
    <glyph glyph-name="Uhungarumlaut" unicode="&#x170;" horiz-adv-x="1538" 
d="M1573 1434l-146 -832q-56 -313 -210.5 -464.5t-430.5 -151.5q-230 0 -354 119.5t-123 347.5q3 85 17 163l143 818h61l-143 -809q-14 -83 -14 -164q-1 -210 111 -314t313 -104q250 0 386 145.5t185 427.5l145 818h60zM1507 1706l-329 -190l-25 28l320 201zM1145 1714
l-318 -198l-26 28l303 201z" />
    <glyph glyph-name="uhungarumlaut" unicode="&#x171;" horiz-adv-x="980" 
d="M391 37q59 0 127 46t131.5 122.5t109.5 142.5t89 139l76 435h57l-162 -922h-55l67 387q-251 -405 -454 -405q-182 0 -182 208q0 57 22 185l115 547h55l-113 -535q-22 -105 -22 -178q2 -81 31.5 -126.5t107.5 -45.5zM1073 1417l-231 -287l-37 25l227 297zM772 1423
l-225 -293l-37 25l221 299z" />
    <glyph glyph-name="Uogonek" unicode="&#x172;" horiz-adv-x="1538" 
d="M932 -342l14 -41q-58 -27 -125 -27q-86 0 -141 41t-55 117q0 81 58.5 143t150.5 97q-7 0 -24 -1t-24 -1q-230 0 -354 119.5t-123 347.5q0 66 17 163l143 818h61l-143 -809q-14 -83 -14 -164q-1 -210 111 -314t313 -104q250 0 386 145.5t185 427.5l145 818h60l-146 -832
q-48 -273 -170.5 -423t-336.5 -183q-102 -31 -168 -92t-66 -140q0 -63 43 -93.5t105 -30.5q50 0 98 18z" />
    <glyph glyph-name="uogonek" unicode="&#x173;" horiz-adv-x="980" 
d="M750 -342l14 -39q-63 -29 -129 -29q-83 0 -137 40.5t-54 119.5q0 108 97.5 181.5t224.5 84.5l65 371q-251 -405 -454 -405q-182 0 -182 208q0 57 22 185l115 547h55l-115 -535q-20 -114 -20 -178q2 -81 31.5 -126.5t107.5 -45.5q62 0 132.5 47t132 121t108.5 144t84 138
l76 435h57l-162 -922q-76 0 -148.5 -30t-119.5 -85.5t-47 -120.5q0 -63 42 -93.5t105 -30.5q51 0 99 18z" />
    <glyph glyph-name="Ydieresis" unicode="&#x178;" horiz-adv-x="1175" 
d="M1378 1434l-659 -797l-111 -637h-59l110 637l-372 797h63l346 -740l611 740h71zM578 1630q0 19 14 31t35 12q18 0 31.5 -12.5t13.5 -30.5q0 -21 -13.5 -33t-31.5 -12q-21 0 -35 12t-14 33zM1055 1630q0 18 15 30.5t36 12.5q18 0 31.5 -12t13.5 -31q0 -21 -13.5 -33
t-31.5 -12q-21 0 -36 12t-15 33z" />
    <glyph glyph-name="Zacute" unicode="&#x179;" horiz-adv-x="1323" 
d="M389 1376l8 58h1053l-6 -33l-1237 -1344h1022l-10 -57h-1115l7 33l1237 1343h-959zM1208 1698l-340 -182l-20 36l338 193z" />
    <glyph glyph-name="zacute" unicode="&#x17a;" horiz-adv-x="792" 
d="M233 866l7 56h653l-4 -33l-739 -834h587l-8 -55h-674l6 33l736 833h-564zM848 1419l-230 -289l-36 25l223 299z" />
    <glyph glyph-name="Zdotaccent" unicode="&#x17b;" horiz-adv-x="1323" 
d="M389 1376l8 58h1053l-6 -33l-1237 -1344h1022l-10 -57h-1115l7 33l1237 1343h-959zM887 1632q0 21 14 33t35 12q20 0 33.5 -12t13.5 -33q0 -22 -13.5 -35.5t-33.5 -13.5q-21 0 -35 13t-14 36z" />
    <glyph glyph-name="zdotaccent" unicode="&#x17c;" horiz-adv-x="792" 
d="M233 866l7 56h653l-4 -33l-739 -834h587l-8 -55h-674l6 33l736 833h-564zM600 1288q0 19 14 32t33 13q18 0 31.5 -13.5t13.5 -31.5q0 -20 -13.5 -33.5t-31.5 -13.5q-19 0 -33 13.5t-14 33.5z" />
    <glyph glyph-name="Zcaron" unicode="&#x17d;" horiz-adv-x="1323" 
d="M389 1376l8 58h1053l-6 -33l-1237 -1344h1022l-10 -57h-1115l7 33l1237 1343h-959zM924 1520l-312 188l29 37l289 -176l348 176l20 -37l-366 -188h-8z" />
    <glyph glyph-name="zcaron" unicode="&#x17e;" horiz-adv-x="792" 
d="M233 866l7 56h653l-4 -33l-739 -834h587l-8 -55h-674l6 33l736 833h-564zM621 1147l-205 272l37 33l178 -246l266 244l27 -37l-295 -266h-8z" />
    <glyph glyph-name="longs" unicode="&#x17f;" horiz-adv-x="526" 
d="M168 0l186 1061q69 391 381 391q139 0 217 -78l-30 -43q-76 66 -187 66q-132 0 -211.5 -83t-111.5 -261l-187 -1053h-57z" />
    <glyph glyph-name="uni018F" unicode="&#x18f;" horiz-adv-x="1607" 
d="M250 760h1315q9 130 -22.5 244t-100 201t-181 137.5t-255.5 50.5q-246 0 -426 -125l-27 45q189 139 461 139q291 0 453.5 -173.5t162.5 -467.5q0 -171 -57.5 -323t-161 -264t-255.5 -177t-331 -65q-212 0 -359 101t-203.5 278.5t-12.5 398.5zM829 41q196 0 356.5 85
t258.5 235t119 341h-1260q-28 -184 26.5 -334.5t185.5 -238.5t314 -88z" />
    <glyph glyph-name="florin" unicode="&#x192;" 
d="M788 1053l-24 -131h375v-56h-385l-168 -934q-33 -181 -107 -269.5t-221 -88.5q-101 0 -174 53l20 47q65 -45 144 -45q125 0 188 75.5t92 236.5l166 925h-352v56h363l26 149q36 198 116.5 289.5t231.5 91.5q144 0 232 -76l-25 -45q-87 66 -199 66q-128 0 -196.5 -80.5
t-102.5 -263.5z" />
    <glyph glyph-name="uni01DD" unicode="&#x1dd;" horiz-adv-x="888" 
d="M215 748l-29 36q166 156 363 156q82 0 145 -30t101 -82.5t57.5 -118.5t19.5 -142q0 -148 -65 -282t-181.5 -218.5t-254.5 -84.5q-120 0 -189 53t-69 155q0 73 39 131t104 95t156 61t189.5 33.5t209.5 7.5v45q3 137 -65.5 229.5t-200.5 92.5q-174 0 -330 -137zM375 37
q156 0 278 126t152 308q-123 3 -233 -10.5t-200.5 -43.5t-144 -84.5t-53.5 -127.5q0 -83 52 -125.5t149 -42.5z" />
    <glyph glyph-name="uni0218" unicode="&#x218;" horiz-adv-x="1118" 
d="M1006 381q0 56 -23 103t-61.5 81t-89 63t-106 55t-111 52.5t-106 59.5t-89 71.5t-61.5 92.5t-23 120q0 75 31 141.5t88.5 118.5t149 82.5t204.5 30.5q112 0 207 -40t151 -105l-39 -45q-118 131 -325 131q-185 0 -293.5 -86t-108.5 -224q0 -74 37 -132.5t96 -97t130 -73
t142 -69.5t130 -76t96 -103t37 -141q0 -188 -127.5 -298.5t-325.5 -110.5q-154 0 -271.5 60t-170.5 161l41 39q55 -91 157.5 -146t241.5 -55q60 0 116 13t106.5 40.5t88 67t59.5 96t22 123.5zM543 -156l45 25q53 -9 63 -64q0 -6 1 -17t1 -17q-9 -134 -176 -183l-12 31
q129 48 129 156q0 58 -51 69z" />
    <glyph glyph-name="uni0219" unicode="&#x219;" horiz-adv-x="675" 
d="M584 231q0 53 -27 95.5t-67 68.5t-87.5 56.5t-87.5 59t-67 77t-27 110.5q0 102 77.5 172t215.5 70q72 0 138.5 -14.5t105.5 -40.5l-29 -45q-82 47 -213 47q-110 0 -172.5 -51t-62.5 -134q0 -62 37.5 -108.5t90.5 -78.5t106 -65.5t90.5 -87.5t37.5 -126q0 -116 -84.5 -185
t-222.5 -69q-164 0 -273 73l31 47q110 -67 242 -67q105 0 176.5 53.5t71.5 142.5zM268 -156l45 25q26 -4 42.5 -21.5t21.5 -42.5q0 -6 1 -17t1 -17q-9 -134 -176 -183l-13 31q129 48 129 156q0 58 -51 69z" />
    <glyph glyph-name="uni021A" unicode="&#x21a;" horiz-adv-x="1228" 
d="M264 1376l10 58h1170l-10 -58h-555l-244 -1376h-60l244 1376h-555zM532 -156l46 25q53 -9 63 -64q0 -6 1 -17t1 -17q-9 -134 -176 -183l-12 31q129 48 129 156q0 58 -52 69z" />
    <glyph glyph-name="uni021B" unicode="&#x21b;" horiz-adv-x="616" 
d="M221 350l148 828h57l-47 -256h340l-8 -56h-340l-90 -497q-15 -81 -15 -133q-1 -95 41 -143t123 -48q78 0 154 49l18 -47q-88 -57 -186 -57q-104 0 -156.5 61t-50.5 172q0 65 12 127zM332 -156l45 25q53 -9 63 -64q0 -6 1 -17t1 -17q-9 -134 -176 -183l-12 31
q129 48 129 156q0 58 -51 69z" />
    <glyph glyph-name="uni0237" unicode="&#x237;" horiz-adv-x="415" 
d="M406 922l-175 -990q-62 -358 -307 -358q-94 0 -153 47l26 47q56 -39 127 -39q197 0 250 305l174 988h58z" />
    <glyph glyph-name="uni0259" unicode="&#x259;" horiz-adv-x="888" 
d="M215 748l-29 36q166 156 363 156q82 0 145 -30t101 -82.5t57.5 -118.5t19.5 -142q0 -148 -65 -282t-181.5 -218.5t-254.5 -84.5q-120 0 -189 53t-69 155q0 73 39 131t104 95t156 61t189.5 33.5t209.5 7.5v45q3 137 -65.5 229.5t-200.5 92.5q-174 0 -330 -137zM375 37
q156 0 278 126t152 308q-123 3 -233 -10.5t-200.5 -43.5t-144 -84.5t-53.5 -127.5q0 -83 52 -125.5t149 -42.5z" />
    <glyph glyph-name="uni02BC" unicode="&#x2bc;" horiz-adv-x="434" 
d="M289 1296l53 31q27 -41 27 -102q0 -189 -179 -269l-24 33q145 80 145 223q0 52 -22 84z" />
    <glyph glyph-name="circumflex" unicode="&#x2c6;" horiz-adv-x="753" 
d="M479 1450l205 -274l-35 -31l-180 246l-266 -244l-27 35l295 268h8z" />
    <glyph glyph-name="caron" unicode="&#x2c7;" horiz-adv-x="753" 
d="M391 1147l-205 272l37 33l178 -246l267 244l26 -37l-295 -266h-8z" />
    <glyph glyph-name="breve" unicode="&#x2d8;" horiz-adv-x="792" 
d="M184 1364l35 29q73 -138 223 -138q133 0 267 138l22 -31q-146 -158 -293 -158q-94 0 -157.5 45.5t-96.5 114.5z" />
    <glyph glyph-name="dotaccent" unicode="&#x2d9;" horiz-adv-x="337" 
d="M123 1288q0 19 14 32t33 13q18 0 31.5 -13.5t13.5 -31.5q0 -20 -13.5 -33.5t-31.5 -13.5q-19 0 -33 13.5t-14 33.5z" />
    <glyph glyph-name="ring" unicode="&#x2da;" horiz-adv-x="649" 
d="M123 1257q0 84 58.5 142.5t142.5 58.5t143 -59t59 -142q0 -82 -58.5 -139t-143.5 -57t-143 57t-58 139zM166 1260q0 -67 46 -113.5t112 -46.5t112.5 46.5t46.5 113.5q0 66 -46.5 112.5t-112.5 46.5t-112 -46.5t-46 -112.5z" />
    <glyph glyph-name="ogonek" unicode="&#x2db;" horiz-adv-x="616" 
d="M418 -342l14 -39q-63 -29 -129 -29q-83 0 -136.5 40.5t-53.5 119.5q0 80 59 144.5t145 97.5t175 33l-5 -25q-73 0 -145 -29.5t-121 -85.5t-49 -121q0 -63 42 -93.5t105 -30.5q51 0 99 18z" />
    <glyph glyph-name="tilde" unicode="&#x2dc;" horiz-adv-x="839" 
d="M150 1200l-27 31q102 94 186 94q43 0 82.5 -24.5t75 -49t70.5 -24.5q63 0 155 84l25 -33q-100 -100 -185 -100q-31 0 -62 15t-52.5 33t-51.5 33t-61 15q-61 0 -155 -74z" />
    <glyph glyph-name="hungarumlaut" unicode="&#x2dd;" horiz-adv-x="808" 
d="M686 1417l-231 -287l-37 25l227 297zM385 1423l-225 -293l-37 25l221 299z" />
    <glyph glyph-name="gravecomb" unicode="&#x300;" horiz-adv-x="0" 
d="M-332 1130l-229 289l43 35l223 -299z" />
    <glyph glyph-name="acutecomb" unicode="&#x301;" horiz-adv-x="0" 
d="M-70 1419l-229 -289l-37 25l223 299z" />
    <glyph glyph-name="Delta" unicode="&#x394;" horiz-adv-x="1441" 
d="M109 0l809 1450h32l447 -1450h-1288zM926 1343l-727 -1286h1108z" />
    <glyph glyph-name="Delta" unicode="&#x2206;" horiz-adv-x="1441" 
d="M109 0l809 1450h32l447 -1450h-1288zM926 1343l-727 -1286h1108z" />
    <glyph glyph-name="uni03A9" unicode="&#x3a9;" horiz-adv-x="1652" 
d="M215 0l4 57h383q-163 58 -264.5 217.5t-101.5 366.5q0 167 66.5 318.5t177.5 259t260 170.5t309 63q178 0 319.5 -82.5t220 -228t78.5 -328.5q0 -134 -43 -258.5t-117.5 -221t-174.5 -168.5t-214 -108h385l-4 -57h-502l2 57q169 38 306.5 144.5t218 265t80.5 338.5
q0 124 -40.5 232t-113 186.5t-177.5 124t-229 45.5q-150 0 -287 -60t-237 -161t-159.5 -242t-59.5 -295q0 -213 114.5 -373.5t305.5 -204.5l-4 -57h-502z" />
    <glyph glyph-name="uni03A9" unicode="&#x2126;" horiz-adv-x="1652" 
d="M215 0l4 57h383q-163 58 -264.5 217.5t-101.5 366.5q0 167 66.5 318.5t177.5 259t260 170.5t309 63q178 0 319.5 -82.5t220 -228t78.5 -328.5q0 -134 -43 -258.5t-117.5 -221t-174.5 -168.5t-214 -108h385l-4 -57h-502l2 57q169 38 306.5 144.5t218 265t80.5 338.5
q0 124 -40.5 232t-113 186.5t-177.5 124t-229 45.5q-150 0 -287 -60t-237 -161t-159.5 -242t-59.5 -295q0 -213 114.5 -373.5t305.5 -204.5l-4 -57h-502z" />
    <glyph glyph-name="pi" unicode="&#x3c0;" horiz-adv-x="1325" 
d="M262 866l8 56h1104l-10 -56h-221l-115 -649q-7 -51 -7.5 -88.5t21 -59.5t68.5 -22q70 0 137 43l8 -47q-76 -51 -161 -51q-87 0 -116.5 53.5t-8.5 163.5l116 657h-542l-29 -172q-36 -203 -79 -339.5t-97 -215.5t-115.5 -111.5t-142.5 -31.5l6 57q63 0 114 30t97.5 100
t85 192t70.5 299l34 192h-225z" />
    <glyph glyph-name="uni0401" unicode="&#x401;" horiz-adv-x="1177" 
d="M238 0l251 1434h779l-8 -58h-719l-109 -618h658l-13 -58h-655l-113 -643h738l-11 -57h-798zM627 1630q0 19 14 31t35 12q18 0 31.5 -12.5t13.5 -30.5q0 -21 -13.5 -33t-31.5 -12q-21 0 -35 12t-14 33zM1104 1630q0 18 15 30.5t36 12.5q18 0 31.5 -12t13.5 -31
q0 -21 -13.5 -33t-31.5 -12q-21 0 -36 12t-15 33z" />
    <glyph glyph-name="uni0402" unicode="&#x402;" horiz-adv-x="1568" 
d="M1522 508q0 -151 -46.5 -268.5t-143 -187.5t-230.5 -70q-108 0 -182 59l30 47q68 -47 152 -47q173 0 265.5 129.5t92.5 333.5q0 153 -84 229t-241 76q-52 0 -98.5 -7.5t-91.5 -26t-68 -29t-68.5 -37.5t-52.5 -31l-121 -678h-60l244 1376h-555l10 58h1170l-10 -58h-555
l-113 -639q64 39 104.5 61t120 45t160.5 23q171 0 271 -89t100 -269z" />
    <glyph glyph-name="uni0403" unicode="&#x403;" horiz-adv-x="1060" 
d="M238 0l251 1434h785l-10 -58h-723l-242 -1376h-61zM1194 1698l-340 -182l-20 36l337 193z" />
    <glyph glyph-name="uni0404" unicode="&#x404;" horiz-adv-x="1331" 
d="M1114 760l-8 -58h-813q-10 -195 63 -345.5t215 -233t332 -82.5q224 0 410 113l24 -52q-83 -56 -196.5 -88t-239.5 -32q-196 0 -347 78t-238 231t-87 362q0 157 60.5 302t167 255t264.5 176t342 66q255 0 405 -111l-34 -43q-161 95 -373 95q-194 0 -357 -79t-269.5 -223.5
t-135.5 -330.5h815z" />
    <glyph glyph-name="uni0405" unicode="&#x405;" horiz-adv-x="1118" 
d="M1006 381q0 56 -23 103t-61.5 81t-89 63t-106 55t-111 52.5t-106 59.5t-89 71.5t-61.5 92.5t-23 120q0 75 31 141.5t88.5 118.5t149 82.5t204.5 30.5q112 0 207 -40t151 -105l-39 -45q-118 131 -325 131q-185 0 -293.5 -86t-108.5 -224q0 -74 37 -132.5t96 -97t130 -73
t142 -69.5t130 -76t96 -103t37 -141q0 -188 -127.5 -298.5t-325.5 -110.5q-154 0 -271.5 60t-170.5 161l41 39q55 -91 157.5 -146t241.5 -55q60 0 116 13t106.5 40.5t88 67t59.5 96t22 123.5z" />
    <glyph glyph-name="uni0406" unicode="&#x406;" horiz-adv-x="587" 
d="M279 0l251 1434h62l-252 -1434h-61z" />
    <glyph glyph-name="uni0407" unicode="&#x407;" horiz-adv-x="618" 
d="M279 0l251 1434h62l-252 -1434h-61zM377 1630q0 19 14 31t35 12q18 0 32.5 -12.5t14.5 -30.5q0 -21 -14 -33t-33 -12q-21 0 -35 12t-14 33zM719 1630q0 19 14 31t35 12q18 0 31.5 -12t13.5 -31q0 -21 -13.5 -33t-31.5 -12q-21 0 -35 12t-14 33z" />
    <glyph glyph-name="uni0408" unicode="&#x408;" horiz-adv-x="716" 
d="M731 1434l-199 -1127q-28 -157 -102 -241t-215 -84q-105 0 -172 59l31 45q65 -45 145 -45q63 0 109 22t74.5 63t44.5 85t26 102l199 1121h59z" />
    <glyph glyph-name="uni0409" unicode="&#x409;" horiz-adv-x="2131" 
d="M1180 0l243 1376h-673l-70 -270q-54 -213 -109 -384t-102.5 -285.5t-97 -198.5t-89.5 -129.5t-83 -71.5t-74 -32.5t-66 -4.5l11 59q24 -1 46 4.5t59.5 30t73 67t83 124.5t93 193.5t100.5 283.5t108 385l72 287h786l-102 -594q163 10 266 10q216 0 330 -89.5t114 -252.5
q0 -246 -164 -379t-456 -133q-56 0 -158 2t-141 2zM1647 793q-144 0 -269 -13l-127 -723q31 0 112 -2t130 -2q258 0 400.5 118.5t142.5 326.5q0 143 -100 219t-289 76z" />
    <glyph glyph-name="uni040A" unicode="&#x40a;" horiz-adv-x="2211" 
d="M238 0l251 1434h62l-109 -621h965l109 621h59l-107 -619q144 12 258 12q219 0 337 -85.5t118 -247.5q0 -160 -80.5 -273.5t-220 -169t-326.5 -55.5q-54 0 -152 2t-138 2l133 756h-965l-133 -756h-61zM1458 758l-125 -701q32 0 109.5 -2t126.5 -2q250 0 399.5 114
t149.5 316q0 140 -106 213.5t-298 73.5q-141 0 -256 -12z" />
    <glyph glyph-name="uni040B" unicode="&#x40b;" horiz-adv-x="1568" 
d="M264 1376l10 58h1170l-10 -58h-555l-113 -641q200 131 418 131q87 0 154 -26.5t114 -83t60.5 -144.5t-5.5 -211l-71 -401h-62l72 399q36 204 -37.5 307t-243.5 103q-66 0 -127 -11.5t-118.5 -36.5t-85.5 -39.5t-78 -43.5l-121 -678h-60l244 1376h-555z" />
    <glyph glyph-name="uni040C" unicode="&#x40c;" horiz-adv-x="1277" 
d="M1438 1434l-840 -693l602 -741h-74l-602 748l828 686h86zM238 0l251 1434h62l-252 -1434h-61zM1208 1698l-340 -182l-20 36l338 193z" />
    <glyph glyph-name="uni040E" unicode="&#x40e;" horiz-adv-x="1302" 
d="M1518 1434l-701 -1115q-49 -77 -84.5 -126t-82 -98t-95.5 -72t-104 -23q-87 0 -138 43l31 47q48 -35 115 -35q74 0 141 63.5t119 149.5l41 64l-477 1102h65l451 -1043l651 1043h68zM631 1731h57q32 -156 260 -156q101 0 182.5 42t126.5 114h54q-47 -90 -147 -146.5
t-224 -56.5q-138 0 -217.5 52.5t-91.5 150.5z" />
    <glyph glyph-name="uni040F" unicode="&#x40f;" horiz-adv-x="1558" 
d="M238 0l251 1434h62l-242 -1377h963l239 1377h62l-252 -1434h-514l-57 -326h-58l58 326h-512z" />
    <glyph glyph-name="uni0410" unicode="&#x410;" horiz-adv-x="1413" 
d="M53 0l887 1448h43l377 -1448h-62l-137 532h-717l-325 -532h-66zM948 1358l-469 -768h666z" />
    <glyph glyph-name="uni0411" unicode="&#x411;" horiz-adv-x="1236" 
d="M238 0l251 1434h773q-2 -17 -11 -58h-710l-97 -549q156 13 263 13q464 0 464 -338q0 -253 -168.5 -380.5t-470.5 -127.5q-54 0 -154 3t-140 3zM698 782q-146 0 -264 -12l-125 -713q32 0 112 -2t130 -2q270 0 413.5 113t143.5 323q0 144 -97 218.5t-313 74.5z" />
    <glyph glyph-name="uni0412" unicode="&#x412;" horiz-adv-x="1263" 
d="M238 0l251 1434q35 0 168.5 2t196.5 2q209 0 300 -79.5t91 -223.5q0 -148 -99 -258.5t-255 -135.5l-2 -4q141 -19 217 -96.5t76 -196.5q0 -113 -44.5 -200.5t-124.5 -140.5t-183.5 -80t-227.5 -27q-63 0 -194.5 2t-169.5 2zM739 709h-315l-115 -652q28 0 139 -2t168 -2
q232 0 366 99.5t134 281.5q0 133 -95 204t-282 71zM844 1380q-177 0 -303 -4l-109 -612h320q187 0 308.5 103t121.5 257q0 128 -81.5 192t-256.5 64z" />
    <glyph glyph-name="uni0413" unicode="&#x413;" horiz-adv-x="1060" 
d="M238 0l251 1434h785l-10 -58h-723l-242 -1376h-61z" />
    <glyph glyph-name="uni0414" unicode="&#x414;" horiz-adv-x="1511" 
d="M-12 -281l59 338h154q26 26 60 74.5t83.5 142t98.5 210t104.5 291t101.5 372.5l68 287h774l-242 -1377h195l-60 -338h-57l49 281h-1280l-51 -281h-57zM700 1110q-46 -192 -99.5 -361t-100.5 -282t-94.5 -203t-79.5 -137t-56 -70h918l233 1319h-657z" />
    <glyph glyph-name="uni0415" unicode="&#x415;" horiz-adv-x="1177" 
d="M238 0l251 1434h779l-8 -58h-719l-109 -618h658l-13 -58h-655l-113 -643h738l-11 -57h-798z" />
    <glyph glyph-name="uni0416" unicode="&#x416;" horiz-adv-x="1839" 
d="M2005 1434l-764 -691l533 -743h-68l-535 748l754 686h80zM889 0l252 1434h59l-252 -1434h-59zM856 754l-518 680h68l520 -686l-785 -748h-78z" />
    <glyph glyph-name="uni0417" unicode="&#x417;" horiz-adv-x="1169" 
d="M586 -18q-151 0 -272 59t-185 158l41 39q65 -93 175.5 -145t246.5 -52q194 0 312 108t118 289q0 125 -78 196t-217 71h-172l10 57h166q146 0 251 107.5t105 244.5q0 134 -83 206.5t-242 72.5q-203 0 -387 -142l-29 43q181 158 422 158q185 0 283 -85.5t98 -248.5
q0 -126 -82 -234.5t-211 -146.5l-2 -2q109 -20 168 -99t59 -196q0 -206 -135.5 -332t-359.5 -126z" />
    <glyph glyph-name="uni0418" unicode="&#x418;" horiz-adv-x="1636" 
d="M293 0h-55l251 1434h62l-234 -1330l1278 1330h56l-252 -1434h-62l236 1329z" />
    <glyph glyph-name="uni0419" unicode="&#x419;" horiz-adv-x="1636" 
d="M293 0h-55l251 1434h62l-234 -1330l1278 1330h56l-252 -1434h-62l236 1329zM770 1731h57q32 -156 260 -156q101 0 183 42t127 114h53q-47 -90 -147 -146.5t-224 -56.5q-138 0 -217.5 52.5t-91.5 150.5z" />
    <glyph glyph-name="uni041A" unicode="&#x41a;" horiz-adv-x="1277" 
d="M1438 1434l-840 -693l602 -741h-74l-602 748l828 686h86zM238 0l251 1434h62l-252 -1434h-61z" />
    <glyph glyph-name="uni041B" unicode="&#x41b;" horiz-adv-x="1478" 
d="M1180 0l243 1376h-673l-70 -270q-54 -213 -109 -384t-102.5 -285.5t-97 -198.5t-89.5 -129.5t-83 -71.5t-74 -32.5t-66 -4.5l11 59q24 -1 46 4.5t59.5 30t73 67t83 124.5t93 193.5t100.5 283.5t108 385l72 287h786l-252 -1434h-59z" />
    <glyph glyph-name="uni041C" unicode="&#x41c;" horiz-adv-x="1796" 
d="M238 0l251 1434h56l461 -830l739 830h65l-251 -1434h-60l236 1337l-736 -823h-10l-457 823l-233 -1337h-61z" />
    <glyph glyph-name="uni041D" unicode="&#x41d;" horiz-adv-x="1566" 
d="M1268 0l125 702h-971l-123 -702h-61l251 1434h62l-119 -674h971l117 674h61l-252 -1434h-61z" />
    <glyph glyph-name="uni041E" unicode="&#x41e;" horiz-adv-x="1652" 
d="M231 645q0 171 59.5 321t163 256.5t250 168t314.5 61.5q304 0 479.5 -177t175.5 -468q0 -236 -98 -424t-275 -294.5t-401 -106.5q-162 0 -289.5 48.5t-210 136.5t-125.5 209.5t-43 268.5zM295 649q0 -285 163 -446.5t445 -161.5q146 0 275.5 54.5t225 151.5t151 239.5
t55.5 310.5q0 271 -160 433.5t-438 162.5q-144 0 -274.5 -53.5t-228.5 -148t-156 -235.5t-58 -307z" />
    <glyph glyph-name="uni041F" unicode="&#x41f;" horiz-adv-x="1579" 
d="M1280 0l244 1376h-983l-242 -1376h-61l251 1434h1104l-252 -1434h-61z" />
    <glyph glyph-name="uni0420" unicode="&#x420;" horiz-adv-x="1177" 
d="M299 0h-61l251 1434q42 0 166.5 2t155.5 2q97 0 174 -19.5t125 -52.5t80 -78.5t44.5 -93.5t12.5 -102q0 -79 -20.5 -151t-65.5 -137t-111.5 -112.5t-165.5 -75.5t-220 -28q-118 0 -261 10zM807 1380q-130 0 -266 -4l-127 -721q143 -10 258 -10q126 0 225.5 34.5t161 95.5
t93.5 139t32 169q0 133 -91.5 215t-285.5 82z" />
    <glyph glyph-name="uni0421" unicode="&#x421;" horiz-adv-x="1345" 
d="M1327 162l23 -47q-83 -66 -210 -99.5t-243 -33.5q-193 0 -343.5 78.5t-237.5 230t-87 354.5q0 162 61 309t168 257.5t263 175.5t336 65q278 0 424 -121l-33 -43q-149 105 -387 105q-135 0 -256 -39t-213 -109t-160 -162.5t-103.5 -202.5t-35.5 -227q0 -141 46.5 -257.5
t129 -193.5t194.5 -119t242 -42q246 0 422 121z" />
    <glyph glyph-name="uni0422" unicode="&#x422;" horiz-adv-x="1228" 
d="M264 1376l10 58h1170l-10 -58h-555l-244 -1376h-60l244 1376h-555z" />
    <glyph glyph-name="uni0423" unicode="&#x423;" horiz-adv-x="1302" 
d="M1518 1434l-701 -1115q-49 -77 -84.5 -126t-82 -98t-95.5 -72t-104 -23q-87 0 -138 43l31 47q48 -35 115 -35q74 0 141 63.5t119 149.5l41 64l-477 1102h65l451 -1043l651 1043h68z" />
    <glyph glyph-name="uni0424" unicode="&#x424;" horiz-adv-x="1691" 
d="M809 -16l33 186q-292 0 -459.5 126.5t-167.5 358.5q0 200 106 348.5t292 225t429 76.5l25 145h61l-26 -145q299 0 465 -125t166 -353q0 -204 -107.5 -354.5t-292 -226.5t-422.5 -76h-10l-31 -186h-61zM1106 1249h-12l-183 -1024q158 0 293.5 37t240 108t164.5 185t60 258
q0 211 -148 323.5t-415 112.5zM279 662q0 -214 152.5 -325.5t420.5 -111.5l180 1024q-162 0 -299 -38.5t-238.5 -111.5t-158.5 -185t-57 -252z" />
    <glyph glyph-name="uni0425" unicode="&#x425;" horiz-adv-x="1329" 
d="M1499 1434l-665 -705l432 -729h-68l-410 684l-647 -684h-78l693 731l-418 703h70l393 -658l620 658h78z" />
    <glyph glyph-name="uni0426" unicode="&#x426;" horiz-adv-x="1601" 
d="M238 0l251 1434h62l-242 -1377h973l240 1377h61l-242 -1377h195l-59 -338h-60l51 281h-1230z" />
    <glyph glyph-name="uni0427" unicode="&#x427;" horiz-adv-x="1280" 
d="M1294 1434l-254 -1434h-61l123 684q-86 -51 -202.5 -91t-221.5 -40q-186 0 -286 84.5t-99 255.5q0 55 12 119l74 422h61l-73 -414q-11 -75 -11 -117q-2 -144 80.5 -217.5t253.5 -73.5q109 0 221 39.5t201 91.5l121 691h61z" />
    <glyph glyph-name="uni0428" unicode="&#x428;" horiz-adv-x="2029" 
d="M238 0l251 1434h62l-242 -1377h686l242 1377h59l-239 -1377h686l242 1377h59l-252 -1434h-1554z" />
    <glyph glyph-name="uni0429" unicode="&#x429;" horiz-adv-x="2064" 
d="M238 0l251 1434h62l-242 -1377h686l242 1377h59l-239 -1377h686l242 1377h59l-242 -1377h195l-60 -338h-57l49 281h-1691z" />
    <glyph glyph-name="uni042A" unicode="&#x42a;" horiz-adv-x="1355" 
d="M242 1376l12 58h442l-104 -594q163 10 289 10q216 0 329 -90t113 -250q0 -248 -162 -381t-450 -133q-73 0 -182.5 2t-145.5 2l242 1376h-383zM870 793q-161 0 -288 -13l-129 -723q29 0 118.5 -2t155.5 -2q252 0 392.5 118.5t140.5 326.5q0 139 -101.5 217t-288.5 78z" />
    <glyph glyph-name="uni042B" unicode="&#x42b;" horiz-adv-x="1669" 
d="M1372 0l252 1434h59l-251 -1434h-60zM700 793q-139 0 -264 -13l-127 -723q28 0 107.5 -2t144.5 -2q251 0 392 118t141 327q0 140 -100 217.5t-294 77.5zM551 1434l-105 -594q163 10 267 10q219 0 332.5 -90t113.5 -250q0 -246 -162.5 -380t-447.5 -134q-73 0 -174 2
t-137 2l251 1434h62z" />
    <glyph glyph-name="uni042C" unicode="&#x42c;" horiz-adv-x="1210" 
d="M723 793q-162 0 -287 -13l-127 -723q28 0 115.5 -2t150.5 -2q254 0 396.5 117.5t142.5 327.5q0 139 -98 217t-293 78zM551 1434l-105 -594q163 10 289 10q217 0 331 -90t114 -250q0 -250 -167 -382t-452 -132q-70 0 -178.5 2t-144.5 2l251 1434h62z" />
    <glyph glyph-name="uni042D" unicode="&#x42d;" horiz-adv-x="1396" 
d="M537 702l10 58h809q14 191 -45.5 333t-189 221t-316.5 79q-123 0 -248 -32.5t-217 -96.5l-25 47q89 67 231.5 104t270.5 37q285 0 443.5 -167.5t158.5 -473.5q0 -254 -104 -443t-288 -287.5t-423 -98.5q-303 0 -487 176l37 45q190 -165 452 -162q212 0 376.5 85.5
t257.5 234.5t110 341h-813z" />
    <glyph glyph-name="uni042E" unicode="&#x42e;" horiz-adv-x="2189" 
d="M422 702l-123 -702h-61l251 1434h62l-119 -674h402q14 139 75 264.5t157 220.5t232 151t289 56q187 0 329.5 -83t218 -229.5t75.5 -334.5q0 -232 -97 -420t-269 -295.5t-386 -107.5q-128 0 -233.5 36t-178.5 98.5t-123.5 147.5t-74 181t-23.5 202v55h-403zM887 649
q0 -127 38 -237.5t109.5 -193t181.5 -130t246 -47.5q193 0 349.5 98t245.5 271t89 387q0 266 -156.5 431t-408.5 165q-138 0 -264 -54t-221.5 -149t-152 -236t-56.5 -305z" />
    <glyph glyph-name="uni042F" unicode="&#x42f;" horiz-adv-x="1245" 
d="M948 0l103 586h-363l-541 -586h-73l559 600q-120 29 -197.5 120t-77.5 226q0 100 36.5 187t108 156t188.5 109t267 40q53 0 157.5 -2t144.5 -2l-252 -1434h-60zM688 643h373l129 733q-30 0 -115.5 2t-134.5 2q-132 0 -234 -36t-162.5 -98t-91 -137t-30.5 -159
q0 -121 73.5 -203.5t192.5 -103.5z" />
    <glyph glyph-name="uni0430" unicode="&#x430;" horiz-adv-x="985" 
d="M422 43q36 0 74.5 17.5t71.5 43.5t71 68.5t65.5 79t62 89t53.5 83.5t46 78l58 344q-55 22 -94 30.5t-93 8.5q-103 0 -195.5 -41.5t-162 -115t-110 -181.5t-40.5 -234q0 -122 48 -196t145 -74zM840 0h-58l66 397q-21 -35 -32.5 -54.5t-36 -58t-42 -62t-45 -58t-51 -56.5
t-54 -47t-59 -39.5t-62 -24t-67.5 -9.5q-112 0 -170.5 87.5t-58.5 227.5q0 137 45 256.5t121.5 202.5t180.5 130.5t220 47.5q131 0 248 -57z" />
    <glyph glyph-name="uni0431" unicode="&#x431;" horiz-adv-x="1030" 
d="M643 1270q73 28 171 49t157.5 46.5t113.5 86.5l19 -43q-39 -51 -91 -80.5t-98 -39.5t-123 -29t-139 -43q-101 -41 -179.5 -123.5t-126.5 -191t-72 -231.5t-25 -257q45 115 130 226.5t192.5 187t199.5 75.5q119 0 178.5 -83t59.5 -214q0 -86 -19.5 -173t-59.5 -168
t-95.5 -144t-135 -101t-170.5 -38q-156 0 -245.5 120.5t-89.5 319.5q0 185 48.5 353.5t152 303.5t247.5 191zM950 596q0 110 -47.5 182t-144.5 72q-87 0 -190.5 -83t-186 -203t-125.5 -240q20 -129 89 -208t187 -79q97 0 178.5 51.5t132.5 134t79 179.5t28 194z" />
    <glyph glyph-name="uni0432" unicode="&#x432;" horiz-adv-x="958" 
d="M956 733q-3 -163 -225 -244q86 -10 134 -54.5t48 -108.5q0 -135 -115 -239.5t-282 -104.5q-162 0 -254 106.5t-92 263.5q0 156 68 291t188 216t262 81q123 0 195.5 -56t72.5 -151zM854 324q0 121 -184 145q-165 -45 -439 -63q-2 -12 -2 -41q-2 -145 78.5 -236.5
t216.5 -91.5q135 0 232.5 87t97.5 200zM682 885q-165 0 -288.5 -124t-155.5 -317q106 8 192.5 19t173.5 31.5t147 48.5t98.5 71t41.5 97q3 49 -21 86q-22 42 -71 65t-117 23z" />
    <glyph glyph-name="uni0433" unicode="&#x433;" horiz-adv-x="782" 
d="M113 205q0 63 35 112.5t91 81t124 58.5t135.5 52t124 53.5t92 71t35.5 97.5q0 73 -52 113.5t-149 40.5q-130 0 -275 -74l-20 45q155 84 299 84q120 0 189 -53.5t69 -147.5q0 -65 -35.5 -116.5t-92 -84t-124 -59.5t-135.5 -51.5t-124 -52t-91 -68.5t-35 -94q0 -82 58 -129
t159 -47q170 0 322 117l28 -37q-160 -135 -350 -135q-127 0 -202.5 60t-75.5 163z" />
    <glyph glyph-name="uni0434" unicode="&#x434;" horiz-adv-x="1011" 
d="M492 -16q-146 0 -234 105t-88 269q0 106 34 210t94 187t150 134t193 51q190 0 313 -199q0 12 1 34t1 32q0 123 -25.5 223t-79.5 180.5t-147 129t-219 57.5l11 55q254 -15 386 -181.5t132 -449.5q0 -92 -14 -187t-41 -189.5t-71 -177t-99.5 -146t-132 -100.5t-164.5 -37z
M500 39q80 0 149 39t118.5 103t87.5 148.5t60.5 171.5t32.5 177q-62 96 -134 151.5t-173 55.5q-89 0 -167.5 -44.5t-131 -117.5t-83 -166.5t-30.5 -191.5q0 -136 72.5 -231t198.5 -95z" />
    <glyph glyph-name="uni0435" unicode="&#x435;" horiz-adv-x="903" 
d="M829 174l29 -37q-165 -155 -362 -155q-82 0 -146 31t-102.5 84t-58 117.5t-19.5 137.5q0 112 39 219t105 188.5t160 131t198 49.5q123 0 190.5 -55.5t67.5 -155.5q0 -86 -54.5 -151.5t-151 -104t-221 -56.5t-272.5 -16q-2 -12 -2 -36q-2 -143 69.5 -235.5t205.5 -92.5
q172 0 325 137zM668 885q-159 0 -280.5 -128t-149.5 -311q174 -3 311 23t224 86.5t91 149.5q3 55 -16 92q-37 88 -180 88z" />
    <glyph glyph-name="uni0436" unicode="&#x436;" horiz-adv-x="1155" 
d="M1292 922l-450 -447l319 -475h-65l-320 479l441 443h75zM551 0l160 922h55l-160 -922h-55zM483 485l-303 437h68l301 -443l-467 -479h-74z" />
    <glyph glyph-name="uni0437" unicode="&#x437;" horiz-adv-x="796" 
d="M379 -18q-95 0 -177.5 27t-138.5 73l35 43q117 -88 285 -88q138 0 225.5 72t87.5 180q0 74 -56.5 114.5t-160.5 40.5h-117l9 50h104q107 0 183.5 61.5t76.5 159.5q0 79 -57.5 124.5t-167.5 45.5q-84 0 -150 -18.5t-141 -59.5l-24 45q159 88 329 88q130 0 200.5 -57
t70.5 -154q0 -92 -54.5 -160.5t-154.5 -95.5v-2q84 -13 127 -61.5t43 -118.5q0 -136 -106 -222.5t-271 -86.5z" />
    <glyph glyph-name="uni0438" unicode="&#x438;" horiz-adv-x="980" 
d="M391 37q59 0 127 46t131.5 122.5t109.5 142.5t89 139l76 435h57l-162 -922h-55l67 387q-251 -405 -454 -405q-182 0 -182 208q0 57 22 185l115 547h55l-113 -535q-22 -105 -22 -178q2 -81 31.5 -126.5t107.5 -45.5z" />
    <glyph glyph-name="uni0439" unicode="&#x439;" horiz-adv-x="980" 
d="M391 37q59 0 127 46t131.5 122.5t109.5 142.5t89 139l76 435h57l-162 -922h-55l67 387q-251 -405 -454 -405q-182 0 -182 208q0 57 22 185l115 547h55l-113 -535q-22 -105 -22 -178q2 -81 31.5 -126.5t107.5 -45.5zM461 1405h51q-11 -89 33 -140t135 -51t162 53.5
t90 137.5h47q-20 -104 -104 -171t-197 -67q-117 0 -175.5 65.5t-41.5 172.5z" />
    <glyph glyph-name="uni043A" unicode="&#x43a;" horiz-adv-x="856" 
d="M983 922l-522 -447l403 -475h-71l-404 477l512 445h82zM168 0l160 922h57l-160 -922h-57z" />
    <glyph glyph-name="uni043B" unicode="&#x43b;" horiz-adv-x="946" 
d="M729 0l152 864h-408l-57 -241q-148 -627 -404 -627l8 57q20 -1 44 8t64 44.5t77.5 94.5t81 172t78.5 263l67 287h512l-160 -922h-55z" />
    <glyph glyph-name="uni043C" unicode="&#x43c;" horiz-adv-x="1179" 
d="M168 0l160 922h51l280 -560l459 560h62l-160 -922h-57l147 836l-461 -557h-4l-276 555l-144 -834h-57z" />
    <glyph glyph-name="uni043D" unicode="&#x43d;" horiz-adv-x="1013" 
d="M797 0l77 442h-571l-78 -442h-57l160 922h57l-74 -424h572l73 424h58l-160 -922h-57z" />
    <glyph glyph-name="uni043E" unicode="&#x43e;" horiz-adv-x="983" 
d="M498 -18q-160 0 -244 105t-84 278q0 81 17.5 161t55.5 155.5t92 132.5t134.5 91.5t175.5 34.5q83 0 146.5 -31t101 -84t56 -118.5t18.5 -141.5q0 -163 -55 -294.5t-162.5 -210t-251.5 -78.5zM504 37q77 0 143 27t113.5 74.5t80.5 112.5t49.5 142t16.5 162
q0 151 -67.5 240.5t-200.5 89.5q-81 0 -149.5 -29t-116 -78.5t-80.5 -115.5t-48.5 -139t-15.5 -150q0 -156 70.5 -246t204.5 -90z" />
    <glyph glyph-name="uni043F" unicode="&#x43f;" horiz-adv-x="1011" 
d="M328 922h57l-68 -387q40 64 87 126t110.5 129t135.5 108.5t138 41.5q94 0 138.5 -56t44.5 -153q0 -61 -21 -184l-106 -547h-58l107 535q22 125 20 178q-2 80 -32 126t-107 46q-46 0 -100.5 -30.5t-104 -76.5t-101.5 -108.5t-91.5 -119t-75.5 -114.5l-76 -436h-57z" />
    <glyph glyph-name="uni0440" unicode="&#x440;" horiz-adv-x="1019" 
d="M152 -410h-56l234 1332h55l-70 -387q12 17 44 64t53 75.5t56 73t67 72.5t71 56.5t82.5 42t89.5 13.5q63 0 109.5 -29t70.5 -77t35 -99t11 -106q0 -173 -72 -319.5t-200 -233t-283 -86.5q-113 0 -218 59zM299 434l-57 -332q97 -65 211 -65q139 0 252.5 77t177 208
t63.5 288q0 119 -44 193t-136 74q-38 0 -77 -14.5t-77.5 -46t-70 -61.5t-70 -80t-61 -81t-60 -85.5t-51.5 -74.5z" />
    <glyph glyph-name="uni0441" unicode="&#x441;" horiz-adv-x="845" 
d="M786 158l29 -37q-150 -139 -323 -139q-152 0 -237 101.5t-85 262.5q0 156 65 292t181.5 219t257.5 83q121 0 205 -37l-21 -51q-91 33 -188 33q-122 0 -224 -74.5t-159.5 -196t-57.5 -258.5q0 -147 73 -233t198 -86q59 0 114.5 19.5t89 41.5t82.5 60z" />
    <glyph glyph-name="uni0442" unicode="&#x442;" horiz-adv-x="1488" 
d="M168 0l160 922h57l-68 -387q26 48 53.5 92.5t72 104.5t88 103.5t98.5 74t106 30.5q48 0 83.5 -18.5t52.5 -48t24.5 -58t7.5 -57.5q0 -95 -20 -189q39 67 75 119t90 116t113.5 100t118.5 36q49 0 84 -18.5t52 -48.5t24.5 -60t7.5 -61q0 -98 -31 -234l-102 -518h-60
l103 510l10 48q9 47 15.5 92t5.5 73q0 70 -27 116t-90 46q-45 0 -95.5 -31.5t-89 -71.5t-87 -109t-74 -110.5t-64.5 -109.5l-88 -453h-57l98 510q31 142 31 217q-2 68 -29 113t-90 45q-174 0 -428 -463l-74 -422h-57z" />
    <glyph glyph-name="uni0443" unicode="&#x443;" horiz-adv-x="796" 
d="M121 -354q49 0 93 25.5t82.5 75.5t67 96.5t65.5 114.5q11 21 17 32q-46 215 -126.5 463t-176.5 469h62q82 -190 159.5 -426t122.5 -439q172 329 316 865h63q-396 -1332 -745 -1332q-70 0 -135 43l28 45q53 -32 107 -32z" />
    <glyph glyph-name="uni0444" unicode="&#x444;" horiz-adv-x="1290" 
d="M543 -410l71 408q-36 -9 -75 -12q-51 -3 -109 8q-126 24 -193 127.5t-67 255.5q0 207 117.5 364t310.5 189q47 8 107 8q29 0 69 -8l88 504h58l-91 -510q43 16 101 16q164 0 253 -102t89 -273q0 -227 -119 -384.5t-311 -188.5q-44 -8 -103 -8q-17 0 -71 8l-70 -402h-55z
M229 379q0 -130 52.5 -216t156.5 -112q52 -12 115 -12q50 4 70 8l143 832q-50 8 -80 8q-200 0 -328.5 -146t-128.5 -362zM909 885q-53 0 -86 -11l-147 -831q46 -8 74 -8q144 0 251 73t159 190t52 259q0 149 -75.5 238.5t-227.5 89.5z" />
    <glyph glyph-name="uni0445" unicode="&#x445;" horiz-adv-x="815" 
d="M928 922l-400 -447l263 -475h-64l-235 432l-390 -432h-71l426 475l-248 447h67l220 -406l358 406h74z" />
    <glyph glyph-name="uni0446" unicode="&#x446;" horiz-adv-x="1013" 
d="M983 922l-131 -746q-20 -121 70 -121h65l-57 -295h-53l47 240h-41q-57 0 -80 38.5t-12 102.5l43 244q-32 -52 -63.5 -98t-80.5 -105t-96 -100.5t-104.5 -70.5t-110.5 -29q-93 0 -137.5 54.5t-44.5 151.5q0 88 22 187l115 547h57l-117 -543q-20 -102 -20 -174
q2 -78 32 -123t105 -45q36 0 74.5 17t72.5 42t73 65.5t67.5 76t64.5 86t57 82.5t50 79l76 437h57z" />
    <glyph glyph-name="uni0447" unicode="&#x447;" horiz-adv-x="849" 
d="M369 379q52 0 111 38t112 99.5t95.5 124t76.5 125.5l29 156h55l-160 -922h-55l115 657q-196 -333 -396 -333q-167 0 -164 188q0 62 23 162l61 248h58l-62 -252q-20 -88 -20 -144q-3 -147 121 -147z" />
    <glyph glyph-name="uni0448" unicode="&#x448;" horiz-adv-x="1411" 
d="M387 37q29 0 61 17.5t59 40.5t60 66t54 73.5t52.5 84.5t44 77.5t38.5 72.5l102 453h60l-115 -510q-31 -142 -31 -217q0 -158 131 -158q37 0 76 23t76 66.5t67.5 86.5t64 105t52 99t43.5 89l72 416h57l-156 -922h-57l64 379q-27 -56 -49.5 -98t-63 -102.5t-78 -99.5
t-88 -68t-100.5 -29q-49 0 -84.5 19t-53 49.5t-25 59.5t-7.5 58q0 90 20 180q-192 -366 -366 -366q-49 0 -84.5 19t-53 50t-25 61t-7.5 62q0 85 32 229l121 519h58l-119 -510q-33 -130 -33 -215q0 -69 30 -114.5t101 -45.5z" />
    <glyph glyph-name="uni0449" unicode="&#x449;" horiz-adv-x="1443" 
d="M756 469l102 453h60l-115 -510q-31 -142 -31 -217q0 -158 131 -158q42 0 89.5 35t87 85t81.5 119t68.5 121.5t52.5 108.5l72 416h57l-129 -756q-10 -53 2 -86q22 -25 68 -25h67l-55 -295h-55l47 240h-33q-63 0 -88.5 36.5t-13.5 106.5l39 230q-20 -40 -34.5 -67
t-41 -71.5t-48.5 -75.5t-54 -67t-61.5 -58t-65.5 -37t-72 -15q-49 0 -84.5 19t-53 49.5t-25 59.5t-7.5 58q0 90 20 180q-192 -366 -366 -366q-49 0 -84.5 19t-53 50t-25 61t-7.5 62q0 82 32 229l121 519h58l-119 -510q-33 -129 -33 -215q0 -69 30.5 -114.5t100.5 -45.5
q147 0 369 432z" />
    <glyph glyph-name="uni044A" unicode="&#x44a;" horiz-adv-x="878" 
d="M162 922h426l-6 -37q-63 -81 -103.5 -136.5t-92 -135.5t-84 -156t-46.5 -148q83 118 217.5 212.5t247.5 94.5q77 0 124.5 -56.5t47.5 -137.5q0 -98 -74.5 -198t-194 -165t-239.5 -65q-96 0 -145.5 61.5t-49.5 155.5q0 82 29.5 172.5t87 186t97.5 153t106 143.5h-356z
M244 242q-2 -48 10 -89t48.5 -72.5t94.5 -31.5q100 0 203.5 55t170.5 141t67 171q0 60 -36.5 102.5t-99.5 42.5q-104 0 -232.5 -94.5t-225.5 -224.5z" />
    <glyph glyph-name="uni044B" unicode="&#x44b;" 
d="M682 637q77 0 125.5 -57t48.5 -138q0 -75 -41 -155.5t-107 -145t-155.5 -106t-179.5 -41.5q-95 0 -135.5 58t-40.5 151q0 63 28 188t78 310t59 221h58q-11 -45 -65.5 -247t-78.5 -308q74 114 184.5 192t221.5 78zM799 430q0 64 -36.5 108t-96.5 44q-69 0 -146 -42
t-134.5 -100.5t-95.5 -121.5t-38 -105q0 -70 30 -117t101 -47q75 0 152 35.5t134 90t93.5 123.5t36.5 132zM1143 922h55l-160 -922h-55z" />
    <glyph glyph-name="uni044C" unicode="&#x44c;" horiz-adv-x="841" 
d="M682 637q77 0 125.5 -57t48.5 -138q0 -75 -41 -155.5t-107 -145t-155.5 -106t-179.5 -41.5q-95 0 -135.5 58t-40.5 151q0 63 28 188t78 310t59 221h58q-11 -45 -65.5 -247t-78.5 -308q81 115 189 192.5t217 77.5zM799 430q0 64 -36.5 108t-96.5 44q-69 0 -146 -44.5
t-134.5 -106.5t-95.5 -128t-38 -110q0 -25 6 -48t20 -45.5t41 -36.5t64 -14q75 0 152 35.5t134 90t93.5 123.5t36.5 132z" />
    <glyph glyph-name="uni044D" unicode="&#x44d;" horiz-adv-x="849" 
d="M369 444l8 50h397q14 184 -58.5 287.5t-234.5 103.5q-84 0 -145 -20t-131 -66l-25 41q73 52 144.5 76t162.5 24q179 0 263 -102t84 -283q0 -165 -65 -297.5t-172.5 -204t-234.5 -71.5q-91 0 -153.5 28.5t-118.5 79.5l33 41q50 -45 104.5 -69.5t134.5 -24.5
q155 0 266.5 113.5t139.5 293.5h-399z" />
    <glyph glyph-name="uni044E" unicode="&#x44e;" horiz-adv-x="1359" 
d="M881 -18q-158 0 -240 106t-82 283q0 21 4 71h-262l-78 -442h-55l160 922h53l-74 -424h264q15 87 49.5 163t88.5 140t135 101.5t180 37.5q83 0 145.5 -30.5t99 -84t54.5 -119t18 -141.5q0 -163 -53.5 -294.5t-159 -210t-247.5 -78.5zM1018 885q-100 0 -179 -44t-127 -118
t-73 -163.5t-25 -186.5q0 -155 69 -245.5t202 -90.5q96 0 172.5 41t125.5 112.5t75 164.5t26 200q0 151 -66.5 240.5t-199.5 89.5z" />
    <glyph glyph-name="uni044F" unicode="&#x44f;" horiz-adv-x="833" 
d="M610 922h221l-159 -922h-56l64 375h-219l-346 -375h-72l360 389q-89 9 -143.5 68.5t-54.5 150.5q0 61 20 113.5t63.5 99t126 74t195.5 27.5zM266 614q0 -87 53.5 -135.5t151.5 -48.5h219l78 436h-176q-88 0 -153.5 -21t-102 -57.5t-53.5 -80t-17 -93.5z" />
    <glyph glyph-name="uni0451" unicode="&#x451;" horiz-adv-x="903" 
d="M829 174l29 -37q-165 -155 -362 -155q-82 0 -146 31t-102.5 84t-58 117.5t-19.5 137.5q0 112 39 219t105 188.5t160 131t198 49.5q123 0 190.5 -55.5t67.5 -155.5q0 -86 -54.5 -151.5t-151 -104t-221 -56.5t-272.5 -16q-2 -12 -2 -36q-2 -143 69.5 -235.5t205.5 -92.5
q172 0 325 137zM668 885q-159 0 -280.5 -128t-149.5 -311q174 -3 311 23t224 86.5t91 149.5q3 55 -16 92q-37 88 -180 88zM496 1282q0 17 13 29t32 12q17 0 30 -12t13 -29q0 -21 -12.5 -34t-30.5 -13q-19 0 -32 13t-13 34zM930 1282q0 17 13 29t32 12q17 0 30 -12t13 -29
q0 -21 -12.5 -34t-30.5 -13q-19 0 -32 13t-13 34z" />
    <glyph glyph-name="uni0452" unicode="&#x452;" horiz-adv-x="1048" 
d="M131 1026l8 49h301l64 359h55l-61 -359h432l-8 -49h-435l-106 -598q98 149 208.5 244.5t219.5 95.5q115 0 166 -82t51 -240q0 -163 -63.5 -329t-182 -307t-270.5 -220h-70q163 89 284.5 229.5t183 300.5t61.5 320q0 136 -42.5 204.5t-138.5 68.5q-177 0 -417 -365
l-62 -348h-55l178 1026h-301z" />
    <glyph glyph-name="uni0453" unicode="&#x453;" horiz-adv-x="782" 
d="M113 205q0 63 35 112.5t91 81t124 58.5t135.5 52t124 53.5t92 71t35.5 97.5q0 73 -52 113.5t-149 40.5q-130 0 -275 -74l-20 45q155 84 299 84q120 0 189 -53.5t69 -147.5q0 -65 -35.5 -116.5t-92 -84t-124 -59.5t-135.5 -51.5t-124 -52t-91 -68.5t-35 -94q0 -82 58 -129
t159 -47q170 0 322 117l28 -37q-160 -135 -350 -135q-127 0 -202.5 60t-75.5 163zM829 1419l-229 -289l-37 25l223 299z" />
    <glyph glyph-name="uni0454" unicode="&#x454;" horiz-adv-x="894" 
d="M664 496l-9 -52h-419q-24 -188 47.5 -297.5t238.5 -109.5q133 0 273 80l18 -45q-145 -90 -301 -90q-171 0 -256.5 101t-85.5 273q0 108 38 213t103.5 187.5t163.5 133t209 50.5q154 0 246 -74l-31 -45q-88 64 -225 64q-162 0 -274.5 -111t-153.5 -278h418z" />
    <glyph glyph-name="uni0455" unicode="&#x455;" horiz-adv-x="675" 
d="M584 231q0 53 -27 95.5t-67 68.5t-87.5 56.5t-87.5 59t-67 77t-27 110.5q0 102 77.5 172t215.5 70q72 0 138.5 -14.5t105.5 -40.5l-29 -45q-82 47 -213 47q-110 0 -172.5 -51t-62.5 -134q0 -62 37.5 -108.5t90.5 -78.5t106 -65.5t90.5 -87.5t37.5 -126q0 -116 -84.5 -185
t-222.5 -69q-164 0 -273 73l31 47q110 -67 242 -67q105 0 176.5 53.5t71.5 142.5z" />
    <glyph glyph-name="uni0456" unicode="&#x456;" horiz-adv-x="417" 
d="M182 0l160 922h57l-161 -922h-56zM389 1288q0 19 14 32t33 13q16 0 29.5 -13.5t13.5 -31.5q0 -19 -13.5 -33t-29.5 -14q-19 0 -33 13.5t-14 33.5z" />
    <glyph glyph-name="uni0457" unicode="&#x457;" horiz-adv-x="411" 
d="M182 0l160 922h55l-159 -922h-56zM270 1280q0 18 12.5 29.5t30.5 11.5q17 0 28 -12t11 -29q0 -19 -11 -31t-28 -12q-20 0 -31.5 12t-11.5 31zM516 1280q0 19 12 30t31 11q15 0 27 -12t12 -29q0 -18 -12 -30.5t-27 -12.5q-20 0 -31.5 12t-11.5 31z" />
    <glyph glyph-name="uni0458" unicode="&#x458;" horiz-adv-x="415" 
d="M406 922l-175 -990q-62 -358 -307 -358q-94 0 -153 47l26 47q56 -39 127 -39q197 0 250 305l174 988h58zM393 1288q0 19 14 32t33 13q18 0 31.5 -13.5t13.5 -31.5q0 -20 -13.5 -33.5t-31.5 -13.5q-19 0 -33 13.5t-14 33.5z" />
    <glyph glyph-name="uni0459" unicode="&#x459;" horiz-adv-x="1376" 
d="M952 922q-13 -53 -65 -251.5t-74 -303.5q79 115 186.5 192.5t217.5 77.5q77 0 125.5 -57t48.5 -138q0 -75 -41.5 -155.5t-107 -145t-155.5 -106t-180 -41.5q-95 0 -135.5 58t-40.5 151q0 57 25 169t72.5 287.5t54.5 204.5h-408l-57 -241q-29 -123 -66.5 -228.5
t-87.5 -198.5t-115 -146.5t-137 -53.5l8 57q57 1 112.5 53.5t99 139t78 184.5t59.5 205l65 287h518zM1333 430q0 64 -36.5 108t-96.5 44q-85 0 -184.5 -69t-164.5 -161t-65 -159q0 -55 31 -99.5t101 -44.5q75 0 151.5 35.5t134 90t93.5 123.5t36 132z" />
    <glyph glyph-name="uni045A" unicode="&#x45a;" horiz-adv-x="1458" 
d="M854 446h-551l-78 -446h-57l160 922h57l-74 -420h555q18 77 56.5 224t50.5 196h55q-17 -72 -65 -263.5t-72 -291.5q79 115 187 192.5t218 77.5q77 0 125.5 -57t48.5 -138q0 -75 -41 -155.5t-107 -145t-155.5 -106t-179.5 -41.5q-94 0 -135 58.5t-41 150.5q0 39 25 164
q16 71 18 79zM1413 430q0 64 -36.5 108t-96.5 44q-86 0 -185 -69.5t-164 -164t-65 -166.5q0 -29 10 -57t42 -52t81 -24q99 0 196.5 59t157.5 148t60 174z" />
    <glyph glyph-name="uni045B" unicode="&#x45b;" horiz-adv-x="1044" 
d="M131 1026l8 49h301l64 359h55l-61 -359h432l-8 -49h-435l-106 -598q28 42 56.5 80.5t74 88.5t89.5 85.5t100 60.5t108 25q202 0 195 -229q-2 -62 -27 -189l-68 -350h-55l68 344q1 3 4.5 23.5t5 27t4.5 26.5t4.5 29.5t3.5 28t2.5 29.5t1 27.5t-1 28t-3.5 24.5t-5 24
q-27 101 -141 101q-59 0 -120.5 -34.5t-120 -97t-98.5 -114.5t-87 -121l-62 -346h-55l178 1026h-301z" />
    <glyph glyph-name="uni045C" unicode="&#x45c;" horiz-adv-x="856" 
d="M983 922l-522 -447l403 -475h-71l-404 477l512 445h82zM168 0l160 922h57l-160 -922h-57zM915 1419l-229 -289l-37 25l223 299z" />
    <glyph glyph-name="uni045E" unicode="&#x45e;" horiz-adv-x="796" 
d="M121 -354q49 0 93 25.5t82.5 75.5t67 96.5t65.5 114.5q11 21 17 32q-46 215 -126.5 463t-176.5 469h62q82 -190 159.5 -426t122.5 -439q172 329 316 865h63q-396 -1332 -745 -1332q-70 0 -135 43l28 45q53 -32 107 -32zM350 1405h51q-11 -89 33 -140t135 -51t162 53.5
t90 137.5h47q-20 -104 -104 -171t-197 -67q-117 0 -175.5 65.5t-41.5 172.5z" />
    <glyph glyph-name="uni045F" unicode="&#x45f;" horiz-adv-x="1021" 
d="M168 0l160 922h57l-152 -867h582l150 867h57l-162 -922h-317l-49 -279h-56l49 279h-319z" />
    <glyph glyph-name="uni0462" unicode="&#x462;" horiz-adv-x="1280" 
d="M623 1434l-50 -267h357l-10 -57h-355l-49 -283q159 13 289 13q218 0 331 -89t113 -251q0 -243 -167 -373.5t-449 -130.5q-70 0 -179 2t-145 2l195 1110h-303l10 57h303l47 267h62zM793 782q-172 0 -287 -12l-125 -713q28 0 115.5 -2t150.5 -2q249 0 393 115t144 321
q0 139 -99 216t-292 77z" />
    <glyph glyph-name="uni0463" unicode="&#x463;" horiz-adv-x="903" 
d="M303 252q4 44 22 146t52 278t37 190h-291l10 56h291l100 512h56l-99 -512h348l-10 -56h-348l-94 -501q181 256 362 256q77 0 125.5 -57t48.5 -136q0 -71 -34 -148t-90 -140.5t-137.5 -104.5t-168.5 -41q-95 0 -141.5 59.5t-46.5 149.5q0 18 8 49zM858 416
q0 62 -37.5 105.5t-97.5 43.5q-46 0 -109 -29.5t-121.5 -76t-99.5 -113.5t-41 -133q0 -68 35 -116t109 -48q95 0 180.5 58.5t133.5 143t48 165.5z" />
    <glyph glyph-name="uni0472" unicode="&#x472;" horiz-adv-x="1652" 
d="M231 645q0 171 59.5 321t163 256.5t250 168t314.5 61.5q304 0 479.5 -177t175.5 -468q0 -236 -98 -424t-275 -294.5t-401 -106.5q-162 0 -289.5 48.5t-210 136.5t-125.5 209.5t-43 268.5zM684 788q-181 0 -387 -151q4 -279 165.5 -437.5t440.5 -158.5q187 0 342 84.5
t252 244.5t109 367q-189 -137 -359 -137q-69 0 -130.5 19.5t-108.5 47t-93.5 55t-105.5 47t-125 19.5zM1249 655q94 0 190 42.5t171 99.5q-3 271 -161 433.5t-437 162.5q-139 0 -265.5 -50t-223 -139t-157.5 -221.5t-69 -288.5q208 150 389 150q70 0 132.5 -19.5t109 -47
t92.5 -55.5t105 -47.5t124 -19.5z" />
    <glyph glyph-name="uni0473" unicode="&#x473;" horiz-adv-x="983" 
d="M170 367q0 79 17 157.5t54.5 154t91.5 133t135 93t177 35.5q86 0 151 -32.5t101 -87.5t53 -118.5t17 -134.5q0 -162 -53.5 -293t-161.5 -211.5t-254 -80.5q-162 0 -245 105.5t-83 279.5zM229 375q0 -156 69 -247t206 -91q164 0 266 114t127 291q-74 -51 -149 -51
q-46 0 -94.5 19.5t-83.5 43t-82 43t-89 19.5q-80 0 -166 -61q-4 -54 -4 -80zM756 434q43 0 75.5 13t73.5 40q2 20 2 66q0 146 -64.5 239t-201.5 93q-85 0 -155.5 -31t-118.5 -86t-79 -122t-46 -146q86 57 164 57q46 0 95.5 -19t85.5 -42.5t82 -42.5t87 -19z" />
    <glyph glyph-name="uni0474" unicode="&#x474;" horiz-adv-x="1341" 
d="M1278 1075l-584 -1089h-39l-370 1448h63l342 -1350l541 1024q37 70 63 115t58.5 91.5t61 71t63 42t73 16t82.5 -18.5l-20 -53q-27 11 -50.5 14t-46 -5t-41 -18t-39.5 -34.5t-37 -45.5t-39 -60t-38.5 -68t-42.5 -80z" />
    <glyph glyph-name="uni0475" unicode="&#x475;" horiz-adv-x="950" 
d="M870 651l-368 -665h-35l-285 936h60l198 -652q36 -120 56 -192q29 48 60 105t67 125t57 106l149 274q26 47 44.5 77t44.5 66t49 55t51.5 33.5t60 13t66.5 -17.5l-21 -51q-25 13 -48.5 13.5t-44.5 -12t-40.5 -32t-39 -48t-37.5 -58.5t-38 -65q-4 -7 -6 -11z" />
    <glyph glyph-name="uni0490" unicode="&#x490;" horiz-adv-x="1026" 
d="M238 0l251 1434h725l52 278h57l-59 -336h-723l-242 -1376h-61z" />
    <glyph glyph-name="uni0491" unicode="&#x491;" horiz-adv-x="708" 
d="M174 0l160 922h426l43 237h53l-51 -293h-424l-152 -866h-55z" />
    <glyph glyph-name="uni0492" unicode="&#x492;" horiz-adv-x="1114" 
d="M291 0l117 662h-271l10 55h269l127 717h784l-10 -58h-723l-117 -659h445l-11 -55h-444l-115 -662h-61z" />
    <glyph glyph-name="uni0493" unicode="&#x493;" horiz-adv-x="794" 
d="M211 0l76 438h-195l8 49h195l78 435h532l-10 -56h-473l-68 -379h324l-8 -49h-324l-76 -438h-59z" />
    <glyph glyph-name="uni0494" unicode="&#x494;" horiz-adv-x="1230" 
d="M238 0l251 1434h785l-10 -58h-723l-113 -639q208 129 414 129q172 0 256 -89.5t84 -254.5q0 -26 -21 -168l-45 -254q-17 -95 -37 -168t-53.5 -143t-77 -115t-107.5 -72.5t-145 -27.5q-108 0 -182 59l31 48q69 -48 151 -48q69 0 124 25t92 65.5t65.5 103.5t45.5 127
t32 148l45 252q20 109 20 176q0 134 -75 206.5t-220 72.5q-28 0 -55.5 -2.5t-50 -6t-49 -11t-44 -12.5t-43 -15.5t-38 -15.5t-37 -18t-32 -17t-31.5 -17.5t-27 -15.5l-119 -678h-61z" />
    <glyph glyph-name="uni0495" unicode="&#x495;" horiz-adv-x="970" 
d="M168 0l162 922h532l-10 -56h-473l-76 -430q70 67 160.5 107.5t185.5 40.5q52 0 102.5 -16t95.5 -48.5t73 -91t28 -135.5q0 -108 -40 -217.5t-106.5 -200t-150.5 -164.5t-174 -121h-69q91 50 173.5 120t153 158.5t112.5 199t42 223.5q0 65 -22.5 112.5t-60.5 74
t-81.5 38.5t-91.5 12q-179 0 -340 -151l-66 -377h-59z" />
    <glyph glyph-name="uni0496" unicode="&#x496;" horiz-adv-x="1849" 
d="M2005 1434l-764 -691l492 -686h188l-59 -338h-60l51 281h-147l-535 748l754 686h80zM856 754l-518 680h68l520 -686l-785 -748h-78zM889 0l252 1434h59l-252 -1434h-59z" />
    <glyph glyph-name="uni0497" unicode="&#x497;" horiz-adv-x="1189" 
d="M1161 0q-40 0 -62.5 15t-43.5 46l-279 418l441 443h75l-450 -447l248 -369q23 -32 45 -41.5t55 -9.5h57l-57 -295h-53l47 240h-23zM483 485l-303 437h68l301 -443l-467 -479h-74zM551 0l160 922h55l-160 -922h-55z" />
    <glyph glyph-name="uni0498" unicode="&#x498;" horiz-adv-x="1169" 
d="M555 -326h-57l53 310q-139 6 -251 64t-171 151l41 39q65 -93 175.5 -145t246.5 -52q194 0 312 108t118 289q0 125 -78 196t-217 71h-172l10 57h166q146 0 251 107.5t105 244.5q0 134 -83 206.5t-242 72.5q-203 0 -387 -142l-29 43q181 158 422 158q185 0 283 -85.5
t98 -248.5q0 -126 -82 -234.5t-211 -146.5l-2 -2q109 -20 168 -99t59 -196q0 -201 -129 -325.5t-344 -132.5z" />
    <glyph glyph-name="uni0499" unicode="&#x499;" horiz-adv-x="796" 
d="M369 -279h-56l45 261q-183 6 -295 100l35 43q117 -88 285 -88q138 0 225.5 72t87.5 180q0 74 -56.5 114.5t-160.5 40.5h-117l9 50h104q107 0 183.5 61.5t76.5 159.5q0 79 -57.5 124.5t-167.5 45.5q-84 0 -150 -18.5t-141 -59.5l-24 45q159 88 329 88q130 0 200.5 -57
t70.5 -154q0 -92 -54.5 -160.5t-154.5 -95.5v-2q84 -13 127 -61.5t43 -118.5q0 -128 -95 -213t-247 -94z" />
    <glyph glyph-name="uni049A" unicode="&#x49a;" horiz-adv-x="1277" 
d="M1438 1434l-840 -693l555 -684h188l-59 -338h-59l51 281h-148l-602 748l828 686h86zM238 0l251 1434h62l-252 -1434h-61z" />
    <glyph glyph-name="uni049B" unicode="&#x49b;" horiz-adv-x="880" 
d="M854 0q-41 0 -58 8.5t-40 34.5l-367 434l512 445h82l-522 -447l325 -383q32 -37 78 -37h68l-58 -295h-53l47 240h-14zM168 0l160 922h57l-160 -922h-57z" />
    <glyph glyph-name="uni049C" unicode="&#x49c;" horiz-adv-x="1298" 
d="M1458 1434l-840 -693l603 -741h-74l-547 680l-55 -311h-58l131 737h58l-53 -293l749 621h86zM238 0l251 1434h62l-252 -1434h-61z" />
    <glyph glyph-name="uni049D" unicode="&#x49d;" horiz-adv-x="868" 
d="M995 922l-522 -447l404 -475h-72l-348 412l-41 -228h-56l99 553h55l-35 -192l434 377h82zM168 0l160 922h57l-160 -922h-57z" />
    <glyph glyph-name="uni04A0" unicode="&#x4a0;" horiz-adv-x="1505" 
d="M1665 1434l-840 -693l602 -741h-73l-602 748l827 686h86zM465 0l242 1376h-465l12 58h524l-252 -1434h-61z" />
    <glyph glyph-name="uni04A1" unicode="&#x4a1;" horiz-adv-x="1040" 
d="M352 0l150 866h-348l8 56h407l-159 -922h-58zM1167 922l-522 -447l404 -475h-72l-404 477l512 445h82z" />
    <glyph glyph-name="uni04A2" unicode="&#x4a2;" horiz-adv-x="1599" 
d="M1268 0l125 702h-971l-123 -702h-61l251 1434h62l-119 -674h971l117 674h61l-242 -1377h195l-59 -338h-60l51 281h-198z" />
    <glyph glyph-name="uni04A3" unicode="&#x4a3;" horiz-adv-x="1046" 
d="M922 0q-49 0 -75 28.5t-26 75.5q0 18 8 72l45 266h-571l-78 -442h-57l160 922h57l-74 -424h572l73 424h58l-129 -746q-4 -28 -4 -45q0 -76 73 -76h66l-57 -295h-54l47 240h-34z" />
    <glyph glyph-name="uni04A4" unicode="&#x4a4;" horiz-adv-x="2062" 
d="M1249 0l123 702h-950l-123 -702h-61l251 1434h62l-119 -674h950l119 674h774l-10 -58h-713l-241 -1376h-62z" />
    <glyph glyph-name="uni04A5" unicode="&#x4a5;" horiz-adv-x="1347" 
d="M774 0l78 442h-549l-78 -442h-57l160 922h57l-74 -424h549l76 424h522l-10 -56h-463l-151 -866h-60z" />
    <glyph glyph-name="uni04AA" unicode="&#x4aa;" horiz-adv-x="1345" 
d="M1327 162l23 -47q-79 -63 -197.5 -96.5t-232.5 -36.5l-54 -308h-57l53 308q-281 11 -457 189.5t-176 473.5q0 162 61 309t168 257.5t263 175.5t336 65q278 0 424 -121l-33 -43q-149 105 -387 105q-135 0 -256 -39t-213 -109t-160 -162.5t-103.5 -202.5t-35.5 -227
q0 -141 46.5 -257.5t129 -193.5t194.5 -119t242 -42q246 0 422 121z" />
    <glyph glyph-name="uni04AB" unicode="&#x4ab;" horiz-adv-x="845" 
d="M786 158l29 -37q-139 -129 -299 -137l-45 -263h-55l45 263q-138 10 -214.5 110t-76.5 252q0 156 65 292t181.5 219t257.5 83q121 0 205 -37l-21 -51q-91 33 -188 33q-122 0 -224 -74.5t-159.5 -196t-57.5 -258.5q0 -147 73 -233t198 -86q59 0 114.5 19.5t89 41.5t82.5 60
z" />
    <glyph glyph-name="uni04AE" unicode="&#x4ae;" horiz-adv-x="1175" 
d="M1378 1434l-659 -797l-111 -637h-59l110 637l-372 797h63l346 -740l611 740h71z" />
    <glyph glyph-name="uni04AF" unicode="&#x4af;" horiz-adv-x="792" 
d="M326 -410h-56l72 410q-58 447 -195 922h60q139 -472 178 -863q163 175 267.5 398.5t133.5 464.5h62q-35 -273 -160.5 -519.5t-290.5 -402.5z" />
    <glyph glyph-name="uni04B0" unicode="&#x4b0;" horiz-adv-x="1175" 
d="M1378 1434l-635 -766h394l-11 -58h-413l-105 -610h-59l104 610h-413l10 58h395l-358 766h63l346 -740l611 740h71z" />
    <glyph glyph-name="uni04B1" unicode="&#x4b1;" horiz-adv-x="792" 
d="M713 55l-8 -55h-308l-71 -410h-56l72 410h-285l9 55h268q-57 411 -187 867h60q139 -472 178 -863q163 175 267.5 398.5t133.5 464.5h62q-32 -250 -140.5 -478.5t-256.5 -388.5h262z" />
    <glyph glyph-name="uni04B2" unicode="&#x4b2;" horiz-adv-x="1339" 
d="M1499 1434l-665 -705l397 -672h188l-59 -338h-60l52 281h-154l-410 684l-647 -684h-78l693 731l-418 703h70l393 -658l620 658h78z" />
    <glyph glyph-name="uni04B3" unicode="&#x4b3;" horiz-adv-x="837" 
d="M813 0q-74 0 -113 72l-196 360l-389 -432h-72l426 475l-248 447h68l219 -406l358 406h74l-399 -447l194 -352q40 -68 103 -68h61l-57 -295h-54l48 240h-23z" />
    <glyph glyph-name="uni04B6" unicode="&#x4b6;" horiz-adv-x="1312" 
d="M1294 1434l-243 -1377h194l-59 -338h-60l52 281h-199l123 684q-86 -51 -202.5 -91t-221.5 -40q-186 0 -286 84.5t-99 255.5q0 55 12 119l74 422h61l-73 -414q-11 -75 -11 -117q-2 -144 80.5 -217.5t253.5 -73.5q109 0 221 39.5t201 91.5l121 691h61z" />
    <glyph glyph-name="uni04B7" unicode="&#x4b7;" horiz-adv-x="880" 
d="M754 0q-99 0 -99 102q0 11 9 72l84 483q-196 -333 -396 -333q-167 0 -164 188q0 62 23 162l61 248h58l-62 -252q-20 -88 -20 -144q-3 -147 121 -147q52 0 111 38t112 99.5t95.5 124t76.5 125.5l29 156h55l-129 -746q-4 -28 -4 -39q0 -82 73 -82h66l-57 -295h-54l48 240
h-37z" />
    <glyph glyph-name="uni04B8" unicode="&#x4b8;" horiz-adv-x="1280" 
d="M1294 1434l-254 -1434h-61l123 684q-73 -44 -179 -80t-206 -43l-51 -299h-62l51 299q-365 10 -362 332q0 52 20 162l66 379h61l-69 -387q-15 -77 -15 -144q-2 -139 74 -208.5t236 -73.5l69 389h62l-70 -389q103 7 205.5 42t179.5 80l121 691h61z" />
    <glyph glyph-name="uni04B9" unicode="&#x4b9;" horiz-adv-x="849" 
d="M369 379h6l51 287h57l-49 -273q87 36 176 144.5t154 228.5l29 156h55l-160 -922h-55l115 657q-162 -271 -324 -323l-37 -211h-57l35 201h-13q-164 0 -164 188q0 60 37 221l47 189h58l-47 -193q-35 -155 -35 -203q0 -72 27.5 -109.5t93.5 -37.5z" />
    <glyph glyph-name="uni04BA" unicode="&#x4ba;" horiz-adv-x="1284" 
d="M492 1434h59l-123 -699q79 52 199.5 91.5t244.5 39.5q88 0 158.5 -26.5t123.5 -83t70.5 -144.5t-1.5 -211l-72 -401h-61l71 399q36 201 -49 305.5t-258 104.5q-210 0 -436 -131l-121 -678h-59z" />
    <glyph glyph-name="uni04BB" unicode="&#x4bb;" horiz-adv-x="1001" 
d="M766 885q-194 0 -465 -449l-76 -436h-57l250 1434h55l-156 -899q41 67 85.5 126.5t107 128t133.5 109.5t137 41q93 0 137 -56t44 -153q0 -37 -21 -184l-109 -547h-55l107 535q20 114 20 178q-2 81 -31 126.5t-106 45.5z" />
    <glyph glyph-name="uni04C0" unicode="&#x4c0;" horiz-adv-x="403" 
d="M492 1434l-252 -1434h-58l252 1434h58z" />
    <glyph glyph-name="uni04CB" unicode="&#x4cb;" horiz-adv-x="1280" 
d="M1294 1434l-254 -1434h-196l-49 -281h-60l60 338h194l113 627q-86 -51 -202.5 -91t-221.5 -40q-186 0 -286 84.5t-99 255.5q0 55 12 119l74 422h61l-73 -414q-11 -75 -11 -117q-2 -144 80.5 -217.5t253.5 -73.5q109 0 221 39.5t201 91.5l121 691h61z" />
    <glyph glyph-name="uni04CC" unicode="&#x4cc;" horiz-adv-x="849" 
d="M369 379q52 0 111 38t112 99.5t95.5 124t76.5 125.5l29 156h55l-135 -781q-25 -141 -142 -141h-41l-36 -240h-54l45 295h66q49 0 75.5 30t37.5 91l84 481q-196 -333 -396 -333q-167 0 -164 188q0 62 23 162l61 248h58l-62 -252q-20 -88 -20 -144q-3 -147 121 -147z" />
    <glyph glyph-name="uni04CF" unicode="&#x4cf;" horiz-adv-x="587" 
d="M279 0l251 1434h62l-252 -1434h-61z" />
    <glyph glyph-name="uni04D0" unicode="&#x4d0;" horiz-adv-x="1413" 
d="M53 0l887 1448h43l377 -1448h-62l-137 532h-717l-325 -532h-66zM948 1358l-469 -768h666zM670 1731h57q32 -156 260 -156q101 0 182.5 42t126.5 114h54q-47 -90 -147 -146.5t-224 -56.5q-138 0 -217.5 52.5t-91.5 150.5z" />
    <glyph glyph-name="uni04D1" unicode="&#x4d1;" horiz-adv-x="985" 
d="M422 43q36 0 74.5 17.5t71.5 43.5t71 68.5t65.5 79t62 89t53.5 83.5t46 78l58 344q-55 22 -94 30.5t-93 8.5q-103 0 -195.5 -41.5t-162 -115t-110 -181.5t-40.5 -234q0 -122 48 -196t145 -74zM840 0h-58l66 397q-21 -35 -32.5 -54.5t-36 -58t-42 -62t-45 -58t-51 -56.5
t-54 -47t-59 -39.5t-62 -24t-67.5 -9.5q-112 0 -170.5 87.5t-58.5 227.5q0 137 45 256.5t121.5 202.5t180.5 130.5t220 47.5q131 0 248 -57zM541 1405h51q-11 -89 33 -140t135 -51t162 53.5t90 137.5h47q-20 -104 -104 -171t-197 -67q-117 0 -175.5 65.5t-41.5 172.5z" />
    <glyph glyph-name="uni04D2" unicode="&#x4d2;" horiz-adv-x="1413" 
d="M53 0l887 1448h43l377 -1448h-62l-137 532h-717l-325 -532h-66zM948 1358l-469 -768h666zM694 1630q0 19 14 31t35 12q18 0 31.5 -12.5t13.5 -30.5q0 -21 -13.5 -33t-31.5 -12q-21 0 -35 12t-14 33zM1171 1630q0 18 15.5 30.5t36.5 12.5q18 0 31.5 -12t13.5 -31
q0 -21 -13.5 -33t-31.5 -12q-21 0 -36.5 12t-15.5 33z" />
    <glyph glyph-name="uni04D3" unicode="&#x4d3;" horiz-adv-x="985" 
d="M422 43q36 0 74.5 17.5t71.5 43.5t71 68.5t65.5 79t62 89t53.5 83.5t46 78l58 344q-55 22 -94 30.5t-93 8.5q-103 0 -195.5 -41.5t-162 -115t-110 -181.5t-40.5 -234q0 -122 48 -196t145 -74zM840 0h-58l66 397q-21 -35 -32.5 -54.5t-36 -58t-42 -62t-45 -58t-51 -56.5
t-54 -47t-59 -39.5t-62 -24t-67.5 -9.5q-112 0 -170.5 87.5t-58.5 227.5q0 137 45 256.5t121.5 202.5t180.5 130.5t220 47.5q131 0 248 -57zM514 1241q0 17 13 29t32 12q17 0 30 -12t13 -29q0 -21 -12.5 -34t-30.5 -13q-19 0 -32 13t-13 34zM948 1241q0 17 13 29t32 12
q17 0 30 -12t13 -29q0 -21 -12.5 -34t-30.5 -13q-19 0 -32 13t-13 34z" />
    <glyph glyph-name="uni04D4" unicode="&#x4d4;" horiz-adv-x="1972" 
d="M2064 1434l-10 -58h-717l-110 -618h657l-10 -58h-657l-113 -643h739l-10 -57h-801l96 547h-561l-485 -547h-76l1276 1434h782zM1270 1339l-652 -735h521z" />
    <glyph glyph-name="uni04D5" unicode="&#x4d5;" horiz-adv-x="1576" 
d="M850 391q-30 -50 -53 -86t-60 -88t-72.5 -88t-78.5 -70.5t-90.5 -52.5t-96.5 -18q-112 0 -170.5 87.5t-58.5 227.5q0 137 45 256.5t121.5 202.5t180.5 130.5t220 47.5q181 0 318 -119q129 119 293 119q123 0 190.5 -55.5t67.5 -155.5q-1 -82 -52.5 -145.5t-141.5 -101
t-203 -56t-246 -18.5q-28 -25 -58 -43q-2 -143 69.5 -235.5t205.5 -92.5q91 0 175 39t148 98l31 -37q-165 -155 -365 -155q-74 0 -132.5 26.5t-96 73t-59.5 104.5t-27 125q-7 42 -4 80zM422 43q38 0 77 16.5t71 39.5t69.5 64t62 72.5t58 84t49.5 79.5t45 76q44 182 156 305
q-117 105 -279 105q-100 0 -191.5 -41.5t-160 -115t-109.5 -181.5t-41 -234q0 -122 48 -196t145 -74zM1341 885q-158 0 -279 -128t-151 -311q130 -2 241 12.5t197.5 45.5t137 82.5t53.5 118.5q3 50 -16 92q-40 88 -183 88z" />
    <glyph glyph-name="uni04D6" unicode="&#x4d6;" horiz-adv-x="1177" 
d="M238 0l251 1434h779l-8 -58h-719l-109 -618h658l-13 -58h-655l-113 -643h738l-11 -57h-798zM590 1731h57q32 -156 260 -156q101 0 183 42t127 114h53q-47 -90 -147 -146.5t-224 -56.5q-138 0 -217.5 52.5t-91.5 150.5z" />
    <glyph glyph-name="uni04D7" unicode="&#x4d7;" horiz-adv-x="903" 
d="M829 174l29 -37q-165 -155 -362 -155q-82 0 -146 31t-102.5 84t-58 117.5t-19.5 137.5q0 112 39 219t105 188.5t160 131t198 49.5q123 0 190.5 -55.5t67.5 -155.5q0 -86 -54.5 -151.5t-151 -104t-221 -56.5t-272.5 -16q-2 -12 -2 -36q-2 -143 69.5 -235.5t205.5 -92.5
q172 0 325 137zM668 885q-159 0 -280.5 -128t-149.5 -311q174 -3 311 23t224 86.5t91 149.5q3 55 -16 92q-37 88 -180 88zM483 1405h52q-11 -89 32.5 -140t134.5 -51t162 53.5t90 137.5h47q-20 -104 -104 -171t-197 -67q-117 0 -175.5 65.5t-41.5 172.5z" />
    <glyph glyph-name="uni04D8" unicode="&#x4d8;" horiz-adv-x="1607" 
d="M250 760h1315q9 130 -22.5 244t-100 201t-181 137.5t-255.5 50.5q-246 0 -426 -125l-27 45q189 139 461 139q291 0 453.5 -173.5t162.5 -467.5q0 -171 -57.5 -323t-161 -264t-255.5 -177t-331 -65q-212 0 -359 101t-203.5 278.5t-12.5 398.5zM829 41q196 0 356.5 85
t258.5 235t119 341h-1260q-28 -184 26.5 -334.5t185.5 -238.5t314 -88z" />
    <glyph glyph-name="uni04D9" unicode="&#x4d9;" horiz-adv-x="888" 
d="M215 748l-29 36q166 156 363 156q82 0 145 -30t101 -82.5t57.5 -118.5t19.5 -142q0 -148 -65 -282t-181.5 -218.5t-254.5 -84.5q-120 0 -189 53t-69 155q0 73 39 131t104 95t156 61t189.5 33.5t209.5 7.5v45q3 137 -65.5 229.5t-200.5 92.5q-174 0 -330 -137zM375 37
q156 0 278 126t152 308q-123 3 -233 -10.5t-200.5 -43.5t-144 -84.5t-53.5 -127.5q0 -83 52 -125.5t149 -42.5z" />
    <glyph glyph-name="uni04DC" unicode="&#x4dc;" horiz-adv-x="1839" 
d="M2005 1434l-764 -691l533 -743h-68l-535 748l754 686h80zM889 0l252 1434h59l-252 -1434h-59zM856 754l-518 680h68l520 -686l-785 -748h-78zM909 1630q0 19 14 31t35 12q18 0 32 -12.5t14 -30.5q0 -21 -14 -33t-32 -12q-21 0 -35 12t-14 33zM1386 1630q0 18 15.5 30.5
t36.5 12.5q18 0 31.5 -12t13.5 -31q0 -21 -13.5 -33t-31.5 -12q-21 0 -36.5 12t-15.5 33z" />
    <glyph glyph-name="uni04DD" unicode="&#x4dd;" horiz-adv-x="1155" 
d="M1292 922l-450 -447l319 -475h-65l-320 479l441 443h75zM551 0l160 922h55l-160 -922h-55zM483 485l-303 437h68l301 -443l-467 -479h-74zM516 1241q0 17 13 29t32 12q17 0 30 -12t13 -29q0 -21 -12.5 -34t-30.5 -13q-19 0 -32 13t-13 34zM950 1241q0 17 13 29t32 12
q17 0 30 -12t13 -29q0 -21 -12.5 -34t-30.5 -13q-19 0 -32 13t-13 34z" />
    <glyph glyph-name="uni04DE" unicode="&#x4de;" horiz-adv-x="1169" 
d="M586 -18q-151 0 -272 59t-185 158l41 39q65 -93 175.5 -145t246.5 -52q194 0 312 108t118 289q0 125 -78 196t-217 71h-172l10 57h166q146 0 251 107.5t105 244.5q0 134 -83 206.5t-242 72.5q-203 0 -387 -142l-29 43q181 158 422 158q185 0 283 -85.5t98 -248.5
q0 -126 -82 -234.5t-211 -146.5l-2 -2q109 -20 168 -99t59 -196q0 -206 -135.5 -332t-359.5 -126zM518 1630q0 19 14 31t35 12q18 0 31.5 -12.5t13.5 -30.5q0 -21 -13.5 -33t-31.5 -12q-21 0 -35 12t-14 33zM995 1630q0 18 15.5 30.5t36.5 12.5q18 0 31.5 -12t13.5 -31
q0 -21 -13.5 -33t-31.5 -12q-21 0 -36.5 12t-15.5 33z" />
    <glyph glyph-name="uni04DF" unicode="&#x4df;" horiz-adv-x="796" 
d="M379 -18q-95 0 -177.5 27t-138.5 73l35 43q117 -88 285 -88q138 0 225.5 72t87.5 180q0 74 -56.5 114.5t-160.5 40.5h-117l9 50h104q107 0 183.5 61.5t76.5 159.5q0 79 -57.5 124.5t-167.5 45.5q-84 0 -150 -18.5t-141 -59.5l-24 45q159 88 329 88q130 0 200.5 -57
t70.5 -154q0 -92 -54.5 -160.5t-154.5 -95.5v-2q84 -13 127 -61.5t43 -118.5q0 -136 -106 -222.5t-271 -86.5zM285 1241q0 17 13 29t32 12q17 0 30 -12t13 -29q0 -21 -12.5 -34t-30.5 -13q-19 0 -32 13t-13 34zM719 1241q0 17 13 29t32 12q17 0 30 -12t13 -29
q0 -21 -12.5 -34t-30.5 -13q-19 0 -32 13t-13 34z" />
    <glyph glyph-name="uni04E2" unicode="&#x4e2;" horiz-adv-x="1636" 
d="M293 0h-55l251 1434h62l-234 -1330l1278 1330h56l-252 -1434h-62l236 1329zM815 1608l8 49h609l-9 -49h-608z" />
    <glyph glyph-name="uni04E3" unicode="&#x4e3;" horiz-adv-x="980" 
d="M391 37q59 0 127 46t131.5 122.5t109.5 142.5t89 139l76 435h57l-162 -922h-55l67 387q-251 -405 -454 -405q-182 0 -182 208q0 57 22 185l115 547h55l-113 -535q-22 -105 -22 -178q2 -81 31.5 -126.5t107.5 -45.5zM463 1278l8 51h496l-9 -51h-495z" />
    <glyph glyph-name="uni04E4" unicode="&#x4e4;" horiz-adv-x="1636" 
d="M293 0h-55l251 1434h62l-234 -1330l1278 1330h56l-252 -1434h-62l236 1329zM821 1630q0 19 14 31t35 12q18 0 31.5 -12.5t13.5 -30.5q0 -21 -13.5 -33t-31.5 -12q-21 0 -35 12t-14 33zM1298 1630q0 18 15.5 30.5t36.5 12.5q18 0 31.5 -12t13.5 -31q0 -21 -13.5 -33
t-31.5 -12q-21 0 -36.5 12t-15.5 33z" />
    <glyph glyph-name="uni04E5" unicode="&#x4e5;" horiz-adv-x="980" 
d="M391 37q59 0 127 46t131.5 122.5t109.5 142.5t89 139l76 435h57l-162 -922h-55l67 387q-251 -405 -454 -405q-182 0 -182 208q0 57 22 185l115 547h55l-113 -535q-22 -105 -22 -178q2 -81 31.5 -126.5t107.5 -45.5zM451 1282q0 17 13 29t32 12q17 0 30 -12t13 -29
q0 -21 -12.5 -34t-30.5 -13q-19 0 -32 13t-13 34zM885 1282q0 17 13 29t32 12q17 0 30 -12t13 -29q0 -21 -12.5 -34t-30.5 -13q-19 0 -32 13t-13 34z" />
    <glyph glyph-name="uni04E6" unicode="&#x4e6;" horiz-adv-x="1652" 
d="M231 645q0 171 59.5 321t163 256.5t250 168t314.5 61.5q304 0 479.5 -177t175.5 -468q0 -236 -98 -424t-275 -294.5t-401 -106.5q-162 0 -289.5 48.5t-210 136.5t-125.5 209.5t-43 268.5zM295 649q0 -285 163 -446.5t445 -161.5q146 0 275.5 54.5t225 151.5t151 239.5
t55.5 310.5q0 271 -160 433.5t-438 162.5q-144 0 -274.5 -53.5t-228.5 -148t-156 -235.5t-58 -307zM764 1630q0 19 14 31t35 12q18 0 31.5 -12.5t13.5 -30.5q0 -21 -13.5 -33t-31.5 -12q-21 0 -35 12t-14 33zM1241 1630q0 18 15 30.5t36 12.5q18 0 31.5 -12t13.5 -31
q0 -21 -13.5 -33t-31.5 -12q-21 0 -36 12t-15 33z" />
    <glyph glyph-name="uni04E7" unicode="&#x4e7;" horiz-adv-x="983" 
d="M498 -18q-160 0 -244 105t-84 278q0 81 17.5 161t55.5 155.5t92 132.5t134.5 91.5t175.5 34.5q83 0 146.5 -31t101 -84t56 -118.5t18.5 -141.5q0 -163 -55 -294.5t-162.5 -210t-251.5 -78.5zM504 37q77 0 143 27t113.5 74.5t80.5 112.5t49.5 142t16.5 162
q0 151 -67.5 240.5t-200.5 89.5q-81 0 -149.5 -29t-116 -78.5t-80.5 -115.5t-48.5 -139t-15.5 -150q0 -156 70.5 -246t204.5 -90zM414 1241q0 17 13 29t32 12q17 0 30 -12t13 -29q0 -21 -12.5 -34t-30.5 -13q-19 0 -32 13t-13 34zM848 1241q0 17 13 29t32 12q17 0 30 -12
t13 -29q0 -21 -12.5 -34t-30.5 -13q-19 0 -32 13t-13 34z" />
    <glyph glyph-name="uni04E8" unicode="&#x4e8;" horiz-adv-x="1652" 
d="M231 645q0 171 59.5 321t163 256.5t250 168t314.5 61.5q304 0 479.5 -177t175.5 -468q0 -236 -98 -424t-275 -294.5t-401 -106.5q-162 0 -289.5 48.5t-210 136.5t-125.5 209.5t-43 268.5zM295 649q0 -285 163 -446.5t445 -161.5q179 0 330 78.5t250 227.5t121 343h-1309
v-41zM1012 1393q-178 0 -332 -78t-256.5 -226t-124.5 -341h1309q2 16 2 49q0 271 -160 433.5t-438 162.5z" />
    <glyph glyph-name="uni04E9" unicode="&#x4e9;" horiz-adv-x="983" 
d="M498 -18q-160 0 -244 105t-84 278q0 81 17.5 161t55.5 155.5t92 132.5t134.5 91.5t175.5 34.5q83 0 146.5 -31t101 -84t56 -118.5t18.5 -141.5q0 -163 -55 -294.5t-162.5 -210t-251.5 -78.5zM504 37q162 0 264.5 111t130.5 288h-668q-2 -23 -2 -63q0 -156 70.5 -246
t204.5 -90zM639 885q-86 0 -156.5 -31.5t-119 -87t-79 -124.5t-44.5 -150h665q2 20 2 63q0 151 -67.5 240.5t-200.5 89.5z" />
    <glyph glyph-name="uni04EE" unicode="&#x4ee;" horiz-adv-x="1302" 
d="M1518 1434l-701 -1115q-49 -77 -84.5 -126t-82 -98t-95.5 -72t-104 -23q-87 0 -138 43l31 47q48 -35 115 -35q74 0 141 63.5t119 149.5l41 64l-477 1102h65l451 -1043l651 1043h68zM625 1608l8 49h608l-8 -49h-608z" />
    <glyph glyph-name="uni04EF" unicode="&#x4ef;" horiz-adv-x="796" 
d="M121 -354q49 0 93 25.5t82.5 75.5t67 96.5t65.5 114.5q11 21 17 32q-46 215 -126.5 463t-176.5 469h62q82 -190 159.5 -426t122.5 -439q172 329 316 865h63q-396 -1332 -745 -1332q-70 0 -135 43l28 45q53 -32 107 -32zM283 1278l8 51h495l-8 -51h-495z" />
    <glyph glyph-name="uni04F0" unicode="&#x4f0;" horiz-adv-x="1302" 
d="M1518 1434l-701 -1115q-49 -77 -84.5 -126t-82 -98t-95.5 -72t-104 -23q-87 0 -138 43l31 47q48 -35 115 -35q74 0 141 63.5t119 149.5l41 64l-477 1102h65l451 -1043l651 1043h68zM618 1630q0 18 14.5 30.5t35.5 12.5q18 0 31.5 -12.5t13.5 -30.5q0 -21 -13.5 -33
t-31.5 -12q-21 0 -35.5 12t-14.5 33zM1096 1630q0 18 15 30.5t36 12.5q18 0 31.5 -12t13.5 -31q0 -21 -13.5 -33t-31.5 -12q-21 0 -36 12t-15 33z" />
    <glyph glyph-name="uni04F1" unicode="&#x4f1;" horiz-adv-x="796" 
d="M121 -354q49 0 93 25.5t82.5 75.5t67 96.5t65.5 114.5q11 21 17 32q-46 215 -126.5 463t-176.5 469h62q82 -190 159.5 -426t122.5 -439q172 329 316 865h63q-396 -1332 -745 -1332q-70 0 -135 43l28 45q53 -32 107 -32zM258 1241q0 17 13 29t32 12q17 0 30 -12t13 -29
q0 -21 -12.5 -34t-30.5 -13q-19 0 -32 13t-13 34zM692 1241q0 17 13 29t32 12q17 0 30 -12t13 -29q0 -21 -12.5 -34t-30.5 -13q-19 0 -32 13t-13 34z" />
    <glyph glyph-name="uni04F2" unicode="&#x4f2;" horiz-adv-x="1302" 
d="M1518 1434l-701 -1115q-49 -77 -84.5 -126t-82 -98t-95.5 -72t-104 -23q-87 0 -138 43l31 47q48 -35 115 -35q74 0 141 63.5t119 149.5l41 64l-477 1102h65l451 -1043l651 1043h68zM1335 1706l-329 -190l-25 28l319 201zM973 1714l-318 -198l-26 28l303 201z" />
    <glyph glyph-name="uni04F3" unicode="&#x4f3;" horiz-adv-x="796" 
d="M121 -354q49 0 93 25.5t82.5 75.5t67 96.5t65.5 114.5q11 21 17 32q-46 215 -126.5 463t-176.5 469h62q82 -190 159.5 -426t122.5 -439q172 329 316 865h63q-396 -1332 -745 -1332q-70 0 -135 43l28 45q53 -32 107 -32zM877 1417l-232 -287l-37 25l228 297zM575 1423
l-225 -293l-37 25l222 299z" />
    <glyph glyph-name="uni04F4" unicode="&#x4f4;" horiz-adv-x="1280" 
d="M1294 1434l-254 -1434h-61l123 684q-86 -51 -202.5 -91t-221.5 -40q-186 0 -286 84.5t-99 255.5q0 55 12 119l74 422h61l-73 -414q-11 -75 -11 -117q-2 -144 80.5 -217.5t253.5 -73.5q109 0 221 39.5t201 91.5l121 691h61zM563 1630q0 19 14 31t35 12q18 0 31.5 -12.5
t13.5 -30.5q0 -21 -13.5 -33t-31.5 -12q-21 0 -35 12t-14 33zM1040 1630q0 18 15.5 30.5t36.5 12.5q18 0 31.5 -12t13.5 -31q0 -21 -13.5 -33t-31.5 -12q-21 0 -36.5 12t-15.5 33z" />
    <glyph glyph-name="uni04F5" unicode="&#x4f5;" horiz-adv-x="849" 
d="M369 379q52 0 111 38t112 99.5t95.5 124t76.5 125.5l29 156h55l-160 -922h-55l115 657q-196 -333 -396 -333q-167 0 -164 188q0 62 23 162l61 248h58l-62 -252q-20 -88 -20 -144q-3 -147 121 -147zM344 1241q0 17 13 29t32 12q17 0 30 -12t13 -29q0 -21 -12.5 -34
t-30.5 -13q-19 0 -32 13t-13 34zM778 1241q0 17 13 29t32 12q17 0 30 -12t13 -29q0 -21 -12.5 -34t-30.5 -13q-19 0 -32 13t-13 34z" />
    <glyph glyph-name="uni04F6" unicode="&#x4f6;" horiz-adv-x="1060" 
d="M238 0l251 1434h785l-10 -58h-723l-232 -1319h195l-60 -338h-59l51 281h-198z" />
    <glyph glyph-name="uni04F7" unicode="&#x4f7;" horiz-adv-x="757" 
d="M303 0q-55 0 -80.5 28.5t-25.5 75.5q0 11 14 107l125 711h532l-10 -56h-473l-113 -639q0 -4 -3.5 -25.5t-6 -40.5t-2.5 -28q0 -78 70 -78h65l-57 -295h-53l47 240h-29z" />
    <glyph glyph-name="uni04F8" unicode="&#x4f8;" horiz-adv-x="1669" 
d="M1372 0l252 1434h59l-251 -1434h-60zM700 793q-139 0 -264 -13l-127 -723q28 0 107.5 -2t144.5 -2q251 0 392 118t141 327q0 140 -100 217.5t-294 77.5zM551 1434l-105 -594q163 10 267 10q219 0 332.5 -90t113.5 -250q0 -246 -162.5 -380t-447.5 -134q-73 0 -174 2
t-137 2l251 1434h62zM819 1630q0 19 14 31t35 12q18 0 31.5 -12.5t13.5 -30.5q0 -21 -13.5 -33t-31.5 -12q-21 0 -35 12t-14 33zM1296 1630q0 18 15.5 30.5t36.5 12.5q18 0 31.5 -12t13.5 -31q0 -21 -13.5 -33t-31.5 -12q-21 0 -36.5 12t-15.5 33z" />
    <glyph glyph-name="uni04F9" unicode="&#x4f9;" 
d="M682 637q77 0 125.5 -57t48.5 -138q0 -75 -41 -155.5t-107 -145t-155.5 -106t-179.5 -41.5q-95 0 -135.5 58t-40.5 151q0 63 28 188t78 310t59 221h58q-11 -45 -65.5 -247t-78.5 -308q74 114 184.5 192t221.5 78zM799 430q0 64 -36.5 108t-96.5 44q-69 0 -146 -42
t-134.5 -100.5t-95.5 -121.5t-38 -105q0 -70 30 -117t101 -47q75 0 152 35.5t134 90t93.5 123.5t36.5 132zM1143 922h55l-160 -922h-55zM559 1241q0 17 13 29t32 12q17 0 30 -12t13 -29q0 -21 -12.5 -34t-30.5 -13q-19 0 -32 13t-13 34zM993 1241q0 17 13 29t32 12
q17 0 30 -12t13 -29q0 -21 -12.5 -34t-30.5 -13q-19 0 -32 13t-13 34z" />
    <glyph glyph-name="uni1E9E" unicode="&#x1e9e;" horiz-adv-x="1202" 
d="M1104 354q0 50 -12.5 98t-39.5 94.5t-55 84.5t-75 85.5t-81.5 79t-92.5 81.5l360 432q-91 84 -238 84q-164 0 -262 -95t-129 -260l-184 -1044h-59l186 1057q33 189 146.5 295t303.5 106q184 0 314 -133l-367 -432q66 -57 103 -91t91 -92.5t82.5 -105.5t50 -110.5
t21.5 -127.5q0 -164 -105 -271t-276 -107q-164 0 -276 124l35 44q102 -109 237 -109q144 0 233 87t89 226z" />
    <glyph glyph-name="uni2010" unicode="&#x2010;" horiz-adv-x="833" 
d="M281 526l10 56h450l-10 -56h-450z" />
    <glyph glyph-name="uni2011" unicode="&#x2011;" horiz-adv-x="833" 
d="M281 526l10 56h450l-10 -56h-450z" />
    <glyph glyph-name="figuredash" unicode="&#x2012;" horiz-adv-x="1101" 
d="M307 698l8 54h738l-11 -54h-735z" />
    <glyph glyph-name="endash" unicode="&#x2013;" horiz-adv-x="1202" 
d="M293 526l8 54h803l-8 -54h-803z" />
    <glyph glyph-name="emdash" unicode="&#x2014;" horiz-adv-x="1615" 
d="M293 526l8 54h1219l-11 -54h-1216z" />
    <glyph glyph-name="uni2015" unicode="&#x2015;" horiz-adv-x="1599" 
d="M285 526l10 54h1216l-10 -54h-1216z" />
    <glyph glyph-name="quoteleft" unicode="&#x2018;" horiz-adv-x="485" 
d="M479 1135l-51 -33q-29 39 -29 102q0 189 179 269l22 -33q-143 -79 -143 -221q0 -57 22 -84z" />
    <glyph glyph-name="quoteright" unicode="&#x2019;" horiz-adv-x="485" 
d="M459 1440l53 30q27 -40 27 -102q0 -188 -179 -268l-24 33q145 80 145 223q0 52 -22 84z" />
    <glyph glyph-name="quotesinglbase" unicode="&#x201a;" horiz-adv-x="485" 
d="M219 78l53 31q27 -41 27 -103q0 -188 -178 -268l-25 33q146 80 146 223q0 51 -23 84z" />
    <glyph glyph-name="quotedblleft" unicode="&#x201c;" horiz-adv-x="729" 
d="M479 1135l-51 -33q-29 39 -29 102q0 189 179 269l22 -33q-143 -79 -143 -221q0 -57 22 -84zM723 1135l-51 -33q-29 39 -29 102q0 189 178 269l23 -33q-144 -79 -144 -221q0 -55 23 -84z" />
    <glyph glyph-name="quotedblright" unicode="&#x201d;" horiz-adv-x="729" 
d="M459 1440l53 30q27 -40 27 -102q0 -188 -179 -268l-24 33q145 80 145 223q0 52 -22 84zM702 1440l54 30q26 -39 26 -102q0 -188 -178 -268l-22 33q143 79 143 223q0 55 -23 84z" />
    <glyph glyph-name="quotedblbase" unicode="&#x201e;" horiz-adv-x="729" 
d="M219 78l53 31q27 -41 27 -103q0 -188 -178 -268l-25 33q146 80 146 223q0 51 -23 84zM463 78l53 31q27 -41 27 -103q0 -188 -178 -268l-23 33q143 79 143 223q0 56 -22 84z" />
    <glyph glyph-name="dagger" unicode="&#x2020;" horiz-adv-x="841" 
d="M205 885v53h311v496h55v-496h312v-53h-312v-1090h-55v1090h-311z" />
    <glyph glyph-name="daggerdbl" unicode="&#x2021;" horiz-adv-x="841" 
d="M205 885v53h311v496h55v-496h312v-53h-312v-479h312v-54h-312v-557h-55v557h-311v54h311v479h-311z" />
    <glyph glyph-name="bullet" unicode="&#x2022;" horiz-adv-x="305" 
d="M176 535q0 31 22.5 53t53.5 22t53.5 -22t22.5 -53t-22.5 -53.5t-53.5 -22.5t-53.5 22.5t-22.5 53.5z" />
    <glyph glyph-name="ellipsis" unicode="&#x2026;" horiz-adv-x="1701" 
d="M811 49q0 18 14.5 31.5t36.5 13.5q19 0 33 -14t14 -31q0 -21 -13.5 -36t-33.5 -15q-23 0 -37 15t-14 36zM197 49q0 18 14.5 31.5t36.5 13.5q19 0 33 -14t14 -31q0 -21 -13.5 -36t-33.5 -15q-23 0 -37 15t-14 36zM1425 49q0 18 14.5 31.5t37.5 13.5q19 0 33 -14t14 -31
q0 -21 -13.5 -36t-33.5 -15q-23 0 -37.5 15t-14.5 36z" />
    <glyph glyph-name="perthousand" unicode="&#x2030;" horiz-adv-x="2525" 
d="M412 10l1079 1442l35 -27l-1077 -1443zM233 1077q0 160 101.5 260.5t265.5 100.5q119 0 200.5 -72.5t90.5 -187.5q3 -51 -2 -95q-20 -127 -113 -209.5t-241 -82.5q-133 0 -217.5 80t-84.5 206zM285 1081q0 -107 69.5 -174t184.5 -67q74 0 133 25t96 68t56.5 96.5
t19.5 113.5q0 102 -63 168.5t-167 70.5q-42 3 -90 -4q-111 -20 -175 -99.5t-64 -197.5zM1038 287q0 160 101.5 260t265.5 100q119 0 200.5 -72.5t90.5 -187.5q3 -51 -2 -94q-20 -127 -113.5 -210t-241.5 -83q-133 0 -217 80.5t-84 206.5zM1090 291q0 -107 69.5 -174.5
t183.5 -67.5q145 0 225.5 89t80.5 214q0 102 -63 169t-167 71q-42 3 -90 -4q-111 -20 -175 -99.5t-64 -197.5zM1870 287q0 160 101 260t265 100q119 0 200.5 -72.5t90.5 -187.5q3 -51 -2 -94q-20 -128 -113 -210.5t-241 -82.5q-133 0 -217 80.5t-84 206.5zM1921 291
q0 -107 70 -174.5t184 -67.5q74 0 133 25t96 68t56.5 96.5t19.5 113.5q0 102 -63 169t-166 71q-42 3 -90 -4q-111 -20 -175.5 -99.5t-64.5 -197.5z" />
    <glyph glyph-name="guilsinglleft" unicode="&#x2039;" horiz-adv-x="663" 
d="M489 88l-286 426l2 6l424 412l37 -39l-398 -383l264 -389z" />
    <glyph glyph-name="guilsinglright" unicode="&#x203a;" horiz-adv-x="663" 
d="M352 932l289 -424l-2 -6l-422 -414l-35 37l393 385l-266 389z" />
    <glyph glyph-name="fraction" unicode="&#x2044;" horiz-adv-x="376" 
d="M-246 10l1080 1442l34 -27l-1077 -1443z" />
    <glyph glyph-name="zerosuperior" unicode="&#x2070;" horiz-adv-x="743" 
d="M276 993q0 85 22 164t63 143t107.5 103t149.5 39q117 0 172.5 -80t55.5 -205q0 -117 -38 -217.5t-116.5 -165.5t-183.5 -65q-113 0 -172.5 77.5t-59.5 206.5zM332 997q0 -113 44.5 -177t133.5 -64t154.5 58.5t96 146.5t30.5 190q0 110 -42 177t-135 67q-88 0 -154 -59
t-97 -147.5t-31 -191.5z" />
    <glyph glyph-name="foursuperior" unicode="&#x2074;" horiz-adv-x="661" 
d="M567 717l33 190h-401l6 33l473 494h57l-461 -482h334l39 226h49l-37 -226h132l-9 -45h-133l-33 -190h-49z" />
    <glyph glyph-name="fivesuperior" unicode="&#x2075;" horiz-adv-x="659" 
d="M348 1094l109 340h372l-8 -45h-334l-81 -248q54 12 106 12q114 0 172.5 -53.5t58.5 -141.5q0 -115 -84 -183t-206 -68q-187 0 -242 122l35 27q51 -104 207 -104q103 0 168 57t65 149q0 75 -51.5 113.5t-142.5 38.5q-88 0 -144 -16z" />
    <glyph glyph-name="sixsuperior" unicode="&#x2076;" horiz-adv-x="735" 
d="M262 932q0 119 69 231t188 187.5t259 91.5l6 -39q-164 -30 -285 -124.5t-167 -242.5q39 54 106 87.5t148 33.5q110 0 168.5 -52t58.5 -140q0 -117 -85 -187.5t-210 -70.5q-126 0 -191 63t-65 162zM319 969q-14 -100 39 -158.5t162 -58.5q100 0 169 57.5t69 151.5
q0 71 -47 112t-138 41t-159 -44.5t-95 -100.5z" />
    <glyph glyph-name="sevensuperior" unicode="&#x2077;" horiz-adv-x="591" 
d="M293 1386l8 48h496l-4 -31l-457 -686h-62l447 669h-428z" />
    <glyph glyph-name="eightsuperior" unicode="&#x2078;" horiz-adv-x="749" 
d="M551 1106h41q72 0 135.5 48t63.5 116q0 59 -48.5 94t-119.5 35q-87 0 -153.5 -45.5t-66.5 -118.5q0 -56 44 -92.5t104 -36.5zM584 1065h-35q-93 0 -165.5 -51t-72.5 -121q0 -63 57 -102t142 -39q100 0 176 50t76 130q0 60 -50.5 96.5t-127.5 36.5zM506 707
q-103 0 -175.5 47t-72.5 129q0 70 60 127.5t155 72.5v4q-54 13 -87.5 55.5t-33.5 94.5q0 90 80 147.5t195 57.5q97 0 157 -44.5t60 -119.5q0 -62 -50.5 -116.5t-134.5 -74.5v-2q72 -9 114 -52t42 -103q0 -101 -91.5 -162t-217.5 -61z" />
    <glyph glyph-name="ninesuperior" unicode="&#x2079;" horiz-adv-x="735" 
d="M850 1217q0 -132 -72.5 -246.5t-195 -184.5t-267.5 -79v41q176 21 308.5 124t158.5 246q-36 -54 -104.5 -90.5t-151.5 -36.5q-107 0 -167 53t-60 142q0 111 85 183.5t210 72.5q128 0 192 -62t64 -163zM795 1178q10 96 -39 158.5t-166 62.5q-101 0 -168.5 -60.5
t-67.5 -148.5q0 -71 46.5 -114.5t136.5 -43.5q91 0 159 43t99 103z" />
    <glyph glyph-name="uni207A" unicode="&#x207a;" horiz-adv-x="737" 
d="M305 1063v45h246v244h45v-244h248v-45h-248v-246h-45v246h-246z" />
    <glyph glyph-name="uni207B" unicode="&#x207b;" horiz-adv-x="737" 
d="M305 1063v45h539v-45h-539z" />
    <glyph glyph-name="uni207C" unicode="&#x207c;" horiz-adv-x="737" 
d="M305 1192v45h539v-45h-539zM305 934v45h539v-45h-539z" />
    <glyph glyph-name="uni207D" unicode="&#x207d;" horiz-adv-x="366" 
d="M461 664l-33 -33q-94 61 -140 160.5t-46 205.5q0 326 342 514l22 -36q-311 -174 -311 -471q0 -100 41.5 -190.5t124.5 -149.5z" />
    <glyph glyph-name="uni207E" unicode="&#x207e;" horiz-adv-x="366" 
d="M285 1479l32 32q94 -60 139.5 -161t45.5 -207q0 -321 -340 -512l-25 37q314 176 314 469q0 101 -41.5 192t-124.5 150z" />
    <glyph glyph-name="zeroinferior" unicode="&#x2080;" horiz-adv-x="743" 
d="M152 276q0 85 22 164t63 143t107.5 103t149.5 39q60 0 105 -23t71 -63t38.5 -90t12.5 -109q0 -117 -38 -217.5t-116.5 -165.5t-183.5 -65q-113 0 -172 77.5t-59 206.5zM207 281q0 -113 44.5 -177.5t133.5 -64.5t154.5 58.5t96 146.5t30.5 190q0 110 -42 177t-135 67
q-88 0 -154 -58.5t-97 -147t-31 -191.5z" />
    <glyph glyph-name="oneinferior" unicode="&#x2081;" horiz-adv-x="466" 
d="M170 594l215 129h35l-129 -723h-51l114 651l-166 -98z" />
    <glyph glyph-name="twoinferior" unicode="&#x2082;" horiz-adv-x="675" 
d="M86 0l8 41q12 8 66.5 42.5t82 53t82 56.5t86 65t73 67t64.5 73t39.5 72t16.5 75q0 60 -39.5 96.5t-120.5 36.5q-69 0 -123 -35.5t-81 -103.5l-43 14q23 77 93 124.5t159 47.5q105 0 157.5 -48.5t52.5 -125.5q0 -61 -38.5 -128t-91.5 -119.5t-127 -107.5t-126 -87
t-106 -62h444l-8 -47h-520z" />
    <glyph glyph-name="threeinferior" unicode="&#x2083;" horiz-adv-x="684" 
d="M344 -10q-203 0 -248 133l37 27q42 -113 213 -113q103 0 163 49.5t60 130.5q0 60 -42 93.5t-121 33.5h-78l8 43h67q87 0 141 48.5t54 119.5q0 125 -162 125q-137 0 -207 -107l-28 29q35 60 98 91.5t145 31.5q102 0 157.5 -41.5t55.5 -122.5q0 -66 -48 -120.5t-120 -69.5
v-2q64 -10 100 -52t36 -98q0 -106 -78 -167.5t-203 -61.5z" />
    <glyph glyph-name="fourinferior" unicode="&#x2084;" horiz-adv-x="661" 
d="M440 0l33 190h-401l6 33l473 494h57l-461 -481h334l39 225h49l-37 -225h132l-9 -46h-133l-33 -190h-49z" />
    <glyph glyph-name="fiveinferior" unicode="&#x2085;" horiz-adv-x="659" 
d="M223 377l109 340h373l-9 -45h-334l-81 -248q54 12 106 12q114 0 172.5 -53.5t58.5 -140.5q0 -115 -84 -183.5t-206 -68.5q-186 0 -242 123l35 26q51 -104 207 -104q103 0 168 57.5t65 149.5q0 75 -51 113t-143 38q-88 0 -144 -16z" />
    <glyph glyph-name="sixinferior" unicode="&#x2086;" horiz-adv-x="735" 
d="M137 215q0 119 69 231t188 187.5t259 91.5l6 -39q-164 -30 -285 -124.5t-167 -242.5q39 54 106 87.5t148 33.5q110 0 168.5 -52t58.5 -140q0 -117 -85 -187.5t-210 -70.5q-126 0 -191 63t-65 162zM195 252q-14 -100 38.5 -158.5t161.5 -58.5q100 0 169 57.5t69 151.5
q0 71 -46.5 112t-137.5 41t-159 -44.5t-95 -100.5z" />
    <glyph glyph-name="seveninferior" unicode="&#x2087;" horiz-adv-x="591" 
d="M166 670l8 47h496l-4 -31l-457 -686h-62l447 670h-428z" />
    <glyph glyph-name="eightinferior" unicode="&#x2088;" horiz-adv-x="749" 
d="M424 389h41q72 0 135.5 48t63.5 116q0 59 -48.5 94t-119.5 35q-87 0 -153.5 -45.5t-66.5 -118.5q0 -56 44 -92.5t104 -36.5zM457 348h-35q-93 0 -165.5 -51t-72.5 -121q0 -63 57 -102t142 -39q100 0 176 50t76 130q0 60 -50.5 96.5t-127.5 36.5zM379 -10
q-103 0 -175.5 47t-72.5 129q0 71 60 128.5t155 72.5v4q-55 13 -88 55t-33 94q0 90 80 147.5t195 57.5q97 0 157 -44.5t60 -119.5q0 -62 -50.5 -116t-134.5 -74v-2q72 -9 114 -52.5t42 -103.5q0 -101 -91.5 -162t-217.5 -61z" />
    <glyph glyph-name="nineinferior" unicode="&#x2089;" horiz-adv-x="735" 
d="M723 500q0 -132 -72.5 -246.5t-195 -184.5t-267.5 -79v41q176 21 308.5 124t158.5 246q-36 -54 -104.5 -90.5t-151.5 -36.5q-107 0 -167 53t-60 142q0 111 85 183.5t210 72.5q128 0 192 -62t64 -163zM668 461q10 96 -39 158.5t-166 62.5q-101 0 -168.5 -60.5
t-67.5 -148.5q0 -71 46.5 -114.5t136.5 -43.5q91 0 159 43t99 103z" />
    <glyph glyph-name="uni208A" unicode="&#x208a;" horiz-adv-x="706" 
d="M150 346v45h245v244h45v-244h248v-45h-248v-246h-45v246h-245z" />
    <glyph glyph-name="uni208B" unicode="&#x208b;" horiz-adv-x="706" 
d="M150 346v45h538v-45h-538z" />
    <glyph glyph-name="uni208C" unicode="&#x208c;" horiz-adv-x="706" 
d="M150 475v45h538v-45h-538zM150 217v45h538v-45h-538z" />
    <glyph glyph-name="uni208D" unicode="&#x208d;" horiz-adv-x="366" 
d="M336 -53l-33 -33q-94 61 -140 161t-46 206q0 326 342 514l22 -37q-311 -174 -311 -471q0 -100 41.5 -190.5t124.5 -149.5z" />
    <glyph glyph-name="uni208E" unicode="&#x208e;" horiz-adv-x="366" 
d="M158 762l32 33q93 -60 139 -161t46 -208q0 -321 -340 -512l-25 37q314 176 314 469q0 101 -41.5 192t-124.5 150z" />
    <glyph glyph-name="Euro" unicode="&#x20ac;" 
d="M176 877l31 51h137q83 242 281 383t469 141q185 0 307 -61l-31 -50q-120 52 -283 52q-230 0 -411.5 -122.5t-263.5 -342.5h753l-26 -51h-746q-21 -62 -28 -160q-3 -63 0 -123h653l-25 -49h-620q17 -141 86 -254t190 -181.5t275 -68.5q149 0 241 43l4 -55
q-102 -47 -254 -47q-109 0 -204.5 30.5t-166 84t-122.5 125t-81 153.5t-36 170h-186l31 49h149q0 102 2 123q7 92 27 160h-152z" />
    <glyph glyph-name="uni20AE" unicode="&#x20ae;" 
d="M268 1376l11 58h1128l-10 -58h-535l-82 -469l328 158l-10 -59l-330 -160l-49 -281l330 158l-11 -59l-329 -158l-88 -506h-60l82 473l-328 -158l11 64l329 156l50 280l-330 -158l12 64l328 156l88 499h-535z" />
    <glyph glyph-name="uni20B4" unicode="&#x20b4;" horiz-adv-x="1228" 
d="M319 879l9 49h661q129 120 129 262q0 93 -65 148t-183 55q-194 0 -342 -127l-26 45q150 141 372 141q143 0 225.5 -69t82.5 -183q0 -152 -127 -272h172l-8 -49h-209q-71 -60 -233 -147t-226 -136h618l-10 -51h-665q-144 -127 -144 -277q0 -107 80 -167t217 -60
q107 0 204.5 45.5t162.5 128.5l33 -41q-72 -93 -179 -142.5t-227 -49.5q-153 0 -251.5 73t-98.5 203q0 161 139 287h-170l8 51h209q72 58 232 145t225 138h-615z" />
    <glyph glyph-name="uni20B8" unicode="&#x20b8;" 
d="M201 1049l8 51h1149l-8 -51h-545l-184 -1049h-60l184 1049h-544zM1409 1382h-1149l8 52h1149z" />
    <glyph glyph-name="uni20BA" unicode="&#x20ba;" 
d="M172 836l12 63l217 102l76 433h62l-72 -400l440 209l-12 -59l-438 -211l-49 -281l438 209l-10 -59l-439 -213l-100 -572q86 -4 223 -4q129 0 234 36t177 96t126 146.5t84 180t47 203.5l4 26h63l-4 -28q-17 -122 -50.5 -224t-92.5 -195t-140.5 -157.5t-199.5 -102.5
t-264 -38q-57 0 -133 2t-131 2h-15l105 598l-217 -104l10 63l219 105l49 278z" />
    <glyph glyph-name="uni20BD" unicode="&#x20bd;" horiz-adv-x="1228" 
d="M176 664l8 51h240l127 719q41 0 172 2t168 2q115 0 199 -25t131.5 -70.5t69.5 -102.5t22 -128q0 -95 -33.5 -175t-99.5 -141.5t-174.5 -96.5t-249.5 -35h-281l-49 -283h385l-10 -49h-383l-60 -332h-59l57 332h-239l8 49h240l51 283h-240zM885 1380q-147 0 -283 -4
l-117 -661h277q233 0 360 106t127 289q0 270 -364 270z" />
    <glyph glyph-name="uni20BF" unicode="&#x20bf;" 
d="M207 0l252 1434q86 0 143 2l33 182h57l-33 -182q57 2 164 2q57 0 107 -6l33 186h57l-35 -197q229 -53 229 -286q0 -148 -99 -258.5t-255 -135.5l-2 -4q141 -19 217 -96.5t76 -196.5q0 -184 -112.5 -294t-303.5 -142l-37 -213h-57l35 205q-66 -4 -105 -4q-25 0 -86 1
t-92 1l-35 -203h-57l35 205h-129zM709 709h-316l-114 -652q28 0 139 -2t168 -2q232 0 365.5 99.5t133.5 281.5q0 134 -94.5 204.5t-281.5 70.5zM813 1380q-177 0 -303 -4l-109 -612h320q187 0 308.5 103t121.5 257q0 128 -81.5 192t-256.5 64z" />
    <glyph glyph-name="uni20C0" unicode="&#x20c0;" 
d="M1192 0h-1059l8 57h1059zM1167 420l23 -47q-103 -75 -221.5 -110.5t-231.5 -35.5q-72 0 -142.5 15t-143.5 54t-128 97t-89.5 153t-34.5 214q0 95 27.5 191t86.5 186.5t142.5 160.5t205 112t263.5 42q235 0 395 -133l-33 -43q-166 117 -371 117q-179 0 -326.5 -76.5
t-237 -223.5t-89.5 -337q0 -108 33 -193t83.5 -135.5t117.5 -83.5t127.5 -45t121.5 -12q234 0 422 133z" />
    <glyph glyph-name="uni2116" unicode="&#x2116;" horiz-adv-x="2369" 
d="M1358 0h-49l-779 1331l-235 -1331h-57l251 1434h50l778 -1332l233 1332h60zM1722 983q0 161 101.5 263t279.5 102q127 0 211 -77.5t84 -199.5q0 -98 -41 -179t-127.5 -133t-204.5 -52q-137 0 -220 76t-83 200zM1778 989q0 -106 67 -169.5t185 -63.5q148 0 229.5 90.5
t81.5 218.5q0 104 -66.5 168.5t-175.5 64.5q-147 0 -234 -85t-87 -224zM1698 500q1 9 5 27.5t5 27.5h537q-10 -44 -11 -55h-536z" />
    <glyph glyph-name="trademark" unicode="&#x2122;" horiz-adv-x="1679" 
d="M942 788l29 646h51l299 -381l317 381h52l-29 -646h-55l20 572l-309 -377h-4l-295 377l-21 -572h-55zM203 1380l8 54h635l-6 -54h-291l-23 -592h-55l23 592h-291z" />
    <glyph glyph-name="arrowleft" unicode="&#x2190;" horiz-adv-x="1316" 
d="M758 1137l41 -41l-508 -506h1040v-58h-1044l512 -512l-41 -40l-580 579z" />
    <glyph glyph-name="arrowup" unicode="&#x2191;" horiz-adv-x="1320" 
d="M225 532l-41 41l578 580l579 -580l-41 -41l-512 512v-1044h-57v1040z" />
    <glyph glyph-name="arrowright" unicode="&#x2192;" horiz-adv-x="1316" 
d="M717 1096l41 41l579 -578l-579 -579l-41 40l512 512h-1045v58h1041z" />
    <glyph glyph-name="arrowdown" unicode="&#x2193;" horiz-adv-x="1320" 
d="M762 -41l-578 580l41 41l506 -508v1040h57v-1044l512 512l41 -41z" />
    <glyph glyph-name="partialdiff" unicode="&#x2202;" horiz-adv-x="1175" 
d="M217 418q0 138 64.5 258t179.5 192t252 72q70 0 133 -16.5t108.5 -43t82 -61.5t59 -70.5t34.5 -72.5q0 105 -18.5 200t-62.5 187t-111 161t-172 115.5t-238 57.5l9 55q311 -22 482 -228.5t171 -547.5q0 -102 -23 -201.5t-69 -188t-110 -156.5t-153 -108t-190 -40
q-184 0 -306 124t-122 312zM279 422q0 -161 104 -273t268 -112q103 0 192 51t147.5 133.5t93.5 181.5t42 201q-23 56 -54.5 102t-79.5 88.5t-118.5 66.5t-156.5 24q-121 0 -222.5 -64t-158.5 -170t-57 -229z" />
    <glyph glyph-name="product" unicode="&#x220f;" horiz-adv-x="1794" 
d="M1632 -410v1786h-1198v-1786h-61v1844h1321v-1844h-62z" />
    <glyph glyph-name="summation" unicode="&#x2211;" horiz-adv-x="1277" 
d="M872 512l-665 889v33h1114v-58h-1022l645 -864l-647 -864h1024v-58h-1114v33z" />
    <glyph glyph-name="minus" unicode="&#x2212;" 
d="M272 711v53h902v-53h-902z" />
    <glyph glyph-name="uni2215" unicode="&#x2215;" horiz-adv-x="616" 
d="M-31 -408l693 1860l47 -18l-691 -1860z" />
    <glyph glyph-name="radical" unicode="&#x221a;" horiz-adv-x="1173" 
d="M59 864v58h277l395 -824l293 1336h524v-58h-473l-309 -1390h-41l-430 878h-236z" />
    <glyph glyph-name="infinity" unicode="&#x221e;" horiz-adv-x="1497" 
d="M1229 420q-57 0 -108.5 19t-96.5 55.5t-79 73t-75 89.5q-33 -45 -54.5 -72t-56 -62.5t-65.5 -55t-73.5 -33.5t-88.5 -14q-51 0 -102 19t-93.5 53t-69.5 88t-27 118q0 115 85 199t214 84q50 0 95.5 -18t89.5 -57.5t72.5 -71.5t73.5 -89q32 44 54 71.5t57 62t68.5 54.5
t80 34t97.5 14q127 0 201.5 -81.5t74.5 -209.5q0 -48 -17.5 -95t-50 -86.5t-86.5 -64t-120 -24.5zM1217 928q-43 0 -83 -13t-69 -31t-61.5 -50.5t-53.5 -59.5t-51 -69q44 -56 73.5 -88.5t72.5 -70.5t88.5 -55.5t95.5 -17.5q104 0 161.5 67.5t57.5 149.5q0 102 -61 170
t-170 68zM535 473q51 0 94.5 17t82 53.5t64 68.5t62.5 86q-34 44 -55 70.5t-53.5 61t-59.5 53t-61.5 32t-69.5 13.5q-106 0 -175 -68t-69 -162q0 -54 23 -98t59.5 -71t77.5 -41.5t80 -14.5z" />
    <glyph glyph-name="integral" unicode="&#x222b;" horiz-adv-x="692" 
d="M424 -59q0 -316 -209 -359q-41 -9 -92 -6q-96 0 -162 51l21 47q65 -45 143 -45q128 0 185 79.5t57 234.5v1128q0 324 231 371q39 8 94 8q129 -2 217 -74l-22 -45q-90 64 -193 64q-88 0 -147 -33q-123 -72 -123 -309v-1112z" />
    <glyph glyph-name="approxequal" unicode="&#x2248;" 
d="M285 856l-33 39q123 117 248 117q56 0 122 -24t116.5 -52t115 -52t117.5 -24q97 0 194 94l27 -41q-112 -106 -223 -106q-55 0 -120.5 24t-116.5 53t-116 53t-118 24q-105 0 -213 -105zM285 516l-33 39q123 117 248 117q56 0 122 -24t116.5 -52t115 -52t117.5 -24
q97 0 194 94l27 -41q-112 -106 -223 -106q-55 0 -120.5 24t-116.5 53t-116 53t-118 24q-105 0 -213 -105z" />
    <glyph glyph-name="notequal" unicode="&#x2260;" 
d="M272 881v51h486l192 520l47 -18l-186 -502h363v-51h-381l-107 -287h488v-51h-506l-209 -561l-47 18l200 543h-340v51h359l106 287h-465z" />
    <glyph glyph-name="lessequal" unicode="&#x2264;" 
d="M258 559l8 59l799 -528l-8 -59zM1075 369l-799 530l3 23l849 526l-8 -64l-762 -473l725 -477z" />
    <glyph glyph-name="greaterequal" unicode="&#x2265;" 
d="M1178 618l-7 -59l-849 -528l8 59zM1188 899l-848 -530l8 65l760 477l-723 473l6 64l799 -526z" />
    <glyph glyph-name="angleleft" unicode="&#x2329;" horiz-adv-x="831" 
d="M834 1434l-566 -717l312 -717h-64l-313 715l2 8l559 711h70z" />
    <glyph glyph-name="angleright" unicode="&#x232a;" horiz-adv-x="835" 
d="M182 0l566 717l-312 717h64l313 -715l-2 -8l-559 -711h-70z" />
    <glyph glyph-name="lozenge" unicode="&#x25ca;" horiz-adv-x="948" 
d="M557 -14l-342 524l344 549h37l342 -527l-344 -546h-37zM274 512l304 -463l301 483l-301 465z" />
    <glyph glyph-name="spade" unicode="&#x2660;" horiz-adv-x="1294" 
d="M729 1044q112 -70 230.5 -181.5t206 -239t87.5 -215.5q0 -87 -60.5 -150t-178.5 -63q-164 0 -269 147q28 -119 79.5 -203.5t140.5 -138.5h-471q150 107 215 336q-103 -141 -265 -141q-118 0 -178.5 63.5t-60.5 151.5q0 66 51.5 157t130 179t169.5 167.5t173 130.5z" />
    <glyph glyph-name="club" unicode="&#x2663;" horiz-adv-x="1253" 
d="M451 780q0 109 77.5 186.5t186.5 77.5t186.5 -77.5t77.5 -186.5q0 -15 -4 -39q102 -8 173 -84t71 -178q0 -109 -78 -186.5t-187 -77.5q-65 0 -121 29.5t-92 79.5q64 -236 209 -324h-471q130 92 205 319q-37 -46 -93 -75t-116 -29q-109 0 -186.5 77.5t-77.5 186.5
q0 103 70.5 178.5t171.5 83.5q-2 12 -2 39z" />
    <glyph glyph-name="heart" unicode="&#x2665;" horiz-adv-x="1329" 
d="M791 0q-86 65 -179 158.5t-175.5 197.5t-135.5 212.5t-53 189.5q0 51 14.5 97t43.5 84.5t78 61.5t112 23q182 0 295 -213q109 213 292 213q83 0 141 -40t82.5 -98t24.5 -126q0 -82 -53 -191t-135 -213t-174 -197.5t-178 -158.5z" />
    </font>
</defs>
</svg>
