<?xml version="1.0" standalone="no"?>
<!DOCTYPE svg PUBLIC "-//W3C//DTD SVG 1.1//EN" "http://www.w3.org/Graphics/SVG/1.1/DTD/svg11.dtd" >
<svg xmlns="http://www.w3.org/2000/svg" xmlns:xlink="http://www.w3.org/1999/xlink" version="1.1">
<metadata>
Created by FontForge 20170731 at Wed Mar 15 10:27:58 2023
 By Aleksey,,,
Copyright (c) 2015 ParaType, Inc., ParaType Ltd. All rights reserved.
</metadata>
<defs>
<font id="CirceRounded-Thin" horiz-adv-x="1196" >
  <font-face 
    font-family="Circe Rounded Thin"
    font-weight="250"
    font-stretch="normal"
    units-per-em="2048"
    panose-1="2 15 2 2 2 2 3 2 2 3"
    ascent="1583"
    descent="-465"
    x-height="922"
    cap-height="1434"
    bbox="-969.25 -655 3034.33 1825"
    underline-thickness="102"
    underline-position="-307"
    unicode-range="U+0020-FB02"
  />
<missing-glyph horiz-adv-x="512" 
 />
    <glyph glyph-name="uniF350.var.accented" unicode="&#xf350;`" horiz-adv-x="1124" 
d="M276 440h570l-285 611zM268 422l-196 -420q-3 -10 -13 -10q-14 0 -8 14l498 1065q5 10 12 10t12 -10l498 -1061q4 -9 1.5 -13.5t-7.5 -4.5q-9 0 -12 10l-199 420h-586zM745 1522q6 -6 0 -15l-210 -272q-3 -5 -8.5 -7t-8.5 1q-7 5 0 16l213 275q7 7 14 2z" />
    <glyph glyph-name="uniF355.var.accented" unicode="&#xf355;`" horiz-adv-x="960" 
d="M829 10q0 -10 -10 -10h-612q-10 0 -10 10v1055q0 10 10 10h596q10 0 10 -10t-10 -10h-586v-496h537q10 0 10 -10t-10 -10h-537v-519h602q10 0 10 -10zM705 1522q6 -6 0 -15l-211 -272q-3 -5 -8.5 -7t-8.5 1q-7 5 0 16l213 275q7 7 15 2z" />
    <glyph glyph-name="uniF358.var.accented" unicode="&#xf358;`" horiz-adv-x="1312" 
d="M1096 2v1042l-871 -1042q-10 -10 -18 -10q-10 0 -10 14v1059q0 10 10 10t10 -10v-1040l873 1042q7 10 16 10q10 0 10 -12v-1063q0 -10 -10 -10t-10 10zM827 1522q6 -6 0 -15l-211 -272q-9 -13 -16 -6q-7 5 0 16l213 275q7 7 14 2z" />
    <glyph glyph-name="uniF35E.var.accented" unicode="&#xf35e;`" horiz-adv-x="1318" 
d="M1221 539q0 -234 -162 -392.5t-400 -158.5t-399.5 158.5t-161.5 392.5q0 115 43.5 216.5t118 174.5t178.5 115t221 42q156 0 285 -71.5t203 -197.5t74 -279zM1200 539q0 225 -156 376.5t-385 151.5t-384.5 -151.5t-155.5 -376.5q0 -149 71 -271t194.5 -191t274.5 -69
t275 69t195 191t71 271zM848 1522q6 -6 0 -15l-211 -272q-9 -13 -16 -6q-7 5 0 16l213 275q7 7 14 2z" />
    <glyph glyph-name="uniF363.var.accented" unicode="&#xf363;`" horiz-adv-x="1036" 
d="M977 1067q4 8 10 8t8.5 -5t-0.5 -11l-397 -821q-62 -128 -115 -183t-121 -55q-61 0 -100 25q-9 9 -4 16q5 5 12 2q45 -25 90 -25q60 0 105.5 46t87.5 126l25 48l-533 819q-5 6 -3.5 12t7.5 6q7 0 12 -8l527 -809zM705 1522q6 -6 0 -15l-211 -272q-3 -5 -8.5 -7t-8.5 1
q-7 5 0 16l213 275q7 7 15 2z" />
    <glyph glyph-name="uniF36B.var.accented" unicode="&#xf36b;`" horiz-adv-x="1323" 
d="M1126 2q0 -10 -10 -10t-10 10v1063q0 10 10 10t10 -10v-1063zM416 16q200 0 306.5 79t106.5 229q0 133 -103 206.5t-302 73.5q-98 0 -207 -8v-576q27 0 91 -2t108 -2zM197 1065q0 10 10 10t10 -10v-449q123 9 203 9q215 0 322.5 -79t107.5 -224q0 -160 -116.5 -243
t-319.5 -83q-41 0 -109 2t-98 2q-10 0 -10 10v1055zM807 1522q6 -6 0 -15l-211 -272q-9 -13 -16 -6q-7 5 0 16l213 275q7 7 14 2z" />
    <glyph glyph-name="uniF36D.var.accented" unicode="&#xf36d;`" horiz-adv-x="1122" 
d="M459 8q163 0 288 72t190.5 192t66.5 267h-656q-10 0 -10 10t10 10h656q-6 233 -155 370.5t-398 137.5q-196 0 -322 -88q-8 -6 -14 0t2 14q124 94 334 94q263 0 418 -146.5t155 -397.5q0 -155 -68.5 -280.5t-198 -200t-296.5 -74.5q-209 0 -371 106q-10 7 -2 15q6 6 14 0
q162 -101 357 -101zM684 1522q6 -6 0 -15l-211 -272q-9 -13 -16 -6q-7 5 0 16l213 275q7 7 14 2z" />
    <glyph glyph-name="uniF36E.var.accented" unicode="&#xf36e;`" horiz-adv-x="1757" 
d="M217 2q0 -10 -10 -10t-10 10v1063q0 10 10 10t10 -10v-506h354q6 227 159.5 377.5t383.5 150.5q236 0 390.5 -156.5t154.5 -391.5q0 -236 -154.5 -393.5t-390.5 -157.5q-235 0 -389 157.5t-154 393.5h-354v-537zM1638 539q0 227 -147.5 377.5t-376.5 150.5
q-227 0 -374.5 -150.5t-147.5 -377.5q0 -150 66.5 -271t186 -190.5t269.5 -69.5q151 0 271 69.5t186.5 190.5t66.5 271zM911 1522q6 -6 0 -15l-211 -272q-9 -13 -16 -6q-7 5 0 16l213 275q7 7 14 2z" />
    <glyph glyph-name="uniF36F.var.accented" unicode="&#xf36f;`" horiz-adv-x="991" 
d="M795 2q0 -10 -11 -10q-10 0 -10 10v449h-311l-373 -453q-6 -6 -12 -6q-5 0 -7 5t3 13l366 443q-113 20 -197.5 104.5t-84.5 196.5q0 145 105 235t298 90q39 0 115 -2t108 -2q11 0 11 -10v-1063zM559 1059q-97 0 -171.5 -24.5t-119.5 -67.5t-67.5 -97.5t-22.5 -117.5
q0 -104 84 -184.5t193 -96.5h319v584q-27 0 -99 2t-116 2zM745 1522q6 -6 0 -15l-210 -272q-3 -5 -8.5 -7t-8.5 1q-7 5 0 16l213 275q7 7 14 2z" />
    <glyph glyph-name="uniF371.var.accented" unicode="&#xf371;`" horiz-adv-x="960" 
d="M829 10q0 -10 -10 -10h-612q-10 0 -10 10v1055q0 10 10 10h596q10 0 10 -10t-10 -10h-586v-496h537q10 0 10 -10t-10 -10h-537v-519h602q10 0 10 -10zM297 1374q0 9 8.5 17t18.5 8q9 0 16.5 -8t7.5 -17q0 -10 -7.5 -18t-16.5 -8q-11 0 -19 8t-8 18zM653 1374q0 9 8.5 17
t18.5 8q9 0 17 -8t8 -17q0 -10 -8 -18t-17 -8q-11 0 -19 8t-8 18zM623 1522q6 -6 0 -15l-211 -272q-3 -5 -8.5 -7t-8.5 1q-7 5 0 16l213 275q7 7 15 2z" />
    <glyph glyph-name="afii10017.var.accented" unicode="&#x410;`" horiz-adv-x="1402" 
d="M1321 -2l-252 569h-737l-250 -569q-3 -6 -10 -6q-5 0 -7.5 4t-1.5 8l621 1415q5 15 16 15q12 0 17 -15l622 -1415q4 -12 -10 -12q-5 0 -8 6zM1061 588l-361 821l-360 -821h721zM965 1714q9 5 14 -2q4 -8 -6 -14l-299 -172q-10 -5 -15 2q-6 6 5 12z" />
    <glyph glyph-name="afii10022.var.accented" unicode="&#x415;`" horiz-adv-x="1177" 
d="M266 20h760q8 0 8 -10t-8 -10h-758q-9 0 -15.5 7t-6.5 16v1388q0 9 6.5 16t15.5 7h738q8 0 8 -11q0 -10 -8 -10h-740v-672h678q8 0 8 -10t-8 -10h-678v-701zM821 1714q10 5 15 -2q4 -7 -7 -14l-299 -172q-10 -5 -14 2q-7 7 4 12z" />
    <glyph glyph-name="afii10026.var.accented" unicode="&#x418;`" horiz-adv-x="1638" 
d="M1393 0q0 -8 -11 -8q-10 0 -10 8v1403l-1100 -1405q-7 -10 -16 -10q-10 0 -10 12v1425q0 11 10 11t10 -11v-1405l1100 1407q11 11 16 11q11 0 11 -13v-1425zM1006 1714q10 5 14 -2q4 -8 -6 -14l-299 -172q-10 -5 -15 2q-6 6 5 12z" />
    <glyph glyph-name="afii10032.var.accented" unicode="&#x41e;`" horiz-adv-x="1646" 
d="M123 717q0 205 92 373t252.5 264t355.5 96t355.5 -96t253 -264t92.5 -373t-92.5 -373t-253 -264t-355.5 -96t-355.5 96t-252.5 264t-92 373zM143 717q0 -150 52.5 -282.5t143 -227t216.5 -149t268 -54.5t268 54.5t216.5 149t143 227t52.5 282.5t-52.5 282.5t-143 227
t-216.5 149t-268 54.5t-268 -54.5t-216.5 -149t-143 -227t-52.5 -282.5zM1026 1714q10 5 14 -2q4 -8 -6 -14l-299 -172q-9 -5 -14 2q-7 7 4 12z" />
    <glyph glyph-name="afii10037.var.accented" unicode="&#x423;`" horiz-adv-x="1292" 
d="M57 1436q7 0 11 -9l665 -1091l494 1091q5 9 10 9q6 0 8 -5t0 -10l-502 -1106q-77 -171 -142 -246t-150 -75q-79 0 -129 37q-5 5 -5 8q0 7 7.5 8.5t11.5 -2.5q45 -33 113 -33q40 0 76 19t66 55.5t53 75t48 90.5l31 63l-674 1106q-3 5 -0.5 10t8.5 5zM903 1714q10 5 15 -2
q3 -7 -7 -14l-299 -172q-10 -5 -14 2q-7 7 4 12z" />
    <glyph glyph-name="afii10045.var.accented" unicode="&#x42b;`" horiz-adv-x="1648" 
d="M1393 1436q10 0 10 -11v-1425q0 -8 -10 -8q-11 0 -11 8v1425q0 3 3.5 7t7.5 4zM266 797v-777q34 0 115 -2t135 -2q254 0 388 106t134 308q0 180 -130 279.5t-382 99.5q-135 0 -260 -12zM268 0q-9 0 -15.5 7t-6.5 16v1402q0 11 10 11t10 -11v-608q156 12 256 12
q269 0 403 -105t134 -296q0 -214 -144.5 -323t-400.5 -109q-46 0 -127.5 2t-118.5 2zM1006 1714q10 5 14 -2q4 -8 -6 -14l-299 -172q-10 -5 -15 2q-6 6 5 12z" />
    <glyph glyph-name="afii10047.var.accented" unicode="&#x42d;`" horiz-adv-x="1400" 
d="M573 4q154 0 283.5 56.5t216 154t135 228t49.5 278.5h-827q-8 0 -8 10t8 10h827q-6 316 -193.5 502.5t-500.5 186.5q-249 0 -407 -123q-10 -10 -17 0q-6 9 4 14q78 66 190.5 97.5t229.5 31.5q329 0 522 -195.5t193 -529.5q0 -154 -50.5 -289.5t-140.5 -235.5t-223 -158
t-289 -58q-258 0 -464 143q-8 8 0 16q4 4 12 0q203 -139 450 -139zM821 1714q10 5 15 -2q4 -7 -7 -14l-299 -172q-10 -5 -14 2q-7 7 4 12z" />
    <glyph glyph-name="afii10048.var.accented" unicode="&#x42e;`" horiz-adv-x="2195" 
d="M713 719l-447 2v-721q0 -8 -10 -8t-10 8v1425q0 11 10 11t10 -11v-684h447q6 200 94 361.5t242 254.5t344 93q194 0 350 -96t243 -263.5t87 -373.5t-87 -373.5t-243 -263.5t-350 -96t-350 96t-243 264t-87 375zM733 717q0 -201 84 -364t235.5 -256t340.5 -93
q142 0 265 54.5t209.5 149.5t135.5 227t49 282t-49 282t-135.5 227t-209.5 149.5t-265 54.5q-189 0 -340.5 -93t-235.5 -256t-84 -364zM1333 1714q10 5 15 -2q4 -7 -7 -14l-299 -172q-10 -5 -14 2q-7 7 4 12z" />
    <glyph glyph-name="afii10049.var.accented" unicode="&#x42f;`" horiz-adv-x="1234" 
d="M967 1434q9 0 15.5 -7t6.5 -16v-1411q0 -8 -10 -8t-10 8v604h-394l-466 -606q-3 -6 -13 -6q-6 0 -8.5 6t0.5 10l465 598q-142 24 -249 137.5t-107 262.5q0 193 131 312.5t372 119.5q48 0 138 -2t129 -2zM969 625v788q-33 0 -125 2t-146 2q-123 0 -217 -33t-150.5 -91
t-85 -131t-28.5 -158q0 -94 51 -177.5t130 -135.5t167 -66h404zM965 1714q9 5 14 -2q4 -8 -6 -14l-299 -172q-10 -5 -15 2q-6 6 5 12z" />
    <glyph glyph-name="afii10023.var.accented" unicode="&#x401;`" horiz-adv-x="1177" 
d="M365 1618q0 9 8 16.5t18 7.5q9 0 17 -7.5t8 -16.5q0 -10 -8 -18.5t-17 -8.5q-10 0 -18 8t-8 19zM844 1618q0 9 8 16.5t18 7.5q9 0 17 -7.5t8 -16.5q0 -10 -8 -18.5t-17 -8.5q-10 0 -18 8t-8 19zM266 20h760q8 0 8 -10t-8 -10h-758q-9 0 -15.5 7t-6.5 16v1388q0 9 6.5 16
t15.5 7h738q8 0 8 -11q0 -10 -8 -10h-740v-672h678q8 0 8 -10t-8 -10h-678v-701zM537 1528q-14 -7 -17 0q-2 1 -0.5 6t6.5 8l289 170q13 6 16 0q4 -8 -8 -16z" />
    <glyph glyph-name="afii10065.var.accented" unicode="&#x430;`" horiz-adv-x="933" 
d="M453 524q184 0 297 -82q0 88 -2 136.5t-11 113t-28.5 98t-52.5 67.5t-86.5 47.5t-127.5 13.5q-73 0 -128.5 -17.5t-125.5 -58.5q-10 -5 -14 2q-2 1 -1 6t5 8q131 80 268 80q176 0 250 -90.5t74 -269.5v-578q0 -8 -10 -8t-10 8v174q-130 -182 -361 -182q-130 0 -208.5 70
t-78.5 186q0 132 98 204t253 72zM750 416q-125 88 -301 88q-61 0 -117.5 -15t-104 -44.5t-76 -80t-28.5 -114.5q0 -111 75 -174.5t189 -63.5q73 0 133 17.5t103.5 49t71 60.5t55.5 68v209zM664 1442q7 -7 0 -17l-211 -272q-3 -5 -8.5 -7t-8.5 1q-7 5 0 16l213 275q4 4 9 5
t6 -1z" />
    <glyph glyph-name="afii10070.var.accented" unicode="&#x435;`" horiz-adv-x="1083" 
d="M950 481h-817q0 -220 124 -348.5t335 -128.5q94 0 178.5 36.5t138.5 96.5q7 7 13 0q5 -5 0 -14q-57 -67 -146.5 -103t-183.5 -36q-210 0 -344.5 131t-134.5 346q0 102 28 188t82.5 151t141.5 101.5t198 36.5q180 0 294 -113t114 -297q0 -18 -2 -28q0 -8 -5.5 -13.5
t-13.5 -5.5zM555 918q-190 0 -300.5 -115.5t-121.5 -300.5h817q3 191 -105.5 303.5t-289.5 112.5zM735 1442q7 -7 0 -17l-211 -272q-9 -13 -16 -6q-7 5 0 16l213 275q9 9 14 4z" />
    <glyph glyph-name="afii10074.var.accented" unicode="&#x438;`" horiz-adv-x="1146" 
d="M950 -8q-8 0 -8 8v891l-731 -893q-6 -6 -16 -6q-11 0 -11 12v909q0 9 13 9q8 0 8 -9v-890l729 890q11 11 18 11q11 0 11 -11v-913q0 -8 -13 -8zM745 1442q7 -7 0 -17l-210 -272q-3 -5 -8.5 -7t-8.5 1q-7 5 0 16l213 275q9 9 14 4z" />
    <glyph glyph-name="afii10080.var.accented" unicode="&#x43e;`" horiz-adv-x="1167" 
d="M584 938q205 0 338 -135t133 -342t-133 -342t-338 -135t-338 135t-133 342t133 342t338 135zM584 4q198 0 324 128.5t126 328.5t-126 328.5t-324 128.5t-324.5 -128.5t-126.5 -328.5t126.5 -328.5t324.5 -128.5zM756 1442q7 -7 0 -17l-211 -272q-3 -5 -8.5 -7t-8.5 1
q-7 5 0 16l213 275q4 4 9 5t6 -1z" />
    <glyph glyph-name="afii10085.var.accented" unicode="&#x443;`" horiz-adv-x="954" 
d="M588 176l299 737q5 9 10 9q15 0 10 -15l-372 -907q-67 -163 -123 -253.5t-105 -123.5t-112 -33q-59 0 -123 27q-9 5 -6 14t14 4q63 -26 110 -26q87 0 157.5 78.5t146.5 263.5l20 49l-465 905q-3 6 -0.5 11.5t8.5 5.5q7 0 11 -9l378 -741l78 -152zM705 1442q7 -7 0 -17
l-211 -272q-3 -5 -8.5 -7t-8.5 1q-7 5 0 16l213 275q4 4 9 5t6 -1z" />
    <glyph glyph-name="afii10093.var.accented" unicode="&#x44b;`" horiz-adv-x="1208" 
d="M377 563q103 0 175.5 -20.5t113 -59.5t58 -88t17.5 -114q0 -64 -18.5 -113t-60 -88t-115 -59.5t-176.5 -20.5h-168q-8 0 -13.5 5.5t-5.5 12.5v895q0 9 13 9q8 0 8 -9v-350h172zM205 20h170q186 0 266 67.5t80 195.5q0 126 -81 193t-263 67h-172v-523zM1024 913v-913
q0 -8 -12 -8q-8 0 -8 8v913q0 9 12 9q8 0 8 -9zM766 1442q7 -7 0 -17l-211 -272q-9 -13 -16 -6q-7 5 0 16l213 275q9 9 14 4z" />
    <glyph glyph-name="afii10095.var.accented" unicode="&#x44d;`" horiz-adv-x="1007" 
d="M119 104q119 -100 325 -100q178 0 304 132.5t126 324.5h-526q-8 0 -8 12q0 8 8 8h526q-7 199 -134.5 318t-323.5 119q-94 0 -179 -37t-139 -97q-6 -6 -12 0t0 15q57 67 146.5 103t183.5 36q210 0 344.5 -131t134.5 -346q0 -132 -59 -241.5t-161.5 -172.5t-225.5 -63
q-222 0 -340 102q-11 12 -5 18q8 8 15 0zM629 1442q7 -7 0 -17l-211 -272q-3 -5 -8.5 -7t-8.5 1q-7 5 0 16l213 275q4 4 9 5t6 -1z" />
    <glyph glyph-name="afii10096.var.accented" unicode="&#x44e;`" horiz-adv-x="1505" 
d="M205 461v-461q0 -8 -12 -8q-9 0 -9 8v913q0 9 13 9q8 0 8 -9v-432h287q6 200 131.5 328.5t318.5 128.5q197 0 324 -134.5t127 -342.5t-127 -342.5t-324 -134.5t-323.5 134.5t-126.5 342.5h-287zM942 4q190 0 310 128.5t120 328.5t-120 328.5t-310 128.5t-310 -128.5
t-120 -328.5t120 -328.5t310 -128.5zM930 1442q7 -7 0 -17l-211 -272q-3 -5 -8.5 -7t-8.5 1q-7 5 0 16l213 275q4 4 9 5t6 -1z" />
    <glyph glyph-name="afii10097.var.accented" unicode="&#x44f;`" horiz-adv-x="964" 
d="M111 10l317 389q-102 10 -178 80t-76 174q0 120 82.5 194.5t267.5 74.5h238q7 0 12.5 -5.5t5.5 -13.5v-903q0 -8 -12 -8q-8 0 -8 8v399h-305l-324 -399q-5 -8 -14 -8q-6 0 -8 6t2 12zM760 420v481h-240q-167 0 -246 -68t-79 -178q0 -103 80 -169t161 -66h324zM766 1442
q7 -7 0 -17l-211 -272q-9 -13 -16 -6q-7 5 0 16l213 275q9 9 14 4z" />
    <glyph glyph-name="afii10071.var.accented" unicode="&#x451;`" horiz-adv-x="1083" 
d="M326 1317q9 0 16.5 -8t7.5 -17q0 -10 -7.5 -18t-16.5 -8q-11 0 -19 8t-8 18q0 9 8.5 17t18.5 8zM764 1317q9 0 16.5 -8t7.5 -17q0 -10 -7.5 -18t-16.5 -8q-11 0 -19 8t-8 18q0 9 8.5 17t18.5 8zM444 1161l218 279q6 9 14 4t0 -17l-215 -276q-6 -11 -15 -2q-5 5 -2 12z
M950 481h-817q0 -220 124 -348.5t335 -128.5q94 0 178.5 36.5t138.5 96.5q7 7 13 0q5 -5 0 -14q-57 -67 -146.5 -103t-183.5 -36q-210 0 -344.5 131t-134.5 346q0 102 28 188t82.5 151t141.5 101.5t198 36.5q180 0 294 -113t114 -297q0 -18 -2 -28q0 -8 -5.5 -13.5
t-13.5 -5.5zM555 918q-190 0 -300.5 -115.5t-121.5 -300.5h817q3 191 -105.5 303.5t-289.5 112.5z" />
    <glyph glyph-name="fi" unicode="fi" horiz-adv-x="985" 
d="M760 1366q-93 64 -205 64q-309 0 -309 -377v-131h512q7 0 12.5 -5.5t5.5 -13.5v-903q0 -8 -12 -8q-8 0 -8 8v901h-510v-901q0 -8 -13 -8q-8 0 -8 8v1071q0 188 86.5 283.5t243.5 95.5q127 0 217 -66q1 -1 2 -2.5t3 -6.5t-3 -9q-2 -3 -6.5 -3t-7.5 3z" />
    <glyph glyph-name="fl" unicode="fl" horiz-adv-x="1114" 
d="M1090 53q4 -8 -5 -12q-70 -47 -155 -47q-99 0 -143 57t-44 176v1135q-92 68 -208 68q-147 0 -218 -90.5t-71 -286.5v-131h289q8 0 8 -13q0 -8 -8 -8h-289v-901q0 -8 -13 -8q-8 0 -8 8v1071q0 379 310 379q121 0 213 -61q14 -11 14 -29l2 -1102q0 -127 37.5 -185.5
t128.5 -58.5q81 0 143 43q7 7 17 -4z" />
    <glyph glyph-name=".notdef" horiz-adv-x="512" 
 />
    <glyph glyph-name=".null" horiz-adv-x="0" 
 />
    <glyph glyph-name="nonmarkingreturn" horiz-adv-x="682" 
 />
    <glyph glyph-name="space" unicode=" " horiz-adv-x="512" 
 />
    <glyph glyph-name="exclam" unicode="!" horiz-adv-x="634" 
d="M317 1434q11 0 11 -9v-1089q0 -8 -11 -8q-10 0 -10 8v1089q0 9 10 9zM291 27q0 9 8 16.5t18 7.5q9 0 17 -7.5t8 -16.5q0 -10 -8 -18.5t-17 -8.5q-10 0 -18 8t-8 19z" />
    <glyph glyph-name="quotedbl" unicode="&#x22;" horiz-adv-x="778" 
d="M532 1065q0 -10 -10 -10t-10 10v358q0 11 10 11t10 -11v-358zM266 1065q0 -10 -10 -10t-10 10v358q0 11 10 11t10 -11v-358z" />
    <glyph glyph-name="numbersign" unicode="#" horiz-adv-x="1359" 
d="M512 952l-174 -471h508l176 471h-510zM1204 1438q3 8 10 8q5 0 8.5 -4t0.5 -10l-170 -459h217q8 0 8 -10q0 -11 -8 -11h-226l-174 -471h400q8 0 8 -10t-8 -10h-408l-172 -467q-6 -11 -16 -6q-8 4 -4 12l170 461h-510l-172 -467q-1 -4 -6.5 -6t-8.5 0q-10 3 -6 12l170 461
h-217q-8 0 -8 10t8 10h223l176 471h-399q-8 0 -8 11q0 10 8 10h408l174 465q3 8 10 8q5 0 8 -4t0 -10l-170 -459h510z" />
    <glyph glyph-name="dollar" unicode="$" 
d="M172 176q-3 7 2 12q7 7 16 -2q64 -83 175.5 -132.5t218.5 -49.5q111 0 206 36.5t157.5 115t62.5 186.5q0 98 -44.5 169t-115 112t-156 73t-171.5 64t-156.5 73t-115 112t-44.5 169q0 147 104.5 241t290.5 95v160q0 8 10 8q11 0 11 -8v-160q104 -3 199 -39.5t151 -95.5
q9 -9 2 -17t-17 2q-130 130 -356 130q-171 0 -273 -86.5t-102 -227.5q0 -76 27.5 -134t74 -96t106.5 -67.5t126.5 -52.5t133.5 -46.5t127 -55.5t106.5 -73t74 -104.5t27.5 -144.5q0 -154 -115 -250.5t-292 -105.5v-183q0 -8 -11 -8q-10 0 -10 8v181h-14q-120 0 -240 54
t-176 138z" />
    <glyph glyph-name="percent" unicode="%" horiz-adv-x="1656" 
d="M307 -8q-9 -9 -16 -2q-8 8 0 16l1075 1436q6 8 14 4q7 -4 2 -14zM123 1122q0 134 91.5 223t225.5 89t226 -89t92 -223t-91.5 -222.5t-226.5 -88.5q-134 0 -225.5 88.5t-91.5 222.5zM143 1122q0 -126 90 -208.5t207 -82.5q121 0 209 82t88 209t-88.5 209t-208.5 82
t-208.5 -82t-88.5 -209zM899 311q0 134 92 223t226 89t225.5 -89t91.5 -223t-91.5 -222.5t-225.5 -88.5q-135 0 -226.5 88.5t-91.5 222.5zM920 311q0 -126 90 -208.5t207 -82.5q121 0 208.5 82t87.5 209t-88 209t-208 82t-208.5 -82t-88.5 -209z" />
    <glyph glyph-name="ampersand" unicode="&#x26;" horiz-adv-x="1486" 
d="M1255 922q11 0 11 -9q-2 -173 -44 -338t-122 -294l225 -273q4 -4 1 -10t-9 -6q-9 0 -14 8l-216 262q-82 -128 -205 -203t-274 -75q-179 0 -301.5 114.5t-122.5 290.5q0 280 383 531q-102 11 -169.5 85.5t-67.5 178.5q0 110 78 188t188 78t188 -78t78 -188t-78 -188
t-188 -78l489 -619q76 129 117 290.5t43 323.5q0 9 10 9zM606 4q149 0 267 74t200 203l-495 624q-74 -50 -132.5 -99.5t-117 -115t-91 -142.5t-32.5 -157q0 -115 57.5 -205t148 -136t195.5 -46zM350 1184q0 -101 72.5 -173.5t173.5 -72.5t173.5 72.5t72.5 173.5t-72.5 173.5
t-173.5 72.5t-173.5 -72.5t-72.5 -173.5z" />
    <glyph glyph-name="quotesingle" unicode="'" horiz-adv-x="512" 
d="M266 1065q0 -10 -10 -10t-10 10v358q0 11 10 11t10 -11v-358z" />
    <glyph glyph-name="parenleft" unicode="(" horiz-adv-x="514" 
d="M102 461q0 -239 96.5 -460t305.5 -404q8 -7 0 -15t-17 2q-405 356 -405 877q0 240 94 458t313 418q9 9 15 2q7 -7 0 -14q-217 -201 -309.5 -413t-92.5 -451z" />
    <glyph glyph-name="parenright" unicode=")" horiz-adv-x="514" 
d="M412 461q0 239 -92.5 451t-309.5 413q-7 7 0 14q6 7 15 -2q219 -200 313 -418t94 -458q0 -521 -405 -877q-9 -10 -17 -2t0 15q209 183 305.5 404t96.5 460z" />
    <glyph glyph-name="asterisk" unicode="*" horiz-adv-x="884" 
d="M422 1423q0 11 8 19t19 8q10 0 18 -8t8 -19q0 -10 -7.5 -17t-18.5 -7t-19 7t-8 17zM420 946q0 11 8 19t18 8t17.5 -8t7.5 -19q0 -10 -7 -17t-18 -7t-18.5 7t-7.5 17zM625 1305q0 11 7 18.5t17 7.5q11 0 19 -8t8 -18q0 -11 -8 -19t-19 -8q-10 0 -17 8t-7 19zM625 1081
q0 11 7 19t17 8q11 0 19 -8t8 -19q0 -10 -8 -17t-19 -7t-17.5 6.5t-6.5 17.5zM209 1081q0 11 8.5 19t18.5 8t17 -8t7 -19t-7 -17.5t-17 -6.5q-11 0 -19 7t-8 17zM209 1305q0 10 8 18t19 8q10 0 17 -7.5t7 -18.5t-7 -19t-17 -8t-18.5 8t-8.5 19z" />
    <glyph glyph-name="plus" unicode="+" 
d="M586 727h-422q-10 0 -10 10q0 11 10 11h422v421q0 11 10 11t10 -11v-421h426q10 0 10 -11q0 -10 -10 -10h-426v-426q0 -10 -10 -10t-10 10v426z" />
    <glyph glyph-name="comma" unicode="," horiz-adv-x="339" 
d="M166 0q-10 0 -17.5 8t-7.5 17q0 11 10 18.5t23 7.5q31 0 57.5 -37.5t26.5 -101.5q0 -79 -44 -135.5t-105 -77.5q-12 -3 -15 4q-3 8 8 12q53 20 94.5 72t41.5 121q0 88 -48 115q-3 -23 -24 -23z" />
    <glyph glyph-name="hyphen" unicode="-" horiz-adv-x="847" 
d="M633 543h-418q-10 0 -10 10t10 10h418q10 0 10 -10t-10 -10z" />
    <glyph glyph-name="period" unicode="." horiz-adv-x="296" 
d="M150 0q-10 0 -18.5 8t-8.5 19q0 9 8.5 16.5t18.5 7.5q9 0 16.5 -7.5t7.5 -16.5q0 -10 -7.5 -18.5t-16.5 -8.5z" />
    <glyph glyph-name="slash" unicode="/" horiz-adv-x="591" 
d="M-37 -416q-3 -10 -14 -6q-10 3 -6 14l688 1848q3 8 12 8q4 0 6 -4.5t0 -9.5z" />
    <glyph glyph-name="zero" unicode="0" 
d="M1032 717q0 -161 -23.5 -291t-73.5 -231t-134.5 -156t-198.5 -55t-200 55.5t-137 156t-76 231t-25 290.5q0 161 24.5 291t75 231t135.5 156t199 55t199 -55t135.5 -156t75 -231t24.5 -291zM1012 717q0 157 -22.5 283.5t-70.5 224.5t-129 151.5t-192 53.5t-192 -53.5
t-129 -151.5t-70.5 -224.5t-22.5 -283.5q0 -125 14 -230.5t46 -195.5t80 -153t118.5 -98.5t159.5 -35.5q110 0 191 53.5t128 152t69 224t22 283.5z" />
    <glyph glyph-name="one" unicode="1" horiz-adv-x="739" 
d="M145 1194q-10 -10 -18 -2q-7 7 4 16l285 236q6 6 11 4.5t5 -6.5v-1440q0 -10 -10 -10t-10 10v1413z" />
    <glyph glyph-name="two" unicode="2" horiz-adv-x="1089" 
d="M946 10q0 -10 -10 -10h-797q-16 0 -16 12q0 7 8 15q66 65 115.5 115.5t130 137.5t140 159.5t127 167t111 175t72.5 167.5t29 161q0 59 -21 114.5t-60.5 102t-106 75t-148.5 28.5q-55 0 -109.5 -16.5t-105.5 -50t-88 -92.5t-49 -136q-3 -11 -10 -11q-11 0 -11 11
q10 78 48.5 140.5t91.5 99t111.5 56t115.5 19.5q92 0 164.5 -30.5t114.5 -81t63 -107.5t21 -117q0 -82 -35.5 -181.5t-84.5 -187t-128 -193t-137.5 -175.5t-143 -158.5t-115 -119t-81.5 -79.5h784q10 0 10 -10z" />
    <glyph glyph-name="three" unicode="3" horiz-adv-x="1095" 
d="M643 735q130 -17 209.5 -120t79.5 -232q0 -180 -116.5 -289.5t-297.5 -109.5q-61 0 -116.5 13t-108 40t-95.5 75.5t-71 114.5q-4 11 4 15q11 4 14 -6q36 -83 101.5 -137.5t134.5 -74.5t145 -20q173 0 279 107t106 272q0 147 -99.5 243.5t-240.5 96.5h-127q-10 0 -10 10
t10 10h113q113 0 206 105t93 250q0 161 -91.5 246.5t-244.5 85.5q-251 0 -336 -218q-3 -10 -10 -10q-15 0 -10 15q37 108 132 170.5t222 62.5q170 0 264.5 -94.5t94.5 -263.5q0 -109 -63 -210t-171 -147z" />
    <glyph glyph-name="four" unicode="4" horiz-adv-x="1064" 
d="M754 2q0 -10 -11 -10q-10 0 -10 10v408h-639q-12 0 -16.5 9t2.5 21l649 983q8 11 16 11q7 0 8.5 -7.5t-3.5 -13.5l-654 -983h637v481q0 11 10 11q11 0 11 -11v-481h219q10 0 10 -10t-10 -10h-219v-408z" />
    <glyph glyph-name="five" unicode="5" horiz-adv-x="1067" 
d="M913 430q0 172 -121 286.5t-311 114.5q-88 0 -174 -26q-11 -3 -19 3.5t-7 18.5l75 596q9 11 13 11h565q10 0 10 -11q0 -10 -10 -10h-559l-76 -590q93 29 180 29q203 0 329 -116.5t126 -305.5q0 -100 -34 -185t-91 -141.5t-131 -88t-154 -31.5q-124 0 -228.5 56
t-168.5 175q-6 9 4 14q9 6 14 -4q61 -110 164.5 -165.5t214.5 -55.5q164 0 276.5 121.5t112.5 304.5z" />
    <glyph glyph-name="six" unicode="6" horiz-adv-x="1114" 
d="M991 428q0 -182 -120.5 -313t-280.5 -131q-93 0 -170.5 28t-132 77t-92 115.5t-55 143t-17.5 160.5q0 151 39 290t105 246t152.5 192t181.5 138t192 74q12 2 12 -10q0 -8 -10 -11q-90 -21 -176 -66.5t-167 -120t-144.5 -170t-107.5 -224.5t-57 -275q43 128 155 214.5
t269 86.5q196 0 310 -123t114 -321zM971 426q0 119 -44.5 214t-138 153.5t-223.5 58.5q-89 0 -165.5 -32t-127.5 -83.5t-84 -109.5t-45 -117q0 -98 27.5 -187t80.5 -161t139.5 -115t195.5 -43q155 0 270 124.5t115 297.5z" />
    <glyph glyph-name="seven" unicode="7" horiz-adv-x="942" 
d="M266 10l565 1403h-739q-10 0 -10 10q0 11 10 11h735q35 0 23 -31l-561 -1401q-3 -10 -15 -10q-6 0 -8.5 5t0.5 13z" />
    <glyph glyph-name="eight" unicode="8" horiz-adv-x="1198" 
d="M596 1430q-90 0 -170 -39t-133 -119.5t-53 -186.5q0 -95 50 -174.5t122.5 -121t146.5 -41.5h80q74 0 146.5 41.5t122.5 121t50 174.5q0 106 -54.5 186.5t-135.5 119.5t-172 39zM598 4q108 0 202 43t154 128.5t60 195.5q0 81 -30.5 149t-83 113t-121 69.5t-144.5 24.5h-66
q-158 0 -271.5 -104t-113.5 -252q0 -79 35 -148.5t92.5 -117t132 -74.5t154.5 -27zM713 735q142 -13 231.5 -115.5t89.5 -248.5q0 -88 -37 -162.5t-98.5 -123t-139 -75t-159.5 -26.5t-159.5 26.5t-139.5 75t-99.5 123t-37.5 162.5q0 128 86.5 232.5t234.5 135.5
q-113 27 -189.5 129.5t-76.5 210.5q0 165 110 268t269 103q160 0 270.5 -103t110.5 -268q0 -108 -72 -205.5t-194 -138.5z" />
    <glyph glyph-name="nine" unicode="9" horiz-adv-x="1114" 
d="M123 1016q0 90 36.5 171.5t95.5 138.5t135.5 90.5t154.5 33.5q93 0 168.5 -28t126.5 -76.5t85.5 -116t50 -143t15.5 -160.5q0 -192 -50.5 -357.5t-139.5 -285t-212 -196.5t-267 -101q-15 -3 -15 8q0 8 10 10q135 26 250 96t202 177.5t140 257.5t62 327
q-42 -124 -153 -202t-271 -78q-129 0 -227 60.5t-147.5 158.5t-49.5 215zM143 1018q0 -81 26.5 -154.5t75.5 -132.5t128 -94t176 -35q89 0 165.5 29t127.5 76.5t84 103t45 113.5q0 78 -14.5 150t-47.5 137.5t-81 113.5t-119.5 76.5t-159.5 28.5q-102 0 -195.5 -53.5
t-152 -149.5t-58.5 -209z" />
    <glyph glyph-name="colon" unicode=":" horiz-adv-x="665" 
d="M334 887q-11 0 -19 8t-8 18q0 9 8.5 17t18.5 8q9 0 16.5 -8t7.5 -17q0 -10 -7.5 -18t-16.5 -8zM334 0q-10 0 -18.5 8t-8.5 19q0 9 8.5 16.5t18.5 7.5q9 0 16.5 -7.5t7.5 -16.5q0 -10 -7.5 -18.5t-16.5 -8.5z" />
    <glyph glyph-name="semicolon" unicode=";" horiz-adv-x="667" 
d="M334 887q-11 0 -19 8t-8 18q0 9 8.5 17t18.5 8q9 0 16.5 -8t7.5 -17q0 -10 -7.5 -18t-16.5 -8zM330 0q-10 0 -17.5 8t-7.5 17q0 11 10 18.5t23 7.5q31 0 57.5 -37.5t26.5 -101.5q0 -79 -44.5 -135.5t-105.5 -77.5q-11 -3 -14 4q-3 8 8 12q52 20 93.5 72t41.5 121
q0 89 -47 115q-3 -23 -24 -23z" />
    <glyph glyph-name="less" unicode="&#x3c;" 
d="M166 729q-8 5 -8 12q0 8 8 13l770 501q6 4 10 1t4 -9q0 -7 -8 -12l-758 -494l758 -497q8 -5 8 -13q0 -6 -5 -8t-11 2z" />
    <glyph glyph-name="equal" unicode="=" 
d="M1032 891h-868q-10 0 -10 10t10 10h868q10 0 10 -10t-10 -10zM1032 563h-868q-10 0 -10 10q0 11 10 11h868q10 0 10 -11q0 -10 -10 -10z" />
    <glyph glyph-name="greater" unicode="&#x3e;" 
d="M1038 741q0 -7 -8 -12l-768 -504q-6 -4 -11 -2t-5 8q0 8 8 13l758 497l-758 494q-8 5 -8 12q0 6 4 9t10 -1l770 -501q8 -5 8 -13z" />
    <glyph glyph-name="question" unicode="?" horiz-adv-x="923" 
d="M408 365q0 -11 -9 -11q-10 0 -10 8q-10 41 -10 89q0 64 24.5 116.5t63.5 90t86 71.5t94 69.5t86 76t63.5 99.5t24.5 132q0 140 -102 232t-262 92q-103 0 -196.5 -49t-158.5 -136q-5 -10 -14 -4q-7 5 -2 14q58 88 159.5 141.5t215.5 53.5q177 0 279 -98.5t102 -243.5
q0 -77 -24.5 -139t-63.5 -103.5t-86.5 -77t-94.5 -68.5t-86 -68.5t-63.5 -87t-24.5 -115.5q0 -37 9 -84zM365 27q0 9 8 16.5t18 7.5q9 0 17 -7.5t8 -16.5q0 -10 -8 -18.5t-17 -8.5q-10 0 -18 8t-8 19z" />
    <glyph glyph-name="at" unicode="@" horiz-adv-x="2101" 
d="M164 461q0 145 43 279.5t124 244t191 191.5t251.5 127t297.5 45q185 0 346 -60t275 -165.5t179.5 -255t65.5 -322.5q0 -103 -28.5 -198.5t-83.5 -174t-145 -125.5t-203 -47h-43q-9 0 -16 7t-7 16v131q-57 -71 -154.5 -120.5t-197.5 -49.5q-208 0 -334.5 130t-126.5 347
q0 201 143.5 339t354.5 138q176 0 317 -82q19 -11 19 -31v-805h45q83 0 155 29t123.5 79.5t88.5 117t55 141.5t18 154q0 227 -111 407t-304 279.5t-431 99.5q-190 0 -356.5 -68.5t-282 -185.5t-182 -276t-66.5 -336q0 -142 42 -273t121.5 -238.5t187 -187.5t246 -124
t290.5 -44q103 0 215 23q11 4 14 -4q4 -11 -10 -14q-109 -25 -219 -25q-156 0 -297.5 45t-251.5 127t-191 191.5t-124 244t-43 279.5zM1411 182v649q-140 87 -317 87q-128 0 -237 -60t-174 -165.5t-65 -231.5q0 -210 120.5 -333.5t320.5 -123.5q106 0 207.5 57t144.5 121z
" />
    <glyph glyph-name="A" unicode="A" horiz-adv-x="1402" 
d="M1321 -2l-252 569h-737l-250 -569q-3 -6 -10 -6q-5 0 -7.5 4t-1.5 8l621 1415q5 15 16 15q12 0 17 -15l622 -1415q4 -12 -10 -12q-5 0 -8 6zM1061 588l-361 821l-360 -821h721z" />
    <glyph glyph-name="B" unicode="B" horiz-adv-x="1263" 
d="M1038 1085q0 -100 -47.5 -176.5t-120 -117t-159.5 -50.5q189 -17 289 -108t100 -246q0 -83 -24.5 -148.5t-68.5 -110.5t-106.5 -75t-136 -43.5t-160.5 -13.5q-54 0 -174 2t-162 2q-9 0 -15.5 7t-6.5 16v1388q0 9 6.5 16t15.5 7q41 0 159.5 2t170.5 2q124 0 212 -26.5
t136.5 -76t70 -110.5t21.5 -140zM266 727v-707q34 0 156 -2t176 -2q229 0 355 93.5t126 279.5q0 161 -124 249.5t-353 88.5h-336zM266 1413v-665h352q168 0 284 94t116 245q0 164 -101.5 247t-322.5 83q-192 0 -328 -4z" />
    <glyph glyph-name="C" unicode="C" horiz-adv-x="1345" 
d="M1214 1313q-151 119 -397 119q-199 0 -354 -96t-237.5 -258.5t-82.5 -360.5q0 -212 86.5 -374.5t242 -250.5t355.5 -88q242 0 416 143q8 4 14 -2q3 -3 2 -7.5t-4 -6.5q-77 -69 -192.5 -108t-235.5 -39q-155 0 -286 52t-223 146.5t-143.5 232t-51.5 302.5
q0 153 50.5 288.5t140.5 234t220 155.5t281 57q251 0 414 -125q3 -2 4 -6.5t-2 -7.5t-8.5 -3t-8.5 3z" />
    <glyph glyph-name="D" unicode="D" horiz-adv-x="1503" 
d="M575 1440q167 0 303 -37.5t228.5 -102t155 -154t90.5 -191t28 -214.5q0 -157 -52 -291.5t-152.5 -236t-258.5 -159.5t-358 -58q-61 0 -154 2t-137 2q-9 0 -15.5 7t-6.5 16v1388q0 9 6.5 16t15.5 7q53 0 143.5 3t163.5 3zM266 1413v-1393h62t60 -0.5t54.5 -1t47.5 -1
t37 -1t25 -0.5h9q157 0 288.5 37.5t225 104t158.5 158t96 198.5t31 227q0 111 -27 209t-88 185t-151 149.5t-224 98.5t-299 36q-73 0 -165 -3t-140 -3z" />
    <glyph glyph-name="E" unicode="E" horiz-adv-x="1177" 
d="M266 20h760q8 0 8 -10t-8 -10h-758q-9 0 -15.5 7t-6.5 16v1388q0 9 6.5 16t15.5 7h738q8 0 8 -11q0 -10 -8 -10h-740v-672h678q8 0 8 -10t-8 -10h-678v-701z" />
    <glyph glyph-name="F" unicode="F" horiz-adv-x="1116" 
d="M965 680h-699v-680q0 -8 -10 -8t-10 8v1411q0 9 6.5 16t15.5 7h758q8 0 8 -11q0 -10 -8 -10h-760v-713h699q8 0 8 -10t-8 -10z" />
    <glyph glyph-name="G" unicode="G" horiz-adv-x="1488" 
d="M143 717q0 -212 85 -374.5t237 -250.5t348 -88q142 0 284 49t228 133v435h-461q-8 0 -8 10t8 10h459q9 0 16 -7t7 -16v-423q0 -16 -17 -33q-94 -84 -239.5 -131t-280.5 -47q-149 0 -275.5 52.5t-217 146.5t-142 231.5t-51.5 302.5q0 205 85 372t241.5 264t355.5 97
q263 0 426 -125q7 -7 0 -14q-5 -5 -14 0q-150 119 -410 119q-196 0 -348.5 -95.5t-234 -257.5t-81.5 -360z" />
    <glyph glyph-name="H" unicode="H" horiz-adv-x="1587" 
d="M1331 1436q10 0 10 -11v-1425q0 -8 -10 -8t-10 8v721h-1055v-721q0 -8 -10 -8t-10 8v1425q0 11 10 11t10 -11v-684h1055v684q0 11 10 11z" />
    <glyph glyph-name="I" unicode="I" horiz-adv-x="634" 
d="M317 1436q4 0 7.5 -4t3.5 -7v-1425q0 -8 -11 -8q-10 0 -10 8v1425q0 11 10 11z" />
    <glyph glyph-name="J" unicode="J" horiz-adv-x="698" 
d="M205 4q70 0 117 22.5t70 66t31.5 91.5t8.5 115v1126q0 11 10 11q4 0 7.5 -4t3.5 -7v-1124q0 -75 -11 -129t-37.5 -98.5t-76.5 -67t-123 -22.5q-84 0 -154 47q-10 7 -8 14q4 12 14 4q70 -45 148 -45z" />
    <glyph glyph-name="K" unicode="K" horiz-adv-x="1257" 
d="M1149 -4l-750 735q-6 6 -6 15.5t6 15.5l723 670q5 5 13 2q10 -7 0 -17l-721 -669l749 -736q5 -4 4.5 -10.5t-6.5 -9.5q-5 -3 -12 4zM256 1436q10 0 10 -11v-1425q0 -8 -10 -8t-10 8v1425q0 11 10 11z" />
    <glyph glyph-name="L" unicode="L" horiz-adv-x="1136" 
d="M266 20h821q9 0 9 -10t-9 -10h-819q-9 0 -15.5 7t-6.5 16v1402q0 11 10 11t10 -11v-1405z" />
    <glyph glyph-name="M" unicode="M" horiz-adv-x="1785" 
d="M887 555l-621 844v-1399q0 -8 -10 -8t-10 8v1425q0 13 10 13q9 0 16 -11l631 -858l608 858q7 11 17 11q4 0 8 -4t4 -9v-1425q0 -8 -10 -8t-10 8v1405l-600 -848q-6 -9 -16.5 -9.5t-16.5 7.5z" />
    <glyph glyph-name="N" unicode="N" horiz-adv-x="1638" 
d="M1372 25v1400q0 11 10 11q4 0 7.5 -4t3.5 -7v-1427q0 -10 -11 -10q-8 0 -12 6l-1104 1409v-1403q0 -8 -10 -8t-10 8v1432q0 10 8 10t12 -6z" />
    <glyph glyph-name="O" unicode="O" horiz-adv-x="1646" 
d="M123 717q0 205 92 373t252.5 264t355.5 96t355.5 -96t253 -264t92.5 -373t-92.5 -373t-253 -264t-355.5 -96t-355.5 96t-252.5 264t-92 373zM143 717q0 -150 52.5 -282.5t143 -227t216.5 -149t268 -54.5t268 54.5t216.5 149t143 227t52.5 282.5t-52.5 282.5t-143 227
t-216.5 149t-268 54.5t-268 -54.5t-216.5 -149t-143 -227t-52.5 -282.5z" />
    <glyph glyph-name="P" unicode="P" horiz-adv-x="1161" 
d="M557 1438q111 0 197 -24.5t138.5 -63.5t86 -94.5t46.5 -111.5t13 -120q0 -82 -27.5 -154.5t-84 -133.5t-156.5 -96.5t-233 -35.5q-114 0 -271 10v-614q0 -8 -10 -8t-10 8v1411q0 9 6.5 16t15.5 7q46 0 153 2t136 2zM266 1413v-778q157 -10 269 -10q122 0 216.5 31.5
t151.5 86.5t86 126.5t29 156.5q0 83 -25 151.5t-77.5 123.5t-143.5 85.5t-213 30.5q-157 0 -293 -4z" />
    <glyph glyph-name="Q" unicode="Q" horiz-adv-x="1646" 
d="M1376 -8q-6 0 -10 4l-113 135q-190 -147 -430 -147q-195 0 -355.5 96t-252.5 264t-92 373t92 373t252.5 264t355.5 96t355.5 -96t253 -264t92.5 -373q0 -174 -67.5 -322t-186.5 -250l110 -131q7 -8 5.5 -15t-9.5 -7zM1135 309l122 -147q116 98 181 242t65 313
q0 150 -52.5 282.5t-143 227t-216.5 149t-268 54.5t-268 -54.5t-216.5 -149t-143 -227t-52.5 -282.5t52.5 -282.5t143 -227t216.5 -149t268 -54.5q239 0 418 143l-121 148q-7 7 0 14q3 3 8.5 3t6.5 -3z" />
    <glyph glyph-name="R" unicode="R" horiz-adv-x="1255" 
d="M1157 -8q-4 0 -10 6l-535 647h-346v-645q0 -8 -10 -8t-10 8v1411q0 9 6.5 16t15.5 7q49 0 148.5 2t111.5 2q113 0 200.5 -22.5t141.5 -58.5t88 -88.5t47 -106.5t13 -118q0 -140 -103 -252t-278 -143l530 -641q3 -4 0 -10t-10 -6zM266 1413v-747h303q104 0 202 48
t162 137.5t64 195.5q0 83 -25 148.5t-79 116t-147 78t-220 27.5q-124 0 -260 -4z" />
    <glyph glyph-name="S" unicode="S" horiz-adv-x="1107" 
d="M127 174q-3 7 2 12q11 11 21 -6q52 -72 169 -124t220 -52q111 0 206 36.5t157.5 115t62.5 186.5q0 98 -44.5 169t-115 112t-156 73t-171.5 64t-156.5 73t-115 112t-44.5 169q0 149 106 242.5t295 93.5q109 0 208.5 -37t156.5 -98q8 -9 2 -15q-8 -8 -17 0
q-130 130 -356 130q-171 0 -273 -86.5t-102 -227.5q0 -76 27.5 -134t74 -96t106.5 -67.5t127 -52.5t133.5 -46.5t126.5 -55.5t106.5 -73t74 -104.5t27.5 -144.5q0 -162 -126.5 -260t-315.5 -98q-119 0 -235.5 52.5t-180.5 137.5z" />
    <glyph glyph-name="T" unicode="T" horiz-adv-x="1208" 
d="M614 0q0 -8 -10 -8t-10 8v1413h-565q-9 0 -9 10q0 11 9 11h1151q8 0 8 -11q0 -10 -8 -10h-566v-1413z" />
    <glyph glyph-name="U" unicode="U" horiz-adv-x="1538" 
d="M788 8q84 0 158 21.5t138 68.5t110 116.5t72 170.5t26 225v815q0 3 3.5 7t7.5 4q10 0 10 -11v-821q0 -159 -42 -280t-115.5 -193t-166 -107.5t-201.5 -35.5q-120 0 -222 40t-178.5 117t-119.5 198t-43 275v807q0 3 3.5 7t7.5 4q10 0 10 -11v-809q0 -147 41.5 -263.5
t115 -191.5t172 -114t213.5 -39z" />
    <glyph glyph-name="V" unicode="V" horiz-adv-x="1343" 
d="M47 1421q-2 5 1 10t9 5q10 0 13 -9l610 -1400l594 1400q4 9 12 9q15 0 10 -15l-602 -1419q-5 -10 -14 -10t-14 10z" />
    <glyph glyph-name="W" unicode="W" horiz-adv-x="1925" 
d="M489 35l467 1392q3 9 11 9q7 0 10 -9l479 -1392l399 1388q4 13 15 13q14 0 10 -17l-414 -1423q-3 -8 -10 -8t-10 8l-479 1401l-467 -1401q-3 -8 -11 -8q-9 0 -12 8l-432 1423q-4 17 12 17q8 0 11 -9z" />
    <glyph glyph-name="X" unicode="X" horiz-adv-x="1339" 
d="M123 1436q6 0 12 -9l535 -684l534 684q6 9 13 9q6 0 8 -5.5t-2 -11.5l-539 -690l565 -721q4 -4 2 -10t-8 -6q-7 0 -12 8l-561 713l-561 -713q-8 -8 -13 -8q-6 0 -8 6t2 10l567 721l-540 690q-4 6 -2 11.5t8 5.5z" />
    <glyph glyph-name="Y" unicode="Y" horiz-adv-x="1134" 
d="M61 1436q7 0 11 -9l493 -761l498 761q5 9 12 9q6 0 9 -6.5t-1 -12.5l-508 -772v-645q0 -8 -10 -8t-10 8v645l-504 772q-3 6 0 12.5t10 6.5z" />
    <glyph glyph-name="Z" unicode="Z" horiz-adv-x="1269" 
d="M1188 10q0 -10 -8 -10h-1069q-13 0 -17 11t4 20l1032 1382h-995q-8 0 -8 10q0 11 8 11h1002q12 0 16 -10t-4 -21l-1032 -1383h1063q8 0 8 -10z" />
    <glyph glyph-name="bracketleft" unicode="[" horiz-adv-x="532" 
d="M522 -410h-389q-10 0 -10 11v1720q0 10 10 10h389q10 0 10 -10t-10 -10h-379v-1700h379q10 0 10 -10q0 -11 -10 -11z" />
    <glyph glyph-name="backslash" unicode="\" horiz-adv-x="591" 
d="M-51 1448q8 3 12 -8l688 -1848q4 -11 -6 -14q-11 -4 -14 6l-686 1850q-4 11 6 14z" />
    <glyph glyph-name="bracketright" unicode="]" horiz-adv-x="532" 
d="M10 1331h389q11 0 11 -10v-1720q0 -11 -11 -11h-389q-10 0 -10 11q0 10 10 10h379v1700h-379q-10 0 -10 10t10 10z" />
    <glyph glyph-name="asciicircum" unicode="^" horiz-adv-x="946" 
d="M141 922q-6 0 -8 5.5t4 14.5l330 502q4 6 8 6t8 -6l328 -504q5 -6 3 -12t-9 -6t-12 8l-318 489l-321 -489q-5 -8 -13 -8z" />
    <glyph glyph-name="underscore" unicode="_" horiz-adv-x="512" 
d="M502 -410h-492q-10 0 -10 11q0 10 10 10h492q10 0 10 -10q0 -11 -10 -11z" />
    <glyph glyph-name="grave" unicode="`" horiz-adv-x="485" 
d="M356 1163q7 -7 -2 -12q-6 -6 -14 2l-211 272q-6 9 0 15q8 8 14 -2z" />
    <glyph glyph-name="a" unicode="a" horiz-adv-x="933" 
d="M453 524q184 0 297 -82q0 88 -2 136.5t-11 113t-28.5 98t-52.5 67.5t-86.5 47.5t-127.5 13.5q-73 0 -128.5 -17.5t-125.5 -58.5q-10 -5 -14 2q-2 1 -1 6t5 8q131 80 268 80q176 0 250 -90.5t74 -269.5v-578q0 -8 -10 -8t-10 8v174q-130 -182 -361 -182q-130 0 -208.5 70
t-78.5 186q0 132 98 204t253 72zM750 416q-125 88 -301 88q-61 0 -117.5 -15t-104 -44.5t-76 -80t-28.5 -114.5q0 -111 75 -174.5t189 -63.5q73 0 133 17.5t103.5 49t71 60.5t55.5 68v209z" />
    <glyph glyph-name="b" unicode="b" horiz-adv-x="1128" 
d="M575 938q204 0 322.5 -128t118.5 -335q0 -224 -136 -357.5t-350 -133.5q-203 0 -331 102q-15 11 -15 31v1308q0 9 13 9q8 0 8 -9v-655q60 72 163.5 120t206.5 48zM205 106q81 -58 158.5 -80t168.5 -22q130 0 235 55.5t166.5 162.5t61.5 247q0 204 -111.5 326.5
t-308.5 122.5q-112 0 -217 -55t-153 -122v-635z" />
    <glyph glyph-name="c" unicode="c" horiz-adv-x="1007" 
d="M563 918q-178 0 -304 -132.5t-126 -324.5q0 -208 128.5 -332.5t330.5 -124.5q94 0 178.5 36.5t138.5 96.5q7 7 13 0q5 -5 0 -14q-57 -67 -146.5 -103t-183.5 -36q-210 0 -344.5 131t-134.5 346q0 132 59 241.5t161.5 172.5t225.5 63q224 0 342 -102q9 -10 0 -19
q-6 -6 -12 0q-120 101 -326 101z" />
    <glyph glyph-name="d" unicode="d" horiz-adv-x="1130" 
d="M946 1425v-1425q0 -8 -12 -8q-8 0 -8 8v156q-57 -72 -154.5 -122t-198.5 -50q-208 0 -334 130t-126 347q0 209 142 343t355 134q187 0 316 -98v585q0 9 12 9q8 0 8 -9zM926 815q-146 103 -318 103q-203 0 -339 -129t-136 -328q0 -210 120 -333.5t320 -123.5
q105 0 207 58.5t146 123.5v629z" />
    <glyph glyph-name="e" unicode="e" horiz-adv-x="1083" 
d="M950 481h-817q0 -220 124 -348.5t335 -128.5q94 0 178.5 36.5t138.5 96.5q7 7 13 0q5 -5 0 -14q-57 -67 -146.5 -103t-183.5 -36q-210 0 -344.5 131t-134.5 346q0 102 28 188t82.5 151t141.5 101.5t198 36.5q180 0 294 -113t114 -297q0 -18 -2 -28q0 -8 -5.5 -13.5
t-13.5 -5.5zM555 918q-190 0 -300.5 -115.5t-121.5 -300.5h817q3 191 -105.5 303.5t-289.5 112.5z" />
    <glyph glyph-name="f" unicode="f" horiz-adv-x="698" 
d="M246 901v-901q0 -8 -13 -8q-8 0 -8 8v1071q0 379 310 379q127 0 217 -66q1 -1 2 -2.5t3 -6.5t-3 -9q-2 -3 -7 -3t-8 3q-93 64 -204 64q-147 0 -218 -90.5t-71 -286.5v-131h411q9 0 9 -13q0 -8 -9 -8h-411z" />
    <glyph glyph-name="g" unicode="g" horiz-adv-x="991" 
d="M489 137q206 0 327.5 -73.5t121.5 -208.5q0 -134 -122 -207.5t-327 -73.5q-206 0 -327 73t-121 208q0 105 76.5 174t212.5 94q-37 37 -37 100q0 61 41 105q-90 37 -141.5 114t-51.5 176q0 139 96.5 229.5t249.5 90.5q137 0 232 -76l239 70q13 4 13 -6q0 -8 -8 -11
l-228 -67q99 -93 99 -230q0 -139 -97 -229t-250 -90q-76 0 -135 20q-39 -36 -39 -96q0 -59 43 -96q68 10 133 10zM489 -406q192 0 310.5 69t118.5 192q0 122 -119 192t-310 70t-309.5 -70t-118.5 -192t118 -191.5t310 -69.5zM487 319q142 0 234 85t92 214q0 128 -92 214
t-234 86t-233.5 -85t-91.5 -215q0 -129 91.5 -214t233.5 -85z" />
    <glyph glyph-name="h" unicode="h" horiz-adv-x="1134" 
d="M205 741v-741q0 -8 -12 -8q-9 0 -9 8v1425q0 9 13 9q8 0 8 -9v-655q59 71 165.5 119.5t209.5 48.5q200 0 295.5 -103t95.5 -319v-516q0 -8 -13 -8q-8 0 -8 8v510q0 208 -90 308t-280 100q-112 0 -220 -55.5t-155 -121.5z" />
    <glyph glyph-name="i" unicode="i" horiz-adv-x="512" 
d="M266 913v-913q0 -8 -12 -8q-8 0 -8 8v913q0 9 12 9q8 0 8 -9zM258 1270q-11 0 -19 8t-8 18q0 9 8.5 17t18.5 8q9 0 17 -8t8 -17q0 -10 -8 -18t-17 -8z" />
    <glyph glyph-name="j" unicode="j" horiz-adv-x="514" 
d="M248 -70v983q0 9 12 9q8 0 8 -9v-981q0 -358 -288 -358q-86 0 -156 47q-9 5 0 14q5 10 12 3q63 -44 144 -44q141 0 204.5 84.5t63.5 251.5zM256 1270q-11 0 -19 8t-8 18q0 9 8.5 17t18.5 8q9 0 17 -8t8 -17q0 -10 -8 -18t-17 -8z" />
    <glyph glyph-name="k" unicode="k" horiz-adv-x="911" 
d="M322 463q-8 8 -8.5 18.5t8.5 18.5l452 413q12 9 19 9q6 0 7 -8t-5 -13l-463 -420l506 -467q8 -8 6.5 -15t-8.5 -7q-9 0 -17 8zM205 1425v-1425q0 -8 -12 -8q-9 0 -9 8v1425q0 9 13 9q8 0 8 -9z" />
    <glyph glyph-name="l" unicode="l" horiz-adv-x="555" 
d="M530 57q3 -5 1 -9.5t-5 -6.5q-70 -47 -155 -47q-99 0 -143 57t-44 176v1198q0 9 13 9q8 0 8 -9v-1167q0 -127 37.5 -185.5t128.5 -58.5q81 0 143 43q10 10 16 0z" />
    <glyph glyph-name="m" unicode="m" horiz-adv-x="1654" 
d="M543 938q111 0 189 -48t104 -136q50 83 149 133.5t201 50.5q144 0 224.5 -76.5t80.5 -255.5v-606q0 -8 -12 -8q-9 0 -9 8v600q0 318 -284 318q-113 0 -201.5 -51.5t-142.5 -135.5q6 -24 6 -61v-670q0 -8 -12 -8q-9 0 -9 8v666q0 113 -75 182.5t-209 69.5q-108 0 -199 -53
t-139 -124v-741q0 -8 -12 -8q-9 0 -9 8v913q0 9 13 9q8 0 8 -9v-139q53 72 146.5 118t191.5 46z" />
    <glyph glyph-name="n" unicode="n" horiz-adv-x="1134" 
d="M205 741v-741q0 -8 -12 -8q-9 0 -9 8v913q0 9 13 9q8 0 8 -9v-143q59 71 165.5 119.5t209.5 48.5q200 0 295.5 -103t95.5 -319v-516q0 -8 -13 -8q-8 0 -8 8v510q0 208 -90 308t-280 100q-112 0 -220 -55.5t-155 -121.5z" />
    <glyph glyph-name="o" unicode="o" horiz-adv-x="1167" 
d="M584 938q205 0 338 -135t133 -342t-133 -342t-338 -135t-338 135t-133 342t133 342t338 135zM584 4q198 0 324 128.5t126 328.5t-126 328.5t-324 128.5t-324.5 -128.5t-126.5 -328.5t126.5 -328.5t324.5 -128.5z" />
    <glyph glyph-name="p" unicode="p" horiz-adv-x="1128" 
d="M205 86v-487q0 -9 -12 -9q-3 0 -6 3t-3 6v1314q0 9 13 9q8 0 8 -9v-137q59 71 162.5 116.5t207.5 45.5q204 0 322.5 -128t118.5 -335q0 -214 -128.5 -352.5t-336.5 -138.5q-215 0 -346 102zM205 113q149 -109 348 -109q195 0 318.5 130t123.5 335q0 204 -111.5 326.5
t-308.5 122.5q-113 0 -218 -52.5t-152 -117.5v-635z" />
    <glyph glyph-name="q" unicode="q" horiz-adv-x="1130" 
d="M946 825v-1226q0 -9 -12 -9q-8 0 -8 9v548q-56 -69 -154 -116t-199 -47q-208 0 -334 130t-126 347q0 201 143.5 339t353.5 138q181 0 320 -84q16 -10 16 -29zM926 831q-140 87 -318 87q-128 0 -237 -60t-173.5 -165.5t-64.5 -231.5q0 -210 120 -333.5t320 -123.5
q106 0 208.5 54.5t144.5 117.5v655z" />
    <glyph glyph-name="r" unicode="r" horiz-adv-x="641" 
d="M205 741v-741q0 -8 -12 -8q-9 0 -9 8v913q0 9 13 9q8 0 8 -9v-135q44 71 113.5 115.5t158.5 44.5q87 0 131 -27q8 -4 10 -10.5t-2 -9.5q-4 -7 -14 -2q-30 17 -54 23t-71 6q-52 0 -95.5 -15.5t-77 -44t-55 -55t-44.5 -62.5z" />
    <glyph glyph-name="s" unicode="s" horiz-adv-x="821" 
d="M129 115q10 6 18 -6q37 -46 111.5 -75.5t142.5 -29.5q114 0 195.5 58t81.5 165q0 61 -29 104t-75.5 66.5t-103 42.5t-113 39t-103 47t-75.5 76t-29 117q0 96 72.5 157.5t195.5 61.5q69 0 135 -24t104 -62q9 -9 0 -18q-8 -4 -14 2q-85 82 -229 82q-109 0 -176.5 -58
t-67.5 -139q0 -65 29 -110.5t75.5 -71t103 -45l113 -39t103 -45t75.5 -71t29 -110.5q0 -119 -83.5 -182t-211.5 -63q-75 0 -157 32.5t-117 77.5q-4 4 -4.5 10.5t4.5 10.5z" />
    <glyph glyph-name="t" unicode="t" horiz-adv-x="698" 
d="M612 55q3 -5 1 -9.5t-5 -6.5q-70 -47 -155 -47q-151 0 -220 89t-69 269v819q0 9 12 9q8 0 8 -9v-247h412q8 0 8 -13q0 -8 -8 -8h-412v-532q0 -181 63.5 -269t205.5 -88q81 0 143 43q11 11 16 0z" />
    <glyph glyph-name="u" unicode="u" horiz-adv-x="1126" 
d="M922 199v714q0 9 12 9q8 0 8 -9v-913q0 -8 -12 -8q-8 0 -8 8v170q-64 -76 -172 -131t-215 -55q-191 0 -281 102.5t-90 319.5v507q0 9 12 9q8 0 8 -9v-501q0 -208 86 -308t269 -100q116 0 225 62t158 133z" />
    <glyph glyph-name="v" unicode="v" horiz-adv-x="954" 
d="M481 20l94 205l312 688q5 9 12 9q4 0 6.5 -5t-0.5 -10l-411 -907q-4 -8 -13 -8q-8 0 -12 8l-422 905q-3 7 0.5 12t9.5 5q7 0 11 -9l321 -696z" />
    <glyph glyph-name="w" unicode="w" horiz-adv-x="1384" 
d="M1085 190l234 723q5 9 12 9q5 0 7 -4.5t1 -10.5l-297 -907q-3 -8 -10 -8t-10 8l-279 764l-47 127l-51 -135l-274 -756q-3 -8 -11 -8q-7 0 -10 8l-303 907q-1 6 1 10.5t7 4.5q7 0 11 -9l247 -739l47 -141l54 141l272 741q4 7 8 7q8 0 11 -7l272 -731l55 -151z" />
    <glyph glyph-name="x" unicode="x" horiz-adv-x="976" 
d="M836 909q10 13 16 13q7 0 8 -7t-6 -16l-352 -426l383 -465q4 -6 2 -11t-8 -5q-7 0 -13 6l-379 459l-376 -457q-8 -8 -15 -8q-2 0 -5 2t-3.5 6t4.5 10l383 463l-356 430q-6 9 -3 14t9 5q5 0 16 -13l346 -420z" />
    <glyph glyph-name="y" unicode="y" horiz-adv-x="954" 
d="M588 176l299 737q5 9 10 9q15 0 10 -15l-372 -907q-67 -163 -123 -253.5t-105 -123.5t-112 -33q-59 0 -123 27q-9 5 -6 14t14 4q63 -26 110 -26q87 0 157.5 78.5t146.5 263.5l20 49l-465 905q-3 6 -0.5 11.5t8.5 5.5q7 0 11 -9l378 -741l78 -152z" />
    <glyph glyph-name="z" unicode="z" horiz-adv-x="972" 
d="M121 0q-6 0 -8 6t2 10l716 885h-690q-8 0 -8 12q0 9 8 9h711q6 0 8 -6t-2 -11l-719 -885h713q8 0 8 -12q0 -8 -8 -8h-731z" />
    <glyph glyph-name="braceleft" unicode="{" horiz-adv-x="573" 
d="M532 -401q0 -9 -8 -9h-86q-213 0 -213 234v426q0 56 -16 97t-42.5 62.5t-56 31.5t-61.5 10q-8 0 -8 12q0 8 8 8q31 2 59 13t56 34.5t44.5 69t16.5 108.5v396q0 116 46.5 177.5t156.5 61.5h96q8 0 8 -12q0 -8 -8 -8h-96q-97 0 -139.5 -53.5t-42.5 -165.5v-396
q0 -99 -42 -161.5t-112 -71.5q70 -8 112 -65t42 -169v-405q0 -213 194 -213h84q8 0 8 -12z" />
    <glyph glyph-name="bar" unicode="|" horiz-adv-x="634" 
d="M328 1425v-1425q0 -8 -13 -8q-8 0 -8 8v1425q0 9 12 9q3 0 6 -3t3 -6z" />
    <glyph glyph-name="braceright" unicode="}" horiz-adv-x="573" 
d="M524 471q8 0 8 -12q0 -8 -8 -8q-32 0 -61.5 -10t-56 -31.5t-42.5 -62.5t-16 -97v-426q0 -234 -213 -234h-86q-8 0 -8 13q0 8 8 8h84q195 0 195 213v405q0 112 41.5 169t111.5 65q-70 9 -111.5 71.5t-41.5 161.5v396q0 112 -43 165.5t-140 53.5h-96q-8 0 -8 12q0 8 8 8h96
q110 0 156.5 -61.5t46.5 -177.5v-396q0 -63 16.5 -108.5t44.5 -69t56 -34.5t59 -13z" />
    <glyph glyph-name="asciitilde" unicode="~" 
d="M371 809q-108 0 -207 -96q-3 -3 -8.5 -3t-8.5 3q-3 1 -3 6t3 8q110 102 228 102q56 0 121.5 -24t116 -53.5t114.5 -53.5t117 -24q95 0 190 88q8 8 15 2q8 -8 0 -16q-100 -95 -207 -95q-55 0 -120 24.5t-116 53.5t-116 53.5t-119 24.5z" />
    <glyph glyph-name="uni00A0" unicode="&#xa0;" horiz-adv-x="512" 
 />
    <glyph glyph-name="exclamdown" unicode="&#xa1;" horiz-adv-x="634" 
d="M319 -496q-10 0 -10 9v1089q0 8 10 8q11 0 11 -8v-1089q0 -9 -11 -9zM346 911q0 -9 -8.5 -16.5t-18.5 -7.5q-9 0 -16.5 7.5t-7.5 16.5q0 10 7.5 18.5t16.5 8.5q11 0 19 -8t8 -19z" />
    <glyph glyph-name="cent" unicode="&#xa2;" 
d="M991 137q7 7 13 0q5 -5 0 -14q-57 -67 -147.5 -103t-188.5 -36v-222q0 -8 -13 -8q-8 0 -8 8v222q-201 9 -326.5 138.5t-125.5 338.5q0 201 130 339t322 138v219q0 8 12 8q9 0 9 -8v-219q204 -7 315 -102q9 -10 0 -19q-6 -6 -12 0q-120 101 -326 101q-178 0 -304 -132.5
t-126 -324.5q0 -208 128.5 -332.5t330.5 -124.5q94 0 178.5 36.5t138.5 96.5z" />
    <glyph glyph-name="sterling" unicode="&#xa3;" 
d="M119 8q68 62 129 86q117 130 117 361q0 74 -21 149h-154q-8 0 -8 10q0 11 8 11h148q-11 35 -45 111.5t-52 148.5t-18 168q0 74 26 143.5t75.5 127t131.5 92t185 34.5q107 0 198.5 -36t149.5 -99q9 -9 2 -17q-7 -7 -16 2q-130 130 -340 130q-93 0 -168.5 -32t-123.5 -85.5
t-73.5 -120t-25.5 -137.5q0 -94 18.5 -166t52 -148t45.5 -116h375q8 0 8 -11q0 -10 -8 -10h-368q18 -77 18 -151q0 -216 -104 -349q49 15 98 15q82 0 235.5 -53.5t229.5 -53.5q120 0 225 97q9 9 16 2t-2 -17q-110 -102 -243 -102q-79 0 -233.5 53t-233.5 53
q-126 0 -238 -104q-11 -7 -16 -2q-8 8 0 16z" />
    <glyph glyph-name="currency" unicode="&#xa4;" 
d="M266 399q-116 128 -116 318q0 186 116 317l-194 197q-7 7 0 14t14 0l195 -194q128 131 319 131q190 0 318 -131l210 209q8 8 15 0t0 -15l-209 -211q117 -136 117 -317q0 -185 -117 -318l199 -200q7 -7 0 -15t-15 0l-198 199q-128 -131 -320 -131q-193 0 -319 129
l-213 -211q-8 -8 -15 0q-7 7 0 14zM600 1161q-129 0 -229 -63t-150.5 -163t-50.5 -218t50.5 -218.5t150.5 -163.5t229 -63t229 63t150.5 163.5t50.5 218.5t-50.5 218t-150.5 163t-229 63z" />
    <glyph glyph-name="yen" unicode="&#xa5;" 
d="M152 326q0 10 8 10h426v307h-426q-8 0 -8 10q0 11 8 11h413l-491 753q-3 6 -1 12.5t9 6.5q8 0 12 -9l494 -761l498 761q4 9 12 9q7 0 9 -6.5t-1 -12.5l-496 -753h414q8 0 8 -11q0 -10 -8 -10h-426v-307h426q8 0 8 -10q0 -11 -8 -11h-426v-315q0 -8 -10 -8t-10 8v315h-426
q-8 0 -8 11z" />
    <glyph glyph-name="brokenbar" unicode="&#xa6;" horiz-adv-x="634" 
d="M328 1423v-512q0 -10 -11 -10q-10 0 -10 10v512q0 11 10 11q11 0 11 -11zM307 10v512q0 10 10 10q11 0 11 -10v-512q0 -10 -11 -10q-10 0 -10 10z" />
    <glyph glyph-name="section" unicode="&#xa7;" horiz-adv-x="1073" 
d="M518 -389q112 0 188 74.5t76 183.5q0 56 -26 104.5t-68.5 81.5t-86.5 55t-91 35q-149 9 -247.5 111.5t-98.5 253.5q0 149 96 250.5t240 113.5q-97 36 -165.5 107t-68.5 172q0 124 81.5 202.5t207.5 78.5q158 0 240 -107q10 -10 2 -18q-7 -7 -17 2q-21 23 -34.5 35.5
t-41.5 30.5t-66.5 27t-86.5 9q-112 0 -188 -74.5t-76 -183.5q0 -58 27 -108t71.5 -83.5t90.5 -55.5t93 -34q146 -11 243 -113t97 -251q0 -147 -96 -249t-240 -116q95 -36 162.5 -106t67.5 -168q0 -124 -81.5 -202.5t-207.5 -78.5q-158 0 -240 107q-10 10 0 18q6 7 15 -2
q21 -23 34.5 -35.5t41.5 -30.5t66.5 -27t86.5 -9zM537 166q143 0 247.5 97.5t104.5 246.5q0 100 -50 180.5t-130.5 123t-171.5 42.5q-142 0 -247.5 -98t-105.5 -248q0 -148 107 -246t246 -98z" />
    <glyph glyph-name="dieresis" unicode="&#xa8;" horiz-adv-x="735" 
d="M123 1292q0 9 8.5 17t18.5 8q9 0 16.5 -8t7.5 -17q0 -10 -7.5 -18t-16.5 -8q-11 0 -19 8t-8 18zM561 1292q0 9 8.5 17t18.5 8q9 0 16.5 -8t7.5 -17q0 -10 -7.5 -18t-16.5 -8q-11 0 -19 8t-8 18z" />
    <glyph glyph-name="copyright" unicode="&#xa9;" horiz-adv-x="2084" 
d="M1032 918q-178 0 -304 -132.5t-126 -324.5q0 -208 128.5 -332.5t330.5 -124.5q94 0 178.5 36.5t138.5 96.5q6 7 13 0q5 -5 0 -14q-57 -67 -146.5 -103t-183.5 -36q-210 0 -344.5 131t-134.5 346q0 132 59 241.5t161.5 172.5t225.5 63q224 0 342 -102q10 -10 0 -19
q-6 -6 -12 0q-120 101 -326 101zM1042 1331q186 0 350 -69.5t279.5 -187.5t182.5 -279.5t67 -341.5t-67 -342t-182.5 -280t-279.5 -187.5t-350 -69.5t-350 69.5t-279.5 188t-182 280t-66.5 341.5q0 240 113 441t315 319t450 118zM1042 -406q182 0 342 68t273 183.5
t178.5 274t65.5 333.5t-65.5 333t-178.5 273.5t-273 183.5t-342 68q-242 0 -439.5 -115.5t-308 -312t-110.5 -430.5q0 -175 65 -333.5t178 -274t273 -183.5t342 -68z" />
    <glyph glyph-name="ordfeminine" unicode="&#xaa;" horiz-adv-x="788" 
d="M385 1327q-48 0 -86.5 -14t-85.5 -47q-9 -9 -16 -2t0 14q38 32 90.5 51t99.5 19q118 0 178 -61t60 -173v-366q0 -11 -11 -11q-10 0 -10 11v106q-88 -121 -254 -121q-101 0 -164 54.5t-63 132.5q0 89 67.5 139.5t180.5 50.5q146 0 233 -61v61q0 106 -56.5 161.5
t-162.5 55.5zM143 920q0 -72 61.5 -120t143.5 -48q90 0 154 37t102 88v149q-41 27 -109 45.5t-126 18.5q-92 0 -159 -45t-67 -125z" />
    <glyph glyph-name="guillemotleft" unicode="&#xab;" horiz-adv-x="960" 
d="M786 123q10 -11 2 -19t-14 2l-330 388q-10 13 -10 20q0 6 10 18l332 381q8 9 15 2t0 -14l-338 -389zM479 123q11 -11 2 -19q-8 -8 -14 2l-330 388q-10 13 -10 20q0 6 10 18l332 381q8 8 14 2q7 -7 0 -14l-338 -389z" />
    <glyph glyph-name="logicalnot" unicode="&#xac;" 
d="M1022 727h-858q-10 0 -10 10q0 11 10 11h868q10 0 10 -11v-268q0 -10 -10 -10t-10 10v258z" />
    <glyph glyph-name="uni00AD" unicode="&#xad;" horiz-adv-x="847" 
d="M633 543h-418q-10 0 -10 10t10 10h418q10 0 10 -10t-10 -10z" />
    <glyph glyph-name="registered" unicode="&#xae;" horiz-adv-x="1081" 
d="M541 598q-173 0 -295.5 122.5t-122.5 295.5t122.5 295.5t295.5 122.5t295 -122.5t122 -295.5t-122 -295.5t-295 -122.5zM541 1413q-164 0 -281 -116.5t-117 -280.5t117 -281t281 -117t280.5 117t116.5 281t-116.5 280.5t-280.5 116.5zM412 995v-247q0 -11 -11 -11
q-10 0 -10 11v552q0 11 10 11h115q195 0 195 -156q0 -56 -41 -101.5t-111 -58.5l199 -237q3 -3 4.5 -8t-0.5 -9t-8 -4q-5 0 -13 8l-206 250h-123zM690 1155q0 64 -45 99.5t-129 35.5h-104v-274h120q58 0 108 38.5t50 100.5z" />
    <glyph glyph-name="macron" unicode="&#xaf;" horiz-adv-x="724" 
d="M592 1311h-459q-10 0 -10 10t10 10h459q10 0 10 -10t-10 -10z" />
    <glyph glyph-name="degree" unicode="&#xb0;" horiz-adv-x="778" 
d="M123 1167q0 110 78 188.5t188 78.5t188 -78.5t78 -188.5t-78 -188t-188 -78t-188 78t-78 188zM143 1167q0 -101 72.5 -173t173.5 -72t173.5 72t72.5 173t-72.5 173.5t-173.5 72.5t-173.5 -72.5t-72.5 -173.5z" />
    <glyph glyph-name="plusminus" unicode="&#xb1;" 
d="M594 537q-8 0 -8 8v325h-424q-8 0 -8 13q0 8 8 8h424v424q0 8 12 8q8 0 8 -8v-424h428q8 0 8 -12q0 -9 -8 -9h-428v-325q0 -8 -12 -8zM1034 399q8 0 8 -12q0 -8 -8 -8h-872q-8 0 -8 12q0 8 8 8h872z" />
    <glyph glyph-name="twosuperior" unicode="&#xb2;" horiz-adv-x="661" 
d="M580 717h-471q-17 0 -17 12q0 7 8 12q9 7 55.5 42t68.5 52t68 56t72 65t61.5 66t54 73t32.5 72.5t14 75.5q0 75 -50 126.5t-144 51.5q-70 0 -130.5 -34.5t-74.5 -102.5q-3 -10 -12 -10q-12 0 -9 14q14 73 80.5 113.5t141.5 40.5q110 0 164.5 -59t54.5 -146
q0 -203 -406 -489q-12 -8 -16 -11h455q10 0 10 -10t-10 -10z" />
    <glyph glyph-name="threesuperior" unicode="&#xb3;" horiz-adv-x="673" 
d="M571 909q0 -91 -70 -145.5t-179 -54.5q-76 0 -139.5 28t-96.5 90q-2 3 -1 8.5t5 6.5q8 4 12 -4q31 -57 92 -83t132 -26q101 0 163 51t62 129q0 71 -59 117.5t-142 46.5h-71q-11 0 -11 10q0 11 11 11h61q68 0 123 50t55 120q0 76 -53.5 116.5t-142.5 40.5q-75 0 -125 -28
t-72 -72q-4 -13 -14 -6q-6 4 -2 16q25 52 81.5 81.5t131.5 29.5q103 0 160 -46.5t57 -131.5q0 -56 -37.5 -106t-102.5 -71q79 -10 125.5 -61.5t46.5 -116.5z" />
    <glyph glyph-name="acute" unicode="&#xb4;" horiz-adv-x="485" 
d="M356 1442q7 -7 0 -17l-211 -272q-9 -13 -16 -6q-7 5 0 16l213 275q9 9 14 4z" />
    <glyph glyph-name="mu" unicode="&#xb5;" horiz-adv-x="1126" 
d="M922 199v714q0 9 12 9q8 0 8 -9v-913q0 -8 -12 -8q-8 0 -8 8v170q-64 -76 -172 -131t-215 -55q-147 0 -233 58.5t-118 182.5v-626q0 -9 -12 -9q-8 0 -8 9v1314q0 9 12 9q8 0 8 -9v-501q0 -208 86 -308t269 -100q116 0 225 62t158 133z" />
    <glyph glyph-name="mu" unicode="&#x3bc;" horiz-adv-x="1126" 
d="M922 199v714q0 9 12 9q8 0 8 -9v-913q0 -8 -12 -8q-8 0 -8 8v170q-64 -76 -172 -131t-215 -55q-147 0 -233 58.5t-118 182.5v-626q0 -9 -12 -9q-8 0 -8 9v1314q0 9 12 9q8 0 8 -9v-501q0 -208 86 -308t269 -100q116 0 225 62t158 133z" />
    <glyph glyph-name="paragraph" unicode="&#xb6;" horiz-adv-x="821" 
d="M154 -360q70 -46 145 -46q70 0 117 22.5t70 66t31.5 91.5t8.5 115v650q-179 2 -291 121t-112 325q0 211 106.5 330t300.5 119h201q8 0 8 -11q0 -10 -8 -10h-184v-1522q0 -75 -11 -129t-37.5 -98.5t-76.5 -67t-123 -22.5q-90 0 -160 53q-3 1 -3.5 6.5t1.5 6.5q6 6 17 0z
" />
    <glyph glyph-name="periodcentered" unicode="&#xb7;" horiz-adv-x="512" 
d="M256 573q-10 0 -18.5 8.5t-8.5 18.5q0 9 8.5 17t18.5 8q9 0 17 -8t8 -17q0 -10 -8 -18.5t-17 -8.5z" />
    <glyph glyph-name="cedilla" unicode="&#xb8;" horiz-adv-x="610" 
d="M283 -410q-74 0 -152 37q-8 4 -4 13q3 10 12 6q74 -35 144 -35q81 0 132.5 33.5t51.5 89.5q0 123 -186 123q-11 0 -11 10v133h21v-123q196 -3 196 -143q0 -64 -55.5 -104t-148.5 -40z" />
    <glyph glyph-name="onesuperior" unicode="&#xb9;" horiz-adv-x="450" 
d="M92 1307q-10 -7 -16 2t4 14l166 113q4 3 8.5 4.5t8 -0.5t3.5 -8v-705q0 -10 -10 -10t-10 10v682z" />
    <glyph glyph-name="ordmasculine" unicode="&#xba;" horiz-adv-x="880" 
d="M123 1036q0 134 91.5 223t225.5 89t226 -89t92 -223t-91.5 -222.5t-226.5 -88.5q-134 0 -225.5 88.5t-91.5 222.5zM143 1036q0 -126 90 -208.5t207 -82.5q121 0 209 82t88 209t-88.5 209t-208.5 82t-208.5 -82t-88.5 -209z" />
    <glyph glyph-name="guillemotright" unicode="&#xbb;" horiz-adv-x="960" 
d="M479 104q-9 8 2 19l334 389l-338 389q-7 7 0 14t15 -2l331 -381q11 -14 11 -18q0 -6 -11 -20l-329 -388q-7 -10 -15 -2zM172 104q-8 8 2 19l334 389l-338 389q-7 7 0 14q6 6 14 -2l332 -381q10 -12 10 -18q0 -7 -10 -20l-330 -388q-6 -10 -14 -2z" />
    <glyph glyph-name="onequarter" unicode="&#xbc;" horiz-adv-x="1296" 
d="M133 1307q-10 -7 -16 2t4 14l166 113q4 3 8.5 4.5t8 -0.5t3.5 -8v-705q0 -10 -10 -10t-10 10v682zM145 -8q-9 -9 -16 -2q-8 8 0 16l1075 1436q6 9 15 4q7 -4 2 -14zM1120 2q0 -10 -10 -10t-10 10v199h-385q-7 0 -10.5 6.5t2.5 17.5l385 484q8 8 12 8q5 0 7.5 -5.5
t-1.5 -11.5l-383 -479h373v230q0 10 10 10t10 -10v-230h125q10 0 10 -10t-10 -10h-125v-199z" />
    <glyph glyph-name="onehalf" unicode="&#xbd;" horiz-adv-x="1327" 
d="M133 1307q-10 -7 -16 2t4 14l166 113q4 3 8.5 4.5t8 -0.5t3.5 -8v-705q0 -10 -10 -10t-10 10v682zM63 -8q-9 -9 -16 -2q-8 8 0 16l1075 1436q6 9 15 4q7 -4 2 -14zM1235 0h-471q-16 0 -16 12q0 8 8 13q10 8 55.5 42t68.5 52t68.5 56t71.5 64.5t61 66t54 72.5t33 72.5
t14 75.5q0 75 -50.5 127t-144.5 52q-70 0 -130.5 -35t-74.5 -103q-2 -10 -12 -10q-11 0 -8 14q14 73 80 113.5t141 40.5q110 0 164.5 -59t54.5 -146q0 -203 -406 -489q-12 -8 -16 -11h455q10 0 10 -10t-10 -10z" />
    <glyph glyph-name="threequarters" unicode="&#xbe;" horiz-adv-x="1357" 
d="M227 -8q-9 -9 -16 -2q-8 8 0 16l1075 1436q6 8 14 4q8 -5 3 -14zM1182 2q0 -10 -11 -10q-10 0 -10 10v199h-385q-7 0 -10.5 6.5t2.5 17.5l385 484q8 8 12 8q5 0 7.5 -5.5t-1.5 -11.5l-383 -479h373v230q0 10 10 10q11 0 11 -10v-230h125q10 0 10 -10t-10 -10h-125v-199z
M571 909q0 -91 -70 -145.5t-179 -54.5q-76 0 -139.5 28t-96.5 90q-2 3 -1 8.5t5 6.5q8 4 12 -4q31 -57 92 -83t132 -26q101 0 163 51t62 129q0 71 -59 117.5t-142 46.5h-71q-11 0 -11 10q0 11 11 11h61q68 0 123 50t55 120q0 76 -53.5 116.5t-142.5 40.5q-75 0 -125 -28
t-72 -72q-4 -13 -14 -6q-6 4 -2 16q25 52 81.5 81.5t131.5 29.5q103 0 160 -46.5t57 -131.5q0 -56 -37.5 -106t-102.5 -71q79 -10 125.5 -61.5t46.5 -116.5z" />
    <glyph glyph-name="questiondown" unicode="&#xbf;" horiz-adv-x="923" 
d="M516 573q0 11 8 11q11 0 11 -9q10 -41 10 -88q0 -64 -24.5 -116.5t-63.5 -90t-86.5 -71.5t-94.5 -69.5t-86 -76t-63.5 -99.5t-24.5 -132q0 -140 102.5 -232t262.5 -92q103 0 196 49t158 136q5 11 15 4q7 -5 2 -14q-58 -88 -159.5 -141.5t-215.5 -53.5q-177 0 -279 98.5
t-102 243.5q0 77 24.5 139t63.5 103.5t86 77t94 68.5t86 68.5t63.5 87t24.5 115.5q0 43 -8 84zM559 911q0 -9 -8.5 -16.5t-18.5 -7.5q-9 0 -16.5 7.5t-7.5 16.5q0 10 7.5 18.5t16.5 8.5q10 0 18.5 -8t8.5 -19z" />
    <glyph glyph-name="Agrave" unicode="&#xc0;" horiz-adv-x="1402" 
d="M1321 -2l-252 569h-737l-250 -569q-3 -6 -10 -6q-5 0 -7.5 4t-1.5 8l621 1415q5 15 16 15q12 0 17 -15l622 -1415q4 -12 -10 -12q-5 0 -8 6zM1061 588l-361 821l-360 -821h721zM748 1540q8 -5 4 -12q-5 -7 -15 -2l-299 172q-10 5 -4 14q3 6 12 2z" />
    <glyph glyph-name="Aacute" unicode="&#xc1;" horiz-adv-x="1402" 
d="M1321 -2l-252 569h-737l-250 -569q-3 -6 -10 -6q-5 0 -7.5 4t-1.5 8l621 1415q5 15 16 15q12 0 17 -15l622 -1415q4 -12 -10 -12q-5 0 -8 6zM1061 588l-361 821l-360 -821h721zM965 1714q9 5 14 -2q4 -8 -6 -14l-299 -172q-10 -5 -15 2q-6 6 5 12z" />
    <glyph glyph-name="Acircumflex" unicode="&#xc2;" horiz-adv-x="1402" 
d="M1321 -2l-252 569h-737l-250 -569q-3 -6 -10 -6q-5 0 -7.5 4t-1.5 8l621 1415q5 15 16 15q12 0 17 -15l622 -1415q4 -12 -10 -12q-5 0 -8 6zM1061 588l-361 821l-360 -821h721zM383 1526q-11 -5 -16 0q-9 9 2 14l323 178q8 4 10 4q7 0 11 -4l321 -178q11 -5 2 -14
q-6 -6 -18 0l-316 174z" />
    <glyph glyph-name="Atilde" unicode="&#xc3;" horiz-adv-x="1402" 
d="M1321 -2l-252 569h-737l-250 -569q-3 -6 -10 -6q-5 0 -7.5 4t-1.5 8l621 1415q5 15 16 15q12 0 17 -15l622 -1415q4 -12 -10 -12q-5 0 -8 6zM1061 588l-361 821l-360 -821h721zM522 1645q-66 0 -127 -50q-8 -6 -14 0q-8 8 2 15q68 55 145 55q63 0 173.5 -51t164.5 -51
q79 0 142 63q8 8 14 2q7 -7 -2 -16q-73 -70 -154 -70q-58 0 -172 51.5t-172 51.5z" />
    <glyph glyph-name="Adieresis" unicode="&#xc4;" horiz-adv-x="1402" 
d="M1321 -2l-252 569h-737l-250 -569q-3 -6 -10 -6q-5 0 -7.5 4t-1.5 8l621 1415q5 15 16 15q12 0 17 -15l622 -1415q4 -12 -10 -12q-5 0 -8 6zM1061 588l-361 821l-360 -821h721zM463 1591q-11 0 -19 7.5t-8 19.5q0 10 8 17t19 7q9 0 16.5 -7t7.5 -17q0 -12 -7.5 -19.5
t-16.5 -7.5zM942 1591q-11 0 -19 7.5t-8 19.5q0 10 8 17t19 7q10 0 17.5 -6.5t7.5 -17.5q0 -12 -7.5 -19.5t-17.5 -7.5z" />
    <glyph glyph-name="Aring" unicode="&#xc5;" horiz-adv-x="1402" 
d="M82 -2q-3 -6 -10 -6q-5 0 -7.5 4t-1.5 8l625 1423q-77 3 -126.5 45.5t-49.5 114.5q0 75 53 114.5t135 39.5q83 0 137 -39.5t54 -114.5q0 -72 -49.5 -114.5t-126.5 -45.5l624 -1423q2 -5 -1 -8.5t-9 -3.5q-5 0 -8 6l-252 569h-737zM1061 588l-361 821l-360 -821h721z
M532 1587q0 -68 46.5 -103.5t121.5 -35.5q76 2 123 37.5t47 101.5q0 67 -47 100t-123 33q-75 0 -121.5 -33t-46.5 -100z" />
    <glyph glyph-name="AE" unicode="&#xc6;" horiz-adv-x="1978" 
d="M1067 721v-701h760q8 0 8 -10t-8 -10h-758q-9 0 -15.5 7t-6.5 16v561h-586l-416 -586q-6 -6 -12 -6t-8.5 5t0.5 9l1005 1409q12 19 37 19h739q9 0 9 -11q0 -10 -9 -10h-739v-672h678q8 0 8 -10t-8 -10h-678zM1047 604v801l-572 -801h572z" />
    <glyph glyph-name="Ccedilla" unicode="&#xc7;" horiz-adv-x="1345" 
d="M815 -410q-73 0 -151 37q-9 5 -5 13q4 11 13 6q74 -35 143 -35q81 0 132.5 33.5t51.5 89.5q0 123 -186 123q-10 0 -10 10v119q-306 8 -493 206.5t-187 524.5q0 153 50.5 288.5t140.5 234t220 155.5t281 57q251 0 414 -125q3 -2 4 -6.5t-2 -7.5t-8.5 -3t-8.5 3
q-151 119 -397 119q-199 0 -354 -96t-237.5 -258.5t-82.5 -360.5q0 -212 86.5 -374.5t242 -250.5t355.5 -88q242 0 416 143q8 4 14 -2q3 -3 2 -7.5t-4 -6.5q-77 -69 -192.5 -108t-235.5 -39h-4v-107q197 -3 197 -143q0 -64 -56 -104t-149 -40z" />
    <glyph glyph-name="Egrave" unicode="&#xc8;" horiz-adv-x="1177" 
d="M266 20h760q8 0 8 -10t-8 -10h-758q-9 0 -15.5 7t-6.5 16v1388q0 9 6.5 16t15.5 7h738q8 0 8 -11q0 -10 -8 -10h-740v-672h678q8 0 8 -10t-8 -10h-678v-701zM727 1540q7 -5 4 -12q-5 -7 -14 -2l-299 172q-10 5 -4 14q3 6 12 2z" />
    <glyph glyph-name="Eacute" unicode="&#xc9;" horiz-adv-x="1177" 
d="M266 20h760q8 0 8 -10t-8 -10h-758q-9 0 -15.5 7t-6.5 16v1388q0 9 6.5 16t15.5 7h738q8 0 8 -11q0 -10 -8 -10h-740v-672h678q8 0 8 -10t-8 -10h-678v-701zM821 1714q10 5 15 -2q4 -7 -7 -14l-299 -172q-10 -5 -14 2q-7 7 4 12z" />
    <glyph glyph-name="Ecircumflex" unicode="&#xca;" horiz-adv-x="1177" 
d="M266 20h760q8 0 8 -10t-8 -10h-758q-9 0 -15.5 7t-6.5 16v1388q0 9 6.5 16t15.5 7h738q8 0 8 -11q0 -10 -8 -10h-740v-672h678q8 0 8 -10t-8 -10h-678v-701zM315 1526q-11 -5 -16 0q-9 9 2 14l324 178q8 4 10 4q6 0 10 -4l322 -178q11 -5 2 -14q-6 -6 -19 0l-315 174z
" />
    <glyph glyph-name="Edieresis" unicode="&#xcb;" horiz-adv-x="1177" 
d="M266 20h760q8 0 8 -10t-8 -10h-758q-9 0 -15.5 7t-6.5 16v1388q0 9 6.5 16t15.5 7h738q8 0 8 -11q0 -10 -8 -10h-740v-672h678q8 0 8 -10t-8 -10h-678v-701zM395 1591q-11 0 -18.5 7.5t-7.5 19.5q0 10 7.5 17t18.5 7q9 0 17 -7t8 -17q0 -12 -8 -19.5t-17 -7.5zM874 1591
q-11 0 -18.5 7.5t-7.5 19.5q0 10 7.5 17t18.5 7q10 0 17.5 -6.5t7.5 -17.5q0 -12 -7.5 -19.5t-17.5 -7.5z" />
    <glyph glyph-name="Igrave" unicode="&#xcc;" horiz-adv-x="634" 
d="M317 1436q4 0 7.5 -4t3.5 -7v-1425q0 -8 -11 -8q-10 0 -10 8v1425q0 11 10 11zM338 1540q8 -5 4 -12t-14 -2l-299 172q-10 5 -4 14q3 6 12 2z" />
    <glyph glyph-name="Iacute" unicode="&#xcd;" horiz-adv-x="634" 
d="M317 1436q4 0 7.5 -4t3.5 -7v-1425q0 -8 -11 -8q-10 0 -10 8v1425q0 11 10 11zM596 1714q10 5 14 -2q4 -8 -6 -14l-299 -172q-9 -5 -14 2q-7 7 4 12z" />
    <glyph glyph-name="Icircumflex" unicode="&#xce;" horiz-adv-x="634" 
d="M317 1436q4 0 7.5 -4t3.5 -7v-1425q0 -8 -11 -8q-10 0 -10 8v1425q0 11 10 11zM0 1526q-11 -5 -16 0q-9 9 2 14l323 178q8 4 10 4q7 0 11 -4l321 -178q11 -5 2 -14q-6 -6 -18 0l-316 174z" />
    <glyph glyph-name="Idieresis" unicode="&#xcf;" horiz-adv-x="634" 
d="M317 1436q4 0 7.5 -4t3.5 -7v-1425q0 -8 -11 -8q-10 0 -10 8v1425q0 11 10 11zM80 1591q-11 0 -19 7.5t-8 19.5q0 10 8 17t19 7q9 0 16.5 -7t7.5 -17q0 -12 -7.5 -19.5t-16.5 -7.5zM559 1591q-11 0 -19 7.5t-8 19.5q0 10 8 17t19 7q10 0 17.5 -6.5t7.5 -17.5
q0 -12 -8 -19.5t-17 -7.5z" />
    <glyph glyph-name="Eth" unicode="&#xd0;" horiz-adv-x="1564" 
d="M330 1434q53 0 143.5 3t163.5 3q167 0 303 -37.5t228.5 -102t155 -154t90.5 -191t28 -214.5q0 -157 -52 -291.5t-152.5 -236t-258.5 -159.5t-358 -58q-61 0 -154 2t-137 2q-9 0 -16 7t-7 16v704h-278q-9 0 -9 10q0 11 9 11h278v663q0 9 7 16t16 7zM756 727h-428v-707h62
t60 -0.5t54.5 -1t47.5 -1t37 -1t25 -0.5h9q196 0 350.5 57.5t251 157.5t146.5 229.5t50 280.5q0 111 -27 209t-87.5 185t-150.5 149.5t-224 98.5t-299 36q-73 0 -165 -3t-140 -3v-665h428q8 0 8 -11q0 -10 -8 -10z" />
    <glyph glyph-name="Ntilde" unicode="&#xd1;" horiz-adv-x="1638" 
d="M1372 25v1400q0 11 10 11q4 0 7.5 -4t3.5 -7v-1427q0 -10 -11 -10q-8 0 -12 6l-1104 1409v-1403q0 -8 -10 -8t-10 8v1432q0 10 8 10t12 -6zM649 1645q-66 0 -127 -50q-8 -6 -14 0q-8 8 2 15q68 55 145 55q63 0 173.5 -51t164.5 -51q79 0 142 63q8 8 14 2q7 -7 -2 -16
q-73 -70 -154 -70q-59 0 -172 51.5t-172 51.5z" />
    <glyph glyph-name="Ograve" unicode="&#xd2;" horiz-adv-x="1646" 
d="M123 717q0 205 92 373t252.5 264t355.5 96t355.5 -96t253 -264t92.5 -373t-92.5 -373t-253 -264t-355.5 -96t-355.5 96t-252.5 264t-92 373zM143 717q0 -150 52.5 -282.5t143 -227t216.5 -149t268 -54.5t268 54.5t216.5 149t143 227t52.5 282.5t-52.5 282.5t-143 227
t-216.5 149t-268 54.5t-268 -54.5t-216.5 -149t-143 -227t-52.5 -282.5zM973 1540q7 -5 4 -12q-5 -7 -14 -2l-299 172q-11 5 -5 14q1 3 5.5 3.5t7.5 -1.5z" />
    <glyph glyph-name="Oacute" unicode="&#xd3;" horiz-adv-x="1646" 
d="M123 717q0 205 92 373t252.5 264t355.5 96t355.5 -96t253 -264t92.5 -373t-92.5 -373t-253 -264t-355.5 -96t-355.5 96t-252.5 264t-92 373zM143 717q0 -150 52.5 -282.5t143 -227t216.5 -149t268 -54.5t268 54.5t216.5 149t143 227t52.5 282.5t-52.5 282.5t-143 227
t-216.5 149t-268 54.5t-268 -54.5t-216.5 -149t-143 -227t-52.5 -282.5zM1026 1714q10 5 14 -2q4 -8 -6 -14l-299 -172q-9 -5 -14 2q-7 7 4 12z" />
    <glyph glyph-name="Ocircumflex" unicode="&#xd4;" horiz-adv-x="1646" 
d="M123 717q0 205 92 373t252.5 264t355.5 96t355.5 -96t253 -264t92.5 -373t-92.5 -373t-253 -264t-355.5 -96t-355.5 96t-252.5 264t-92 373zM143 717q0 -150 52.5 -282.5t143 -227t216.5 -149t268 -54.5t268 54.5t216.5 149t143 227t52.5 282.5t-52.5 282.5t-143 227
t-216.5 149t-268 54.5t-268 -54.5t-216.5 -149t-143 -227t-52.5 -282.5zM514 1526q-11 -5 -16 0q-9 9 2 14l323 178q8 4 11 4q6 0 10 -4l321 -178q11 -5 2 -14q-6 -6 -18 0l-315 174z" />
    <glyph glyph-name="Otilde" unicode="&#xd5;" horiz-adv-x="1646" 
d="M123 717q0 205 92 373t252.5 264t355.5 96t355.5 -96t253 -264t92.5 -373t-92.5 -373t-253 -264t-355.5 -96t-355.5 96t-252.5 264t-92 373zM143 717q0 -150 52.5 -282.5t143 -227t216.5 -149t268 -54.5t268 54.5t216.5 149t143 227t52.5 282.5t-52.5 282.5t-143 227
t-216.5 149t-268 54.5t-268 -54.5t-216.5 -149t-143 -227t-52.5 -282.5zM653 1645q-66 0 -127 -50q-8 -6 -14 0q-8 8 2 15q68 55 145 55q63 0 173.5 -51t164.5 -51q79 0 142 63q8 8 14 2q7 -7 -2 -16q-73 -70 -154 -70q-59 0 -172 51.5t-172 51.5z" />
    <glyph glyph-name="Odieresis" unicode="&#xd6;" horiz-adv-x="1646" 
d="M123 717q0 205 92 373t252.5 264t355.5 96t355.5 -96t253 -264t92.5 -373t-92.5 -373t-253 -264t-355.5 -96t-355.5 96t-252.5 264t-92 373zM143 717q0 -150 52.5 -282.5t143 -227t216.5 -149t268 -54.5t268 54.5t216.5 149t143 227t52.5 282.5t-52.5 282.5t-143 227
t-216.5 149t-268 54.5t-268 -54.5t-216.5 -149t-143 -227t-52.5 -282.5zM590 1591q-11 0 -19 7.5t-8 19.5q0 10 8 17t19 7q9 0 16.5 -7t7.5 -17q0 -12 -7.5 -19.5t-16.5 -7.5zM1069 1591q-11 0 -19 7.5t-8 19.5q0 10 8 17t19 7q10 0 17.5 -6.5t7.5 -17.5q0 -12 -8 -19.5
t-17 -7.5z" />
    <glyph glyph-name="multiply" unicode="&#xd7;" 
d="M584 737l-297 299q-7 8 0 15t14 0l297 -299l297 299q7 7 14 0t0 -15l-297 -299l301 -299q7 -7 0 -14t-14 0l-301 299l-301 -299q-7 -7 -14 0t0 14z" />
    <glyph glyph-name="Oslash" unicode="&#xd8;" horiz-adv-x="1646" 
d="M297 225q-174 206 -174 492q0 205 92 373t252.5 264t355.5 96q148 0 279 -58t227 -161l105 102q8 8 14 2q7 -7 0 -14l-107 -104q88 -98 135.5 -226t47.5 -274q0 -205 -92.5 -373t-253 -264t-355.5 -96q-152 0 -283.5 59t-228.5 166l-98 -98q-8 -8 -16 0t0 16zM823 4
q142 0 268 54.5t216.5 149t143 227t52.5 282.5q0 284 -176 485l-1001 -979q94 -105 221.5 -162t275.5 -57zM823 1430q-142 0 -268 -54.5t-216.5 -149t-143 -227t-52.5 -282.5q0 -279 168 -477l1004 977q-94 101 -220.5 157t-271.5 56z" />
    <glyph glyph-name="Ugrave" unicode="&#xd9;" horiz-adv-x="1538" 
d="M788 8q84 0 158 21.5t138 68.5t110 116.5t72 170.5t26 225v815q0 3 3.5 7t7.5 4q10 0 10 -11v-821q0 -159 -42 -280t-115.5 -193t-166 -107.5t-201.5 -35.5q-120 0 -222 40t-178.5 117t-119.5 198t-43 275v807q0 3 3.5 7t7.5 4q10 0 10 -11v-809q0 -147 41.5 -263.5
t115 -191.5t172 -114t213.5 -39zM891 1540q7 -5 4 -12q-5 -7 -14 -2l-299 172q-10 5 -4 14q3 6 12 2z" />
    <glyph glyph-name="Uacute" unicode="&#xda;" horiz-adv-x="1538" 
d="M788 8q84 0 158 21.5t138 68.5t110 116.5t72 170.5t26 225v815q0 3 3.5 7t7.5 4q10 0 10 -11v-821q0 -159 -42 -280t-115.5 -193t-166 -107.5t-201.5 -35.5q-120 0 -222 40t-178.5 117t-119.5 198t-43 275v807q0 3 3.5 7t7.5 4q10 0 10 -11v-809q0 -147 41.5 -263.5
t115 -191.5t172 -114t213.5 -39zM965 1714q9 5 14 -2q4 -8 -6 -14l-299 -172q-10 -5 -15 2q-6 6 5 12z" />
    <glyph glyph-name="Ucircumflex" unicode="&#xdb;" horiz-adv-x="1538" 
d="M788 8q84 0 158 21.5t138 68.5t110 116.5t72 170.5t26 225v815q0 3 3.5 7t7.5 4q10 0 10 -11v-821q0 -159 -42 -280t-115.5 -193t-166 -107.5t-201.5 -35.5q-120 0 -222 40t-178.5 117t-119.5 198t-43 275v807q0 3 3.5 7t7.5 4q10 0 10 -11v-809q0 -147 41.5 -263.5
t115 -191.5t172 -114t213.5 -39zM451 1526q-11 -6 -17 0q-9 9 2 14l324 178q8 4 10 4q6 0 10 -4l322 -178q11 -5 2 -14q-6 -6 -19 0l-315 174z" />
    <glyph glyph-name="Udieresis" unicode="&#xdc;" horiz-adv-x="1538" 
d="M788 8q84 0 158 21.5t138 68.5t110 116.5t72 170.5t26 225v815q0 3 3.5 7t7.5 4q10 0 10 -11v-821q0 -159 -42 -280t-115.5 -193t-166 -107.5t-201.5 -35.5q-120 0 -222 40t-178.5 117t-119.5 198t-43 275v807q0 3 3.5 7t7.5 4q10 0 10 -11v-809q0 -147 41.5 -263.5
t115 -191.5t172 -114t213.5 -39zM528 1591q-11 0 -18.5 7.5t-7.5 19.5q0 10 7.5 17t18.5 7q9 0 17 -7t8 -17q0 -12 -7.5 -19.5t-17.5 -7.5zM1008 1591q-11 0 -19 7.5t-8 19.5q0 10 8 17t19 7q10 0 17 -6.5t7 -17.5q0 -12 -7.5 -19.5t-16.5 -7.5z" />
    <glyph glyph-name="Yacute" unicode="&#xdd;" horiz-adv-x="1134" 
d="M61 1436q7 0 11 -9l493 -761l498 761q5 9 12 9q6 0 9 -6.5t-1 -12.5l-508 -772v-645q0 -8 -10 -8t-10 8v645l-504 772q-3 6 0 12.5t10 6.5zM780 1714q10 5 15 -2q3 -7 -7 -14l-299 -172q-9 -5 -14 2q-7 7 4 12z" />
    <glyph glyph-name="Thorn" unicode="&#xde;" horiz-adv-x="1161" 
d="M557 1212q111 0 197 -24t138.5 -63.5t86 -94.5t46.5 -111t13 -120q0 -82 -27.5 -154.5t-84 -133.5t-156.5 -96.5t-233 -35.5q-114 0 -271 10v-389q0 -8 -10 -8t-10 8v1425q0 11 10 11t10 -11v-217q46 0 155 2t136 2zM266 1188v-778q172 -11 269 -11q122 0 216.5 31.5
t151.5 87t86 127t29 156.5q0 83 -25 151.5t-77.5 123.5t-143.5 85.5t-213 30.5q-157 0 -293 -4z" />
    <glyph glyph-name="germandbls" unicode="&#xdf;" horiz-adv-x="1097" 
d="M406 152q5 2 9.5 0.5t6.5 -5.5q39 -56 105 -99.5t151 -43.5q109 0 192.5 80.5t83.5 204.5q0 61 -25 111.5t-65.5 85.5t-89 66t-97 60.5t-89 61t-65.5 75t-25 95.5q0 48 25 89.5t60.5 72.5t71.5 63t61 75t25 93q0 85 -68 139t-159 54q-147 0 -218 -90.5t-71 -286.5v-1053
q0 -8 -12 -8q-8 0 -8 8v1071q0 379 309 379q105 0 176.5 -59.5t71.5 -153.5q0 -46 -18 -86.5t-45 -68t-59 -56.5t-59 -53t-45 -57.5t-18 -69.5q0 -51 25 -93t65.5 -72t89 -58.5t97.5 -59t89.5 -66.5t65.5 -88.5t25 -117.5q0 -136 -86 -221.5t-209 -85.5q-95 0 -167.5 44.5
t-109.5 106.5q-5 9 3 17z" />
    <glyph glyph-name="agrave" unicode="&#xe0;" horiz-adv-x="933" 
d="M453 524q184 0 297 -82q0 88 -2 136.5t-11 113t-28.5 98t-52.5 67.5t-86.5 47.5t-127.5 13.5q-73 0 -128.5 -17.5t-125.5 -58.5q-10 -5 -14 2q-2 1 -1 6t5 8q131 80 268 80q176 0 250 -90.5t74 -269.5v-578q0 -8 -10 -8t-10 8v174q-130 -182 -361 -182q-130 0 -208.5 70
t-78.5 186q0 132 98 204t253 72zM750 416q-125 88 -301 88q-61 0 -117.5 -15t-104 -44.5t-76 -80t-28.5 -114.5q0 -111 75 -174.5t189 -63.5q73 0 133 17.5t103.5 49t71 60.5t55.5 68v209zM541 1163q7 -7 -2 -12q-7 -7 -15 2l-211 272q-6 9 0 15q8 8 15 -2z" />
    <glyph glyph-name="aacute" unicode="&#xe1;" horiz-adv-x="933" 
d="M453 524q184 0 297 -82q0 88 -2 136.5t-11 113t-28.5 98t-52.5 67.5t-86.5 47.5t-127.5 13.5q-73 0 -128.5 -17.5t-125.5 -58.5q-10 -5 -14 2q-2 1 -1 6t5 8q131 80 268 80q176 0 250 -90.5t74 -269.5v-578q0 -8 -10 -8t-10 8v174q-130 -182 -361 -182q-130 0 -208.5 70
t-78.5 186q0 132 98 204t253 72zM750 416q-125 88 -301 88q-61 0 -117.5 -15t-104 -44.5t-76 -80t-28.5 -114.5q0 -111 75 -174.5t189 -63.5q73 0 133 17.5t103.5 49t71 60.5t55.5 68v209zM623 1442q7 -7 0 -17l-211 -272q-3 -5 -8.5 -7t-8.5 1q-7 5 0 16l213 275q4 4 9 5
t6 -1z" />
    <glyph glyph-name="acircumflex" unicode="&#xe2;" horiz-adv-x="933" 
d="M453 524q184 0 297 -82q0 88 -2 136.5t-11 113t-28.5 98t-52.5 67.5t-86.5 47.5t-127.5 13.5q-73 0 -128.5 -17.5t-125.5 -58.5q-10 -5 -14 2q-2 1 -1 6t5 8q131 80 268 80q176 0 250 -90.5t74 -269.5v-578q0 -8 -10 -8t-10 8v174q-130 -182 -361 -182q-130 0 -208.5 70
t-78.5 186q0 132 98 204t253 72zM750 416q-125 88 -301 88q-61 0 -117.5 -15t-104 -44.5t-76 -80t-28.5 -114.5q0 -111 75 -174.5t189 -63.5q73 0 133 17.5t103.5 49t71 60.5t55.5 68v209zM233 1192l228 254q4 4 8 4t8 -4l221 -254q6 -8 0 -14q-7 -7 -14 0l-215 245
l-219 -245q-8 -8 -17 0q-7 7 0 14z" />
    <glyph glyph-name="atilde" unicode="&#xe3;" horiz-adv-x="933" 
d="M453 524q184 0 297 -82q0 88 -2 136.5t-11 113t-28.5 98t-52.5 67.5t-86.5 47.5t-127.5 13.5q-73 0 -128.5 -17.5t-125.5 -58.5q-10 -5 -14 2q-2 1 -1 6t5 8q131 80 268 80q176 0 250 -90.5t74 -269.5v-578q0 -8 -10 -8t-10 8v174q-130 -182 -361 -182q-130 0 -208.5 70
t-78.5 186q0 132 98 204t253 72zM750 416q-125 88 -301 88q-61 0 -117.5 -15t-104 -44.5t-76 -80t-28.5 -114.5q0 -111 75 -174.5t189 -63.5q73 0 133 17.5t103.5 49t71 60.5t55.5 68v209zM354 1298q-63 0 -151 -71q-8 -5 -13 0q-7 7 0 14q98 78 170 78q32 0 63.5 -15.5
t52.5 -34.5t49.5 -34.5t56.5 -15.5q61 0 149 81q7 7 14 0t0 -14q-96 -88 -167 -88q-30 0 -60 15.5t-51 34.5t-51.5 34.5t-61.5 15.5z" />
    <glyph glyph-name="adieresis" unicode="&#xe4;" horiz-adv-x="933" 
d="M453 524q184 0 297 -82q0 88 -2 136.5t-11 113t-28.5 98t-52.5 67.5t-86.5 47.5t-127.5 13.5q-73 0 -128.5 -17.5t-125.5 -58.5q-10 -5 -14 2q-2 1 -1 6t5 8q131 80 268 80q176 0 250 -90.5t74 -269.5v-578q0 -8 -10 -8t-10 8v174q-130 -182 -361 -182q-130 0 -208.5 70
t-78.5 186q0 132 98 204t253 72zM750 416q-125 88 -301 88q-61 0 -117.5 -15t-104 -44.5t-76 -80t-28.5 -114.5q0 -111 75 -174.5t189 -63.5q73 0 133 17.5t103.5 49t71 60.5t55.5 68v209zM203 1292q0 9 8 17t18 8q9 0 17 -8t8 -17q0 -10 -8 -18t-17 -8q-11 0 -18.5 8
t-7.5 18zM641 1292q0 9 8.5 17t18.5 8q9 0 16.5 -8t7.5 -17q0 -10 -7.5 -18t-16.5 -8q-11 0 -19 8t-8 18z" />
    <glyph glyph-name="aring" unicode="&#xe5;" horiz-adv-x="933" 
d="M453 524q184 0 297 -82q0 88 -2 136.5t-11 113t-28.5 98t-52.5 67.5t-86.5 47.5t-127.5 13.5q-73 0 -128.5 -17.5t-125.5 -58.5q-10 -5 -14 2q-2 1 -1 6t5 8q131 80 268 80q176 0 250 -90.5t74 -269.5v-578q0 -8 -10 -8t-10 8v174q-130 -182 -361 -182q-130 0 -208.5 70
t-78.5 186q0 132 98 204t253 72zM750 416q-125 88 -301 88q-61 0 -117.5 -15t-104 -44.5t-76 -80t-28.5 -114.5q0 -111 75 -174.5t189 -63.5q73 0 133 17.5t103.5 49t71 60.5t55.5 68v209zM258 1260q0 78 55 134t133 56t134.5 -56t56.5 -134t-56.5 -133.5t-134.5 -55.5
t-133 55.5t-55 133.5zM279 1260q0 -71 48.5 -119.5t118.5 -48.5q71 0 120.5 49t49.5 119t-50 120t-120 50t-118.5 -49.5t-48.5 -120.5z" />
    <glyph glyph-name="ae" unicode="&#xe6;" horiz-adv-x="1656" 
d="M188 842q-8 -5 -12.5 3t6.5 15q130 78 264 78q131 0 205 -52t101 -153q118 205 385 205q180 0 293.5 -112.5t113.5 -297.5q0 -18 -2 -28q-3 -19 -18 -19h-754v-268q57 -100 159 -154.5t236 -54.5q95 0 179.5 36.5t138.5 96.5q8 8 14 2q7 -7 -2 -16q-57 -67 -146.5 -103
t-183.5 -36q-132 0 -237 52.5t-168 149.5q-67 -92 -155 -143t-216 -51q-130 0 -208.5 70t-78.5 186q0 132 98 204t253 72q145 0 297 -20q13 212 -55 313t-253 101q-73 0 -128.5 -17.5t-125.5 -58.5zM1524 502q3 191 -106 303.5t-290 112.5q-131 0 -225 -56t-145 -155
q12 -59 12 -129v-76h754zM750 481q-174 23 -301 23q-61 0 -117.5 -15t-104 -44.5t-76 -80t-28.5 -114.5q0 -111 75 -174.5t189 -63.5q73 0 133 17.5t103.5 49t71 60.5t55.5 68v274z" />
    <glyph glyph-name="ccedilla" unicode="&#xe7;" horiz-adv-x="1007" 
d="M590 -410q-74 0 -152 37q-8 4 -4 13q3 10 12 6q74 -35 144 -35q81 0 132.5 33.5t51.5 89.5q0 123 -186 123q-10 0 -10 10v117q-205 5 -335 135t-130 342q0 132 59 241.5t161.5 172.5t225.5 63q224 0 342 -102q9 -10 0 -19q-6 -6 -12 0q-120 101 -326 101
q-178 0 -304 -132.5t-126 -324.5q0 -208 128.5 -332.5t330.5 -124.5q94 0 178.5 36.5t138.5 96.5q7 7 13 0q5 -5 0 -14q-56 -66 -143 -101.5t-181 -37.5v-107q197 -3 197 -143q0 -64 -56 -104t-149 -40z" />
    <glyph glyph-name="egrave" unicode="&#xe8;" horiz-adv-x="1083" 
d="M950 481h-817q0 -220 124 -348.5t335 -128.5q94 0 178.5 36.5t138.5 96.5q7 7 13 0q5 -5 0 -14q-57 -67 -146.5 -103t-183.5 -36q-210 0 -344.5 131t-134.5 346q0 102 28 188t82.5 151t141.5 101.5t198 36.5q180 0 294 -113t114 -297q0 -18 -2 -28q0 -8 -5.5 -13.5
t-13.5 -5.5zM555 918q-190 0 -300.5 -115.5t-121.5 -300.5h817q3 191 -105.5 303.5t-289.5 112.5zM594 1163q7 -7 -2 -12q-6 -6 -14 2l-211 272q-6 9 0 15q8 8 14 -2z" />
    <glyph glyph-name="eacute" unicode="&#xe9;" horiz-adv-x="1083" 
d="M950 481h-817q0 -220 124 -348.5t335 -128.5q94 0 178.5 36.5t138.5 96.5q7 7 13 0q5 -5 0 -14q-57 -67 -146.5 -103t-183.5 -36q-210 0 -344.5 131t-134.5 346q0 102 28 188t82.5 151t141.5 101.5t198 36.5q180 0 294 -113t114 -297q0 -18 -2 -28q0 -8 -5.5 -13.5
t-13.5 -5.5zM555 918q-190 0 -300.5 -115.5t-121.5 -300.5h817q3 191 -105.5 303.5t-289.5 112.5zM758 1442q7 -7 0 -17l-211 -272q-3 -5 -8.5 -7t-8.5 1q-7 5 0 16l213 275q4 4 9 5t6 -1z" />
    <glyph glyph-name="ecircumflex" unicode="&#xea;" horiz-adv-x="1083" 
d="M950 481h-817q0 -220 124 -348.5t335 -128.5q94 0 178.5 36.5t138.5 96.5q7 7 13 0q5 -5 0 -14q-57 -67 -146.5 -103t-183.5 -36q-210 0 -344.5 131t-134.5 346q0 102 28 188t82.5 151t141.5 101.5t198 36.5q180 0 294 -113t114 -297q0 -18 -2 -28q0 -8 -5.5 -13.5
t-13.5 -5.5zM555 918q-190 0 -300.5 -115.5t-121.5 -300.5h817q3 191 -105.5 303.5t-289.5 112.5zM328 1192l227 254q4 4 8 4t8 -4l222 -254q6 -8 0 -14q-7 -8 -15 0l-215 245l-219 -245q-8 -8 -16 0q-7 7 0 14z" />
    <glyph glyph-name="edieresis" unicode="&#xeb;" horiz-adv-x="1083" 
d="M950 481h-817q0 -220 124 -348.5t335 -128.5q94 0 178.5 36.5t138.5 96.5q7 7 13 0q5 -5 0 -14q-57 -67 -146.5 -103t-183.5 -36q-210 0 -344.5 131t-134.5 346q0 102 28 188t82.5 151t141.5 101.5t198 36.5q180 0 294 -113t114 -297q0 -18 -2 -28q0 -8 -5.5 -13.5
t-13.5 -5.5zM555 918q-190 0 -300.5 -115.5t-121.5 -300.5h817q3 191 -105.5 303.5t-289.5 112.5zM295 1292q0 9 8.5 17t18.5 8q9 0 16.5 -8t7.5 -17q0 -10 -7.5 -18t-16.5 -8q-11 0 -19 8t-8 18zM733 1292q0 9 8.5 17t18.5 8q9 0 16.5 -8t7.5 -17q0 -10 -7.5 -18t-16.5 -8
q-11 0 -19 8t-8 18z" />
    <glyph glyph-name="igrave" unicode="&#xec;" horiz-adv-x="512" 
d="M266 913v-913q0 -8 -12 -8q-8 0 -8 8v913q0 9 12 9q8 0 8 -9zM289 1163q7 -7 -2 -12q-7 -7 -15 2l-211 272q-6 9 0 15q8 8 15 -2z" />
    <glyph glyph-name="iacute" unicode="&#xed;" horiz-adv-x="512" 
d="M266 913v-913q0 -8 -12 -8q-8 0 -8 8v913q0 9 12 9q8 0 8 -9zM453 1442q7 -7 0 -17l-211 -272q-3 -5 -8.5 -7t-8.5 1q-7 5 0 16l213 275q4 4 9 5t6 -1z" />
    <glyph glyph-name="icircumflex" unicode="&#xee;" horiz-adv-x="512" 
d="M266 913v-913q0 -8 -12 -8q-8 0 -8 8v913q0 9 12 9q8 0 8 -9zM25 1192l227 254q4 4 8 4t8 -4l221 -254q6 -8 0 -14q-7 -7 -14 0l-215 245l-219 -245q-8 -8 -16 0q-7 7 0 14z" />
    <glyph glyph-name="idieresis" unicode="&#xef;" horiz-adv-x="512" 
d="M266 913v-913q0 -8 -12 -8q-8 0 -8 8v913q0 9 12 9q8 0 8 -9zM12 1292q0 9 8.5 17t18.5 8q9 0 16.5 -8t7.5 -17q0 -10 -7.5 -18t-16.5 -8q-11 0 -19 8t-8 18zM451 1292q0 9 8 17t18 8q9 0 17 -8t8 -17q0 -10 -8 -18t-17 -8q-11 0 -18.5 8t-7.5 18z" />
    <glyph glyph-name="eth" unicode="&#xf0;" horiz-adv-x="1167" 
d="M584 938q149 0 264.5 -78.5t177.5 -218.5q-24 188 -116 351.5t-230 279.5l-240 -137q-1 -2 -5 -1t-7 5q-5 5 2 12l236 135q-116 94 -250 144q-10 5 -4 14q5 9 26 2q135 -58 246 -150l205 119q9 5 14 -2q6 -9 -4 -14l-199 -115q167 -144 261 -344t94 -420
q0 -244 -131.5 -390t-339.5 -146q-205 0 -338 135t-133 342t133 342t338 135zM584 4q200 0 325 141.5t125 380.5q-9 70 -43.5 138.5t-90 125.5t-138.5 92.5t-178 35.5q-198 0 -324.5 -128.5t-126.5 -328.5t126.5 -328.5t324.5 -128.5z" />
    <glyph glyph-name="ntilde" unicode="&#xf1;" horiz-adv-x="1134" 
d="M205 741v-741q0 -8 -12 -8q-9 0 -9 8v913q0 9 13 9q8 0 8 -9v-143q59 71 165.5 119.5t209.5 48.5q200 0 295.5 -103t95.5 -319v-516q0 -8 -13 -8q-8 0 -8 8v510q0 208 -90 308t-280 100q-112 0 -220 -55.5t-155 -121.5zM453 1298q-64 0 -152 -71q-7 -5 -12 0q-7 7 0 14
q98 78 170 78q32 0 63 -15.5t52 -34.5t49.5 -34.5t56.5 -15.5q61 0 149 81q7 8 15 0q7 -7 0 -14q-96 -88 -168 -88q-30 0 -60 15.5t-51 34.5t-51 34.5t-61 15.5z" />
    <glyph glyph-name="ograve" unicode="&#xf2;" horiz-adv-x="1167" 
d="M584 938q205 0 338 -135t133 -342t-133 -342t-338 -135t-338 135t-133 342t133 342t338 135zM584 4q198 0 324 128.5t126 328.5t-126 328.5t-324 128.5t-324.5 -128.5t-126.5 -328.5t126.5 -328.5t324.5 -128.5zM637 1163q7 -7 -2 -12q-6 -6 -14 2l-211 272q-6 9 0 15
q8 8 14 -2z" />
    <glyph glyph-name="oacute" unicode="&#xf3;" horiz-adv-x="1167" 
d="M584 938q205 0 338 -135t133 -342t-133 -342t-338 -135t-338 135t-133 342t133 342t338 135zM584 4q198 0 324 128.5t126 328.5t-126 328.5t-324 128.5t-324.5 -128.5t-126.5 -328.5t126.5 -328.5t324.5 -128.5zM760 1442q7 -7 0 -17l-211 -272q-3 -5 -8.5 -7t-8.5 1
q-7 5 0 16l213 275q4 4 9 5t6 -1z" />
    <glyph glyph-name="ocircumflex" unicode="&#xf4;" horiz-adv-x="1167" 
d="M584 938q205 0 338 -135t133 -342t-133 -342t-338 -135t-338 135t-133 342t133 342t338 135zM584 4q198 0 324 128.5t126 328.5t-126 328.5t-324 128.5t-324.5 -128.5t-126.5 -328.5t126.5 -328.5t324.5 -128.5zM348 1192l227 254q4 4 9 4q4 0 8 -4l221 -254q6 -8 0 -14
q-7 -7 -14 0l-215 245l-219 -245q-9 -8 -17 0q-7 7 0 14z" />
    <glyph glyph-name="otilde" unicode="&#xf5;" horiz-adv-x="1167" 
d="M584 938q205 0 338 -135t133 -342t-133 -342t-338 -135t-338 135t-133 342t133 342t338 135zM584 4q198 0 324 128.5t126 328.5t-126 328.5t-324 128.5t-324.5 -128.5t-126.5 -328.5t126.5 -328.5t324.5 -128.5zM469 1298q-64 0 -152 -71q-7 -5 -12 0q-7 7 0 14
q98 78 170 78q32 0 63 -15.5t52 -34.5t49.5 -34.5t56.5 -15.5q62 0 150 81q7 7 14 0t0 -14q-96 -88 -168 -88q-30 0 -60 15.5t-51 34.5t-51 34.5t-61 15.5z" />
    <glyph glyph-name="odieresis" unicode="&#xf6;" horiz-adv-x="1167" 
d="M584 938q205 0 338 -135t133 -342t-133 -342t-338 -135t-338 135t-133 342t133 342t338 135zM584 4q198 0 324 128.5t126 328.5t-126 328.5t-324 128.5t-324.5 -128.5t-126.5 -328.5t126.5 -328.5t324.5 -128.5zM340 1292q0 9 8.5 17t18.5 8q9 0 16.5 -8t7.5 -17
q0 -10 -7.5 -18t-16.5 -8q-11 0 -19 8t-8 18zM778 1292q0 9 8.5 17t18.5 8q9 0 16.5 -8t7.5 -17q0 -10 -7.5 -18t-16.5 -8q-11 0 -19 8t-8 18z" />
    <glyph glyph-name="divide" unicode="&#xf7;" 
d="M600 1159q-10 0 -18.5 8.5t-8.5 18.5q0 9 8.5 16.5t18.5 7.5q9 0 17 -7.5t8 -16.5q0 -10 -8 -18.5t-17 -8.5zM600 264q-10 0 -18.5 8t-8.5 19q0 9 8.5 16.5t18.5 7.5q9 0 17 -7.5t8 -16.5q0 -10 -8 -18.5t-17 -8.5zM1032 727h-868q-10 0 -10 10q0 11 10 11h868
q10 0 10 -11q0 -10 -10 -10z" />
    <glyph glyph-name="oslash" unicode="&#xf8;" horiz-adv-x="1167" 
d="M252 113q-139 133 -139 348q0 207 133 342t338 135q204 0 340 -139l114 114q8 9 15 2q8 -8 0 -16l-115 -115q117 -130 117 -323q0 -207 -133 -342t-338 -135q-192 0 -318 114l-114 -116q-10 -10 -17 0q-7 7 2 16zM584 918q-198 0 -324.5 -128.5t-126.5 -328.5
q0 -206 131 -334l647 659q-129 132 -327 132zM584 4q198 0 324 128.5t126 328.5q0 183 -110 309l-643 -657q121 -109 303 -109z" />
    <glyph glyph-name="ugrave" unicode="&#xf9;" horiz-adv-x="1126" 
d="M922 199v714q0 9 12 9q8 0 8 -9v-913q0 -8 -12 -8q-8 0 -8 8v170q-64 -76 -172 -131t-215 -55q-191 0 -281 102.5t-90 319.5v507q0 9 12 9q8 0 8 -9v-501q0 -208 86 -308t269 -100q116 0 225 62t158 133zM616 1163q7 -7 -2 -12q-6 -6 -14 2l-211 272q-6 9 0 15q8 8 14 -2
z" />
    <glyph glyph-name="uacute" unicode="&#xfa;" horiz-adv-x="1126" 
d="M922 199v714q0 9 12 9q8 0 8 -9v-913q0 -8 -12 -8q-8 0 -8 8v170q-64 -76 -172 -131t-215 -55q-191 0 -281 102.5t-90 319.5v507q0 9 12 9q8 0 8 -9v-501q0 -208 86 -308t269 -100q116 0 225 62t158 133zM739 1442q7 -7 0 -17l-211 -272q-9 -13 -16 -6q-7 5 0 16l213 275
q9 9 14 4z" />
    <glyph glyph-name="ucircumflex" unicode="&#xfb;" horiz-adv-x="1126" 
d="M922 199v714q0 9 12 9q8 0 8 -9v-913q0 -8 -12 -8q-8 0 -8 8v170q-64 -76 -172 -131t-215 -55q-191 0 -281 102.5t-90 319.5v507q0 9 12 9q8 0 8 -9v-501q0 -208 86 -308t269 -100q116 0 225 62t158 133zM317 1192l228 254q4 4 8 4t8 -4l221 -254q6 -8 0 -14q-7 -7 -14 0
l-215 245l-219 -245q-8 -8 -17 0q-7 7 0 14z" />
    <glyph glyph-name="udieresis" unicode="&#xfc;" horiz-adv-x="1126" 
d="M922 199v714q0 9 12 9q8 0 8 -9v-913q0 -8 -12 -8q-8 0 -8 8v170q-64 -76 -172 -131t-215 -55q-191 0 -281 102.5t-90 319.5v507q0 9 12 9q8 0 8 -9v-501q0 -208 86 -308t269 -100q116 0 225 62t158 133zM319 1292q0 9 8.5 17t18.5 8q9 0 17 -8t8 -17q0 -10 -8 -18
t-17 -8q-11 0 -19 8t-8 18zM758 1292q0 9 8 17t18 8q9 0 17 -8t8 -17q0 -10 -8 -18t-17 -8q-10 0 -18 8t-8 18z" />
    <glyph glyph-name="yacute" unicode="&#xfd;" horiz-adv-x="954" 
d="M588 176l299 737q5 9 10 9q15 0 10 -15l-372 -907q-67 -163 -123 -253.5t-105 -123.5t-112 -33q-59 0 -123 27q-9 5 -6 14t14 4q63 -26 110 -26q87 0 157.5 78.5t146.5 263.5l20 49l-465 905q-3 6 -0.5 11.5t8.5 5.5q7 0 11 -9l378 -741l78 -152zM653 1442q7 -7 0 -17
l-211 -272q-9 -13 -16 -6q-7 5 0 16l213 275q9 9 14 4z" />
    <glyph glyph-name="thorn" unicode="&#xfe;" horiz-adv-x="1128" 
d="M205 86v-487q0 -9 -12 -9q-3 0 -6 3t-3 6v1826q0 9 13 9q8 0 8 -9v-649q59 71 162.5 116.5t207.5 45.5q204 0 322.5 -128t118.5 -335q0 -214 -128.5 -352.5t-336.5 -138.5q-215 0 -346 102zM205 113q149 -109 348 -109q195 0 318.5 130t123.5 335q0 204 -111.5 326.5
t-308.5 122.5q-113 0 -218 -52.5t-152 -117.5v-635z" />
    <glyph glyph-name="ydieresis" unicode="&#xff;" horiz-adv-x="954" 
d="M588 176l299 737q5 9 10 9q15 0 10 -15l-372 -907q-67 -163 -123 -253.5t-105 -123.5t-112 -33q-59 0 -123 27q-9 5 -6 14t14 4q63 -26 110 -26q87 0 157.5 78.5t146.5 263.5l20 49l-465 905q-3 6 -0.5 11.5t8.5 5.5q7 0 11 -9l378 -741l78 -152zM233 1292q0 9 8.5 17
t18.5 8q9 0 17 -8t8 -17q0 -10 -8 -18t-17 -8q-11 0 -19 8t-8 18zM672 1292q0 9 8 17t18 8q9 0 17 -8t8 -17q0 -10 -8 -18t-17 -8q-10 0 -18 8t-8 18z" />
    <glyph glyph-name="Amacron" unicode="&#x100;" horiz-adv-x="1402" 
d="M1321 -2l-252 569h-737l-250 -569q-3 -6 -10 -6q-5 0 -7.5 4t-1.5 8l621 1415q5 15 16 15q12 0 17 -15l622 -1415q4 -12 -10 -12q-5 0 -8 6zM1061 588l-361 821l-360 -821h721zM991 1618h-581q-11 0 -11 10t11 10h581q10 0 10 -10t-10 -10z" />
    <glyph glyph-name="amacron" unicode="&#x101;" horiz-adv-x="933" 
d="M453 524q184 0 297 -82q0 88 -2 136.5t-11 113t-28.5 98t-52.5 67.5t-86.5 47.5t-127.5 13.5q-73 0 -128.5 -17.5t-125.5 -58.5q-10 -5 -14 2q-2 1 -1 6t5 8q131 80 268 80q176 0 250 -90.5t74 -269.5v-578q0 -8 -10 -8t-10 8v174q-130 -182 -361 -182q-130 0 -208.5 70
t-78.5 186q0 132 98 204t253 72zM750 416q-125 88 -301 88q-61 0 -117.5 -15t-104 -44.5t-76 -80t-28.5 -114.5q0 -111 75 -174.5t189 -63.5q73 0 133 17.5t103.5 49t71 60.5t55.5 68v209zM696 1311h-458q-11 0 -11 10t11 10h458q11 0 11 -10t-11 -10z" />
    <glyph glyph-name="Abreve" unicode="&#x102;" horiz-adv-x="1402" 
d="M1321 -2l-252 569h-737l-250 -569q-3 -6 -10 -6q-5 0 -7.5 4t-1.5 8l621 1415q5 15 16 15q12 0 17 -15l622 -1415q4 -12 -10 -12q-5 0 -8 6zM1061 588l-361 821l-360 -821h721zM705 1556q-107 0 -184 45t-118 99q-7 7 0 14q7 6 15 -2q119 -135 287 -135q167 0 280 135
q3 3 7 3.5t5 -1.5q3 -2 4 -6.5t-2 -7.5q-49 -62 -123.5 -103t-170.5 -41z" />
    <glyph glyph-name="abreve" unicode="&#x103;" horiz-adv-x="933" 
d="M453 524q184 0 297 -82q0 88 -2 136.5t-11 113t-28.5 98t-52.5 67.5t-86.5 47.5t-127.5 13.5q-73 0 -128.5 -17.5t-125.5 -58.5q-10 -5 -14 2q-2 1 -1 6t5 8q131 80 268 80q176 0 250 -90.5t74 -269.5v-578q0 -8 -10 -8t-10 8v174q-130 -182 -361 -182q-130 0 -208.5 70
t-78.5 186q0 132 98 204t253 72zM750 416q-125 88 -301 88q-61 0 -117.5 -15t-104 -44.5t-76 -80t-28.5 -114.5q0 -111 75 -174.5t189 -63.5q73 0 133 17.5t103.5 49t71 60.5t55.5 68v209zM471 1229q-50 0 -94.5 14.5t-76.5 38.5t-52.5 45.5t-36.5 44.5q-7 7 0 14q3 3 7.5 2
t6.5 -4q22 -26 40 -43.5t49.5 -42t71.5 -37t85 -12.5q131 0 240 135q3 3 7 3.5t5 -1.5q3 -2 4 -6.5t-2 -7.5q-109 -143 -254 -143z" />
    <glyph glyph-name="Aogonek" unicode="&#x104;" horiz-adv-x="1402" 
d="M1237 -389q52 0 88 14q9 3 12 -4q4 -11 -6 -14q-47 -17 -96 -17q-33 0 -65.5 8.5t-65.5 28t-53.5 58t-20.5 90.5q0 100 85 168.5t196 76.5l-242 547h-737l-250 -569q-3 -6 -10 -6q-5 0 -7.5 4t-1.5 8l621 1415q5 15 16 15q12 0 17 -15l618 -1405q5 -14 -10 -14h-2
q-105 -3 -188.5 -67t-83.5 -158q0 -38 14 -68.5t34.5 -48t47 -28.5t48.5 -15t42 -4zM1061 588l-361 821l-360 -821h721z" />
    <glyph glyph-name="aogonek" unicode="&#x105;" horiz-adv-x="933" 
d="M672 -389q52 0 88 14q9 3 12 -4q4 -11 -6 -14q-47 -17 -96 -17q-33 0 -65.5 8.5t-65.5 28t-53.5 58t-20.5 90.5q0 101 86.5 170t198.5 75v154q-130 -182 -361 -182q-130 0 -208.5 70t-78.5 186q0 132 98 204t253 72q184 0 297 -82q0 88 -2 136.5t-11 113t-28.5 98
t-52.5 67.5t-86.5 47.5t-127.5 13.5q-73 0 -128.5 -17.5t-125.5 -58.5q-10 -5 -14 2q-2 1 -1 6t5 8q131 80 268 80q176 0 250 -90.5t74 -269.5v-570q0 -8 -8 -8h-2q-106 -3 -190.5 -67t-84.5 -158q0 -38 14 -68.5t34.5 -48t47.5 -28.5t49 -15t42 -4zM750 416
q-125 88 -301 88q-61 0 -117.5 -15t-104 -44.5t-76 -80t-28.5 -114.5q0 -111 75 -174.5t189 -63.5q73 0 133 17.5t103.5 49t71 60.5t55.5 68v209z" />
    <glyph glyph-name="Cacute" unicode="&#x106;" horiz-adv-x="1345" 
d="M1214 1313q-151 119 -397 119q-199 0 -354 -96t-237.5 -258.5t-82.5 -360.5q0 -212 86.5 -374.5t242 -250.5t355.5 -88q242 0 416 143q8 4 14 -2q3 -3 2 -7.5t-4 -6.5q-77 -69 -192.5 -108t-235.5 -39q-155 0 -286 52t-223 146.5t-143.5 232t-51.5 302.5
q0 153 50.5 288.5t140.5 234t220 155.5t281 57q251 0 414 -125q3 -2 4 -6.5t-2 -7.5t-8.5 -3t-8.5 3zM1006 1714q10 5 14 -2q4 -8 -6 -14l-299 -172q-10 -5 -15 2q-6 6 5 12z" />
    <glyph glyph-name="cacute" unicode="&#x107;" horiz-adv-x="1007" 
d="M563 918q-178 0 -304 -132.5t-126 -324.5q0 -208 128.5 -332.5t330.5 -124.5q94 0 178.5 36.5t138.5 96.5q7 7 13 0q5 -5 0 -14q-57 -67 -146.5 -103t-183.5 -36q-210 0 -344.5 131t-134.5 346q0 132 59 241.5t161.5 172.5t225.5 63q224 0 342 -102q9 -10 0 -19
q-6 -6 -12 0q-120 101 -326 101zM745 1442q7 -7 0 -17l-210 -272q-3 -5 -8.5 -7t-8.5 1q-7 5 0 16l213 275q9 9 14 4z" />
    <glyph glyph-name="Ccircumflex" unicode="&#x108;" horiz-adv-x="1345" 
d="M1214 1313q-151 119 -397 119q-199 0 -354 -96t-237.5 -258.5t-82.5 -360.5q0 -212 86.5 -374.5t242 -250.5t355.5 -88q242 0 416 143q8 4 14 -2q3 -3 2 -7.5t-4 -6.5q-77 -69 -192.5 -108t-235.5 -39q-155 0 -286 52t-223 146.5t-143.5 232t-51.5 302.5
q0 153 50.5 288.5t140.5 234t220 155.5t281 57q251 0 414 -125q3 -2 4 -6.5t-2 -7.5t-8.5 -3t-8.5 3zM494 1526q-11 -6 -17 0q-9 9 2 14l324 178q8 4 10 4q6 0 10 -4l322 -178q11 -5 2 -14q-6 -6 -19 0l-315 174z" />
    <glyph glyph-name="ccircumflex" unicode="&#x109;" horiz-adv-x="1007" 
d="M563 918q-178 0 -304 -132.5t-126 -324.5q0 -208 128.5 -332.5t330.5 -124.5q94 0 178.5 36.5t138.5 96.5q7 7 13 0q5 -5 0 -14q-57 -67 -146.5 -103t-183.5 -36q-210 0 -344.5 131t-134.5 346q0 132 59 241.5t161.5 172.5t225.5 63q224 0 342 -102q9 -10 0 -19
q-6 -6 -12 0q-120 101 -326 101zM336 1192l227 254q4 4 8 4q5 0 9 -4l221 -254q6 -8 0 -14q-7 -8 -15 0l-215 245l-219 -245q-8 -8 -16 0q-7 7 0 14z" />
    <glyph glyph-name="Cdotaccent" unicode="&#x10a;" horiz-adv-x="1345" 
d="M1214 1313q-151 119 -397 119q-199 0 -354 -96t-237.5 -258.5t-82.5 -360.5q0 -212 86.5 -374.5t242 -250.5t355.5 -88q242 0 416 143q8 4 14 -2q3 -3 2 -7.5t-4 -6.5q-77 -69 -192.5 -108t-235.5 -39q-155 0 -286 52t-223 146.5t-143.5 232t-51.5 302.5
q0 153 50.5 288.5t140.5 234t220 155.5t281 57q251 0 414 -125q3 -2 4 -6.5t-2 -7.5t-8.5 -3t-8.5 3zM778 1591q-11 0 -18.5 7.5t-7.5 19.5q0 10 7.5 17t18.5 7q9 0 17 -7t8 -17q0 -12 -7.5 -19.5t-17.5 -7.5z" />
    <glyph glyph-name="cdotaccent" unicode="&#x10b;" horiz-adv-x="1007" 
d="M563 918q-178 0 -304 -132.5t-126 -324.5q0 -208 128.5 -332.5t330.5 -124.5q94 0 178.5 36.5t138.5 96.5q7 7 13 0q5 -5 0 -14q-57 -67 -146.5 -103t-183.5 -36q-210 0 -344.5 131t-134.5 346q0 132 59 241.5t161.5 172.5t225.5 63q224 0 342 -102q9 -10 0 -19
q-6 -6 -12 0q-120 101 -326 101zM588 1270q-11 0 -19 8t-8 18q0 9 8.5 17t18.5 8q9 0 16.5 -8t7.5 -17q0 -10 -7.5 -18t-16.5 -8z" />
    <glyph glyph-name="Ccaron" unicode="&#x10c;" horiz-adv-x="1345" 
d="M1214 1313q-151 119 -397 119q-199 0 -354 -96t-237.5 -258.5t-82.5 -360.5q0 -212 86.5 -374.5t242 -250.5t355.5 -88q242 0 416 143q8 4 14 -2q3 -3 2 -7.5t-4 -6.5q-77 -69 -192.5 -108t-235.5 -39q-155 0 -286 52t-223 146.5t-143.5 232t-51.5 302.5
q0 153 50.5 288.5t140.5 234t220 155.5t281 57q251 0 414 -125q3 -2 4 -6.5t-2 -7.5t-8.5 -3t-8.5 3zM813 1520q-2 0 -10 4l-324 178q-8 6 -4 14q5 7 19 0l319 -174l315 174q17 8 21 0q6 -9 -4 -14l-322 -178q-8 -4 -10 -4z" />
    <glyph glyph-name="ccaron" unicode="&#x10d;" horiz-adv-x="1007" 
d="M563 918q-178 0 -304 -132.5t-126 -324.5q0 -208 128.5 -332.5t330.5 -124.5q94 0 178.5 36.5t138.5 96.5q7 7 13 0q5 -5 0 -14q-57 -67 -146.5 -103t-183.5 -36q-210 0 -344.5 131t-134.5 346q0 132 59 241.5t161.5 172.5t225.5 63q224 0 342 -102q9 -10 0 -19
q-6 -6 -12 0q-120 101 -326 101zM823 1427l-223 -253q-5 -5 -8 -5t-8 5l-226 253q-6 9 0 15q8 8 15 0l219 -246l215 246q9 9 16 2q3 -3 3 -8.5t-3 -8.5z" />
    <glyph glyph-name="Dcaron" unicode="&#x10e;" horiz-adv-x="1503" 
d="M575 1440q167 0 303 -37.5t228.5 -102t155 -154t90.5 -191t28 -214.5q0 -157 -52 -291.5t-152.5 -236t-258.5 -159.5t-358 -58q-61 0 -154 2t-137 2q-9 0 -15.5 7t-6.5 16v1388q0 9 6.5 16t15.5 7q53 0 143.5 3t163.5 3zM266 1413v-1393h62t60 -0.5t54.5 -1t47.5 -1
t37 -1t25 -0.5h9q157 0 288.5 37.5t225 104t158.5 158t96 198.5t31 227q0 111 -27 209t-88 185t-151 149.5t-224 98.5t-299 36q-73 0 -165 -3t-140 -3zM690 1520q-2 0 -10 4l-324 178q-8 6 -4 14q5 7 19 0l319 -174l316 174q16 8 20 0q6 -9 -4 -14l-322 -178q-8 -4 -10 -4z
" />
    <glyph glyph-name="dcaron" unicode="&#x10f;" horiz-adv-x="1130" 
d="M946 1425v-1425q0 -8 -12 -8q-8 0 -8 8v156q-57 -72 -154.5 -122t-198.5 -50q-208 0 -334 130t-126 347q0 209 142 343t355 134q187 0 316 -98v585q0 9 12 9q8 0 8 -9zM926 815q-146 103 -318 103q-203 0 -339 -129t-136 -328q0 -210 120 -333.5t320 -123.5
q105 0 207 58.5t146 123.5v629zM1223 1343q0 48 -17 82q-2 3 1 7t7 4q8 0 13 -11q16 -32 16 -79q0 -80 -31 -140t-79 -88q-10 -5 -13 4t6 15q44 28 70.5 83t26.5 123z" />
    <glyph glyph-name="Dcroat" unicode="&#x110;" horiz-adv-x="1564" 
d="M330 1434q53 0 143.5 3t163.5 3q167 0 303 -37.5t228.5 -102t155 -154t90.5 -191t28 -214.5q0 -157 -52 -291.5t-152.5 -236t-258.5 -159.5t-358 -58q-61 0 -154 2t-137 2q-9 0 -16 7t-7 16v704h-278q-9 0 -9 10q0 11 9 11h278v663q0 9 7 16t16 7zM756 727h-428v-707h62
t60 -0.5t54.5 -1t47.5 -1t37 -1t25 -0.5h9q196 0 350.5 57.5t251 157.5t146.5 229.5t50 280.5q0 111 -27 209t-87.5 185t-150.5 149.5t-224 98.5t-299 36q-73 0 -165 -3t-140 -3v-665h428q8 0 8 -11q0 -10 -8 -10z" />
    <glyph glyph-name="dcroat" unicode="&#x111;" horiz-adv-x="1130" 
d="M610 938q187 0 316 -98v309h-420q-8 0 -8 12q0 8 8 8h420v256q0 9 12 9q8 0 8 -9v-256h238q8 0 8 -12q0 -8 -8 -8h-238v-1149q0 -8 -12 -8q-8 0 -8 8v156q-57 -72 -154.5 -122t-198.5 -50q-208 0 -334 130t-126 347q0 209 142 343t355 134zM926 815q-146 103 -318 103
q-203 0 -339 -129t-136 -328q0 -210 120 -333.5t320 -123.5q105 0 207 58.5t146 123.5v629z" />
    <glyph glyph-name="Emacron" unicode="&#x112;" horiz-adv-x="1177" 
d="M266 20h760q8 0 8 -10t-8 -10h-758q-9 0 -15.5 7t-6.5 16v1388q0 9 6.5 16t15.5 7h738q8 0 8 -11q0 -10 -8 -10h-740v-672h678q8 0 8 -10t-8 -10h-678v-701zM920 1618h-582q-10 0 -10 10t10 10h582q10 0 10 -10t-10 -10z" />
    <glyph glyph-name="emacron" unicode="&#x113;" horiz-adv-x="1083" 
d="M950 481h-817q0 -220 124 -348.5t335 -128.5q94 0 178.5 36.5t138.5 96.5q7 7 13 0q5 -5 0 -14q-57 -67 -146.5 -103t-183.5 -36q-210 0 -344.5 131t-134.5 346q0 102 28 188t82.5 151t141.5 101.5t198 36.5q180 0 294 -113t114 -297q0 -18 -2 -28q0 -8 -5.5 -13.5
t-13.5 -5.5zM555 918q-190 0 -300.5 -115.5t-121.5 -300.5h817q3 191 -105.5 303.5t-289.5 112.5zM772 1311h-459q-10 0 -10 10t10 10h459q10 0 10 -10t-10 -10z" />
    <glyph glyph-name="Edotaccent" unicode="&#x116;" horiz-adv-x="1177" 
d="M266 20h760q8 0 8 -10t-8 -10h-758q-9 0 -15.5 7t-6.5 16v1388q0 9 6.5 16t15.5 7h738q8 0 8 -11q0 -10 -8 -10h-740v-672h678q8 0 8 -10t-8 -10h-678v-701zM635 1591q-11 0 -19 7.5t-8 19.5q0 10 8 17t19 7q9 0 16.5 -7t7.5 -17q0 -12 -7.5 -19.5t-16.5 -7.5z" />
    <glyph glyph-name="edotaccent" unicode="&#x117;" horiz-adv-x="1083" 
d="M950 481h-817q0 -220 124 -348.5t335 -128.5q94 0 178.5 36.5t138.5 96.5q7 7 13 0q5 -5 0 -14q-57 -67 -146.5 -103t-183.5 -36q-210 0 -344.5 131t-134.5 346q0 102 28 188t82.5 151t141.5 101.5t198 36.5q180 0 294 -113t114 -297q0 -18 -2 -28q0 -8 -5.5 -13.5
t-13.5 -5.5zM555 918q-190 0 -300.5 -115.5t-121.5 -300.5h817q3 191 -105.5 303.5t-289.5 112.5zM541 1270q-11 0 -19 8t-8 18q0 9 8.5 17t18.5 8q9 0 16.5 -8t7.5 -17q0 -10 -7.5 -18t-16.5 -8z" />
    <glyph glyph-name="Eogonek" unicode="&#x118;" horiz-adv-x="1177" 
d="M938 -389q52 0 88 14q9 3 12 -4q4 -11 -6 -14q-47 -17 -96 -17q-33 0 -65.5 8.5t-65.5 28t-53.5 58t-20.5 90.5q0 76 53 136t134 89h-650q-9 0 -15.5 7t-6.5 16v1388q0 9 6.5 16t15.5 7h738q8 0 8 -11q0 -10 -8 -10h-740v-672h678q8 0 8 -10t-8 -10h-678v-701h760
q10 0 10 -10t-8 -10h-2q-106 -3 -190 -67t-84 -158q0 -38 14 -68.5t34.5 -48t47 -28.5t48.5 -15t42 -4z" />
    <glyph glyph-name="eogonek" unicode="&#x119;" horiz-adv-x="1083" 
d="M627 -389q52 0 88 14q9 3 12 -4q4 -11 -6 -14q-47 -17 -96 -17q-33 0 -65.5 8.5t-65.5 28t-53.5 58t-20.5 90.5q0 133 178 209h-6q-210 0 -344.5 131t-134.5 346q0 102 28 188t82.5 151t141.5 101.5t198 36.5q180 0 294 -113t114 -297q0 -18 -2 -28q0 -8 -5.5 -13.5
t-13.5 -5.5h-817q0 -220 124 -348.5t335 -128.5q94 0 178.5 36.5t138.5 96.5q7 7 13 0q5 -5 0 -14q-86 -102 -236 -129q-48 -14 -88.5 -32t-77.5 -44t-58.5 -63t-21.5 -80q0 -38 14 -68.5t34.5 -48t47.5 -28.5t49 -15t42 -4zM555 918q-190 0 -300.5 -115.5t-121.5 -300.5
h817q3 191 -105.5 303.5t-289.5 112.5z" />
    <glyph glyph-name="Ecaron" unicode="&#x11a;" horiz-adv-x="1177" 
d="M266 20h760q8 0 8 -10t-8 -10h-758q-9 0 -15.5 7t-6.5 16v1388q0 9 6.5 16t15.5 7h738q8 0 8 -11q0 -10 -8 -10h-740v-672h678q8 0 8 -10t-8 -10h-678v-701zM649 1520q-2 0 -10 4l-324 178q-8 6 -4 14q5 7 19 0l319 -174l316 174q16 8 20 0q6 -9 -4 -14l-322 -178
q-8 -4 -10 -4z" />
    <glyph glyph-name="ecaron" unicode="&#x11b;" horiz-adv-x="1083" 
d="M950 481h-817q0 -220 124 -348.5t335 -128.5q94 0 178.5 36.5t138.5 96.5q7 7 13 0q5 -5 0 -14q-57 -67 -146.5 -103t-183.5 -36q-210 0 -344.5 131t-134.5 346q0 102 28 188t82.5 151t141.5 101.5t198 36.5q180 0 294 -113t114 -297q0 -18 -2 -28q0 -8 -5.5 -13.5
t-13.5 -5.5zM555 918q-190 0 -300.5 -115.5t-121.5 -300.5h817q3 191 -105.5 303.5t-289.5 112.5zM795 1427l-224 -253q-5 -5 -8 -5t-8 5l-225 253q-6 9 0 15q7 7 14 0l219 -246l215 246q10 10 17 2q3 -3 3 -8.5t-3 -8.5z" />
    <glyph glyph-name="Gcircumflex" unicode="&#x11c;" horiz-adv-x="1488" 
d="M143 717q0 -212 85 -374.5t237 -250.5t348 -88q142 0 284 49t228 133v435h-461q-8 0 -8 10t8 10h459q9 0 16 -7t7 -16v-423q0 -16 -17 -33q-94 -84 -239.5 -131t-280.5 -47q-149 0 -275.5 52.5t-217 146.5t-142 231.5t-51.5 302.5q0 205 85 372t241.5 264t355.5 97
q263 0 426 -125q7 -7 0 -14q-5 -5 -14 0q-150 119 -410 119q-196 0 -348.5 -95.5t-234 -257.5t-81.5 -360zM494 1526q-11 -6 -17 0q-9 9 2 14l324 178q8 4 10 4q6 0 10 -4l322 -178q11 -5 2 -14q-6 -6 -19 0l-315 174z" />
    <glyph glyph-name="gcircumflex" unicode="&#x11d;" horiz-adv-x="991" 
d="M489 137q206 0 327.5 -73.5t121.5 -208.5q0 -134 -122 -207.5t-327 -73.5q-206 0 -327 73t-121 208q0 105 76.5 174t212.5 94q-37 37 -37 100q0 61 41 105q-90 37 -141.5 114t-51.5 176q0 139 96.5 229.5t249.5 90.5q137 0 232 -76l239 70q13 4 13 -6q0 -8 -8 -11
l-228 -67q99 -93 99 -230q0 -139 -97 -229t-250 -90q-76 0 -135 20q-39 -36 -39 -96q0 -59 43 -96q68 10 133 10zM489 -406q192 0 310.5 69t118.5 192q0 122 -119 192t-310 70t-309.5 -70t-118.5 -192t118 -191.5t310 -69.5zM487 319q142 0 234 85t92 214q0 128 -92 214
t-234 86t-233.5 -85t-91.5 -215q0 -129 91.5 -214t233.5 -85zM260 1192l227 254q4 4 9 4q4 0 8 -4l221 -254q6 -8 0 -14q-7 -7 -14 0l-215 245l-220 -245q-8 -8 -16 0q-7 7 0 14z" />
    <glyph glyph-name="Gbreve" unicode="&#x11e;" horiz-adv-x="1488" 
d="M143 717q0 -212 85 -374.5t237 -250.5t348 -88q142 0 284 49t228 133v435h-461q-8 0 -8 10t8 10h459q9 0 16 -7t7 -16v-423q0 -16 -17 -33q-94 -84 -239.5 -131t-280.5 -47q-149 0 -275.5 52.5t-217 146.5t-142 231.5t-51.5 302.5q0 205 85 372t241.5 264t355.5 97
q263 0 426 -125q7 -7 0 -14q-5 -5 -14 0q-150 119 -410 119q-196 0 -348.5 -95.5t-234 -257.5t-81.5 -360zM819 1556q-107 0 -183.5 45t-117.5 99q-7 7 0 14q6 6 14 -2q119 -135 287 -135q89 0 160.5 38.5t120.5 96.5q3 3 7 3.5t5 -1.5q3 -2 4 -6.5t-2 -7.5
q-49 -62 -124 -103t-171 -41z" />
    <glyph glyph-name="gbreve" unicode="&#x11f;" horiz-adv-x="991" 
d="M489 137q206 0 327.5 -73.5t121.5 -208.5q0 -134 -122 -207.5t-327 -73.5q-206 0 -327 73t-121 208q0 105 76.5 174t212.5 94q-37 37 -37 100q0 61 41 105q-90 37 -141.5 114t-51.5 176q0 139 96.5 229.5t249.5 90.5q137 0 232 -76l239 70q13 4 13 -6q0 -8 -8 -11
l-228 -67q99 -93 99 -230q0 -139 -97 -229t-250 -90q-76 0 -135 20q-39 -36 -39 -96q0 -59 43 -96q68 10 133 10zM489 -406q192 0 310.5 69t118.5 192q0 122 -119 192t-310 70t-309.5 -70t-118.5 -192t118 -191.5t310 -69.5zM487 319q142 0 234 85t92 214q0 128 -92 214
t-234 86t-233.5 -85t-91.5 -215q0 -129 91.5 -214t233.5 -85zM498 1229q-50 0 -94.5 14.5t-76.5 38.5t-52.5 45.5t-36.5 44.5q-7 7 0 14q3 3 7.5 2t6.5 -4q22 -26 40 -43.5t49.5 -42t71.5 -37t85 -12.5q130 0 239 135q3 3 7.5 3.5t5.5 -1.5q3 -2 4 -6.5t-2 -7.5
q-109 -143 -254 -143z" />
    <glyph glyph-name="Gdotaccent" unicode="&#x120;" horiz-adv-x="1488" 
d="M143 717q0 -212 85 -374.5t237 -250.5t348 -88q142 0 284 49t228 133v435h-461q-8 0 -8 10t8 10h459q9 0 16 -7t7 -16v-423q0 -16 -17 -33q-94 -84 -239.5 -131t-280.5 -47q-149 0 -275.5 52.5t-217 146.5t-142 231.5t-51.5 302.5q0 205 85 372t241.5 264t355.5 97
q263 0 426 -125q7 -7 0 -14q-5 -5 -14 0q-150 119 -410 119q-196 0 -348.5 -95.5t-234 -257.5t-81.5 -360zM799 1591q-11 0 -19 7.5t-8 19.5q0 10 8 17t19 7q9 0 16.5 -7t7.5 -17q0 -12 -7.5 -19.5t-16.5 -7.5z" />
    <glyph glyph-name="gdotaccent" unicode="&#x121;" horiz-adv-x="991" 
d="M489 137q206 0 327.5 -73.5t121.5 -208.5q0 -134 -122 -207.5t-327 -73.5q-206 0 -327 73t-121 208q0 105 76.5 174t212.5 94q-37 37 -37 100q0 61 41 105q-90 37 -141.5 114t-51.5 176q0 139 96.5 229.5t249.5 90.5q137 0 232 -76l239 70q13 4 13 -6q0 -8 -8 -11
l-228 -67q99 -93 99 -230q0 -139 -97 -229t-250 -90q-76 0 -135 20q-39 -36 -39 -96q0 -59 43 -96q68 10 133 10zM489 -406q192 0 310.5 69t118.5 192q0 122 -119 192t-310 70t-309.5 -70t-118.5 -192t118 -191.5t310 -69.5zM487 319q142 0 234 85t92 214q0 128 -92 214
t-234 86t-233.5 -85t-91.5 -215q0 -129 91.5 -214t233.5 -85zM496 1270q-11 0 -19 8t-8 18q0 9 8.5 17t18.5 8q9 0 16.5 -8t7.5 -17q0 -10 -7.5 -18t-16.5 -8z" />
    <glyph glyph-name="Gcommaaccent" unicode="&#x122;" horiz-adv-x="1488" 
d="M143 717q0 -212 85 -374.5t237 -250.5t348 -88q142 0 284 49t228 133v435h-461q-8 0 -8 10t8 10h459q9 0 16 -7t7 -16v-423q0 -16 -17 -33q-94 -84 -239.5 -131t-280.5 -47q-149 0 -275.5 52.5t-217 146.5t-142 231.5t-51.5 302.5q0 205 85 372t241.5 264t355.5 97
q263 0 426 -125q7 -7 0 -14q-5 -5 -14 0q-150 119 -410 119q-196 0 -348.5 -95.5t-234 -257.5t-81.5 -360zM844 -256q0 76 -62 90q-8 3 -8 12t10 9q36 -6 58 -33.5t22 -69.5q0 -66 -26 -100.5t-82 -57.5q-10 -3 -13 5q-4 8 7 12q94 39 94 133z" />
    <glyph glyph-name="gcommaaccent" unicode="&#x123;" horiz-adv-x="991" 
d="M489 137q206 0 327.5 -73.5t121.5 -208.5q0 -134 -122 -207.5t-327 -73.5q-206 0 -327 73t-121 208q0 105 76.5 174t212.5 94q-37 37 -37 100q0 61 41 105q-90 37 -141.5 114t-51.5 176q0 139 96.5 229.5t249.5 90.5q137 0 232 -76l239 70q13 4 13 -6q0 -8 -8 -11
l-228 -67q99 -93 99 -230q0 -139 -97 -229t-250 -90q-76 0 -135 20q-39 -36 -39 -96q0 -59 43 -96q68 10 133 10zM489 -406q192 0 310.5 69t118.5 192q0 122 -119 192t-310 70t-309.5 -70t-118.5 -192t118 -191.5t310 -69.5zM487 319q142 0 234 85t92 214q0 128 -92 214
t-234 86t-233.5 -85t-91.5 -215q0 -129 91.5 -214t233.5 -85zM465 1274q0 -76 61 -90q9 -3 9 -13q0 -8 -11 -8q-36 6 -58 33.5t-22 69.5q0 65 26 99.5t83 57.5q10 3 12 -4q4 -9 -6 -12q-94 -39 -94 -133z" />
    <glyph glyph-name="Hcircumflex" unicode="&#x124;" horiz-adv-x="1587" 
d="M1331 1436q10 0 10 -11v-1425q0 -8 -10 -8t-10 8v721h-1055v-721q0 -8 -10 -8t-10 8v1425q0 11 10 11t10 -11v-684h1055v684q0 11 10 11zM475 1526q-11 -5 -16 0q-9 9 2 14l323 178q8 4 11 4q6 0 10 -4l321 -178q11 -5 2 -14q-6 -6 -18 0l-315 174z" />
    <glyph glyph-name="hcircumflex" unicode="&#x125;" horiz-adv-x="1134" 
d="M205 741v-741q0 -8 -12 -8q-9 0 -9 8v1425q0 9 13 9q8 0 8 -9v-655q59 71 165.5 119.5t209.5 48.5q200 0 295.5 -103t95.5 -319v-516q0 -8 -13 -8q-8 0 -8 8v510q0 208 -90 308t-280 100q-112 0 -220 -55.5t-155 -121.5zM23 1526q-11 -6 -17 0q-9 9 2 14l324 178
q8 4 10 4q6 0 10 -4l322 -178q11 -5 2 -14q-6 -6 -19 0l-315 174z" />
    <glyph glyph-name="Hbar" unicode="&#x126;" horiz-adv-x="1607" 
d="M276 0q0 -8 -10 -8t-10 8v1090h-186q-9 0 -9 10t9 10h186v315q0 11 10 11t10 -11v-315h1055v315q0 11 10 11q4 0 7.5 -4t3.5 -7v-315h186q8 0 8 -10t-8 -10h-186v-1090q0 -8 -11 -8q-10 0 -10 8v721h-1055v-721zM276 741h1055v349h-1055v-349z" />
    <glyph glyph-name="hbar" unicode="&#x127;" horiz-adv-x="1134" 
d="M193 -8q-9 0 -9 8v1126h-278q-8 0 -8 13q0 8 8 8h278v278q0 9 13 9q8 0 8 -9v-278h379q8 0 8 -12q0 -9 -8 -9h-379v-356q59 71 165.5 119.5t209.5 48.5q200 0 295.5 -103t95.5 -319v-516q0 -8 -13 -8q-8 0 -8 8v510q0 208 -90 308t-280 100q-112 0 -220 -55.5
t-155 -121.5v-741q0 -8 -12 -8z" />
    <glyph glyph-name="Imacron" unicode="&#x12a;" horiz-adv-x="634" 
d="M317 1436q4 0 7.5 -4t3.5 -7v-1425q0 -8 -11 -8q-10 0 -10 8v1425q0 11 10 11zM608 1618h-581q-11 0 -11 10t11 10h581q10 0 10 -10t-10 -10z" />
    <glyph glyph-name="imacron" unicode="&#x12b;" horiz-adv-x="512" 
d="M266 913v-913q0 -8 -12 -8q-8 0 -8 8v913q0 9 12 9q8 0 8 -9zM485 1311h-458q-11 0 -11 10t11 10h458q11 0 11 -10t-11 -10z" />
    <glyph glyph-name="Iogonek" unicode="&#x12e;" horiz-adv-x="634" 
d="M229 -389q52 0 88 14q9 3 13 -4q4 -11 -6 -14q-47 -17 -97 -17q-33 0 -65.5 8.5t-65 28t-53 58t-20.5 90.5q0 101 86 170t198 75v1405q0 11 10 11q4 0 7.5 -4t3.5 -7v-1417q0 -8 -9 -8h-2q-106 -3 -190 -67t-84 -158q0 -38 14 -68.5t34.5 -48t47 -28.5t48.5 -15t42 -4z
" />
    <glyph glyph-name="iogonek" unicode="&#x12f;" horiz-adv-x="512" 
d="M168 -389q52 0 88 14q9 3 12 -4q4 -11 -6 -14q-47 -17 -96 -17q-33 0 -65.5 8.5t-65.5 28t-53.5 58t-20.5 90.5q0 101 86.5 170t198.5 75v893q0 9 12 9q8 0 8 -9v-905l-2 -4l-2 -2q-2 -2 -4 -2h-6q-106 -5 -188 -68t-82 -157q0 -38 14 -68.5t34.5 -48t47 -28.5t48.5 -15
t42 -4zM258 1270q-11 0 -19 8t-8 18q0 9 8.5 17t18.5 8q9 0 17 -8t8 -17q0 -10 -8 -18t-17 -8z" />
    <glyph glyph-name="Idotaccent" unicode="&#x130;" horiz-adv-x="634" 
d="M317 1436q4 0 7.5 -4t3.5 -7v-1425q0 -8 -11 -8q-10 0 -10 8v1425q0 11 10 11zM319 1591q-11 0 -18.5 7.5t-7.5 19.5q0 10 7.5 17t18.5 7q9 0 17 -7t8 -17q0 -12 -8 -19.5t-17 -7.5z" />
    <glyph glyph-name="dotlessi" unicode="&#x131;" horiz-adv-x="512" 
d="M266 913v-913q0 -8 -12 -8q-8 0 -8 8v913q0 9 12 9q8 0 8 -9z" />
    <glyph glyph-name="Jcircumflex" unicode="&#x134;" horiz-adv-x="698" 
d="M205 4q70 0 117 22.5t70 66t31.5 91.5t8.5 115v1126q0 11 10 11q4 0 7.5 -4t3.5 -7v-1124q0 -75 -11 -129t-37.5 -98.5t-76.5 -67t-123 -22.5q-84 0 -154 47q-10 7 -8 14q4 12 14 4q70 -45 148 -45zM104 1526q-11 -5 -16 0q-9 9 2 14l324 178q8 4 10 4q6 0 10 -4
l322 -178q11 -5 2 -14q-6 -6 -19 0l-315 174z" />
    <glyph glyph-name="jcircumflex" unicode="&#x135;" horiz-adv-x="514" 
d="M248 -70v983q0 9 12 9q8 0 8 -9v-981q0 -358 -288 -358q-86 0 -156 47q-9 5 0 14q5 10 12 3q63 -44 144 -44q141 0 204.5 84.5t63.5 251.5zM23 1192l227 254q4 4 8 4t8 -4l221 -254q6 -8 0 -14q-7 -7 -14 0l-215 245l-219 -245q-8 -8 -16 0q-7 7 0 14z" />
    <glyph glyph-name="Kcommaaccent" unicode="&#x136;" horiz-adv-x="1257" 
d="M1149 -4l-750 735q-6 6 -6 15.5t6 15.5l723 670q5 5 13 2q10 -7 0 -17l-721 -669l749 -736q5 -4 4.5 -10.5t-6.5 -9.5q-5 -3 -12 4zM256 1436q10 0 10 -11v-1425q0 -8 -10 -8t-10 8v1425q0 11 10 11zM639 -256q0 76 -61 90q-9 3 -9 12t11 9q36 -6 57.5 -33.5t21.5 -69.5
q0 -66 -26 -100.5t-82 -57.5q-9 -3 -12 5q-4 9 6 12q94 39 94 133z" />
    <glyph glyph-name="kcommaaccent" unicode="&#x137;" horiz-adv-x="911" 
d="M322 463q-8 8 -8.5 18.5t8.5 18.5l452 413q12 9 19 9q6 0 7 -8t-5 -13l-463 -420l506 -467q8 -8 6.5 -15t-8.5 -7q-9 0 -17 8zM205 1425v-1425q0 -8 -12 -8q-9 0 -9 8v1425q0 9 13 9q8 0 8 -9zM479 -256q0 76 -61 90q-8 3 -8 12t10 9q36 -6 58 -33.5t22 -69.5
q0 -65 -26.5 -100t-82.5 -58q-9 -3 -12 5q-4 9 6 12q94 39 94 133z" />
    <glyph glyph-name="Lacute" unicode="&#x139;" horiz-adv-x="1136" 
d="M266 20h821q9 0 9 -10t-9 -10h-819q-9 0 -15.5 7t-6.5 16v1402q0 11 10 11t10 -11v-1405zM821 1714q10 5 15 -2q4 -7 -7 -14l-299 -172q-10 -5 -14 2q-7 7 4 12z" />
    <glyph glyph-name="lacute" unicode="&#x13a;" horiz-adv-x="555" 
d="M530 57q3 -5 1 -9.5t-5 -6.5q-70 -47 -155 -47q-99 0 -143 57t-44 176v1198q0 9 13 9q8 0 8 -9v-1167q0 -127 37.5 -185.5t128.5 -58.5q81 0 143 43q10 10 16 0zM453 1714q9 5 14 -2q4 -8 -6 -14l-299 -172q-10 -5 -15 2q-6 6 5 12z" />
    <glyph glyph-name="Lcommaaccent" unicode="&#x13b;" horiz-adv-x="1136" 
d="M266 20h821q9 0 9 -10t-9 -10h-819q-9 0 -15.5 7t-6.5 16v1402q0 11 10 11t10 -11v-1405zM680 -256q0 76 -62 90q-8 3 -8 12t11 9q36 -6 57.5 -33.5t21.5 -69.5q0 -66 -26 -100.5t-82 -57.5q-9 -3 -12 5q-4 9 6 12q94 39 94 133z" />
    <glyph glyph-name="lcommaaccent" unicode="&#x13c;" horiz-adv-x="555" 
d="M530 57q3 -5 1 -9.5t-5 -6.5q-70 -47 -155 -47q-99 0 -143 57t-44 176v1198q0 9 13 9q8 0 8 -9v-1167q0 -127 37.5 -185.5t128.5 -58.5q81 0 143 43q10 10 16 0zM352 -256q0 76 -61 90q-8 3 -8 12t10 9q36 -6 58 -33.5t22 -69.5q0 -65 -26.5 -100t-82.5 -58q-9 -3 -12 5
q-4 9 6 12q94 39 94 133z" />
    <glyph glyph-name="Lcaron" unicode="&#x13d;" horiz-adv-x="1136" 
d="M266 20h821q9 0 9 -10t-9 -10h-819q-9 0 -15.5 7t-6.5 16v1402q0 11 10 11t10 -11v-1405zM752 1343q0 48 -17 82q-2 3 1 7t7 4q7 0 13 -11q16 -32 16 -79q0 -80 -31 -140t-79 -88q-10 -5 -13 4t6 15q44 28 70.5 83t26.5 123z" />
    <glyph glyph-name="lcaron" unicode="&#x13e;" horiz-adv-x="555" 
d="M530 57q3 -5 1 -9.5t-5 -6.5q-70 -47 -155 -47q-99 0 -143 57t-44 176v1198q0 9 13 9q8 0 8 -9v-1167q0 -127 37.5 -185.5t128.5 -58.5q81 0 143 43q10 10 16 0zM485 1343q0 50 -16 82q-2 3 1 7t7 4q7 0 12 -11q17 -34 17 -79q0 -80 -31.5 -140t-79.5 -88q-9 -5 -12 4
t6 15q44 28 70 83t26 123z" />
    <glyph glyph-name="Ldot" unicode="&#x13f;" horiz-adv-x="1136" 
d="M266 20h821q9 0 9 -10t-9 -10h-819q-9 0 -15.5 7t-6.5 16v1402q0 11 10 11t10 -11v-1405zM829 737q-10 0 -18 8t-8 19q0 9 8 16.5t18 7.5q9 0 17 -7.5t8 -16.5q0 -10 -8 -18.5t-17 -8.5z" />
    <glyph glyph-name="ldot" unicode="&#x140;" horiz-adv-x="555" 
d="M530 57q3 -5 1 -9.5t-5 -6.5q-70 -47 -155 -47q-99 0 -143 57t-44 176v1198q0 9 13 9q8 0 8 -9v-1167q0 -127 37.5 -185.5t128.5 -58.5q81 0 143 43q10 10 16 0zM481 592q-11 0 -18.5 8t-7.5 18q0 9 8 17t18 8q9 0 17 -8t8 -17q0 -10 -8 -18t-17 -8z" />
    <glyph glyph-name="Lslash" unicode="&#x141;" horiz-adv-x="1157" 
d="M1108 0h-819q-9 0 -16 7t-7 16v598l-190 -103q-4 -3 -9.5 0t-5.5 10q0 8 7 11l198 104v782q0 11 10 11q4 0 7.5 -4t3.5 -7v-770l405 217q5 2 9 -1t4 -9t-7 -10l-411 -221v-611h821q8 0 8 -10t-8 -10z" />
    <glyph glyph-name="lslash" unicode="&#x142;" horiz-adv-x="616" 
d="M412 -6q-99 0 -143 57t-44 176v410l-170 -92q-5 -3 -9.5 -0.5t-4.5 8.5q0 8 8 12l176 94v766q0 9 13 9q8 0 8 -9v-753l239 129q6 3 11.5 0.5t5.5 -8.5q0 -7 -8 -11l-248 -135v-389q0 -127 37.5 -185.5t128.5 -58.5q78 0 143 43q8 8 16 0q9 -9 -4 -16q-70 -47 -155 -47z
" />
    <glyph glyph-name="Nacute" unicode="&#x143;" horiz-adv-x="1638" 
d="M1372 25v1400q0 11 10 11q4 0 7.5 -4t3.5 -7v-1427q0 -10 -11 -10q-8 0 -12 6l-1104 1409v-1403q0 -8 -10 -8t-10 8v1432q0 10 8 10t12 -6zM1067 1714q9 5 14 -2q4 -8 -6 -14l-299 -172q-10 -5 -14 2q-7 7 4 12z" />
    <glyph glyph-name="nacute" unicode="&#x144;" horiz-adv-x="1134" 
d="M205 741v-741q0 -8 -12 -8q-9 0 -9 8v913q0 9 13 9q8 0 8 -9v-143q59 71 165.5 119.5t209.5 48.5q200 0 295.5 -103t95.5 -319v-516q0 -8 -13 -8q-8 0 -8 8v510q0 208 -90 308t-280 100q-112 0 -220 -55.5t-155 -121.5zM743 1442q7 -7 0 -17l-211 -272q-9 -13 -16 -6
q-7 5 0 16l213 275q9 9 14 4z" />
    <glyph glyph-name="Ncommaaccent" unicode="&#x145;" horiz-adv-x="1638" 
d="M1372 25v1400q0 11 10 11q4 0 7.5 -4t3.5 -7v-1427q0 -10 -11 -10q-8 0 -12 6l-1104 1409v-1403q0 -8 -10 -8t-10 8v1432q0 10 8 10t12 -6zM844 -256q0 76 -62 90q-8 3 -8 12t10 9q36 -6 58 -33.5t22 -69.5q0 -66 -26 -100.5t-82 -57.5q-10 -3 -13 5q-4 8 7 12
q94 39 94 133z" />
    <glyph glyph-name="ncommaaccent" unicode="&#x146;" horiz-adv-x="1134" 
d="M205 741v-741q0 -8 -12 -8q-9 0 -9 8v913q0 9 13 9q8 0 8 -9v-143q59 71 165.5 119.5t209.5 48.5q200 0 295.5 -103t95.5 -319v-516q0 -8 -13 -8q-8 0 -8 8v510q0 208 -90 308t-280 100q-112 0 -220 -55.5t-155 -121.5zM610 -256q0 76 -61 90q-8 3 -8 12t10 9
q36 -6 58 -33.5t22 -69.5q0 -65 -26.5 -100t-82.5 -58q-9 -3 -12 5q-4 9 6 12q94 39 94 133z" />
    <glyph glyph-name="Ncaron" unicode="&#x147;" horiz-adv-x="1638" 
d="M1372 25v1400q0 11 10 11q4 0 7.5 -4t3.5 -7v-1427q0 -10 -11 -10q-8 0 -12 6l-1104 1409v-1403q0 -8 -10 -8t-10 8v1432q0 10 8 10t12 -6zM817 1520q-2 0 -10 4l-324 178q-8 6 -4 14q5 7 19 0l319 -174l316 174q16 8 20 0q6 -9 -4 -14l-322 -178q-8 -4 -10 -4z" />
    <glyph glyph-name="ncaron" unicode="&#x148;" horiz-adv-x="1134" 
d="M205 741v-741q0 -8 -12 -8q-9 0 -9 8v913q0 9 13 9q8 0 8 -9v-143q59 71 165.5 119.5t209.5 48.5q200 0 295.5 -103t95.5 -319v-516q0 -8 -13 -8q-8 0 -8 8v510q0 208 -90 308t-280 100q-112 0 -220 -55.5t-155 -121.5zM799 1427l-224 -253q-5 -5 -8 -5t-8 5l-225 253
q-6 9 0 15q7 7 14 0l219 -246l215 246q10 10 17 2q3 -3 3 -8.5t-3 -8.5z" />
    <glyph glyph-name="Omacron" unicode="&#x14c;" horiz-adv-x="1646" 
d="M123 717q0 205 92 373t252.5 264t355.5 96t355.5 -96t253 -264t92.5 -373t-92.5 -373t-253 -264t-355.5 -96t-355.5 96t-252.5 264t-92 373zM143 717q0 -150 52.5 -282.5t143 -227t216.5 -149t268 -54.5t268 54.5t216.5 149t143 227t52.5 282.5t-52.5 282.5t-143 227
t-216.5 149t-268 54.5t-268 -54.5t-216.5 -149t-143 -227t-52.5 -282.5zM1114 1618h-582q-10 0 -10 10t10 10h582q10 0 10 -10t-10 -10z" />
    <glyph glyph-name="omacron" unicode="&#x14d;" horiz-adv-x="1167" 
d="M584 938q205 0 338 -135t133 -342t-133 -342t-338 -135t-338 135t-133 342t133 342t338 135zM584 4q198 0 324 128.5t126 328.5t-126 328.5t-324 128.5t-324.5 -128.5t-126.5 -328.5t126.5 -328.5t324.5 -128.5zM813 1311h-459q-10 0 -10 10t10 10h459q10 0 10 -10
t-10 -10z" />
    <glyph glyph-name="Ohungarumlaut" unicode="&#x150;" horiz-adv-x="1646" 
d="M123 717q0 205 92 373t252.5 264t355.5 96t355.5 -96t253 -264t92.5 -373t-92.5 -373t-253 -264t-355.5 -96t-355.5 96t-252.5 264t-92 373zM143 717q0 -150 52.5 -282.5t143 -227t216.5 -149t268 -54.5t268 54.5t216.5 149t143 227t52.5 282.5t-52.5 282.5t-143 227
t-216.5 149t-268 54.5t-268 -54.5t-216.5 -149t-143 -227t-52.5 -282.5zM1272 1714q9 4 12 -2q4 -8 -4 -14l-299 -172q-9 -5 -14 2q-7 7 4 12zM936 1712q4 -8 -4 -14l-299 -172q-10 -5 -15 2q-6 6 5 12l301 174q9 4 12 -2z" />
    <glyph glyph-name="ohungarumlaut" unicode="&#x151;" horiz-adv-x="1167" 
d="M584 938q205 0 338 -135t133 -342t-133 -342t-338 -135t-338 135t-133 342t133 342t338 135zM584 4q198 0 324 128.5t126 328.5t-126 328.5t-324 128.5t-324.5 -128.5t-126.5 -328.5t126.5 -328.5t324.5 -128.5zM629 1438q8 8 14 2q3 -2 3 -7t-3 -8l-211 -272
q-7 -7 -14 -4q-6 6 -2 14zM915 1438q9 8 15 2q3 -2 3 -7t-3 -8l-211 -272q-7 -7 -14 -4q-7 7 -3 14z" />
    <glyph glyph-name="OE" unicode="&#x152;" horiz-adv-x="2150" 
d="M1239 20h760q8 0 8 -10t-8 -10h-758q-9 0 -15.5 7t-6.5 16v75q-74 -54 -176 -84t-216 -30q-155 0 -286 52t-223 146.5t-143.5 232t-51.5 302.5q0 205 85 372t241.5 264t355.5 97q256 0 414 -115v76q0 9 6.5 16t15.5 7h737q9 0 9 -11q0 -10 -9 -10h-739v-672h678
q8 0 8 -10t-8 -10h-678v-701zM1219 129v1180q-153 121 -412 121q-196 0 -348.5 -95.5t-234 -257.5t-81.5 -360q0 -212 86.5 -374.5t242 -250.5t355.5 -88q235 0 392 125z" />
    <glyph glyph-name="oe" unicode="&#x153;" horiz-adv-x="1738" 
d="M1606 481h-818q0 -220 124 -348.5t335 -128.5q95 0 179.5 36.5t138.5 96.5q6 6 12 0q5 -5 0 -14q-57 -67 -146.5 -103t-183.5 -36q-208 0 -336 122q-125 -122 -327 -122q-205 0 -338 135t-133 342t133 342t338 135q186 0 317 -115q118 115 318 115q180 0 293.5 -112.5
t113.5 -297.5q0 -18 -2 -28q0 -8 -5.5 -13.5t-12.5 -5.5zM887 807q-123 111 -303 111q-198 0 -324.5 -128.5t-126.5 -328.5t126.5 -328.5t324.5 -128.5q187 0 313 117q-129 129 -129 340q0 218 119 346zM1210 918q-190 0 -300.5 -115.5t-121.5 -300.5h818q3 191 -106 303.5
t-290 112.5z" />
    <glyph glyph-name="Racute" unicode="&#x154;" horiz-adv-x="1255" 
d="M1157 -8q-4 0 -10 6l-535 647h-346v-645q0 -8 -10 -8t-10 8v1411q0 9 6.5 16t15.5 7q49 0 148.5 2t111.5 2q113 0 200.5 -22.5t141.5 -58.5t88 -88.5t47 -106.5t13 -118q0 -140 -103 -252t-278 -143l530 -641q3 -4 0 -10t-10 -6zM266 1413v-747h303q104 0 202 48
t162 137.5t64 195.5q0 83 -25 148.5t-79 116t-147 78t-220 27.5q-124 0 -260 -4zM739 1714q10 5 15 -2q4 -8 -6 -14l-299 -172q-10 -5 -15 2q-7 7 4 12z" />
    <glyph glyph-name="racute" unicode="&#x155;" horiz-adv-x="641" 
d="M205 741v-741q0 -8 -12 -8q-9 0 -9 8v913q0 9 13 9q8 0 8 -9v-135q44 71 113.5 115.5t158.5 44.5q87 0 131 -27q8 -4 10 -10.5t-2 -9.5q-4 -7 -14 -2q-30 17 -54 23t-71 6q-52 0 -95.5 -15.5t-77 -44t-55 -55t-44.5 -62.5zM578 1442q7 -7 0 -17l-211 -272q-3 -5 -8.5 -7
t-8.5 1q-7 5 0 16l213 275q4 4 9 5t6 -1z" />
    <glyph glyph-name="Rcommaaccent" unicode="&#x156;" horiz-adv-x="1255" 
d="M1157 -8q-4 0 -10 6l-535 647h-346v-645q0 -8 -10 -8t-10 8v1411q0 9 6.5 16t15.5 7q49 0 148.5 2t111.5 2q113 0 200.5 -22.5t141.5 -58.5t88 -88.5t47 -106.5t13 -118q0 -140 -103 -252t-278 -143l530 -641q3 -4 0 -10t-10 -6zM266 1413v-747h303q104 0 202 48
t162 137.5t64 195.5q0 83 -25 148.5t-79 116t-147 78t-220 27.5q-124 0 -260 -4zM639 -256q0 76 -61 90q-9 3 -9 12t11 9q36 -6 57.5 -33.5t21.5 -69.5q0 -66 -26 -100.5t-82 -57.5q-9 -3 -12 5q-4 9 6 12q94 39 94 133z" />
    <glyph glyph-name="rcommaaccent" unicode="&#x157;" horiz-adv-x="641" 
d="M205 741v-741q0 -8 -12 -8q-9 0 -9 8v913q0 9 13 9q8 0 8 -9v-135q44 71 113.5 115.5t158.5 44.5q87 0 131 -27q8 -4 10 -10.5t-2 -9.5q-4 -7 -14 -2q-30 17 -54 23t-71 6q-52 0 -95.5 -15.5t-77 -44t-55 -55t-44.5 -62.5zM324 -256q0 76 -62 90q-8 3 -8 12t10 9
q36 -6 58 -33.5t22 -69.5q0 -66 -26 -100.5t-82 -57.5q-10 -3 -13 5q-4 9 6 12q95 39 95 133z" />
    <glyph glyph-name="Rcaron" unicode="&#x158;" horiz-adv-x="1255" 
d="M1157 -8q-4 0 -10 6l-535 647h-346v-645q0 -8 -10 -8t-10 8v1411q0 9 6.5 16t15.5 7q49 0 148.5 2t111.5 2q113 0 200.5 -22.5t141.5 -58.5t88 -88.5t47 -106.5t13 -118q0 -140 -103 -252t-278 -143l530 -641q3 -4 0 -10t-10 -6zM266 1413v-747h303q104 0 202 48
t162 137.5t64 195.5q0 83 -25 148.5t-79 116t-147 78t-220 27.5q-124 0 -260 -4zM547 1520q-2 0 -10 4l-324 178q-8 6 -4 14q5 7 18 0l320 -174l315 174q17 8 21 0q6 -9 -4 -14l-322 -178q-8 -4 -10 -4z" />
    <glyph glyph-name="rcaron" unicode="&#x159;" horiz-adv-x="641" 
d="M205 741v-741q0 -8 -12 -8q-9 0 -9 8v913q0 9 13 9q8 0 8 -9v-135q44 71 113.5 115.5t158.5 44.5q87 0 131 -27q8 -4 10 -10.5t-2 -9.5q-4 -7 -14 -2q-30 17 -54 23t-71 6q-52 0 -95.5 -15.5t-77 -44t-55 -55t-44.5 -62.5zM614 1427l-223 -253q-5 -5 -8 -5t-8 5l-225 253
q-6 9 0 15q7 7 14 0l219 -246l215 246q9 9 16 2q8 -8 0 -17z" />
    <glyph glyph-name="Sacute" unicode="&#x15a;" horiz-adv-x="1107" 
d="M127 174q-3 7 2 12q11 11 21 -6q52 -72 169 -124t220 -52q111 0 206 36.5t157.5 115t62.5 186.5q0 98 -44.5 169t-115 112t-156 73t-171.5 64t-156.5 73t-115 112t-44.5 169q0 149 106 242.5t295 93.5q109 0 208.5 -37t156.5 -98q8 -9 2 -15q-8 -8 -17 0
q-130 130 -356 130q-171 0 -273 -86.5t-102 -227.5q0 -76 27.5 -134t74 -96t106.5 -67.5t127 -52.5t133.5 -46.5t126.5 -55.5t106.5 -73t74 -104.5t27.5 -144.5q0 -162 -126.5 -260t-315.5 -98q-119 0 -235.5 52.5t-180.5 137.5zM780 1714q10 5 15 -2q3 -7 -7 -14l-299 -172
q-9 -5 -14 2q-7 7 4 12z" />
    <glyph glyph-name="sacute" unicode="&#x15b;" horiz-adv-x="821" 
d="M129 115q10 6 18 -6q37 -46 111.5 -75.5t142.5 -29.5q114 0 195.5 58t81.5 165q0 61 -29 104t-75.5 66.5t-103 42.5t-113 39t-103 47t-75.5 76t-29 117q0 96 72.5 157.5t195.5 61.5q69 0 135 -24t104 -62q9 -9 0 -18q-8 -4 -14 2q-85 82 -229 82q-109 0 -176.5 -58
t-67.5 -139q0 -65 29 -110.5t75.5 -71t103 -45l113 -39t103 -45t75.5 -71t29 -110.5q0 -119 -83.5 -182t-211.5 -63q-75 0 -157 32.5t-117 77.5q-4 4 -4.5 10.5t4.5 10.5zM606 1442q7 -7 0 -17l-211 -272q-9 -13 -16 -6q-7 5 0 16l213 275q9 9 14 4z" />
    <glyph glyph-name="Scircumflex" unicode="&#x15c;" horiz-adv-x="1107" 
d="M127 174q-3 7 2 12q11 11 21 -6q52 -72 169 -124t220 -52q111 0 206 36.5t157.5 115t62.5 186.5q0 98 -44.5 169t-115 112t-156 73t-171.5 64t-156.5 73t-115 112t-44.5 169q0 149 106 242.5t295 93.5q109 0 208.5 -37t156.5 -98q8 -9 2 -15q-8 -8 -17 0
q-130 130 -356 130q-171 0 -273 -86.5t-102 -227.5q0 -76 27.5 -134t74 -96t106.5 -67.5t127 -52.5t133.5 -46.5t126.5 -55.5t106.5 -73t74 -104.5t27.5 -144.5q0 -162 -126.5 -260t-315.5 -98q-119 0 -235.5 52.5t-180.5 137.5zM236 1526q-11 -6 -17 0q-9 9 2 14l324 178
q8 4 10 4q6 0 10 -4l322 -178q11 -5 2 -14q-6 -6 -19 0l-315 174z" />
    <glyph glyph-name="scircumflex" unicode="&#x15d;" horiz-adv-x="821" 
d="M129 115q10 6 18 -6q37 -46 111.5 -75.5t142.5 -29.5q114 0 195.5 58t81.5 165q0 61 -29 104t-75.5 66.5t-103 42.5t-113 39t-103 47t-75.5 76t-29 117q0 96 72.5 157.5t195.5 61.5q69 0 135 -24t104 -62q9 -9 0 -18q-8 -4 -14 2q-85 82 -229 82q-109 0 -176.5 -58
t-67.5 -139q0 -65 29 -110.5t75.5 -71t103 -45l113 -39t103 -45t75.5 -71t29 -110.5q0 -119 -83.5 -182t-211.5 -63q-75 0 -157 32.5t-117 77.5q-4 4 -4.5 10.5t4.5 10.5zM184 1192l228 254q4 4 8 4t8 -4l221 -254q6 -8 0 -14q-7 -7 -14 0l-215 245l-219 -245q-9 -8 -17 0
q-7 7 0 14z" />
    <glyph glyph-name="Scedilla" unicode="&#x15e;" horiz-adv-x="1107" 
d="M539 -410q-74 0 -152 37q-8 4 -4 13q3 10 12 6q74 -35 144 -35q81 0 132.5 33.5t51.5 89.5q0 123 -186 123q-11 0 -11 10v117q-116 5 -227.5 56.5t-171.5 133.5q-3 7 2 12q11 11 21 -6q52 -72 169 -124t220 -52q111 0 206 36.5t157.5 115t62.5 186.5q0 98 -44.5 169
t-115 112t-156 73t-171.5 64t-156.5 73t-115 112t-44.5 169q0 149 106 242.5t295 93.5q109 0 208.5 -37t156.5 -98q8 -9 2 -15q-8 -8 -17 0q-130 130 -356 130q-171 0 -273 -86.5t-102 -227.5q0 -76 27.5 -134t74 -96t106.5 -67.5t127 -52.5t133.5 -46.5t126.5 -55.5
t106.5 -73t74 -104.5t27.5 -144.5q0 -162 -125 -259t-313 -99v-107q196 -3 196 -143q0 -64 -55.5 -104t-148.5 -40z" />
    <glyph glyph-name="scedilla" unicode="&#x15f;" horiz-adv-x="821" 
d="M406 -410q-74 0 -152 37q-8 4 -4 13q3 10 12 6q74 -35 144 -35q81 0 132.5 33.5t51.5 89.5q0 123 -187 123q-10 0 -10 10v117q-75 3 -153 35t-111 75q-4 4 -4.5 10.5t4.5 10.5q10 6 18 -6q37 -46 111.5 -75.5t142.5 -29.5q114 0 195.5 58t81.5 165q0 61 -29 104
t-75.5 66.5t-103 42.5t-113 39t-103 47t-75.5 76t-29 117q0 96 72.5 157.5t195.5 61.5q69 0 135 -24t104 -62q9 -9 0 -18q-8 -4 -14 2q-85 82 -229 82q-109 0 -176.5 -58t-67.5 -139q0 -65 29 -110.5t75.5 -71t103 -45l113 -39t103 -45t75.5 -71t29 -110.5
q0 -117 -79.5 -179.5t-204.5 -65.5v-107q196 -3 196 -143q0 -64 -55.5 -104t-148.5 -40z" />
    <glyph glyph-name="Scaron" unicode="&#x160;" horiz-adv-x="1107" 
d="M127 174q-3 7 2 12q11 11 21 -6q52 -72 169 -124t220 -52q111 0 206 36.5t157.5 115t62.5 186.5q0 98 -44.5 169t-115 112t-156 73t-171.5 64t-156.5 73t-115 112t-44.5 169q0 149 106 242.5t295 93.5q109 0 208.5 -37t156.5 -98q8 -9 2 -15q-8 -8 -17 0
q-130 130 -356 130q-171 0 -273 -86.5t-102 -227.5q0 -76 27.5 -134t74 -96t106.5 -67.5t127 -52.5t133.5 -46.5t126.5 -55.5t106.5 -73t74 -104.5t27.5 -144.5q0 -162 -126.5 -260t-315.5 -98q-119 0 -235.5 52.5t-180.5 137.5zM567 1520q-2 0 -10 4l-324 178q-8 6 -4 14
q5 7 19 0l319 -174l316 174q16 8 20 0q6 -9 -4 -14l-321 -178q-8 -4 -11 -4z" />
    <glyph glyph-name="scaron" unicode="&#x161;" horiz-adv-x="821" 
d="M129 115q10 6 18 -6q37 -46 111.5 -75.5t142.5 -29.5q114 0 195.5 58t81.5 165q0 61 -29 104t-75.5 66.5t-103 42.5t-113 39t-103 47t-75.5 76t-29 117q0 96 72.5 157.5t195.5 61.5q69 0 135 -24t104 -62q9 -9 0 -18q-8 -4 -14 2q-85 82 -229 82q-109 0 -176.5 -58
t-67.5 -139q0 -65 29 -110.5t75.5 -71t103 -45l113 -39t103 -45t75.5 -71t29 -110.5q0 -119 -83.5 -182t-211.5 -63q-75 0 -157 32.5t-117 77.5q-4 4 -4.5 10.5t4.5 10.5zM643 1427l-223 -253q-5 -5 -8 -5q-4 0 -9 5l-225 253q-6 9 0 15q8 8 15 0l219 -246l215 246q9 9 16 2
q3 -3 3 -8.5t-3 -8.5z" />
    <glyph glyph-name="Tcedilla" unicode="&#x162;" horiz-adv-x="1208" 
d="M606 -410q-73 0 -151 37q-8 4 -4 13q3 10 12 6q74 -35 143 -35q81 0 133 33.5t52 89.5q0 123 -187 123q-10 0 -10 10v1546h-565q-9 0 -9 10q0 11 9 11h1151q8 0 8 -11q0 -10 -8 -10h-566v-1536q197 -3 197 -143q0 -64 -56 -104t-149 -40z" />
    <glyph glyph-name="tcedilla" unicode="&#x163;" horiz-adv-x="698" 
d="M406 -410q-74 0 -152 37q-8 4 -4 13q3 10 12 6q74 -35 144 -35q81 0 132.5 33.5t51.5 89.5q0 123 -187 123q-10 0 -10 10v129q-119 17 -174 105t-55 249v819q0 9 12 9q8 0 8 -9v-247h412q8 0 8 -13q0 -8 -8 -8h-412v-532q0 -181 63.5 -269t205.5 -88q81 0 143 43
q11 11 16 0q3 -5 1 -9.5t-5 -6.5q-70 -47 -155 -47q-7 0 -20 1t-19 1v-117q196 -3 196 -143q0 -64 -55.5 -104t-148.5 -40z" />
    <glyph glyph-name="Tcaron" unicode="&#x164;" horiz-adv-x="1208" 
d="M614 0q0 -8 -10 -8t-10 8v1413h-565q-9 0 -9 10q0 11 9 11h1151q8 0 8 -11q0 -10 -8 -10h-566v-1413zM606 1520q-2 0 -10 4l-324 178q-8 6 -4 14q5 7 19 0l319 -174l316 174q16 8 20 0q6 -9 -4 -14l-322 -178q-8 -4 -10 -4z" />
    <glyph glyph-name="tcaron" unicode="&#x165;" horiz-adv-x="698" 
d="M612 55q3 -5 1 -9.5t-5 -6.5q-70 -47 -155 -47q-151 0 -220 89t-69 269v819q0 9 12 9q8 0 8 -9v-247h412q8 0 8 -13q0 -8 -8 -8h-412v-532q0 -181 63.5 -269t205.5 -88q81 0 143 43q11 11 16 0zM506 1343q0 48 -17 82q-2 3 1.5 7t7.5 4q6 0 12 -11q16 -32 16 -79
q0 -80 -31 -140t-79 -88q-10 -5 -13 4q-3 8 7 15q44 28 70 83t26 123z" />
    <glyph glyph-name="Umacron" unicode="&#x16a;" horiz-adv-x="1538" 
d="M788 8q84 0 158 21.5t138 68.5t110 116.5t72 170.5t26 225v815q0 3 3.5 7t7.5 4q10 0 10 -11v-821q0 -159 -42 -280t-115.5 -193t-166 -107.5t-201.5 -35.5q-120 0 -222 40t-178.5 117t-119.5 198t-43 275v807q0 3 3.5 7t7.5 4q10 0 10 -11v-809q0 -147 41.5 -263.5
t115 -191.5t172 -114t213.5 -39zM1059 1618h-582q-10 0 -10 10t10 10h582q10 0 10 -10t-10 -10z" />
    <glyph glyph-name="umacron" unicode="&#x16b;" horiz-adv-x="1126" 
d="M922 199v714q0 9 12 9q8 0 8 -9v-913q0 -8 -12 -8q-8 0 -8 8v170q-64 -76 -172 -131t-215 -55q-191 0 -281 102.5t-90 319.5v507q0 9 12 9q8 0 8 -9v-501q0 -208 86 -308t269 -100q116 0 225 62t158 133zM793 1311h-459q-10 0 -10 10t10 10h459q10 0 10 -10t-10 -10z" />
    <glyph glyph-name="Ubreve" unicode="&#x16c;" horiz-adv-x="1538" 
d="M788 8q84 0 158 21.5t138 68.5t110 116.5t72 170.5t26 225v815q0 3 3.5 7t7.5 4q10 0 10 -11v-821q0 -159 -42 -280t-115.5 -193t-166 -107.5t-201.5 -35.5q-120 0 -222 40t-178.5 117t-119.5 198t-43 275v807q0 3 3.5 7t7.5 4q10 0 10 -11v-809q0 -147 41.5 -263.5
t115 -191.5t172 -114t213.5 -39zM772 1556q-107 0 -183.5 45t-117.5 99q-7 7 0 14q6 6 14 -2q119 -135 287 -135q89 0 160.5 38.5t120.5 96.5q3 3 7 3.5t5 -1.5q3 -2 4 -6.5t-2 -7.5q-49 -62 -124 -103t-171 -41z" />
    <glyph glyph-name="ubreve" unicode="&#x16d;" horiz-adv-x="1126" 
d="M922 199v714q0 9 12 9q8 0 8 -9v-913q0 -8 -12 -8q-8 0 -8 8v170q-64 -76 -172 -131t-215 -55q-191 0 -281 102.5t-90 319.5v507q0 9 12 9q8 0 8 -9v-501q0 -208 86 -308t269 -100q116 0 225 62t158 133zM565 1229q-50 0 -94.5 14.5t-76.5 38.5t-52.5 45.5t-36.5 44.5
q-7 7 0 14q3 3 7.5 2t6.5 -4q22 -26 40 -43.5t49.5 -42t71.5 -37t85 -12.5q131 0 240 135q3 3 7 3.5t5 -1.5q3 -2 4 -6.5t-2 -7.5q-109 -143 -254 -143z" />
    <glyph glyph-name="Uring" unicode="&#x16e;" horiz-adv-x="1538" 
d="M788 8q84 0 158 21.5t138 68.5t110 116.5t72 170.5t26 225v815q0 3 3.5 7t7.5 4q10 0 10 -11v-821q0 -159 -42 -280t-115.5 -193t-166 -107.5t-201.5 -35.5q-120 0 -222 40t-178.5 117t-119.5 198t-43 275v807q0 3 3.5 7t7.5 4q10 0 10 -11v-809q0 -147 41.5 -263.5
t115 -191.5t172 -114t213.5 -39zM768 1427q-81 0 -134.5 42.5t-53.5 117.5t53 114.5t135 39.5q83 0 136.5 -39.5t53.5 -114.5t-54 -117.5t-136 -42.5zM768 1720q-75 0 -121.5 -33t-46.5 -100q0 -68 47 -103.5t121 -35.5t122 35.5t48 103.5q0 67 -47 100t-123 33z" />
    <glyph glyph-name="uring" unicode="&#x16f;" horiz-adv-x="1126" 
d="M922 199v714q0 9 12 9q8 0 8 -9v-913q0 -8 -12 -8q-8 0 -8 8v170q-64 -76 -172 -131t-215 -55q-191 0 -281 102.5t-90 319.5v507q0 9 12 9q8 0 8 -9v-501q0 -208 86 -308t269 -100q116 0 225 62t158 133zM373 1260q0 78 55 134t133 56t134.5 -56t56.5 -134t-56.5 -133.5
t-134.5 -55.5t-133 55.5t-55 133.5zM393 1260q0 -70 48.5 -119t119.5 -49t120.5 49t49.5 119t-49.5 120t-120.5 50q-70 0 -119 -49.5t-49 -120.5z" />
    <glyph glyph-name="Uhungarumlaut" unicode="&#x170;" horiz-adv-x="1538" 
d="M788 8q84 0 158 21.5t138 68.5t110 116.5t72 170.5t26 225v815q0 3 3.5 7t7.5 4q10 0 10 -11v-821q0 -159 -42 -280t-115.5 -193t-166 -107.5t-201.5 -35.5q-120 0 -222 40t-178.5 117t-119.5 198t-43 275v807q0 3 3.5 7t7.5 4q10 0 10 -11v-809q0 -147 41.5 -263.5
t115 -191.5t172 -114t213.5 -39zM1190 1714q9 4 12 -2q4 -8 -4 -14l-299 -172q-9 -5 -14 2q-7 7 4 12zM854 1712q4 -8 -4 -14l-299 -172q-9 -5 -14 2q-7 7 4 12l301 174q9 4 12 -2z" />
    <glyph glyph-name="uhungarumlaut" unicode="&#x171;" horiz-adv-x="1126" 
d="M922 199v714q0 9 12 9q8 0 8 -9v-913q0 -8 -12 -8q-8 0 -8 8v170q-64 -76 -172 -131t-215 -55q-191 0 -281 102.5t-90 319.5v507q0 9 12 9q8 0 8 -9v-501q0 -208 86 -308t269 -100q116 0 225 62t158 133zM608 1438q8 8 15 2q3 -2 3 -7t-3 -8l-211 -272q-8 -8 -15 -4
q-6 6 -2 14zM895 1438q8 8 14 2q3 -2 3 -7t-3 -8l-211 -272q-7 -7 -14 -4q-6 6 -2 14z" />
    <glyph glyph-name="Uogonek" unicode="&#x172;" horiz-adv-x="1538" 
d="M819 -389q52 0 88 14q9 3 13 -4q4 -11 -7 -14q-47 -17 -96 -17q-33 0 -65.5 8.5t-65.5 28t-53.5 58t-20.5 90.5q0 75 50.5 128t132.5 85h-7q-120 0 -222 40t-178.5 117t-119.5 198t-43 275v807q0 3 3.5 7t7.5 4q10 0 10 -11v-809q0 -147 41.5 -263.5t115 -191.5t172 -114
t213.5 -39q48 0 97 6l22 6q175 38 280 185t105 405v815q0 3 3.5 7t7.5 4q10 0 10 -11v-821q0 -142 -33.5 -254t-93 -184.5t-136 -115.5t-169.5 -56q-108 -27 -178 -80.5t-70 -138.5q0 -38 14 -68.5t34.5 -48t47 -28.5t48.5 -15t42 -4z" />
    <glyph glyph-name="uogonek" unicode="&#x173;" horiz-adv-x="1126" 
d="M844 -389q52 0 88 14q9 3 12 -4q4 -11 -6 -14q-47 -17 -96 -17q-33 0 -65.5 8.5t-65.5 28t-53.5 58t-20.5 90.5q0 101 86.5 170t198.5 75v150q-64 -76 -172 -131t-215 -55q-191 0 -281 102.5t-90 319.5v507q0 9 12 9q8 0 8 -9v-501q0 -208 86 -308t269 -100q116 0 225 62
t158 133v714q0 9 12 9q8 0 8 -9v-905l-2 -4l-2 -2q-2 -2 -4 -2h-6q-106 -5 -188.5 -68t-82.5 -157q0 -38 14 -68.5t34.5 -48t47.5 -28.5t49 -15t42 -4z" />
    <glyph glyph-name="Ydieresis" unicode="&#x178;" horiz-adv-x="1134" 
d="M61 1436q7 0 11 -9l493 -761l498 761q5 9 12 9q6 0 9 -6.5t-1 -12.5l-508 -772v-645q0 -8 -10 -8t-10 8v645l-504 772q-3 6 0 12.5t10 6.5zM330 1591q-11 0 -19 7.5t-8 19.5q0 10 8 17t19 7q9 0 16.5 -7t7.5 -17q0 -12 -7.5 -19.5t-16.5 -7.5zM809 1591q-11 0 -19 7.5
t-8 19.5q0 10 8 17t19 7q10 0 17.5 -6.5t7.5 -17.5q0 -12 -8 -19.5t-17 -7.5z" />
    <glyph glyph-name="Zacute" unicode="&#x179;" horiz-adv-x="1269" 
d="M1188 10q0 -10 -8 -10h-1069q-13 0 -17 11t4 20l1032 1382h-995q-8 0 -8 10q0 11 8 11h1002q12 0 16 -10t-4 -21l-1032 -1383h1063q8 0 8 -10zM862 1714q10 5 15 -2q3 -7 -7 -14l-299 -172q-9 -5 -14 2q-7 7 4 12z" />
    <glyph glyph-name="zacute" unicode="&#x17a;" horiz-adv-x="972" 
d="M121 0q-6 0 -8 6t2 10l716 885h-690q-8 0 -8 12q0 9 8 9h711q6 0 8 -6t-2 -11l-719 -885h713q8 0 8 -12q0 -8 -8 -8h-731zM682 1442q7 -7 0 -17l-211 -272q-9 -13 -16 -6q-7 5 0 16l213 275q9 9 14 4z" />
    <glyph glyph-name="Zdotaccent" unicode="&#x17b;" horiz-adv-x="1269" 
d="M1188 10q0 -10 -8 -10h-1069q-13 0 -17 11t4 20l1032 1382h-995q-8 0 -8 10q0 11 8 11h1002q12 0 16 -10t-4 -21l-1032 -1383h1063q8 0 8 -10zM614 1591q-11 0 -18.5 7.5t-7.5 19.5q0 10 7.5 17t18.5 7q9 0 17 -7t8 -17q0 -12 -7.5 -19.5t-17.5 -7.5z" />
    <glyph glyph-name="zdotaccent" unicode="&#x17c;" horiz-adv-x="972" 
d="M121 0q-6 0 -8 6t2 10l716 885h-690q-8 0 -8 12q0 9 8 9h711q6 0 8 -6t-2 -11l-719 -885h713q8 0 8 -12q0 -8 -8 -8h-731zM485 1270q-11 0 -18.5 8t-7.5 18q0 9 8 17t18 8q9 0 17 -8t8 -17q0 -10 -8 -18t-17 -8z" />
    <glyph glyph-name="Zcaron" unicode="&#x17d;" horiz-adv-x="1269" 
d="M1188 10q0 -10 -8 -10h-1069q-13 0 -17 11t4 20l1032 1382h-995q-8 0 -8 10q0 11 8 11h1002q12 0 16 -10t-4 -21l-1032 -1383h1063q8 0 8 -10zM629 1520q-3 0 -11 4l-323 178q-8 6 -4 14q5 7 18 0l320 -174l315 174q17 8 21 0q6 -9 -4 -14l-322 -178q-8 -4 -10 -4z" />
    <glyph glyph-name="zcaron" unicode="&#x17e;" horiz-adv-x="972" 
d="M121 0q-6 0 -8 6t2 10l716 885h-690q-8 0 -8 12q0 9 8 9h711q6 0 8 -6t-2 -11l-719 -885h713q8 0 8 -12q0 -8 -8 -8h-731zM719 1427l-223 -253q-5 -5 -9 -5q-3 0 -8 5l-225 253q-6 9 0 15q7 7 14 0l219 -246l215 246q10 10 17 2q3 -3 3 -8.5t-3 -8.5z" />
    <glyph glyph-name="longs" unicode="&#x17f;" horiz-adv-x="514" 
d="M246 1053v-1053q0 -8 -13 -8q-8 0 -8 8v1071q0 379 310 379q127 0 217 -66q12 -8 2 -18q-8 -8 -15 0q-93 64 -204 64q-147 0 -218 -90.5t-71 -286.5z" />
    <glyph glyph-name="uni018F" unicode="&#x18f;" horiz-adv-x="1589" 
d="M332 1321q78 66 190.5 97.5t229.5 31.5q329 0 521.5 -195.5t192.5 -529.5q0 -154 -47.5 -289.5t-133.5 -235.5t-215.5 -158t-285.5 -58q-202 0 -356.5 97.5t-237 263t-88.5 374.5q0 9 7 15.5t16 6.5h1321q-6 316 -193.5 502.5t-500.5 186.5q-250 0 -408 -123q-2 -2 -8 -2
t-7.5 6.5t3.5 9.5zM123 721q2 -149 49.5 -280t131.5 -228t207.5 -153t270.5 -56q154 0 280 56.5t209 154t128.5 227.5t46.5 279h-1323z" />
    <glyph glyph-name="florin" unicode="&#x192;" 
d="M1221 1366q-7 -10 -17 0q-93 64 -205 64q-143 0 -217.5 -87.5t-111.5 -289.5l-25 -131h395q9 0 9 -13q0 -8 -9 -8h-399l-176 -969q-16 -89 -40.5 -152.5t-63 -111t-94.5 -71t-132 -23.5q-85 0 -155 47q-4 2 -6.5 7t1.5 10q1 3 7.5 3t9.5 -3q63 -44 143 -44q139 0 208 83
t101 260l174 964h-366q-8 0 -8 12q0 9 8 9h371l26 149q36 196 117.5 287.5t232.5 91.5q128 0 218 -66q4 -3 5.5 -9t-1.5 -9z" />
    <glyph glyph-name="uni01DD" unicode="&#x1dd;" horiz-adv-x="1083" 
d="M133 461h817q0 127 -50 229.5t-151 165t-237 62.5q-96 0 -190 -37.5t-148 -96.5q-6 -6 -12 0q-5 5 0 15q57 66 155.5 102.5t194.5 36.5q208 0 333.5 -129.5t125.5 -347.5q0 -102 -28 -188t-81.5 -151t-137 -101.5t-189.5 -36.5q-190 0 -306 112t-116 297q0 33 2 49
q0 8 5.5 13.5t12.5 5.5zM541 4q185 0 297 123t112 313h-817q-7 -208 104 -322t304 -114z" />
    <glyph glyph-name="Scommaaccent" unicode="&#x218;" horiz-adv-x="1107" 
d="M127 174q-3 7 2 12q11 11 21 -6q52 -72 169 -124t220 -52q111 0 206 36.5t157.5 115t62.5 186.5q0 98 -44.5 169t-115 112t-156 73t-171.5 64t-156.5 73t-115 112t-44.5 169q0 149 106 242.5t295 93.5q109 0 208.5 -37t156.5 -98q8 -9 2 -15q-8 -8 -17 0
q-130 130 -356 130q-171 0 -273 -86.5t-102 -227.5q0 -76 27.5 -134t74 -96t106.5 -67.5t127 -52.5t133.5 -46.5t126.5 -55.5t106.5 -73t74 -104.5t27.5 -144.5q0 -162 -126.5 -260t-315.5 -98q-119 0 -235.5 52.5t-180.5 137.5zM578 -256q0 76 -62 90q-8 3 -8 12t10 9
q36 -6 58 -33.5t22 -69.5q0 -65 -26.5 -100t-82.5 -58q-9 -3 -12 5q-4 9 6 12q95 39 95 133z" />
    <glyph glyph-name="scommaaccent" unicode="&#x219;" horiz-adv-x="821" 
d="M129 115q10 6 18 -6q37 -46 111.5 -75.5t142.5 -29.5q114 0 195.5 58t81.5 165q0 61 -29 104t-75.5 66.5t-103 42.5t-113 39t-103 47t-75.5 76t-29 117q0 96 72.5 157.5t195.5 61.5q69 0 135 -24t104 -62q9 -9 0 -18q-8 -4 -14 2q-85 82 -229 82q-109 0 -176.5 -58
t-67.5 -139q0 -65 29 -110.5t75.5 -71t103 -45l113 -39t103 -45t75.5 -71t29 -110.5q0 -119 -83.5 -182t-211.5 -63q-75 0 -157 32.5t-117 77.5q-4 4 -4.5 10.5t4.5 10.5zM455 -256q0 76 -62 90q-8 3 -8 12t10 9q36 -6 58 -33.5t22 -69.5q0 -66 -26 -100.5t-82 -57.5
q-10 -3 -13 5q-4 9 6 12q95 39 95 133z" />
    <glyph glyph-name="Tcommaaccent" unicode="&#x21a;" horiz-adv-x="1208" 
d="M614 0q0 -8 -10 -8t-10 8v1413h-565q-9 0 -9 10q0 11 9 11h1151q8 0 8 -11q0 -10 -8 -10h-566v-1413zM649 -256q0 76 -61 90q-8 3 -8 12t10 9q36 -6 58 -33.5t22 -69.5q0 -65 -26.5 -100t-82.5 -58q-9 -3 -12 5q-4 9 6 12q94 39 94 133z" />
    <glyph glyph-name="tcommaaccent" unicode="&#x21b;" horiz-adv-x="698" 
d="M612 55q3 -5 1 -9.5t-5 -6.5q-70 -47 -155 -47q-151 0 -220 89t-69 269v819q0 9 12 9q8 0 8 -9v-247h412q8 0 8 -13q0 -8 -8 -8h-412v-532q0 -181 63.5 -269t205.5 -88q81 0 143 43q11 11 16 0zM444 -256q0 76 -61 90q-8 3 -8 12t10 9q36 -6 58 -33.5t22 -69.5
q0 -65 -26.5 -100t-82.5 -58q-9 -3 -12 5q-4 9 6 12q94 39 94 133z" />
    <glyph glyph-name="uni0237" unicode="&#x237;" horiz-adv-x="514" 
d="M248 -70v983q0 9 12 9q8 0 8 -9v-981q0 -358 -288 -358q-86 0 -156 47q-9 5 0 14q5 10 12 3q63 -44 144 -44q141 0 204.5 84.5t63.5 251.5z" />
    <glyph glyph-name="uni0259" unicode="&#x259;" horiz-adv-x="1083" 
d="M133 461h817q0 127 -50 229.5t-151 165t-237 62.5q-96 0 -190 -37.5t-148 -96.5q-6 -6 -12 0q-5 5 0 15q57 66 155.5 102.5t194.5 36.5q208 0 333.5 -129.5t125.5 -347.5q0 -102 -28 -188t-81.5 -151t-137 -101.5t-189.5 -36.5q-190 0 -306 112t-116 297q0 33 2 49
q0 8 5.5 13.5t12.5 5.5zM541 4q185 0 297 123t112 313h-817q-7 -208 104 -322t304 -114z" />
    <glyph glyph-name="afii57929" unicode="&#x2bc;" horiz-adv-x="370" 
d="M227 1188q0 64 -32 100q-7 10 2 19q6 6 14 -2q37 -47 37 -113q0 -150 -111 -211q-9 -5 -12 4q-3 8 6 12q96 56 96 191z" />
    <glyph glyph-name="circumflex" unicode="&#x2c6;" horiz-adv-x="722" 
d="M129 1192l227 254q4 4 9 4q4 0 8 -4l221 -254q6 -8 0 -14q-7 -7 -14 0l-215 245l-220 -245q-8 -8 -16 0q-7 7 0 14z" />
    <glyph glyph-name="caron" unicode="&#x2c7;" horiz-adv-x="722" 
d="M594 1427l-223 -253q-5 -5 -9 -5q-3 0 -8 5l-225 253q-6 9 0 15q7 7 14 0l219 -246l216 246q9 9 16 2q8 -8 0 -17z" />
    <glyph glyph-name="breve" unicode="&#x2d8;" horiz-adv-x="772" 
d="M389 1229q-50 0 -94.5 14.5t-76.5 38.5t-52.5 45.5t-36.5 44.5q-7 7 0 14q3 3 7.5 2t6.5 -4q22 -26 40 -43.5t49.5 -42t71.5 -37t85 -12.5q131 0 240 135q3 3 7 3.5t5 -1.5q3 -2 4 -6.5t-2 -7.5q-109 -143 -254 -143z" />
    <glyph glyph-name="dotaccent" unicode="&#x2d9;" horiz-adv-x="296" 
d="M150 1270q-11 0 -19 8t-8 18q0 9 8.5 17t18.5 8q9 0 16.5 -8t7.5 -17q0 -10 -7.5 -18t-16.5 -8z" />
    <glyph glyph-name="ring" unicode="&#x2da;" horiz-adv-x="624" 
d="M123 1260q0 78 55 134t133 56t134.5 -56t56.5 -134t-56.5 -133.5t-134.5 -55.5t-133 55.5t-55 133.5zM143 1260q0 -70 48.5 -119t119.5 -49t120.5 49t49.5 119t-49.5 120t-120.5 50q-70 0 -119 -49.5t-49 -120.5z" />
    <glyph glyph-name="ogonek" unicode="&#x2db;" horiz-adv-x="557" 
d="M330 -389q52 0 88 14q9 3 12 -4q4 -11 -6 -14q-47 -17 -96 -17q-33 0 -65.5 8.5t-65.5 28t-53.5 58t-20.5 90.5q0 69 44 125.5t111 87t140 32.5q10 0 10 -10t-10 -10q-106 -3 -190.5 -67t-84.5 -158q0 -38 14 -68.5t34.5 -48t47.5 -28.5t49 -15t42 -4z" />
    <glyph glyph-name="tilde" unicode="&#x2dc;" horiz-adv-x="817" 
d="M295 1298q-64 0 -152 -71q-7 -5 -12 0q-7 7 0 14q98 78 170 78q32 0 63 -15.5t52 -34.5t49.5 -34.5t56.5 -15.5q62 0 150 81q7 7 14 0t0 -14q-96 -88 -168 -88q-30 0 -60 15.5t-51 34.5t-51 34.5t-61 15.5z" />
    <glyph glyph-name="hungarumlaut" unicode="&#x2dd;" horiz-adv-x="772" 
d="M342 1438q8 8 14 2q3 -2 3 -7t-3 -8l-211 -272q-7 -7 -14 -4q-6 6 -2 14zM629 1438q8 8 14 2q3 -2 3 -7t-3 -8l-211 -272q-7 -7 -14 -4q-6 6 -2 14z" />
    <glyph glyph-name="gravecomb" unicode="&#x300;" horiz-adv-x="0" 
d="M-504 1163q7 -7 -2 -12q-6 -6 -14 2l-211 272q-6 9 0 15q8 8 14 -2z" />
    <glyph glyph-name="acutecomb" unicode="&#x301;" horiz-adv-x="0" 
d="M-342 1442q7 -7 0 -17l-211 -272q-9 -13 -16 -6q-7 5 0 16l213 275q9 9 14 4z" />
    <glyph glyph-name="uni0394" unicode="&#x394;" horiz-adv-x="1425" 
d="M1311 20l-606 1389l-592 -1389h1198zM94 31l596 1390q6 13 15 13q7 0 14 -13l612 -1390q5 -11 -1.5 -21t-18.5 -10h-1196q-12 0 -19 10t-2 21z" />
    <glyph glyph-name="uni0394" unicode="&#x2206;" horiz-adv-x="1425" 
d="M1311 20l-606 1389l-592 -1389h1198zM94 31l596 1390q6 13 15 13q7 0 14 -13l612 -1390q5 -11 -1.5 -21t-18.5 -10h-1196q-12 0 -19 10t-2 21z" />
    <glyph glyph-name="uni03A9" unicode="&#x3a9;" horiz-adv-x="1646" 
d="M666 23q8 -4 8 -13q0 -10 -10 -10h-457q-8 0 -8 10t8 10h389q-212 71 -342.5 261t-130.5 436q0 205 92 373t252.5 264t355.5 96t355.5 -96t253 -264t92.5 -373q0 -247 -131 -436.5t-344 -260.5h389q8 0 8 -10t-8 -10h-457q-10 0 -10 10q0 9 8 13q232 53 378 243.5
t146 450.5q0 150 -52.5 282.5t-143 227t-216.5 149t-268 54.5t-268 -54.5t-216.5 -149t-143 -227t-52.5 -282.5q0 -260 145.5 -450.5t377.5 -243.5z" />
    <glyph glyph-name="uni03A9" unicode="&#x2126;" horiz-adv-x="1646" 
d="M666 23q8 -4 8 -13q0 -10 -10 -10h-457q-8 0 -8 10t8 10h389q-212 71 -342.5 261t-130.5 436q0 205 92 373t252.5 264t355.5 96t355.5 -96t253 -264t92.5 -373q0 -247 -131 -436.5t-344 -260.5h389q8 0 8 -10t-8 -10h-457q-10 0 -10 10q0 9 8 13q232 53 378 243.5
t146 450.5q0 150 -52.5 282.5t-143 227t-216.5 149t-268 54.5t-268 -54.5t-216.5 -149t-143 -227t-52.5 -282.5q0 -260 145.5 -450.5t377.5 -243.5z" />
    <glyph glyph-name="pi" unicode="&#x3c0;" horiz-adv-x="1333" 
d="M90 20q63 2 109 35t81 108.5t52.5 207.5t17.5 323v207h-227q-8 0 -8 12q0 9 8 9h1087q9 0 9 -13q0 -8 -9 -8h-227v-684q0 -112 24 -157.5t93 -45.5t131 43q10 10 16 -2q6 -9 -4 -14q-70 -47 -143 -47q-72 0 -104.5 45.5t-32.5 146.5v715h-592v-188q0 -168 -13.5 -293
t-37 -204t-60 -127.5t-77 -68t-93.5 -20.5q-8 0 -8 12q0 8 8 8z" />
    <glyph glyph-name="afii10023" unicode="&#x401;" horiz-adv-x="1177" 
d="M266 20h760q8 0 8 -10t-8 -10h-758q-9 0 -15.5 7t-6.5 16v1388q0 9 6.5 16t15.5 7h738q8 0 8 -11q0 -10 -8 -10h-740v-672h678q8 0 8 -10t-8 -10h-678v-701zM391 1591q-11 0 -18.5 7.5t-7.5 19.5q0 10 7.5 17t18.5 7q9 0 17 -7t8 -17q0 -12 -8 -19.5t-17 -7.5zM870 1591
q-11 0 -18.5 7.5t-7.5 19.5q0 10 7.5 17t18.5 7q10 0 17.5 -6.5t7.5 -17.5q0 -12 -7.5 -19.5t-17.5 -7.5z" />
    <glyph glyph-name="afii10051" unicode="&#x402;" horiz-adv-x="1550" 
d="M1180 1413h-566v-688q58 41 100.5 66t124 50t169.5 25q419 0 419 -446q0 -118 -25 -204t-71 -136t-104 -73t-131 -23q-44 0 -89 16t-69 37q-8 8 -4 14q4 7 12 2q65 -49 152 -49q144 0 226.5 102t82.5 314q0 220 -101 323t-302 103q-48 0 -93.5 -8t-76.5 -17t-69 -28
t-55.5 -29.5t-52 -33.5t-43.5 -28v-702q0 -8 -10 -8t-10 8v1413h-565q-9 0 -9 10q0 11 9 11h1151q8 0 8 -11q0 -10 -8 -10z" />
    <glyph glyph-name="afii10052" unicode="&#x403;" horiz-adv-x="1024" 
d="M1016 1413h-750v-1413q0 -8 -10 -8t-10 8v1411q0 9 6.5 16t15.5 7h748q8 0 8 -11q0 -10 -8 -10zM862 1714q10 5 15 -2q3 -7 -7 -14l-299 -172q-9 -5 -14 2q-7 7 4 12z" />
    <glyph glyph-name="afii10053" unicode="&#x404;" horiz-adv-x="1400" 
d="M1290 127q-105 -74 -210.5 -108.5t-233.5 -34.5q-211 0 -375.5 91t-256 258t-91.5 384q0 209 86.5 375t250.5 262t378 96q117 0 229 -31.5t190 -97.5q6 -6 0 -12q-7 -7 -18 2q-154 119 -401 119q-204 0 -361.5 -90t-243 -246t-90.5 -353h828q8 0 8 -10q0 -12 -8 -12h-828
q0 -210 87.5 -372.5t248.5 -252.5t369 -90q121 0 223 33.5t207 105.5q11 5 16 -2q4 -6 -4 -14z" />
    <glyph glyph-name="afii10054" unicode="&#x405;" horiz-adv-x="1107" 
d="M127 174q-3 7 2 12q11 11 21 -6q52 -72 169 -124t220 -52q111 0 206 36.5t157.5 115t62.5 186.5q0 98 -44.5 169t-115 112t-156 73t-171.5 64t-156.5 73t-115 112t-44.5 169q0 149 106 242.5t295 93.5q109 0 208.5 -37t156.5 -98q8 -9 2 -15q-8 -8 -17 0
q-130 130 -356 130q-171 0 -273 -86.5t-102 -227.5q0 -76 27.5 -134t74 -96t106.5 -67.5t127 -52.5t133.5 -46.5t126.5 -55.5t106.5 -73t74 -104.5t27.5 -144.5q0 -162 -126.5 -260t-315.5 -98q-119 0 -235.5 52.5t-180.5 137.5z" />
    <glyph glyph-name="afii10055" unicode="&#x406;" horiz-adv-x="634" 
d="M317 1436q4 0 7.5 -4t3.5 -7v-1425q0 -8 -11 -8q-10 0 -10 8v1425q0 11 10 11z" />
    <glyph glyph-name="afii10056" unicode="&#x407;" horiz-adv-x="634" 
d="M154 1618q0 9 8 16.5t18 7.5q9 0 17 -7.5t8 -16.5q0 -10 -8 -18.5t-17 -8.5q-10 0 -18 8t-8 19zM430 1618q0 9 8.5 16.5t18.5 7.5q9 0 16.5 -7.5t7.5 -16.5q0 -10 -7.5 -18.5t-16.5 -8.5q-11 0 -19 8.5t-8 18.5zM317 1436q4 0 7.5 -4t3.5 -7v-1425q0 -8 -11 -8
q-10 0 -10 8v1425q0 11 10 11z" />
    <glyph glyph-name="afii10057" unicode="&#x408;" horiz-adv-x="698" 
d="M205 4q70 0 117 22.5t70 66t31.5 91.5t8.5 115v1126q0 11 10 11q4 0 7.5 -4t3.5 -7v-1124q0 -75 -11 -129t-37.5 -98.5t-76.5 -67t-123 -22.5q-84 0 -154 47q-10 7 -8 14q4 12 14 4q70 -45 148 -45z" />
    <glyph glyph-name="afii10058" unicode="&#x409;" horiz-adv-x="2144" 
d="M1229 817q156 12 256 12q269 0 402.5 -105t133.5 -296q0 -214 -144 -323t-400 -109q-47 0 -128 2t-118 2q-9 0 -16 7t-7 16v1390h-725l-20 -270q-16 -216 -40.5 -391t-50.5 -292t-59 -204.5t-62.5 -136t-64.5 -78t-60.5 -38t-55.5 -9.5q-9 0 -9 10t9 10q23 1 45 9
t54.5 36.5t61.5 75t61.5 133.5t59 201.5t51 289t39.5 388.5l19 262q0 1 1 4t1 4q7 17 22 17h721q9 0 16 -7t7 -16v-594zM1229 797v-777q33 0 114 -2t136 -2q254 0 388 106t134 308q0 180 -130 279.5t-382 99.5q-135 0 -260 -12z" />
    <glyph glyph-name="afii10059" unicode="&#x40a;" horiz-adv-x="2236" 
d="M1300 776h-1034v-776q0 -8 -10 -8t-10 8v1425q0 11 10 11t10 -11v-628h1034v628q0 3 3.5 7t7.5 4q10 0 10 -11v-628q156 12 256 12q270 0 403.5 -100.5t133.5 -290.5q0 -213 -143.5 -317.5t-401.5 -104.5q-47 0 -128 2t-118 2q-9 0 -16 7t-7 16v753zM1321 20q33 0 114 -2
t136 -2q256 0 389 101.5t133 302.5q0 179 -129 273.5t-383 94.5q-135 0 -260 -12v-756z" />
    <glyph glyph-name="afii10060" unicode="&#x40b;" horiz-adv-x="1550" 
d="M614 0q0 -8 -10 -8t-10 8v1413h-565q-9 0 -9 10q0 11 9 11h1151q8 0 8 -11q0 -10 -8 -10h-566v-690q192 143 416 143q190 0 293.5 -112.5t103.5 -345.5v-408q0 -8 -10 -8t-10 8v414q0 213 -98 322.5t-283 109.5q-29 0 -58.5 -3t-53 -6.5t-50.5 -12t-45 -13.5t-43.5 -17.5
t-37.5 -18t-36.5 -19.5l-31.5 -18t-30 -19t-26 -17v-702z" />
    <glyph glyph-name="afii10061" unicode="&#x40c;" horiz-adv-x="1257" 
d="M1149 -4l-750 735q-6 6 -6 15.5t6 15.5l723 670q5 5 13 2q10 -7 0 -17l-721 -669l749 -736q5 -4 4.5 -10.5t-6.5 -9.5q-5 -3 -12 4zM256 1436q10 0 10 -11v-1425q0 -8 -10 -8t-10 8v1425q0 11 10 11zM862 1714q10 5 15 -2q3 -7 -7 -14l-299 -172q-9 -5 -14 2q-7 7 4 12z
" />
    <glyph glyph-name="afii10062" unicode="&#x40e;" horiz-adv-x="1292" 
d="M57 1436q7 0 11 -9l665 -1091l494 1091q5 9 10 9q6 0 8 -5t0 -10l-502 -1106q-77 -171 -142 -246t-150 -75q-79 0 -129 37q-5 5 -5 8q0 7 7.5 8.5t11.5 -2.5q45 -33 113 -33q40 0 76 19t66 55.5t53 75t48 90.5l31 63l-674 1106q-3 5 -0.5 10t8.5 5zM668 1536
q-106 0 -194 49.5t-132 122.5q-3 5 -0.5 8.5t6.5 3.5q9 0 14 -8q43 -65 126 -110.5t180 -45.5t181.5 45t117.5 111q4 8 12 8q11 0 8 -10q-32 -74 -125 -124t-194 -50z" />
    <glyph glyph-name="afii10145" unicode="&#x40f;" horiz-adv-x="1566" 
d="M793 -319q0 -9 -11 -9q-10 0 -10 9v319h-504q-9 0 -15.5 7t-6.5 16v1402q0 11 10 11t10 -11v-1405h1034v1405q0 3 3.5 7t7.5 4q10 0 10 -11v-1402q0 -9 -7 -16t-16 -7h-505v-319z" />
    <glyph glyph-name="afii10017" unicode="&#x410;" horiz-adv-x="1402" 
d="M1321 -2l-252 569h-737l-250 -569q-3 -6 -10 -6q-5 0 -7.5 4t-1.5 8l621 1415q5 15 16 15q12 0 17 -15l622 -1415q4 -12 -10 -12q-5 0 -8 6zM1061 588l-361 821l-360 -821h721z" />
    <glyph glyph-name="afii10018" unicode="&#x411;" horiz-adv-x="1243" 
d="M268 0q-9 0 -15.5 7t-6.5 16v1388q0 9 6.5 16t15.5 7h727q9 0 9 -11q0 -10 -9 -10h-729v-596q156 12 277 12q269 0 402.5 -105t133.5 -296q0 -214 -144 -323t-400 -109q-47 0 -138 2t-129 2zM266 797v-777q34 0 125 -2t146 -2q254 0 388 106t134 308q0 180 -130 279.5
t-382 99.5q-156 0 -281 -12z" />
    <glyph glyph-name="afii10019" unicode="&#x412;" horiz-adv-x="1263" 
d="M1038 1085q0 -100 -47.5 -176.5t-120 -117t-159.5 -50.5q189 -17 289 -108t100 -246q0 -83 -24.5 -148.5t-68.5 -110.5t-106.5 -75t-136 -43.5t-160.5 -13.5q-54 0 -174 2t-162 2q-9 0 -15.5 7t-6.5 16v1388q0 9 6.5 16t15.5 7q41 0 159.5 2t170.5 2q124 0 212 -26.5
t136.5 -76t70 -110.5t21.5 -140zM266 727v-707q34 0 156 -2t176 -2q229 0 355 93.5t126 279.5q0 161 -124 249.5t-353 88.5h-336zM266 1413v-665h352q168 0 284 94t116 245q0 164 -101.5 247t-322.5 83q-192 0 -328 -4z" />
    <glyph glyph-name="afii10020" unicode="&#x413;" horiz-adv-x="1024" 
d="M1016 1413h-750v-1413q0 -8 -10 -8t-10 8v1411q0 9 6.5 16t15.5 7h748q8 0 8 -11q0 -10 -8 -10z" />
    <glyph glyph-name="afii10021" unicode="&#x414;" horiz-adv-x="1503" 
d="M1401 0h-1340v-279q0 -8 -10 -8t-10 8v277q0 9 6.5 15.5t15.5 6.5h132q22 27 47.5 75.5t60 145t64 216t55 301.5t37.5 389l14 262q0 1 1 4t1 4q7 17 23 17h706q9 0 16 -7t7 -16v-1391h172q9 0 15.5 -6.5t6.5 -15.5v-277q0 -8 -10 -8t-10 8v279zM219 20h987v1393h-710
l-17 -270q-13 -209 -39 -392t-55 -303t-63 -215t-58.5 -142t-44.5 -71z" />
    <glyph glyph-name="afii10022" unicode="&#x415;" horiz-adv-x="1177" 
d="M266 20h760q8 0 8 -10t-8 -10h-758q-9 0 -15.5 7t-6.5 16v1388q0 9 6.5 16t15.5 7h738q8 0 8 -11q0 -10 -8 -10h-740v-672h678q8 0 8 -10t-8 -10h-678v-701z" />
    <glyph glyph-name="afii10024" unicode="&#x416;" horiz-adv-x="1830" 
d="M915 1436q4 0 7.5 -4t3.5 -7v-1425q0 -8 -11 -8q-10 0 -10 8v1425q0 11 10 11zM135 1432l641 -668q6 -6 6 -16t-6 -17l-670 -733q-6 -6 -12 -6t-8 5t2 9l678 742l-645 669q-5 5 -3 12t9 7q4 0 8 -4zM1724 -2l-669 733q-6 8 -6 17.5t6 15.5l641 666q6 6 10 6q7 0 9 -6
t-5 -13l-645 -667l676 -740q7 -8 5 -13t-9 -5t-13 6z" />
    <glyph glyph-name="afii10025" unicode="&#x417;" horiz-adv-x="1157" 
d="M547 1450q181 0 286 -95t105 -263q0 -110 -62.5 -210t-170.5 -143q129 -12 208.5 -111t79.5 -227q0 -194 -129.5 -305.5t-335.5 -111.5q-113 0 -238 52.5t-184 135.5q-7 7 3 14q7 5 14 -2q60 -82 180.5 -131t218.5 -49q210 0 330.5 108t120.5 289q0 148 -93 235t-247 87
h-191q-8 0 -8 10t8 10h176q113 0 206.5 105t93.5 250q0 160 -102 246t-261 86q-248 0 -395 -168q-7 -7 -15 -2q-7 7 0 14q73 85 177.5 130.5t224.5 45.5z" />
    <glyph glyph-name="afii10026" unicode="&#x418;" horiz-adv-x="1638" 
d="M1393 0q0 -8 -11 -8q-10 0 -10 8v1403l-1100 -1405q-7 -10 -16 -10q-10 0 -10 12v1425q0 11 10 11t10 -11v-1405l1100 1407q11 11 16 11q11 0 11 -13v-1425z" />
    <glyph glyph-name="afii10027" unicode="&#x419;" horiz-adv-x="1638" 
d="M1393 0q0 -8 -11 -8q-10 0 -10 8v1403l-1100 -1405q-7 -10 -16 -10q-10 0 -10 12v1425q0 11 10 11t10 -11v-1405l1100 1407q11 11 16 11q11 0 11 -13v-1425zM811 1536q-106 0 -194 49.5t-132 122.5q-3 5 0 8.5t7 3.5q9 0 14 -8q43 -65 125.5 -110.5t179.5 -45.5t181.5 45
t117.5 111q4 8 12 8q11 0 8 -10q-32 -74 -125 -124t-194 -50z" />
    <glyph glyph-name="afii10028" unicode="&#x41a;" horiz-adv-x="1257" 
d="M1149 -4l-750 735q-6 6 -6 15.5t6 15.5l723 670q5 5 13 2q10 -7 0 -17l-721 -669l749 -736q5 -4 4.5 -10.5t-6.5 -9.5q-5 -3 -12 4zM256 1436q10 0 10 -11v-1425q0 -8 -10 -8t-10 8v1425q0 11 10 11z" />
    <glyph glyph-name="afii10029" unicode="&#x41b;" horiz-adv-x="1474" 
d="M1206 1434q9 0 16 -7t7 -16v-1411q0 -8 -10 -8q-11 0 -11 8v1413h-725l-20 -270q-16 -216 -40.5 -391t-50.5 -292.5t-59 -205t-62.5 -136t-64.5 -78t-61 -38.5t-55 -10q-9 0 -9 10t9 10q23 1 45 9t54.5 37t61.5 75.5t61.5 133.5t59 202t51 289.5t39.5 388.5l19 262
q0 25 24 25h721z" />
    <glyph glyph-name="afii10030" unicode="&#x41c;" horiz-adv-x="1785" 
d="M887 555l-621 844v-1399q0 -8 -10 -8t-10 8v1425q0 13 10 13q9 0 16 -11l631 -858l608 858q7 11 17 11q4 0 8 -4t4 -9v-1425q0 -8 -10 -8t-10 8v1405l-600 -848q-6 -9 -16.5 -9.5t-16.5 7.5z" />
    <glyph glyph-name="afii10031" unicode="&#x41d;" horiz-adv-x="1587" 
d="M1331 1436q10 0 10 -11v-1425q0 -8 -10 -8t-10 8v721h-1055v-721q0 -8 -10 -8t-10 8v1425q0 11 10 11t10 -11v-684h1055v684q0 11 10 11z" />
    <glyph glyph-name="afii10032" unicode="&#x41e;" horiz-adv-x="1646" 
d="M123 717q0 205 92 373t252.5 264t355.5 96t355.5 -96t253 -264t92.5 -373t-92.5 -373t-253 -264t-355.5 -96t-355.5 96t-252.5 264t-92 373zM143 717q0 -150 52.5 -282.5t143 -227t216.5 -149t268 -54.5t268 54.5t216.5 149t143 227t52.5 282.5t-52.5 282.5t-143 227
t-216.5 149t-268 54.5t-268 -54.5t-216.5 -149t-143 -227t-52.5 -282.5z" />
    <glyph glyph-name="afii10033" unicode="&#x41f;" horiz-adv-x="1587" 
d="M1319 1434q9 0 15.5 -7t6.5 -16v-1411q0 -8 -10 -8t-10 8v1413h-1055v-1413q0 -8 -10 -8t-10 8v1411q0 9 6.5 16t15.5 7h1051z" />
    <glyph glyph-name="afii10034" unicode="&#x420;" horiz-adv-x="1161" 
d="M557 1438q111 0 197 -24.5t138.5 -63.5t86 -94.5t46.5 -111.5t13 -120q0 -82 -27.5 -154.5t-84 -133.5t-156.5 -96.5t-233 -35.5q-114 0 -271 10v-614q0 -8 -10 -8t-10 8v1411q0 9 6.5 16t15.5 7q46 0 153 2t136 2zM266 1413v-778q157 -10 269 -10q122 0 216.5 31.5
t151.5 86.5t86 126.5t29 156.5q0 83 -25 151.5t-77.5 123.5t-143.5 85.5t-213 30.5q-157 0 -293 -4z" />
    <glyph glyph-name="afii10035" unicode="&#x421;" horiz-adv-x="1345" 
d="M1214 1313q-151 119 -397 119q-199 0 -354 -96t-237.5 -258.5t-82.5 -360.5q0 -212 86.5 -374.5t242 -250.5t355.5 -88q242 0 416 143q8 4 14 -2q3 -3 2 -7.5t-4 -6.5q-77 -69 -192.5 -108t-235.5 -39q-155 0 -286 52t-223 146.5t-143.5 232t-51.5 302.5
q0 153 50.5 288.5t140.5 234t220 155.5t281 57q251 0 414 -125q3 -2 4 -6.5t-2 -7.5t-8.5 -3t-8.5 3z" />
    <glyph glyph-name="afii10036" unicode="&#x422;" horiz-adv-x="1208" 
d="M614 0q0 -8 -10 -8t-10 8v1413h-565q-9 0 -9 10q0 11 9 11h1151q8 0 8 -11q0 -10 -8 -10h-566v-1413z" />
    <glyph glyph-name="afii10037" unicode="&#x423;" horiz-adv-x="1292" 
d="M57 1436q7 0 11 -9l665 -1091l494 1091q5 9 10 9q6 0 8 -5t0 -10l-502 -1106q-77 -171 -142 -246t-150 -75q-79 0 -129 37q-5 5 -5 8q0 7 7.5 8.5t11.5 -2.5q45 -33 113 -33q40 0 76 19t66 55.5t53 75t48 90.5l31 63l-674 1106q-3 5 -0.5 10t8.5 5z" />
    <glyph glyph-name="afii10038" unicode="&#x424;" horiz-adv-x="1687" 
d="M879 168h-27v-176q0 -8 -10 -8q-11 0 -11 8v176h-22q-209 0 -367.5 66t-249 195.5t-90.5 307.5q0 269 193 419.5t522 150.5h14v135q0 8 11 8q10 0 10 -8v-135h14q336 0 527.5 -151t191.5 -419q0 -265 -195 -417t-511 -152zM852 1286v-1098h27q146 0 270 35t217 102
t146 172.5t53 239.5q0 178 -90 303.5t-245 185.5t-362 60h-16zM811 188h20v1098h-14q-152 0 -278.5 -35.5t-219.5 -103.5t-144.5 -173t-51.5 -237q0 -175 91.5 -301t245 -187t351.5 -61z" />
    <glyph glyph-name="afii10039" unicode="&#x425;" horiz-adv-x="1339" 
d="M123 1436q6 0 12 -9l535 -684l534 684q6 9 13 9q6 0 8 -5.5t-2 -11.5l-539 -690l565 -721q4 -4 2 -10t-8 -6q-7 0 -12 8l-561 713l-561 -713q-8 -8 -13 -8q-6 0 -8 6t2 10l567 721l-540 690q-4 6 -2 11.5t8 5.5z" />
    <glyph glyph-name="afii10040" unicode="&#x426;" horiz-adv-x="1607" 
d="M1526 -279q0 -8 -10 -8q-11 0 -11 8v279h-1237q-9 0 -15.5 7t-6.5 16v1402q0 11 10 11t10 -11v-1405h1045v1405q0 11 10 11t10 -11v-1405h172q9 0 16 -6.5t7 -15.5v-277z" />
    <glyph glyph-name="afii10041" unicode="&#x427;" horiz-adv-x="1259" 
d="M547 588q220 0 446 139v698q0 3 3.5 7t7.5 4q10 0 10 -11v-1425q0 -8 -10 -8q-11 0 -11 8v705q-80 -54 -201.5 -96t-248.5 -42q-193 0 -306.5 114.5t-113.5 344.5v399q0 11 10 11t10 -11v-405q0 -210 108 -321t296 -111z" />
    <glyph glyph-name="afii10042" unicode="&#x428;" horiz-adv-x="2027" 
d="M1772 1436q10 0 10 -11v-1402q0 -9 -7 -16t-16 -7h-1491q-9 0 -15.5 7t-6.5 16v1402q0 11 10 11t10 -11v-1405h738v1405q0 11 10 11t10 -11v-1405h737v1405q0 3 3.5 7t7.5 4z" />
    <glyph glyph-name="afii10043" unicode="&#x429;" horiz-adv-x="2058" 
d="M1976 -279q0 -8 -10 -8t-10 8v279h-1688q-9 0 -15.5 7t-6.5 16v1402q0 11 10 11t10 -11v-1405h738v1405q0 11 10 11t10 -11v-1405h737v1405q0 3 3.5 7t7.5 4q10 0 10 -11v-1405h172q9 0 15.5 -6.5t6.5 -15.5v-277z" />
    <glyph glyph-name="afii10044" unicode="&#x42a;" horiz-adv-x="1353" 
d="M686 -4q-48 0 -137.5 2t-128.5 2q-9 0 -16 7t-7 16v1390h-389q-8 0 -8 10q0 11 8 11h387q9 0 16 -7t7 -16v-594q156 12 276 12q269 0 403 -105t134 -296q0 -214 -144.5 -323t-400.5 -109zM418 797v-777q34 0 125 -2t145 -2q254 0 388 106t134 308q0 180 -130 279.5
t-382 99.5q-155 0 -280 -12z" />
    <glyph glyph-name="afii10045" unicode="&#x42b;" horiz-adv-x="1648" 
d="M1393 1436q10 0 10 -11v-1425q0 -8 -10 -8q-11 0 -11 8v1425q0 3 3.5 7t7.5 4zM266 797v-777q34 0 115 -2t135 -2q254 0 388 106t134 308q0 180 -130 279.5t-382 99.5q-135 0 -260 -12zM268 0q-9 0 -15.5 7t-6.5 16v1402q0 11 10 11t10 -11v-608q156 12 256 12
q269 0 403 -105t134 -296q0 -214 -144.5 -323t-400.5 -109q-46 0 -127.5 2t-118.5 2z" />
    <glyph glyph-name="afii10046" unicode="&#x42c;" horiz-adv-x="1202" 
d="M266 797v-777q34 0 125 -2t146 -2q254 0 388 106t134 308q0 180 -130 279.5t-382 99.5q-156 0 -281 -12zM268 0q-9 0 -15.5 7t-6.5 16v1402q0 11 10 11t10 -11v-608q156 12 277 12q269 0 402.5 -105t133.5 -296q0 -214 -144 -323t-400 -109q-47 0 -138 2t-129 2z" />
    <glyph glyph-name="afii10047" unicode="&#x42d;" horiz-adv-x="1400" 
d="M573 4q154 0 283.5 56.5t216 154t135 228t49.5 278.5h-827q-8 0 -8 10t8 10h827q-6 316 -193.5 502.5t-500.5 186.5q-249 0 -407 -123q-10 -10 -17 0q-6 9 4 14q78 66 190.5 97.5t229.5 31.5q329 0 522 -195.5t193 -529.5q0 -154 -50.5 -289.5t-140.5 -235.5t-223 -158
t-289 -58q-258 0 -464 143q-8 8 0 16q4 4 12 0q203 -139 450 -139z" />
    <glyph glyph-name="afii10048" unicode="&#x42e;" horiz-adv-x="2195" 
d="M713 719l-447 2v-721q0 -8 -10 -8t-10 8v1425q0 11 10 11t10 -11v-684h447q6 200 94 361.5t242 254.5t344 93q194 0 350 -96t243 -263.5t87 -373.5t-87 -373.5t-243 -263.5t-350 -96t-350 96t-243 264t-87 375zM733 717q0 -201 84 -364t235.5 -256t340.5 -93
q142 0 265 54.5t209.5 149.5t135.5 227t49 282t-49 282t-135.5 227t-209.5 149.5t-265 54.5q-189 0 -340.5 -93t-235.5 -256t-84 -364z" />
    <glyph glyph-name="afii10049" unicode="&#x42f;" horiz-adv-x="1234" 
d="M967 1434q9 0 15.5 -7t6.5 -16v-1411q0 -8 -10 -8t-10 8v604h-394l-466 -606q-3 -6 -13 -6q-6 0 -8.5 6t0.5 10l465 598q-142 24 -249 137.5t-107 262.5q0 193 131 312.5t372 119.5q48 0 138 -2t129 -2zM969 625v788q-33 0 -125 2t-146 2q-123 0 -217 -33t-150.5 -91
t-85 -131t-28.5 -158q0 -94 51 -177.5t130 -135.5t167 -66h404z" />
    <glyph glyph-name="afii10065" unicode="&#x430;" horiz-adv-x="933" 
d="M453 524q184 0 297 -82q0 88 -2 136.5t-11 113t-28.5 98t-52.5 67.5t-86.5 47.5t-127.5 13.5q-73 0 -128.5 -17.5t-125.5 -58.5q-10 -5 -14 2q-2 1 -1 6t5 8q131 80 268 80q176 0 250 -90.5t74 -269.5v-578q0 -8 -10 -8t-10 8v174q-130 -182 -361 -182q-130 0 -208.5 70
t-78.5 186q0 132 98 204t253 72zM750 416q-125 88 -301 88q-61 0 -117.5 -15t-104 -44.5t-76 -80t-28.5 -114.5q0 -111 75 -174.5t189 -63.5q73 0 133 17.5t103.5 49t71 60.5t55.5 68v209z" />
    <glyph glyph-name="afii10066" unicode="&#x431;" horiz-adv-x="1146" 
d="M580 -16q-210 0 -338.5 149t-128.5 408q0 48 1.5 87t5.5 98.5t14 109t25 107.5t40.5 106.5t58 94.5t80 82.5t104.5 59.5q78 31 165 46.5t139 19t104 26t84 70.5q4 8 12 8q7 0 9 -6t-1 -10q-27 -44 -64.5 -67.5t-86 -32t-100 -13.5t-123.5 -19.5t-138 -41.5
q-289 -119 -307 -645q51 139 176 220t273 81q211 0 330.5 -129t119.5 -340q0 -127 -59.5 -235t-164 -171t-230.5 -63zM578 4q184 0 310 130.5t126 318.5q0 203 -114.5 325.5t-315.5 122.5q-95 0 -177.5 -32.5t-137.5 -85t-90.5 -114.5t-45.5 -126q0 -256 125.5 -397.5
t319.5 -141.5z" />
    <glyph glyph-name="afii10067" unicode="&#x432;" horiz-adv-x="976" 
d="M608 475q132 -17 189 -73.5t57 -157.5q0 -120 -98 -184t-295 -64q-57 0 -140 2t-118 2q-8 0 -13.5 5.5t-5.5 12.5v885q0 7 6 13t13 6q33 0 115.5 2t136.5 2q181 0 269.5 -55t88.5 -175q0 -81 -51 -143t-154 -78zM205 20q33 0 114.5 -2t135.5 -2q379 0 379 230
q0 215 -334 215h-295v-441zM205 481h311q127 0 202 59t75 158q0 60 -26.5 102t-75.5 64t-107 31.5t-133 9.5q-110 0 -246 -4v-420z" />
    <glyph glyph-name="afii10068" unicode="&#x433;" horiz-adv-x="696" 
d="M205 901v-893q0 -8 -12 -8q-9 0 -9 8v895q0 7 6 13t13 6h485q8 0 8 -13q0 -8 -8 -8h-483z" />
    <glyph glyph-name="afii10069" unicode="&#x434;" horiz-adv-x="1032" 
d="M991 2v-240q0 -8 -12 -8q-8 0 -8 8v238h-930v-238q0 -8 -12 -8q-9 0 -9 8v240q0 7 5.5 12.5t13.5 5.5h94q50 62 99.5 223.5t62.5 391.5l14 266q0 21 21 21h489q7 0 13 -6t6 -13v-883h135q7 0 12.5 -5t5.5 -13zM817 20v881h-485l-17 -270q-14 -215 -63.5 -386.5
t-93.5 -224.5h659z" />
    <glyph glyph-name="afii10070" unicode="&#x435;" horiz-adv-x="1083" 
d="M950 481h-817q0 -220 124 -348.5t335 -128.5q94 0 178.5 36.5t138.5 96.5q7 7 13 0q5 -5 0 -14q-57 -67 -146.5 -103t-183.5 -36q-210 0 -344.5 131t-134.5 346q0 102 28 188t82.5 151t141.5 101.5t198 36.5q180 0 294 -113t114 -297q0 -18 -2 -28q0 -8 -5.5 -13.5
t-13.5 -5.5zM555 918q-190 0 -300.5 -115.5t-121.5 -300.5h817q3 191 -105.5 303.5t-289.5 112.5z" />
    <glyph glyph-name="afii10072" unicode="&#x436;" horiz-adv-x="1267" 
d="M641 913v-913q0 -8 -10 -8t-10 8v913q0 9 10 9t10 -9zM1178 0l-416 461q-20 19 0 39l385 413q9 9 12 9q6 0 8 -4t0.5 -9t-4.5 -8l-391 -420l426 -473q4 -6 2 -11t-8 -5t-14 8zM90 0q-8 -8 -14 -8t-7.5 6t3.5 12l420 471l-398 426q-4 3 -1.5 9t9.5 6q6 0 15 -9l385 -413
q18 -21 0 -39z" />
    <glyph glyph-name="afii10073" unicode="&#x437;" horiz-adv-x="925" 
d="M762 705q0 -73 -42.5 -134t-131.5 -96q100 -7 157.5 -71t57.5 -148q0 -127 -102 -199.5t-265 -72.5q-79 0 -179 33t-148 81q-9 8 0 17q1 3 6 3.5t6 -1.5q56 -53 146 -83t165 -30q159 0 254.5 68t95.5 184q0 96 -70.5 150.5t-191.5 54.5h-147q-8 0 -8 12q0 8 8 8h137
q92 0 161.5 66.5t69.5 161.5q0 99 -78 154t-212 55q-174 0 -299 -109q-11 -6 -17 2q-5 5 4 14q56 55 138.5 84t175.5 29q150 0 229.5 -61t79.5 -172z" />
    <glyph glyph-name="afii10074" unicode="&#x438;" horiz-adv-x="1146" 
d="M950 -8q-8 0 -8 8v891l-731 -893q-6 -6 -16 -6q-11 0 -11 12v909q0 9 13 9q8 0 8 -9v-890l729 890q11 11 18 11q11 0 11 -11v-913q0 -8 -13 -8z" />
    <glyph glyph-name="afii10075" unicode="&#x439;" horiz-adv-x="1146" 
d="M950 -8q-8 0 -8 8v891l-731 -893q-6 -6 -16 -6q-11 0 -11 12v909q0 9 13 9q8 0 8 -9v-890l729 890q11 11 18 11q11 0 11 -11v-913q0 -8 -13 -8zM588 1188q-109 0 -177 60t-73 155q0 10 10 10t10 -10q5 -85 67 -140t163 -55q97 0 157.5 55t63.5 140q0 10 10 10t10 -10
q-4 -94 -72.5 -154.5t-168.5 -60.5z" />
    <glyph glyph-name="afii10076" unicode="&#x43a;" horiz-adv-x="948" 
d="M315 467q-15 15 2 29l494 417q13 9 18 9q3 0 5 -3.5t0.5 -9t-7.5 -10.5l-497 -418l544 -469q7 -6 5 -13t-9 -7q-6 0 -18 8zM205 913v-913q0 -8 -12 -8q-9 0 -9 8v913q0 9 13 9q8 0 8 -9z" />
    <glyph glyph-name="afii10077" unicode="&#x43b;" horiz-adv-x="1064" 
d="M881 903v-903q0 -8 -13 -8q-8 0 -8 8v901h-485l-17 -270q-9 -156 -33 -275t-52.5 -184.5t-64 -106t-63.5 -53t-55 -12.5q-10 0 -10 10t10 10q15 2 31.5 7.5t39.5 23t43.5 44.5t43 74.5t39.5 109.5t31 153.5t20 202.5l14 266q0 7 7 14t14 7h489q8 0 13.5 -6t5.5 -13z" />
    <glyph glyph-name="afii10078" unicode="&#x43c;" horiz-adv-x="1261" 
d="M205 893v-893q0 -8 -12 -8q-9 0 -9 8v909q0 13 13 13q11 0 18 -11l420 -589l412 589q11 11 18 11q12 0 12 -11v-911q0 -8 -12 -8q-8 0 -8 8v893l-406 -578q-6 -9 -16.5 -9t-16.5 9z" />
    <glyph glyph-name="afii10079" unicode="&#x43d;" horiz-adv-x="1136" 
d="M952 913v-913q0 -8 -12 -8q-8 0 -8 8v461h-727v-461q0 -8 -12 -8q-9 0 -9 8v913q0 9 13 9q8 0 8 -9v-432h727v432q0 9 12 9q8 0 8 -9z" />
    <glyph glyph-name="afii10080" unicode="&#x43e;" horiz-adv-x="1167" 
d="M584 938q205 0 338 -135t133 -342t-133 -342t-338 -135t-338 135t-133 342t133 342t338 135zM584 4q198 0 324 128.5t126 328.5t-126 328.5t-324 128.5t-324.5 -128.5t-126.5 -328.5t126.5 -328.5t324.5 -128.5z" />
    <glyph glyph-name="afii10081" unicode="&#x43f;" horiz-adv-x="1126" 
d="M942 903v-903q0 -8 -12 -8q-8 0 -8 8v901h-717v-901q0 -8 -12 -8q-9 0 -9 8v903q0 7 6 13t13 6h721q7 0 12.5 -5.5t5.5 -13.5z" />
    <glyph glyph-name="afii10082" unicode="&#x440;" horiz-adv-x="1128" 
d="M205 86v-487q0 -9 -12 -9q-3 0 -6 3t-3 6v1314q0 9 13 9q8 0 8 -9v-137q59 71 162.5 116.5t207.5 45.5q204 0 322.5 -128t118.5 -335q0 -214 -128.5 -352.5t-336.5 -138.5q-215 0 -346 102zM205 113q149 -109 348 -109q195 0 318.5 130t123.5 335q0 204 -111.5 326.5
t-308.5 122.5q-113 0 -218 -52.5t-152 -117.5v-635z" />
    <glyph glyph-name="afii10083" unicode="&#x441;" horiz-adv-x="1007" 
d="M563 918q-178 0 -304 -132.5t-126 -324.5q0 -208 128.5 -332.5t330.5 -124.5q94 0 178.5 36.5t138.5 96.5q7 7 13 0q5 -5 0 -14q-57 -67 -146.5 -103t-183.5 -36q-210 0 -344.5 131t-134.5 346q0 132 59 241.5t161.5 172.5t225.5 63q224 0 342 -102q9 -10 0 -19
q-6 -6 -12 0q-120 101 -326 101z" />
    <glyph glyph-name="afii10084" unicode="&#x442;" horiz-adv-x="880" 
d="M438 -8q-8 0 -8 8v901h-401q-9 0 -9 12q0 3 3 6t6 3h823q8 0 8 -13q0 -8 -8 -8h-401v-901q0 -8 -13 -8z" />
    <glyph glyph-name="afii10085" unicode="&#x443;" horiz-adv-x="954" 
d="M588 176l299 737q5 9 10 9q15 0 10 -15l-372 -907q-67 -163 -123 -253.5t-105 -123.5t-112 -33q-59 0 -123 27q-9 5 -6 14t14 4q63 -26 110 -26q87 0 157.5 78.5t146.5 263.5l20 49l-465 905q-3 6 -0.5 11.5t8.5 5.5q7 0 11 -9l378 -741l78 -152z" />
    <glyph glyph-name="afii10086" unicode="&#x444;" horiz-adv-x="1331" 
d="M676 -16v-385q0 -9 -12 -9q-3 0 -6 3t-3 6v385h-43q-227 0 -363 134t-136 343q0 126 59 234t174.5 175.5t263.5 67.5h45v487q0 9 13 9q8 0 8 -9v-487h47q214 0 355 -136.5t141 -340.5q0 -209 -136 -343t-360 -134h-47zM655 4v914h-47q-105 0 -194.5 -35.5t-151 -97
t-95.5 -145.5t-34 -179q0 -202 131 -329.5t354 -127.5h37zM676 4h39q222 0 352.5 127.5t130.5 329.5q0 90 -33.5 172.5t-93 146t-150.5 101t-198 37.5h-47v-914z" />
    <glyph glyph-name="afii10087" unicode="&#x445;" horiz-adv-x="976" 
d="M836 909q10 13 16 13q7 0 8 -7t-6 -16l-352 -426l383 -465q4 -6 2 -11t-8 -5q-7 0 -13 6l-379 459l-376 -457q-8 -8 -15 -8q-2 0 -5 2t-3.5 6t4.5 10l383 463l-356 430q-6 9 -3 14t9 5q5 0 16 -13l346 -420z" />
    <glyph glyph-name="afii10088" unicode="&#x446;" horiz-adv-x="1136" 
d="M1083 -246q-8 0 -8 8v238h-872q-8 0 -13.5 5.5t-5.5 12.5v895q0 9 13 9q8 0 8 -9v-893h717v893q0 9 12 9q8 0 8 -9v-893h135q8 0 13.5 -5.5t5.5 -12.5v-240q0 -8 -13 -8z" />
    <glyph glyph-name="afii10089" unicode="&#x447;" horiz-adv-x="952" 
d="M748 459v454q0 9 12 9q8 0 8 -9v-905q0 -8 -12 -8q-8 0 -8 8v428q-53 -41 -134 -67.5t-174 -26.5q-317 0 -317 336v235q0 9 12 9q8 0 8 -9v-241q0 -156 77 -233t224 -77q179 0 304 97z" />
    <glyph glyph-name="afii10090" unicode="&#x448;" horiz-adv-x="1413" 
d="M1229 913v-895q0 -7 -5.5 -12.5t-13.5 -5.5h-1007q-8 0 -13.5 5.5t-5.5 12.5v895q0 9 13 9q8 0 8 -9v-893h491v893q0 9 13 9q8 0 8 -9v-893h491v893q0 9 13 9q8 0 8 -9z" />
    <glyph glyph-name="afii10091" unicode="&#x449;" horiz-adv-x="1423" 
d="M1370 -246q-8 0 -8 8v238h-1159q-8 0 -13.5 5.5t-5.5 12.5v895q0 9 13 9q8 0 8 -9v-893h491v893q0 9 13 9q8 0 8 -9v-893h491v893q0 9 13 9q8 0 8 -9v-893h135q8 0 13 -5t5 -13v-240q0 -8 -12 -8z" />
    <glyph glyph-name="afii10092" unicode="&#x44a;" horiz-adv-x="995" 
d="M334 0q-8 0 -13.5 5.5t-5.5 12.5v883h-307q-8 0 -8 12q0 9 8 9h309q7 0 13 -6t6 -13v-340h192q103 0 176 -20.5t113.5 -59.5t58 -88t17.5 -114q0 -132 -85.5 -206.5t-285.5 -74.5h-188zM336 20h190q186 0 266 67.5t80 195.5q0 126 -81 193t-263 67h-192v-523z" />
    <glyph glyph-name="afii10093" unicode="&#x44b;" horiz-adv-x="1208" 
d="M377 563q103 0 175.5 -20.5t113 -59.5t58 -88t17.5 -114q0 -64 -18.5 -113t-60 -88t-115 -59.5t-176.5 -20.5h-168q-8 0 -13.5 5.5t-5.5 12.5v895q0 9 13 9q8 0 8 -9v-350h172zM205 20h170q186 0 266 67.5t80 195.5q0 126 -81 193t-263 67h-172v-523zM1024 913v-913
q0 -8 -12 -8q-8 0 -8 8v913q0 9 12 9q8 0 8 -9z" />
    <glyph glyph-name="afii10094" unicode="&#x44c;" horiz-adv-x="864" 
d="M397 563q103 0 176 -20.5t113.5 -59.5t58 -88t17.5 -114q0 -132 -85.5 -206.5t-285.5 -74.5h-188q-8 0 -13.5 5.5t-5.5 12.5v895q0 9 13 9q8 0 8 -9v-350h192zM205 20h190q186 0 266 67.5t80 195.5q0 126 -81 193t-263 67h-192v-523z" />
    <glyph glyph-name="afii10095" unicode="&#x44d;" horiz-adv-x="1007" 
d="M119 104q119 -100 325 -100q178 0 304 132.5t126 324.5h-526q-8 0 -8 12q0 8 8 8h526q-7 199 -134.5 318t-323.5 119q-94 0 -179 -37t-139 -97q-6 -6 -12 0t0 15q57 67 146.5 103t183.5 36q210 0 344.5 -131t134.5 -346q0 -132 -59 -241.5t-161.5 -172.5t-225.5 -63
q-222 0 -340 102q-11 12 -5 18q8 8 15 0z" />
    <glyph glyph-name="afii10096" unicode="&#x44e;" horiz-adv-x="1505" 
d="M205 461v-461q0 -8 -12 -8q-9 0 -9 8v913q0 9 13 9q8 0 8 -9v-432h287q6 200 131.5 328.5t318.5 128.5q197 0 324 -134.5t127 -342.5t-127 -342.5t-324 -134.5t-323.5 134.5t-126.5 342.5h-287zM942 4q190 0 310 128.5t120 328.5t-120 328.5t-310 128.5t-310 -128.5
t-120 -328.5t120 -328.5t310 -128.5z" />
    <glyph glyph-name="afii10097" unicode="&#x44f;" horiz-adv-x="964" 
d="M111 10l317 389q-102 10 -178 80t-76 174q0 120 82.5 194.5t267.5 74.5h238q7 0 12.5 -5.5t5.5 -13.5v-903q0 -8 -12 -8q-8 0 -8 8v399h-305l-324 -399q-5 -8 -14 -8q-6 0 -8 6t2 12zM760 420v481h-240q-167 0 -246 -68t-79 -178q0 -103 80 -169t161 -66h324z" />
    <glyph glyph-name="afii10071" unicode="&#x451;" horiz-adv-x="1083" 
d="M950 481h-817q0 -220 124 -348.5t335 -128.5q94 0 178.5 36.5t138.5 96.5q7 7 13 0q5 -5 0 -14q-57 -67 -146.5 -103t-183.5 -36q-210 0 -344.5 131t-134.5 346q0 102 28 188t82.5 151t141.5 101.5t198 36.5q180 0 294 -113t114 -297q0 -18 -2 -28q0 -8 -5.5 -13.5
t-13.5 -5.5zM555 918q-190 0 -300.5 -115.5t-121.5 -300.5h817q3 191 -105.5 303.5t-289.5 112.5zM299 1292q0 9 8.5 17t18.5 8q9 0 16.5 -8t7.5 -17q0 -10 -7.5 -18t-16.5 -8q-11 0 -19 8t-8 18zM737 1292q0 9 8.5 17t18.5 8q9 0 16.5 -8t7.5 -17q0 -10 -7.5 -18t-16.5 -8
q-11 0 -19 8t-8 18z" />
    <glyph glyph-name="afii10099" unicode="&#x452;" horiz-adv-x="1247" 
d="M326 -8q-9 0 -9 8v1055h-309q-8 0 -8 12q0 8 8 8h309v350q0 9 13 9q8 0 8 -9v-350h453q8 0 8 -12q0 -8 -8 -8h-453v-449q59 71 165.5 119.5t209.5 48.5q200 0 295.5 -103t95.5 -319q0 -103 -19.5 -205.5t-60.5 -205t-114 -191.5t-169 -147q-12 -9 -16 -2q-3 7 6 14
q99 64 170.5 153.5t109.5 189t55 194.5t17 194q0 208 -90 308t-280 100q-112 0 -220 -55t-155 -121v-578q0 -8 -12 -8z" />
    <glyph glyph-name="afii10100" unicode="&#x453;" horiz-adv-x="696" 
d="M205 901v-893q0 -8 -12 -8q-9 0 -9 8v895q0 7 6 13t13 6h485q8 0 8 -13q0 -8 -8 -8h-483zM637 1442q7 -7 0 -17l-211 -272q-9 -13 -16 -6q-7 5 0 16l213 275q9 9 14 4z" />
    <glyph glyph-name="afii10101" unicode="&#x454;" horiz-adv-x="1007" 
d="M909 784q-54 60 -138.5 97t-178.5 37q-197 0 -325 -119t-134 -318h526q9 0 9 -12q0 -8 -9 -8h-526q0 -210 128 -333.5t329 -123.5q186 0 299 100q7 7 14 0q8 -8 -2 -18q-112 -102 -319 -102q-205 0 -337 132.5t-132 344.5q0 215 134.5 346t344.5 131q94 0 183.5 -36
t146.5 -103q5 -10 0 -15q-6 -6 -13 0z" />
    <glyph glyph-name="afii10102" unicode="&#x455;" horiz-adv-x="821" 
d="M129 115q10 6 18 -6q37 -46 111.5 -75.5t142.5 -29.5q114 0 195.5 58t81.5 165q0 61 -29 104t-75.5 66.5t-103 42.5t-113 39t-103 47t-75.5 76t-29 117q0 96 72.5 157.5t195.5 61.5q69 0 135 -24t104 -62q9 -9 0 -18q-8 -4 -14 2q-85 82 -229 82q-109 0 -176.5 -58
t-67.5 -139q0 -65 29 -110.5t75.5 -71t103 -45l113 -39t103 -45t75.5 -71t29 -110.5q0 -119 -83.5 -182t-211.5 -63q-75 0 -157 32.5t-117 77.5q-4 4 -4.5 10.5t4.5 10.5z" />
    <glyph glyph-name="afii10103" unicode="&#x456;" horiz-adv-x="512" 
d="M266 913v-913q0 -8 -12 -8q-8 0 -8 8v913q0 9 12 9q8 0 8 -9zM258 1270q-11 0 -19 8t-8 18q0 9 8.5 17t18.5 8q9 0 17 -8t8 -17q0 -10 -8 -18t-17 -8z" />
    <glyph glyph-name="afii10104" unicode="&#x457;" horiz-adv-x="512" 
d="M141 1317q9 0 17 -8t8 -17q0 -10 -8 -18t-17 -8q-11 0 -18.5 8t-7.5 18q0 9 8 17t18 8zM375 1317q9 0 16.5 -8t7.5 -17q0 -10 -7.5 -18t-16.5 -8q-11 0 -19 8t-8 18q0 9 8.5 17t18.5 8zM266 913v-913q0 -8 -12 -8q-8 0 -8 8v913q0 9 12 9q8 0 8 -9z" />
    <glyph glyph-name="afii10105" unicode="&#x458;" horiz-adv-x="514" 
d="M248 -70v983q0 9 12 9q8 0 8 -9v-981q0 -358 -288 -358q-86 0 -156 47q-9 5 0 14q5 10 12 3q63 -44 144 -44q141 0 204.5 84.5t63.5 251.5zM256 1270q-11 0 -19 8t-8 18q0 9 8.5 17t18.5 8q9 0 17 -8t8 -17q0 -10 -8 -18t-17 -8z" />
    <glyph glyph-name="afii10106" unicode="&#x459;" horiz-adv-x="1517" 
d="M1051 563q103 0 175.5 -20.5t113 -59.5t58 -88t17.5 -114q0 -132 -85.5 -206.5t-285.5 -74.5h-165q-8 0 -13.5 5.5t-5.5 12.5v883h-485l-17 -270q-9 -156 -33 -274.5t-52.5 -183.5t-64.5 -106t-63 -53.5t-55 -13.5q-8 0 -8 12q0 8 8 8q22 2 45.5 13.5t58 51t61.5 102
t51 179t32 269.5l14 262q0 8 6.5 16.5t16.5 8.5h487q8 0 13.5 -6t5.5 -13v-340h170zM881 20h168q186 0 266 67.5t80 195.5q0 126 -81 193t-263 67h-170v-523z" />
    <glyph glyph-name="afii10107" unicode="&#x45a;" horiz-adv-x="1589" 
d="M205 502v-502q0 -8 -12 -8q-9 0 -9 8v913q0 9 13 9q8 0 8 -9v-391h727v391q0 9 12 9q8 0 8 -9v-391h170q138 0 220 -32.5t113.5 -88t31.5 -141.5q0 -129 -84 -194.5t-287 -65.5h-166q-8 0 -13 5t-5 13v484h-727zM952 20h168q189 0 267.5 59t78.5 183q0 123 -79.5 181.5
t-264.5 58.5h-170v-482z" />
    <glyph glyph-name="afii10108" unicode="&#x45b;" horiz-adv-x="1247" 
d="M326 -8q-9 0 -9 8v1055h-309q-8 0 -8 12q0 8 8 8h309v350q0 9 13 9q8 0 8 -9v-350h453q8 0 8 -12q0 -8 -8 -8h-453v-449q59 71 165.5 119.5t209.5 48.5q200 0 295.5 -103t95.5 -319v-352q0 -8 -12 -8q-9 0 -9 8v346q0 208 -90 308t-280 100q-112 0 -220 -55t-155 -121
v-578q0 -8 -12 -8z" />
    <glyph glyph-name="afii10109" unicode="&#x45c;" horiz-adv-x="948" 
d="M315 467q-15 15 2 29l494 417q13 9 18 9q3 0 5 -3.5t0.5 -9t-7.5 -10.5l-497 -418l544 -469q7 -6 5 -13t-9 -7q-6 0 -18 8zM205 913v-913q0 -8 -12 -8q-9 0 -9 8v913q0 9 13 9q8 0 8 -9zM670 1442q7 -7 0 -17l-211 -272q-3 -5 -8.5 -7t-8.5 1q-7 5 0 16l213 275q4 4 9 5
t6 -1z" />
    <glyph glyph-name="afii10110" unicode="&#x45e;" horiz-adv-x="954" 
d="M588 176l299 737q5 9 10 9q15 0 10 -15l-372 -907q-67 -163 -123 -253.5t-105 -123.5t-112 -33q-59 0 -123 27q-9 5 -6 14t14 4q63 -26 110 -26q87 0 157.5 78.5t146.5 263.5l20 49l-465 905q-3 6 -0.5 11.5t8.5 5.5q7 0 11 -9l378 -741l78 -152zM492 1188
q-109 0 -177 60t-73 155q0 10 10 10t10 -10q5 -85 67 -140t163 -55q97 0 157.5 55t63.5 140q0 10 10 10t10 -10q-4 -94 -72.5 -154.5t-168.5 -60.5z" />
    <glyph glyph-name="afii10193" unicode="&#x45f;" horiz-adv-x="1105" 
d="M551 -287q-8 0 -8 8v279h-340q-8 0 -13.5 5.5t-5.5 12.5v895q0 9 13 9q8 0 8 -9v-893h696v893q0 9 12 9q3 0 6 -3t3 -6v-895q0 -7 -5.5 -12.5t-13.5 -5.5h-340v-279q0 -8 -12 -8z" />
    <glyph glyph-name="afii10146" unicode="&#x462;" horiz-adv-x="1271" 
d="M8 1147h307v278q0 3 3.5 7t7.5 4q10 0 10 -11v-278h356q8 0 8 -10q0 -11 -8 -11h-356v-309q156 12 276 12q269 0 403 -105t134 -296q0 -214 -144.5 -323t-400.5 -109q-48 0 -138 2t-128 2q-9 0 -16 7t-7 16v1103h-307q-8 0 -8 11q0 10 8 10zM336 797v-777q34 0 125 -2
t145 -2q254 0 388 106t134 308q0 180 -130 279.5t-382 99.5q-155 0 -280 -12z" />
    <glyph glyph-name="afii10194" unicode="&#x463;" horiz-adv-x="995" 
d="M334 0q-8 0 -13.5 5.5t-5.5 12.5v883h-307q-8 0 -8 12q0 9 8 9h307v503q0 9 13 9q8 0 8 -9v-503h350q8 0 8 -13q0 -8 -8 -8h-350v-338h192q103 0 176 -20.5t113.5 -59.5t58 -88t17.5 -114q0 -132 -85.5 -206.5t-285.5 -74.5h-188zM336 20h190q186 0 266 67.5t80 195.5
q0 126 -81 193t-263 67h-192v-523z" />
    <glyph glyph-name="afii10147" unicode="&#x472;" horiz-adv-x="1646" 
d="M123 717q0 205 92 373t252.5 264t355.5 96t355.5 -96t253 -264t92.5 -373t-92.5 -373t-253 -264t-355.5 -96t-355.5 96t-252.5 264t-92 373zM823 4q142 0 268 54.5t216.5 149t143 227t52.5 282.5q0 27 -2 39q-69 -59 -166.5 -101.5t-191.5 -42.5q-73 0 -140 20.5t-120 49
t-105.5 57.5t-118.5 49.5t-137 20.5q-99 0 -205.5 -50.5t-171.5 -113.5q16 -182 108.5 -328.5t242 -229.5t327.5 -83zM526 829q73 0 140.5 -20t121 -49t106.5 -58t117.5 -49t133.5 -20q95 0 192.5 45.5t161.5 103.5q-14 184 -105.5 332t-241 232t-329.5 84
q-142 0 -268 -54.5t-216.5 -149t-143 -227t-52.5 -282.5v-43q75 65 176.5 110t206.5 45z" />
    <glyph glyph-name="afii10195" unicode="&#x473;" horiz-adv-x="1167" 
d="M584 938q205 0 338 -135t133 -342t-133 -342t-338 -135t-338 135t-133 342t133 342t338 135zM584 4q196 0 322 127.5t128 327.5q-99 -84 -207 -84q-55 0 -120 24t-116 53.5t-116 53.5t-119 24q-117 0 -223 -100q11 -188 136 -307t315 -119zM829 395q107 0 205 90
q-9 190 -134 311.5t-316 121.5q-198 0 -324.5 -129t-126.5 -330q108 92 227 92q56 0 121.5 -24.5t116 -53.5t114.5 -53.5t117 -24.5z" />
    <glyph glyph-name="afii10148" unicode="&#x474;" horiz-adv-x="1339" 
d="M678 23l377 1077q45 129 85.5 205t76.5 104.5t75 31t82 -15.5q12 -4 8 -12q-5 -10 -24 -2q-29 11 -53.5 11t-46 -8.5t-42 -31t-38.5 -50.5t-38.5 -73t-39 -93t-41.5 -115l-369 -1053q-3 -10 -12 -10t-12 10l-621 1423q-2 4 0.5 9.5t9.5 5.5q8 0 11 -9z" />
    <glyph glyph-name="afii10196" unicode="&#x475;" horiz-adv-x="964" 
d="M946 934q16 0 51 -14q9 -3 9 -11q0 -6 -5.5 -8.5t-11.5 0.5q-24 12 -45 12q-48 0 -88.5 -60.5t-85.5 -180.5l-258 -672q-3 -8 -12 -8q-10 0 -13 8l-440 905q-2 2 -2 6q0 11 10 11q9 0 13 -9l338 -696q51 -103 94 -199q21 61 78 207l178 461q54 141 96.5 194.5t93.5 53.5z
" />
    <glyph glyph-name="afii10050" unicode="&#x490;" horiz-adv-x="1024" 
d="M1001 1413h-735v-1413q0 -8 -10 -8t-10 8v1411q0 9 6.5 16t15.5 7h736v278q0 8 10 8t10 -8v-276q0 -9 -7 -16t-16 -7z" />
    <glyph glyph-name="afii10098" unicode="&#x491;" horiz-adv-x="696" 
d="M205 901v-901q0 -8 -12 -8q-9 0 -9 8v903q0 7 6 13t13 6h473v237q0 8 12 8q8 0 8 -8v-239q0 -8 -5.5 -13.5t-12.5 -5.5h-473z" />
    <glyph glyph-name="uni1E9E" unicode="&#x1e9e;" 
d="M758 -16q-93 0 -153 28.5t-122 83.5q-3 3 -3 8.5t3 8.5q9 6 19 -4q31 -26 49 -39t50.5 -31.5t70.5 -26.5t84 -8q71 0 138 35.5t113 107t46 162.5q0 65 -25.5 131.5t-63.5 121.5t-101.5 119.5t-119 111.5t-137.5 112q-12 9 -12 19t8 18l270 410q-116 78 -256 78
q-155 0 -252.5 -94.5t-97.5 -282.5v-1053q0 -8 -10 -8t-10 8v1071q0 184 104 281.5t266 97.5q82 0 143.5 -19t125.5 -61q7 -4 9 -14t-3 -17l-277 -415q80 -61 137 -108t122 -112.5t105.5 -123.5t67.5 -128.5t27 -140.5q0 -143 -95 -235t-220 -92z" />
    <glyph glyph-name="uni2010" unicode="&#x2010;" horiz-adv-x="847" 
d="M633 543h-418q-10 0 -10 10t10 10h418q10 0 10 -10t-10 -10z" />
    <glyph glyph-name="uni2011" unicode="&#x2011;" horiz-adv-x="847" 
d="M633 543h-418q-10 0 -10 10t10 10h418q10 0 10 -10t-10 -10z" />
    <glyph glyph-name="figuredash" unicode="&#x2012;" 
d="M981 715h-766q-10 0 -10 10t10 10h766q10 0 10 -10t-10 -10z" />
    <glyph glyph-name="endash" unicode="&#x2013;" 
d="M981 543h-766q-10 0 -10 10t10 10h766q10 0 10 -10t-10 -10z" />
    <glyph glyph-name="emdash" unicode="&#x2014;" horiz-adv-x="1605" 
d="M1391 543h-1176q-10 0 -10 10t10 10h1176q10 0 10 -10t-10 -10z" />
    <glyph glyph-name="afii00208" unicode="&#x2015;" horiz-adv-x="1605" 
d="M1391 543h-1176q-10 0 -10 10t10 10h1176q10 0 10 -10t-10 -10z" />
    <glyph glyph-name="quoteleft" unicode="&#x2018;" horiz-adv-x="483" 
d="M225 1245q0 -63 33 -100q7 -10 -2 -19q-6 -6 -14 2q-37 47 -37 113q0 150 110 211q10 5 13 -4q3 -8 -6 -12q-97 -57 -97 -191z" />
    <glyph glyph-name="quoteright" unicode="&#x2019;" horiz-adv-x="483" 
d="M258 1331q0 64 -33 101q-6 10 2 18q7 6 15 -2q37 -47 37 -113q0 -149 -111 -211q-9 -5 -12 4t6 13q96 56 96 190z" />
    <glyph glyph-name="quotesinglbase" unicode="&#x201a;" horiz-adv-x="483" 
d="M258 -31q0 64 -33 101q-6 10 2 18q7 6 15 -2q37 -47 37 -113q0 -149 -111 -211q-9 -4 -12 5q-3 8 6 12q96 56 96 190z" />
    <glyph glyph-name="quotedblleft" unicode="&#x201c;" horiz-adv-x="708" 
d="M451 1245q0 -64 32 -100q7 -10 -2 -19q-6 -6 -14 2q-37 47 -37 113q0 150 111 211q9 5 12 -4q3 -8 -6 -12q-96 -56 -96 -191zM225 1245q0 -63 33 -100q7 -10 -2 -19q-6 -6 -14 2q-37 47 -37 113q0 150 110 211q10 5 13 -4q3 -8 -6 -12q-97 -57 -97 -191z" />
    <glyph glyph-name="quotedblright" unicode="&#x201d;" horiz-adv-x="708" 
d="M483 1331q0 65 -32 101q-6 10 2 18q6 6 14 -2q37 -47 37 -113q0 -149 -111 -211q-9 -5 -12 4t6 13q96 56 96 190zM258 1331q0 64 -33 101q-6 10 2 18q7 6 15 -2q37 -47 37 -113q0 -149 -111 -211q-9 -5 -12 4t6 13q96 56 96 190z" />
    <glyph glyph-name="quotedblbase" unicode="&#x201e;" horiz-adv-x="708" 
d="M483 -31q0 65 -32 101q-6 10 2 18q6 6 14 -2q37 -47 37 -113q0 -149 -111 -211q-9 -4 -12 5q-3 8 6 12q96 56 96 190zM258 -31q0 64 -33 101q-6 10 2 18q7 6 15 -2q37 -47 37 -113q0 -149 -111 -211q-9 -4 -12 5q-3 8 6 12q96 56 96 190z" />
    <glyph glyph-name="dagger" unicode="&#x2020;" horiz-adv-x="806" 
d="M393 901h-301q-10 0 -10 10q0 11 10 11h301v501q0 11 10 11q11 0 11 -11v-501h301q10 0 10 -11q0 -10 -10 -10h-301v-1096q0 -10 -11 -10q-10 0 -10 10v1096z" />
    <glyph glyph-name="daggerdbl" unicode="&#x2021;" horiz-adv-x="806" 
d="M393 901h-301q-10 0 -10 10q0 11 10 11h301v501q0 11 10 11q11 0 11 -11v-501h301q10 0 10 -11q0 -10 -10 -10h-301v-512h301q10 0 10 -10t-10 -10h-301v-564q0 -10 -11 -10q-10 0 -10 10v564h-301q-10 0 -10 10t10 10h301v512z" />
    <glyph glyph-name="bullet" unicode="&#x2022;" horiz-adv-x="245" 
d="M82 532q0 17 12 29t29 12t29 -12t12 -29t-12 -28.5t-29 -11.5t-29 11.5t-12 28.5z" />
    <glyph glyph-name="ellipsis" unicode="&#x2026;" horiz-adv-x="1689" 
d="M1460 0q-10 0 -18 8t-8 19q0 9 8 16.5t18 7.5q9 0 17 -7.5t8 -16.5q0 -10 -8 -18.5t-17 -8.5zM846 0q-10 0 -18.5 8t-8.5 19q0 9 8.5 16.5t18.5 7.5q9 0 16.5 -7.5t7.5 -16.5q0 -10 -7.5 -18.5t-16.5 -8.5zM231 0q-10 0 -18 8t-8 19q0 9 8 16.5t18 7.5q9 0 17 -7.5
t8 -16.5q0 -10 -8 -18.5t-17 -8.5z" />
    <glyph glyph-name="perthousand" unicode="&#x2030;" horiz-adv-x="2476" 
d="M1718 311q0 134 92 223t226 89t225.5 -89t91.5 -223t-91.5 -222.5t-225.5 -88.5q-135 0 -226.5 88.5t-91.5 222.5zM1739 311q0 -126 90 -208.5t207 -82.5q121 0 209 82t88 209t-88.5 209t-208.5 82t-208.5 -82t-88.5 -209zM307 -8q-9 -9 -16 -2q-8 8 0 16l1075 1436
q6 8 14 4q7 -4 2 -14zM123 1122q0 134 91.5 223t225.5 89t226 -89t92 -223t-91.5 -222.5t-226.5 -88.5q-134 0 -225.5 88.5t-91.5 222.5zM143 1122q0 -126 90 -208.5t207 -82.5q121 0 209 82t88 209t-88.5 209t-208.5 82t-208.5 -82t-88.5 -209zM899 311q0 134 92 223
t226 89t225.5 -89t91.5 -223t-91.5 -222.5t-225.5 -88.5q-135 0 -226.5 88.5t-91.5 222.5zM920 311q0 -126 90 -208.5t207 -82.5q121 0 208.5 82t87.5 209t-88 209t-208 82t-208.5 -82t-88.5 -209z" />
    <glyph glyph-name="guilsinglleft" unicode="&#x2039;" horiz-adv-x="653" 
d="M479 123q11 -11 2 -19q-8 -8 -14 2l-330 388q-10 13 -10 20q0 6 10 18l332 381q8 8 14 2q7 -7 0 -14l-338 -389z" />
    <glyph glyph-name="guilsinglright" unicode="&#x203a;" horiz-adv-x="653" 
d="M172 104q-8 8 2 19l334 389l-338 389q-7 7 0 14q6 6 14 -2l332 -381q10 -12 10 -18q0 -7 -10 -20l-330 -388q-6 -10 -14 -2z" />
    <glyph glyph-name="fraction" unicode="&#x2044;" horiz-adv-x="366" 
d="M-346 -8q-9 -9 -16 -2q-8 8 0 16l1075 1436q5 8 14 4q7 -4 2 -14z" />
    <glyph glyph-name="uni2070" unicode="&#x2070;" horiz-adv-x="729" 
d="M367 709q-128 0 -196.5 101.5t-68.5 264.5t68.5 265t194.5 102t194 -102t68 -265q0 -164 -67 -265t-193 -101zM365 1421q-118 0 -180 -94.5t-62 -251.5q0 -156 63.5 -251t180.5 -95q120 0 179.5 94t59.5 252q0 156 -62.5 251t-178.5 95z" />
    <glyph glyph-name="uni2074" unicode="&#x2074;" horiz-adv-x="641" 
d="M465 719q0 -10 -10 -10q-11 0 -11 10v199h-385q-7 0 -10.5 7t2.5 17l385 483q9 9 13 9q5 0 7.5 -5.5t-1.5 -11.5l-383 -479h372v229q0 11 11 11q10 0 10 -11v-229h125q10 0 10 -10t-10 -10h-125v-199z" />
    <glyph glyph-name="uni2075" unicode="&#x2075;" horiz-adv-x="649" 
d="M287 1126q-60 0 -111 -14q-12 -5 -12 6l47 305q0 11 12 11h334q10 0 10 -11q0 -10 -10 -10h-328l-45 -280q63 14 105 14q122 0 197 -59t75 -154q0 -101 -73.5 -163t-174.5 -62q-162 0 -235 110q-7 10 0 17q3 3 8 1.5t8 -6.5q35 -51 94.5 -76.5t124.5 -25.5q96 0 162 58.5
t66 146.5q0 83 -70.5 137.5t-183.5 54.5z" />
    <glyph glyph-name="uni2076" unicode="&#x2076;" horiz-adv-x="718" 
d="M385 709q-137 0 -210 75t-73 187q0 94 35.5 177t93.5 141.5t128 97.5t143 53q11 3 14 -4q3 -10 -6 -13q-67 -14 -129.5 -46t-116.5 -82t-91.5 -123t-47.5 -160q27 62 92 102.5t158 40.5q117 0 184.5 -61.5t67.5 -161.5q0 -92 -72.5 -157.5t-169.5 -65.5zM371 1135
q-100 0 -166 -51t-82 -113q0 -99 68 -170.5t192 -71.5q90 0 156.5 59t66.5 142q0 89 -61.5 147t-173.5 58z" />
    <glyph glyph-name="uni2077" unicode="&#x2077;" horiz-adv-x="573" 
d="M498 1413h-437q-10 0 -10 10q0 11 10 11h445q9 0 13 -6.5t1 -12.5l-338 -698q-4 -8 -12 -8q-4 0 -7.5 4.5t-0.5 9.5z" />
    <glyph glyph-name="uni2078" unicode="&#x2078;" horiz-adv-x="731" 
d="M342 1096h47q68 0 127 47t59 114q0 74 -64 119t-146 45q-83 0 -146 -45t-63 -119q0 -67 59 -114t127 -47zM387 1075h-39q-91 0 -158 -50t-67 -120q0 -76 72.5 -126t169.5 -50q100 0 171.5 48.5t71.5 127.5q0 77 -64 123.5t-157 46.5zM367 709q-106 0 -185.5 53t-79.5 141
q0 64 52 115.5t139 64.5v4q-67 13 -112.5 63.5t-45.5 106.5q0 83 66.5 134t163.5 51q98 0 164.5 -51t66.5 -134q0 -54 -42.5 -102t-115.5 -68v-2q84 -7 137.5 -58.5t53.5 -123.5q0 -88 -78 -141t-184 -53z" />
    <glyph glyph-name="uni2079" unicode="&#x2079;" horiz-adv-x="718" 
d="M334 1442q137 0 209.5 -75t72.5 -187q0 -192 -118 -322t-301 -149q-8 0 -11 6q-3 9 9 12q170 23 282 139.5t117 272.5q-27 -62 -92 -103t-158 -41q-117 0 -184.5 62t-67.5 162q0 92 72.5 157.5t169.5 65.5zM348 1016q100 0 166 51t82 113q0 99 -68 170t-192 71
q-90 0 -156.5 -58.5t-66.5 -141.5q0 -89 61.5 -147t173.5 -58z" />
    <glyph glyph-name="uni207A" unicode="&#x207a;" horiz-adv-x="737" 
d="M356 1075h-243q-11 0 -11 10q0 11 11 11h243v243q0 11 11 11q10 0 10 -11v-243h248q10 0 10 -11q0 -10 -10 -10h-248v-246q0 -10 -10 -10q-11 0 -11 10v246z" />
    <glyph glyph-name="uni207B" unicode="&#x207b;" horiz-adv-x="737" 
d="M625 1075h-512q-11 0 -11 10q0 11 11 11h512q10 0 10 -11q0 -10 -10 -10z" />
    <glyph glyph-name="uni207C" unicode="&#x207c;" horiz-adv-x="737" 
d="M625 952h-512q-11 0 -11 11q0 10 11 10h512q10 0 10 -10q0 -11 -10 -11zM625 1198h-512q-11 0 -11 10q0 11 11 11h512q10 0 10 -11q0 -10 -10 -10z" />
    <glyph glyph-name="uni207D" unicode="&#x207d;" horiz-adv-x="344" 
d="M82 1071q0 -121 57.5 -235t175.5 -189q8 -6 2 -12t-16 0q-121 75 -180.5 194t-59.5 242q0 118 59 231.5t183 202.5q10 6 14 2q8 -8 -2 -14q-119 -84 -176 -194.5t-57 -227.5z" />
    <glyph glyph-name="uni207E" unicode="&#x207e;" horiz-adv-x="344" 
d="M262 1071q0 117 -57 227.5t-176 194.5q-10 6 -2 14q4 4 14 -2q124 -89 183 -202.5t59 -231.5q0 -123 -59.5 -242t-180.5 -194q-10 -6 -16 0t2 12q118 75 175.5 189t57.5 235z" />
    <glyph glyph-name="uni2080" unicode="&#x2080;" horiz-adv-x="729" 
d="M367 -8q-128 0 -196.5 101.5t-68.5 264.5t68.5 265t194.5 102t194 -102t68 -265q0 -164 -67 -265t-193 -101zM365 705q-118 0 -180 -95t-62 -252q0 -156 63.5 -251t180.5 -95q120 0 179.5 94t59.5 252q0 156 -62.5 251.5t-178.5 95.5z" />
    <glyph glyph-name="uni2081" unicode="&#x2081;" horiz-adv-x="450" 
d="M92 590q-10 -7 -16 2t4 14l166 113q4 3 8.5 4.5t8 -0.5t3.5 -8v-705q0 -10 -10 -10t-10 10v682z" />
    <glyph glyph-name="uni2082" unicode="&#x2082;" horiz-adv-x="661" 
d="M580 0h-471q-17 0 -17 12q0 8 8 13q10 8 55.5 42t68.5 52t68.5 56t71.5 64.5t61 66t54 72.5t33 72.5t14 75.5q0 75 -50 127t-144 52q-70 0 -130.5 -35t-74.5 -103q-3 -10 -12 -10q-12 0 -9 14q14 73 80.5 113.5t141.5 40.5q110 0 164.5 -59t54.5 -146q0 -203 -406 -489
q-12 -8 -16 -11h455q10 0 10 -10t-10 -10z" />
    <glyph glyph-name="uni2083" unicode="&#x2083;" horiz-adv-x="673" 
d="M571 193q0 -91 -70 -146t-179 -55q-76 0 -139.5 28.5t-96.5 90.5q-5 11 4 14q8 4 12 -4q31 -57 92 -83t132 -26q101 0 163 51.5t62 129.5q0 71 -59 117t-142 46h-71q-11 0 -11 11q0 10 11 10h61q68 0 123 50t55 120q0 76 -53.5 117t-142.5 41q-75 0 -125 -28t-72 -73
q-4 -13 -14 -6q-6 4 -2 16q25 52 81.5 81.5t131.5 29.5q103 0 160 -46.5t57 -131.5q0 -56 -37.5 -105.5t-102.5 -70.5q79 -10 125.5 -61.5t46.5 -116.5z" />
    <glyph glyph-name="uni2084" unicode="&#x2084;" horiz-adv-x="641" 
d="M465 2q0 -10 -10 -10q-11 0 -11 10v199h-385q-7 0 -10.5 6.5t2.5 17.5l385 484q8 8 13 8t7.5 -5.5t-1.5 -11.5l-383 -479h372v230q0 10 11 10q10 0 10 -10v-230h125q10 0 10 -10t-10 -10h-125v-199z" />
    <glyph glyph-name="uni2085" unicode="&#x2085;" horiz-adv-x="649" 
d="M287 410q-57 0 -111 -15q-12 -5 -12 6l47 306q0 10 12 10h334q10 0 10 -10q0 -11 -10 -11h-328l-45 -280q63 14 105 14q122 0 197 -59t75 -154q0 -101 -73.5 -163t-174.5 -62q-162 0 -235 110q-7 10 0 17q8 8 16 -4q35 -51 94.5 -77t124.5 -26q96 0 162 58.5t66 146.5
q0 83 -70.5 138t-183.5 55z" />
    <glyph glyph-name="uni2086" unicode="&#x2086;" horiz-adv-x="718" 
d="M385 -8q-137 0 -210 75t-73 187q0 94 35.5 177t93.5 141.5t128 97.5t143 53q11 3 14 -4q3 -9 -6 -12q-67 -14 -129.5 -46t-116.5 -82.5t-91.5 -123.5t-47.5 -160q27 62 92 102.5t158 40.5q117 0 184.5 -61.5t67.5 -161.5q0 -92 -72.5 -157.5t-169.5 -65.5zM371 418
q-100 0 -166 -51t-82 -113q0 -99 68 -170.5t192 -71.5q90 0 156.5 59t66.5 142q0 89 -61.5 147t-173.5 58z" />
    <glyph glyph-name="uni2087" unicode="&#x2087;" horiz-adv-x="573" 
d="M498 696h-437q-10 0 -10 11q0 10 10 10h445q9 0 13 -6.5t1 -12.5l-338 -698q-4 -8 -12 -8q-4 0 -7.5 4.5t-0.5 9.5z" />
    <glyph glyph-name="uni2088" unicode="&#x2088;" horiz-adv-x="731" 
d="M156 541q0 -67 59 -114.5t127 -47.5h47q68 0 127 47.5t59 114.5q0 74 -64 119t-146 45q-83 0 -146 -45t-63 -119zM608 188q0 77 -64 123.5t-157 46.5h-39q-91 0 -158 -50t-67 -120q0 -76 72.5 -126t169.5 -50q100 0 171.5 48.5t71.5 127.5zM629 186q0 -88 -78 -141
t-184 -53t-185.5 53t-79.5 141q0 64 52 116t139 67q-67 15 -112.5 66t-45.5 106q0 83 66.5 133.5t163.5 50.5q98 0 164.5 -50.5t66.5 -133.5q0 -54 -42.5 -102t-115.5 -68q84 -9 137.5 -61t53.5 -124z" />
    <glyph glyph-name="uni2089" unicode="&#x2089;" horiz-adv-x="718" 
d="M334 725q137 0 209.5 -75t72.5 -187q0 -192 -118 -322t-301 -149q-8 0 -11 6q-3 9 9 12q170 23 282 139.5t117 272.5q-27 -62 -92 -102.5t-158 -40.5q-117 0 -184.5 61.5t-67.5 161.5q0 92 72.5 157.5t169.5 65.5zM348 299q100 0 166 51t82 113q0 99 -68 170.5t-192 71.5
q-90 0 -156.5 -59t-66.5 -142q0 -89 61.5 -147t173.5 -58z" />
    <glyph glyph-name="uni208A" unicode="&#x208a;" horiz-adv-x="737" 
d="M356 358h-243q-11 0 -11 11q0 10 11 10h243v244q0 10 11 10q10 0 10 -10v-244h248q10 0 10 -10q0 -11 -10 -11h-248v-245q0 -11 -10 -11q-11 0 -11 11v245z" />
    <glyph glyph-name="uni208B" unicode="&#x208b;" horiz-adv-x="737" 
d="M625 358h-512q-11 0 -11 11q0 10 11 10h512q10 0 10 -10q0 -11 -10 -11z" />
    <glyph glyph-name="uni208C" unicode="&#x208c;" horiz-adv-x="737" 
d="M625 236h-512q-11 0 -11 10t11 10h512q10 0 10 -10t-10 -10zM625 481h-512q-11 0 -11 11q0 10 11 10h512q10 0 10 -10q0 -11 -10 -11z" />
    <glyph glyph-name="uni208D" unicode="&#x208d;" horiz-adv-x="344" 
d="M82 354q0 -121 57.5 -235t175.5 -189q8 -6 2 -12t-16 0q-121 75 -180.5 193.5t-59.5 242.5q0 118 59 231.5t183 202.5q10 7 14 3q8 -8 -2 -15q-119 -84 -176 -194.5t-57 -227.5z" />
    <glyph glyph-name="uni208E" unicode="&#x208e;" horiz-adv-x="344" 
d="M262 354q0 117 -57 227.5t-176 194.5q-10 7 -2 15q4 4 14 -3q124 -89 183 -202.5t59 -231.5q0 -124 -59.5 -242.5t-180.5 -193.5q-10 -6 -16 0t2 12q118 75 175.5 189t57.5 235z" />
    <glyph glyph-name="Euro" unicode="&#x20ac;" 
d="M57 584h140q-9 64 -9 133q0 81 17 174h-154q-8 0 -8 10t14 10h152q57 240 234 389.5t427 149.5q74 0 151.5 -15.5t125.5 -39.5q8 -4 4 -15q-3 -10 -14 -6q-126 56 -265 56q-245 0 -416 -143.5t-225 -375.5h785q8 0 8 -10t-10 -10h-789q-16 -88 -16 -174q0 -78 8 -133h717
q8 0 8 -11q0 -10 -10 -10h-711q44 -257 225.5 -408t446.5 -151q143 0 229 47q3 2 8.5 1t6.5 -5q4 -10 -7 -16q-34 -23 -104.5 -35t-132.5 -12q-277 0 -463 155.5t-229 423.5h-150q-10 0 -10 10q0 11 16 11z" />
    <glyph glyph-name="uni20B4" unicode="&#x20b4;" horiz-adv-x="1228" 
d="M825 891h-645q-10 0 -10 10t10 10h668q100 103 100 244q0 125 -85.5 200t-227.5 75q-206 0 -336 -127q-8 -8 -16 0q-6 6 2 14q127 133 344 133q159 0 249.5 -81t90.5 -212q0 -139 -97 -246h177q10 0 10 -10t-10 -10h-195q-53 -52 -138 -103.5t-173 -103.5t-142 -100h648
q10 0 10 -11q0 -10 -10 -10h-670q-111 -114 -111 -262q0 -74 32 -133t85.5 -93.5t116.5 -52.5t131 -18q106 0 201 47.5t151 134.5q6 10 14 2t2 -16q-58 -91 -156 -139.5t-216 -48.5q-161 0 -271 84.5t-110 232.5q0 150 104 262h-172q-10 0 -10 10q0 11 10 11h193
q65 62 227.5 156t224.5 151z" />
    <glyph glyph-name="uni20BD" unicode="&#x20bd;" horiz-adv-x="1228" 
d="M313 676h-237q-10 0 -10 10t10 10h237v727q0 11 11 11q43 0 156 2t145 2q481 0 481 -379q0 -81 -27.5 -148.5t-84.5 -121t-156.5 -83.5t-233.5 -30h-270v-307h385q10 0 10 -11q0 -10 -10 -10h-385v-346q0 -10 -10 -10q-11 0 -11 10v346h-237q-10 0 -10 10q0 11 10 11h237
v307zM1085 1061q0 356 -458 356q-157 0 -293 -4v-717h268q244 0 363.5 96.5t119.5 268.5z" />
    <glyph glyph-name="afii61352" unicode="&#x2116;" horiz-adv-x="2355" 
d="M1331 27v1398q0 11 10 11q4 0 7.5 -4t3.5 -7v-1427q0 -10 -11 -10q-8 0 -12 6l-1063 1407v-1401q0 -8 -10 -8t-10 8v1432q0 10 8 10t12 -6zM1556 1036q0 134 92 223t226 89t225.5 -89t91.5 -223t-91.5 -222.5t-225.5 -88.5q-135 0 -226.5 88.5t-91.5 222.5zM1577 1036
q0 -126 90 -208.5t207 -82.5q121 0 209 82t88 209t-88.5 209t-208.5 82t-208.5 -82t-88.5 -209zM1626 563h496q8 0 8 -10t-8 -10h-496q-8 0 -8 10t8 10z" />
    <glyph glyph-name="trademark" unicode="&#x2122;" horiz-adv-x="1658" 
d="M807 799q0 -11 -10 -11q-11 0 -11 11v624q0 13 11 13q7 0 18 -11l322 -405l311 405q7 11 16 11q11 0 11 -13v-624q0 -11 -11 -11q-10 0 -10 11v604l-313 -406q-1 -3 -6 -3t-7 3l-321 406v-604zM326 1413h-295q-11 0 -11 10q0 11 11 11h610q10 0 10 -11q0 -10 -10 -10
h-295v-614q0 -11 -10 -11t-10 11v614z" />
    <glyph glyph-name="arrowleft" unicode="&#x2190;" horiz-adv-x="1316" 
d="M664 -18q-5 0 -9 4l-557 557q-6 6 -6 16t6 16l557 555q5 5 11 5q8 0 8 -7.5t-4 -11.5l-547 -545h1104q8 0 8 -10t-8 -10h-1108l551 -551q3 -3 4 -7t-1.5 -7.5t-8.5 -3.5z" />
    <glyph glyph-name="arrowup" unicode="&#x2191;" horiz-adv-x="1320" 
d="M668 0q0 -8 -11 -8q-10 0 -10 8v1112l-545 -547q-9 -9 -16 -2q-8 7 2 17l555 557q6 6 16.5 6t16.5 -6l557 -557q9 -8 2 -15q-8 -8 -16 0l-551 551v-1116z" />
    <glyph glyph-name="arrowright" unicode="&#x2192;" horiz-adv-x="1316" 
d="M653 -18q-8 0 -9.5 7t3.5 11l551 551h-1108q-8 0 -8 10t8 10h1104l-547 545q-4 4 -4 11.5t8 7.5q6 0 11 -5l557 -555q6 -6 6 -16t-6 -16l-557 -557q-4 -4 -9 -4z" />
    <glyph glyph-name="arrowdown" unicode="&#x2193;" horiz-adv-x="1320" 
d="M668 1100v-1104l549 549q8 8 16 0q2 -1 1.5 -6.5t-3.5 -8.5l-563 -563q-3 -3 -8.5 -3t-8.5 3l-573 574q-9 9 0 18q6 6 14 -2l555 -557v1100q0 10 10 10q11 0 11 -10z" />
    <glyph glyph-name="partialdiff" unicode="&#x2202;" horiz-adv-x="1177" 
d="M430 1450q302 -26 468.5 -240.5t166.5 -558.5q0 -119 -37 -236.5t-103 -214t-169 -156.5t-224 -60q-179 0 -299 123t-120 313q0 136 65 255.5t178.5 191t247.5 71.5q94 0 173.5 -27t132 -71.5t86 -93t48.5 -99.5q0 110 -18 210.5t-62.5 201t-112.5 176.5t-177 129
t-248 66q-5 0 -8 4t-2 8q4 8 14 8zM535 4q111 0 206.5 55t158 143t100 193t44.5 211q-17 47 -40.5 89t-61.5 84t-84.5 72t-112 48.5t-141.5 18.5q-129 0 -238 -68.5t-171 -183t-62 -246.5q0 -174 113 -295t289 -121z" />
    <glyph glyph-name="product" unicode="&#x220f;" horiz-adv-x="1792" 
d="M1524 1434q9 0 15.5 -7t6.5 -16v-1812q0 -9 -10 -9t-10 9v1814h-1260v-1814q0 -9 -10 -9t-10 9v1812q0 9 6.5 16t15.5 7h1256z" />
    <glyph glyph-name="summation" unicode="&#x2211;" horiz-adv-x="1269" 
d="M1180 -410h-1104l688 922l-688 922h1104q8 0 8 -11q0 -10 -8 -10h-1061l657 -881q15 -20 0 -40l-657 -881h1061q8 0 8 -10q0 -11 -8 -11z" />
    <glyph glyph-name="minus" unicode="&#x2212;" 
d="M1032 727h-868q-10 0 -10 10q0 11 10 11h868q10 0 10 -11q0 -10 -10 -10z" />
    <glyph glyph-name="uni2215" unicode="&#x2215;" horiz-adv-x="591" 
d="M-37 -416q-3 -10 -14 -6q-10 3 -6 14l688 1848q3 8 12 8q4 0 6 -4.5t0 -9.5z" />
    <glyph glyph-name="radical" unicode="&#x221a;" horiz-adv-x="1153" 
d="M991 1413l-307 -1415q-3 -8 -10 -8t-10 6l-420 905h-236q-8 0 -8 10q0 11 8 11h244q8 0 8 -7l412 -886l295 1378q6 27 32 27h474q8 0 8 -11q0 -10 -8 -10h-482z" />
    <glyph glyph-name="infinity" unicode="&#x221e;" horiz-adv-x="1486" 
d="M1100 436q-56 0 -106.5 19.5t-96.5 59.5t-78.5 75.5t-77.5 93.5l-39 -54t-38.5 -49.5t-43 -47.5t-45 -38t-52 -32.5t-56 -18.5t-64.5 -8q-65 0 -128 29t-107.5 91t-44.5 142q0 108 82 187.5t205 79.5q40 0 79.5 -15t68.5 -34.5t66 -57t58.5 -63.5t58.5 -74q33 46 54.5 74
t57.5 64t69 56.5t79 35t97 14.5q124 0 195 -76.5t71 -198.5q0 -44 -16 -87.5t-47 -81.5t-83.5 -61.5t-117.5 -23.5zM1096 944q-47 0 -90.5 -14t-75 -33.5t-66 -55t-56.5 -63.5t-54 -73q46 -59 77 -93.5t77 -75.5t95 -60t103 -19q59 0 106 22t74.5 57t42 74.5t14.5 77.5
q0 110 -65 183t-182 73zM401 457q45 0 86.5 15t70.5 34t63 57t53 64t53 75q-33 42 -49 62t-46.5 54.5t-52 52t-51.5 37t-60 28t-62 8.5q-114 0 -188.5 -73t-74.5 -173q0 -57 25.5 -104.5t65 -76.5t83 -44.5t84.5 -15.5z" />
    <glyph glyph-name="integral" unicode="&#x222b;" horiz-adv-x="698" 
d="M246 1053v-1121q0 -298 -197 -348q-34 -10 -92 -10q-45 0 -88 13t-68 32q-9 6 -2 16q7 7 15 3q67 -44 143 -44q139 0 203.5 84.5t64.5 251.5v1141q0 316 215 369q48 10 95 10q127 0 217 -66q8 -8 2 -16q-6 -6 -15 -2q-90 64 -204 64q-98 0 -160 -39q-129 -79 -129 -338z
" />
    <glyph glyph-name="approxequal" unicode="&#x2248;" 
d="M371 645q-108 0 -207 -96q-3 -3 -8.5 -3t-8.5 3q-3 1 -3 6t3 8q111 103 228 103q56 0 121.5 -24.5t116 -53.5t114.5 -53.5t117 -24.5q95 0 190 88q8 8 15 2q8 -8 0 -16q-100 -95 -207 -95q-55 0 -120 24.5t-116 53.5t-116 53.5t-119 24.5zM371 973q-108 0 -207 -96
q-3 -3 -8.5 -3t-8.5 3q-3 1 -3 6t3 8q110 102 228 102q56 0 121.5 -24t116 -53.5t114.5 -53.5t117 -24q95 0 190 88q8 8 15 2q9 -8 0 -17q-99 -94 -207 -94q-55 0 -120 24.5t-116 53.5t-116 53.5t-119 24.5z" />
    <glyph glyph-name="notequal" unicode="&#x2260;" 
d="M631 891h-467q-10 0 -10 10t10 10h475l197 529q3 8 10 8q14 0 8 -14l-195 -523h373q10 0 10 -10t-10 -10h-379l-114 -307h493q10 0 10 -11q0 -10 -10 -10h-500l-210 -569q-3 -10 -15 -6q-10 3 -6 14l209 561h-346q-10 0 -10 10q0 11 10 11h352z" />
    <glyph glyph-name="lessequal" unicode="&#x2264;" 
d="M942 80q8 -8 8 -14t-6 -7.5t-12 2.5l-770 506q-8 6 -8 15q0 7 7 8.5t11 -2.5zM166 893q-8 5 -8 12q0 8 8 13l770 501q6 4 10 1t4 -9q0 -7 -8 -12l-758 -494l758 -497q8 -5 8 -13q0 -6 -5 -8t-11 2z" />
    <glyph glyph-name="greaterequal" unicode="&#x2265;" 
d="M1038 905q0 -7 -8 -12l-768 -504q-6 -4 -11 -2t-5 8q0 8 8 13l758 497l-758 494q-8 5 -8 12q0 6 4 9t10 -1l770 -501q8 -5 8 -13zM254 80l770 508q4 4 11 2.5t7 -8.5q0 -9 -8 -15l-770 -506q-6 -4 -12 -2.5t-6 7.5t8 14z" />
    <glyph glyph-name="lozenge" unicode="&#x25ca;" horiz-adv-x="937" 
d="M469 1032l-324 -522l324 -496l324 518zM479 2q-3 -6 -11 -6t-11 6l-326 496q-9 12 0 24l326 520q5 8 13 8t13 -8l324 -497q7 -11 0 -25z" />
    <glyph glyph-name="spade" unicode="&#x2660;" horiz-adv-x="1294" 
d="M647 1044q112 -70 230.5 -181.5t206 -239t87.5 -215.5q0 -87 -60.5 -150t-178.5 -63q-163 0 -268 147q28 -119 79 -203.5t140 -138.5h-471q150 107 215 336q-103 -141 -265 -141q-118 0 -178.5 63.5t-60.5 151.5q0 66 51.5 157t130 179t169.5 167.5t173 130.5z" />
    <glyph glyph-name="club" unicode="&#x2663;" horiz-adv-x="1253" 
d="M362 780q0 109 78 186.5t187 77.5t186.5 -77.5t77.5 -186.5q0 -15 -4 -39q102 -8 172.5 -83.5t70.5 -178.5q0 -109 -77.5 -186.5t-186.5 -77.5q-65 0 -121 29.5t-92 79.5q64 -236 209 -324h-471q130 92 205 319q-37 -46 -93 -75t-116 -29q-109 0 -186.5 77.5t-77.5 186.5
q0 103 70.5 178.5t171.5 83.5q-3 18 -3 39z" />
    <glyph glyph-name="heart" unicode="&#x2665;" horiz-adv-x="1329" 
d="M666 0q-86 65 -179 158.5t-175.5 197.5t-135.5 212.5t-53 189.5q0 51 14.5 97t43.5 84.5t78 61.5t112 23q182 0 295 -213q109 213 292 213q83 0 141 -40t82.5 -98t24.5 -126q0 -82 -53 -191t-135 -213t-174 -197.5t-178 -158.5z" />
    <glyph glyph-name="diamond" unicode="&#x2666;" horiz-adv-x="1193" 
d="M1071 510q-222 -222 -475 -549q-213 280 -473 549q221 231 473 551q256 -324 475 -551z" />
    <glyph glyph-name="uniF350" unicode="&#xf350;" horiz-adv-x="1124" 
d="M276 440h570l-285 611zM268 422l-196 -420q-3 -10 -13 -10q-14 0 -8 14l498 1065q5 10 12 10t12 -10l498 -1061q4 -9 1.5 -13.5t-7.5 -4.5q-9 0 -12 10l-199 420h-586z" />
    <glyph glyph-name="uniF351" unicode="&#xf351;" horiz-adv-x="995" 
d="M197 1065q0 10 10 10h588q10 0 10 -10t-10 -10h-578v-441q123 9 219 9q215 0 321.5 -79t106.5 -222q0 -161 -115.5 -243.5t-318.5 -82.5q-40 0 -116 2t-107 2q-10 0 -10 10v1055zM432 16q200 0 306 79t106 229q0 133 -102.5 206.5t-301.5 73.5q-120 0 -223 -10v-574
q27 0 99 -2t116 -2z" />
    <glyph glyph-name="uniF352" unicode="&#xf352;" horiz-adv-x="1011" 
d="M881 291q0 -151 -108.5 -223t-289.5 -72q-46 0 -144.5 2t-131.5 2q-10 0 -10 10v1055q0 10 10 10q31 0 129.5 2t142.5 2q352 0 352 -264q0 -112 -75.5 -179.5t-184.5 -78.5q151 -14 230.5 -81.5t79.5 -184.5zM479 16q181 0 281 69.5t100 207.5q0 119 -97.5 184.5
t-279.5 65.5h-266v-523q25 0 121.5 -2t140.5 -2zM496 563q133 0 224 69.5t91 182.5q0 122 -80 183t-254 61q-154 0 -260 -4v-492h279z" />
    <glyph glyph-name="uniF353" unicode="&#xf353;" horiz-adv-x="819" 
d="M217 2q0 -10 -10 -10t-10 10v1063q0 10 10 10h602q10 0 10 -10t-10 -10h-592v-1053z" />
    <glyph glyph-name="uniF354" unicode="&#xf354;" horiz-adv-x="1204" 
d="M53 -205q0 -10 -10 -10t-10 10v215q0 10 10 10h115q23 27 50 82.5t60.5 152.5t60.5 256t38 349l12 205q0 10 10 10h584q10 0 10 -10v-1045h145q11 0 11 -10v-215q0 -10 -11 -10q-10 0 -10 10v205h-1065v-205zM963 1055h-564l-12 -203q-12 -191 -39.5 -350t-60.5 -255
t-59.5 -150t-47.5 -77h783v1035z" />
    <glyph glyph-name="uniF355" unicode="&#xf355;" horiz-adv-x="960" 
d="M829 10q0 -10 -10 -10h-612q-10 0 -10 10v1055q0 10 10 10h596q10 0 10 -10t-10 -10h-586v-496h537q10 0 10 -10t-10 -10h-537v-519h602q10 0 10 -10z" />
    <glyph glyph-name="uniF356" unicode="&#xf356;" horiz-adv-x="1464" 
d="M743 2q0 -10 -10 -10t-10 10v1063q0 10 10 10t10 -10v-1063zM86 -2q-6 -6 -10 -6q-6 0 -8 5t4 11l536 551l-510 500q-4 5 -2 10.5t8 5.5q7 0 13 -6l506 -498q6 -6 6 -12t-6 -12zM844 571l504 498q6 6 12 6q8 0 10 -6t-4 -12l-510 -498l537 -551q5 -4 4 -10t-8 -6
q-5 0 -11 6l-534 549q-6 6 -6 12t6 12z" />
    <glyph glyph-name="uniF357" unicode="&#xf357;" horiz-adv-x="927" 
d="M565 551q104 -7 168 -80.5t64 -169.5q0 -146 -104 -229.5t-269 -83.5q-91 0 -189.5 38.5t-146.5 98.5q-5 7 0 12q6 6 14 -2q59 -59 150 -93t168 -34q166 0 261 80t95 213q0 110 -74 175t-196 65h-148q-10 0 -10 8q0 10 10 10h136q91 0 164 77.5t73 184.5q0 119 -80 182.5
t-207 63.5q-103 0 -176.5 -31t-132.5 -90q-9 -9 -16 -2t0 14q123 129 319 129q146 0 230 -71.5t84 -198.5q0 -80 -50 -155.5t-137 -110.5z" />
    <glyph glyph-name="uniF358" unicode="&#xf358;" horiz-adv-x="1312" 
d="M1096 2v1042l-871 -1042q-10 -10 -18 -10q-10 0 -10 14v1059q0 10 10 10t10 -10v-1040l873 1042q7 10 16 10q10 0 10 -12v-1063q0 -10 -10 -10t-10 10z" />
    <glyph glyph-name="uniF359" unicode="&#xf359;" horiz-adv-x="1312" 
d="M1096 2v1042l-871 -1042q-10 -10 -18 -10q-10 0 -10 14v1059q0 10 10 10t10 -10v-1040l873 1042q7 10 16 10q10 0 10 -12v-1063q0 -10 -10 -10t-10 10zM649 1106q-112 0 -179 50.5t-71 143.5q0 3 3.5 7t7.5 4q10 0 10 -11q4 -83 65 -128.5t164 -45.5q99 0 158.5 46
t62.5 128q0 11 11 11q10 0 10 -11q-4 -91 -71.5 -142.5t-170.5 -51.5z" />
    <glyph glyph-name="uniF35A" unicode="&#xf35a;" horiz-adv-x="1007" 
d="M217 2q0 -10 -10 -10t-10 10v1063q0 10 10 10t10 -10v-1063zM895 1073q6 6 14 6q3 0 6 -3t2.5 -7.5t-6.5 -9.5l-573 -498l594 -549q4 -4 5 -8.5t-1.5 -8t-7.5 -3.5q-7 0 -15 8l-585 545q-16 17 0 33z" />
    <glyph glyph-name="uniF35B" unicode="&#xf35b;" horiz-adv-x="1181" 
d="M985 2q0 -10 -10 -10t-10 10v1053h-576l-16 -203q-13 -159 -32 -288.5t-40 -216.5t-47 -152.5t-50 -102t-51.5 -59t-48.5 -29.5t-45 -8q-10 0 -10 10t10 10q19 2 37 8.5t43.5 29t48 57.5t48 100t46 150t39.5 213.5t31 285.5l17 205q0 10 10 10h596q10 0 10 -10v-1063z
" />
    <glyph glyph-name="uniF35C" unicode="&#xf35c;" horiz-adv-x="1431" 
d="M1235 1071v-1069q0 -10 -10 -10q-11 0 -11 10v1049l-477 -635q-5 -6 -13 -6t-13 6l-494 633v-1047q0 -10 -10 -10t-10 10v1067q0 11 9 14t15 -6l504 -645l485 645q8 9 16.5 6t8.5 -12z" />
    <glyph glyph-name="uniF35D" unicode="&#xf35d;" horiz-adv-x="1271" 
d="M1075 2q0 -10 -10 -10t-10 10v537h-838v-537q0 -10 -10 -10t-10 10v1063q0 10 10 10t10 -10v-506h838v506q0 10 10 10t10 -10v-1063z" />
    <glyph glyph-name="uniF35E" unicode="&#xf35e;" horiz-adv-x="1318" 
d="M1221 539q0 -234 -162 -392.5t-400 -158.5t-399.5 158.5t-161.5 392.5q0 115 43.5 216.5t118 174.5t178.5 115t221 42q156 0 285 -71.5t203 -197.5t74 -279zM1200 539q0 225 -156 376.5t-385 151.5t-384.5 -151.5t-155.5 -376.5q0 -149 71 -271t194.5 -191t274.5 -69
t275 69t195 191t71 271z" />
    <glyph glyph-name="uniF35F" unicode="&#xf35f;" horiz-adv-x="1269" 
d="M1073 2q0 -10 -10 -10t-10 10v1053h-836v-1053q0 -10 -10 -10t-10 10v1063q0 10 10 10h856q10 0 10 -10v-1063z" />
    <glyph glyph-name="uniF360" unicode="&#xf360;" horiz-adv-x="931" 
d="M432 451q-63 0 -215 8v-457q0 -10 -10 -10t-10 10v1063q0 10 10 10q35 0 124.5 2t114.5 2q89 0 158 -18t111.5 -48t70 -71t38 -83.5t10.5 -90.5q0 -62 -22 -116.5t-67.5 -100.5t-126 -73t-186.5 -27zM430 471q190 0 286.5 83t96.5 214q0 130 -88 210.5t-276 80.5
q-126 0 -232 -4v-576q148 -8 213 -8z" />
    <glyph glyph-name="uniF361" unicode="&#xf361;" horiz-adv-x="1077" 
d="M119 539q0 -240 151 -385.5t394 -145.5q188 0 329 105q3 2 7.5 1.5t5.5 -3.5q3 -3 2 -8t-4 -7q-62 -51 -153.5 -79.5t-186.5 -28.5q-254 0 -410 150.5t-156 400.5q0 153 68 277.5t193.5 197.5t285.5 73q201 0 334 -88q11 -6 6 -16q-6 -10 -16 0q-118 84 -322 84
q-156 0 -277.5 -70.5t-186 -190.5t-64.5 -267z" />
    <glyph glyph-name="uniF362" unicode="&#xf362;" horiz-adv-x="966" 
d="M473 2v1053h-446q-11 0 -11 10t11 10h913q10 0 10 -10t-10 -10h-446v-1053q0 -10 -11 -10q-10 0 -10 10z" />
    <glyph glyph-name="uniF363" unicode="&#xf363;" horiz-adv-x="1036" 
d="M977 1067q4 8 10 8t8.5 -5t-0.5 -11l-397 -821q-62 -128 -115 -183t-121 -55q-61 0 -100 25q-9 9 -4 16q5 5 12 2q45 -25 90 -25q60 0 105.5 46t87.5 126l25 48l-533 819q-5 6 -3.5 12t7.5 6q7 0 12 -8l527 -809z" />
    <glyph glyph-name="uniF364" unicode="&#xf364;" horiz-adv-x="1351" 
d="M684 -2q0 -10 -10 -10t-10 10v129h-17q-255 0 -410 113t-155 313q0 202 154 314t417 112h11v98q0 10 10 10t10 -10v-98h12q268 0 421 -113t153 -313q0 -199 -155.5 -312.5t-409.5 -113.5h-21v-129zM705 145q156 0 277.5 45t194 138.5t72.5 224.5q0 197 -151 302.5
t-402 105.5h-12v-816h21zM664 961h-11q-248 0 -399.5 -106.5t-151.5 -301.5q0 -193 152.5 -300.5t392.5 -107.5h17v816z" />
    <glyph glyph-name="uniF365" unicode="&#xf365;" horiz-adv-x="1071" 
d="M961 1067q5 8 12 8t8.5 -6t-4.5 -12l-428 -508l444 -531q5 -8 1.5 -13t-9.5 -5q-4 0 -10 6l-440 524l-441 -524q-6 -6 -10 -6q-7 0 -9 6t3 12l444 529l-426 510q-4 6 -2 12t8 6q7 0 13 -6l420 -506z" />
    <glyph glyph-name="uniF366" unicode="&#xf366;" horiz-adv-x="1286" 
d="M1202 -205v205h-995q-10 0 -10 10v1055q0 10 10 10t10 -10v-1045h827v1045q0 10 11 10q10 0 10 -10v-1045h145q11 0 11 -10v-215q0 -10 -9 -10q-10 0 -10 10z" />
    <glyph glyph-name="uniF367" unicode="&#xf367;" horiz-adv-x="1009" 
d="M793 1065q0 10 10 10t10 -10v-1063q0 -10 -10 -10t-10 10v524q-62 -40 -160 -71t-199 -31q-155 0 -245.5 85.5t-90.5 258.5v297q0 10 11 10q10 0 10 -10v-299q0 -157 85 -239.5t234 -82.5q179 0 355 103v518z" />
    <glyph glyph-name="uniF368" unicode="&#xf368;" horiz-adv-x="1624" 
d="M1427 10q0 -10 -10 -10h-1210q-10 0 -10 10v1055q0 10 10 10t10 -10v-1045h584v1045q0 10 10 10t10 -10v-1045h586v1045q0 10 10 10t10 -10v-1055z" />
    <glyph glyph-name="uniF369" unicode="&#xf369;" horiz-adv-x="1648" 
d="M1563 -205v205h-1356q-10 0 -10 10v1055q0 10 10 10t10 -10v-1045h584v1045q0 10 10 10t10 -10v-1045h586v1045q0 10 10 10t10 -10v-1045h146q10 0 10 -10v-215q0 -10 -10 -10t-10 10z" />
    </font>
</defs>
</svg>
