<?xml version="1.0" standalone="no"?>
<!DOCTYPE svg PUBLIC "-//W3C//DTD SVG 1.1//EN" "http://www.w3.org/Graphics/SVG/1.1/DTD/svg11.dtd" >
<svg xmlns="http://www.w3.org/2000/svg" xmlns:xlink="http://www.w3.org/1999/xlink" version="1.1">
<metadata>
Created by FontForge 20170731 at Wed Mar 15 10:28:01 2023
 By Aleksey,,,
Copyright (c) 2015 Paratype, Inc., ParaType Ltd. All rights reserved.
</metadata>
<defs>
<font id="CirceRounded-Medium" horiz-adv-x="1216" >
  <font-face 
    font-family="Circe Rounded Medium"
    font-weight="500"
    font-stretch="normal"
    units-per-em="2048"
    panose-1="2 15 5 2 2 2 3 2 2 3"
    ascent="1583"
    descent="-465"
    x-height="922"
    cap-height="1434"
    bbox="-1051 -655 2970 1909"
    underline-thickness="102"
    underline-position="-307"
    unicode-range="U+0020-FB02"
  />
<missing-glyph horiz-adv-x="446" 
 />
    <glyph glyph-name="uniF350.var.accented" unicode="&#xf350;`" horiz-adv-x="1181" 
d="M848 246h-520l-90 -197q-32 -65 -99 -65q-39 0 -66.5 27.5t-27.5 66.5q0 18 10 41l414 876q42 90 125 90q86 0 123 -90l405 -860q13 -26 13 -49q0 -42 -29.5 -72t-69.5 -30q-68 0 -102 69zM588 815l-172 -371h342zM500 1343l168 181q17 20 45 20q33 0 49 -22l31 -39
q16 -19 16 -45q0 -36 -27 -60l-178 -153q-22 -19 -49 -19q-30 0 -57 27q-23 26 -23 53q0 28 25 57z" />
    <glyph glyph-name="uniF355.var.accented" unicode="&#xf355;`" horiz-adv-x="1009" 
d="M377 201h418q42 0 73 -30.5t31 -68.5q0 -41 -30.5 -71.5t-73.5 -30.5h-525q-43 0 -73.5 30.5t-30.5 71.5v869q0 43 30.5 73.5t73.5 30.5h508q42 0 72.5 -29.5t30.5 -68.5q0 -41 -30 -70.5t-73 -29.5h-401v-234h352q41 0 71.5 -30.5t30.5 -67.5q0 -41 -30.5 -72t-71.5 -31
h-352v-241zM424 1343l168 181q17 20 45 20q33 0 49 -22l31 -39q16 -19 16 -45q0 -37 -26 -60l-179 -153q-22 -19 -49 -19q-30 0 -57 27q-23 26 -23 53q0 28 25 57z" />
    <glyph glyph-name="uniF358.var.accented" unicode="&#xf358;`" horiz-adv-x="1351" 
d="M1184 88q0 -42 -30.5 -73t-74.5 -31t-75 31t-31 73v649l-580 -690q-29 -34 -54.5 -48.5t-62.5 -14.5q-51 0 -80.5 31.5t-29.5 80.5v887q0 42 31 72t75 30t74.5 -30t30.5 -72v-645l575 682q56 65 121 65q47 0 79 -30.5t32 -79.5v-887zM573 1343l168 181q17 20 45 20
q33 0 50 -22l30 -39q17 -20 17 -45q0 -36 -27 -60l-178 -153q-22 -19 -49 -19q-31 0 -58 27q-22 25 -22 53q0 30 24 57z" />
    <glyph glyph-name="uniF35E.var.accented" unicode="&#xf35e;`" horiz-adv-x="1345" 
d="M78 537q0 116 43.5 217.5t121 175.5t189 117t240.5 43q171 0 307 -67.5t213.5 -194t77.5 -291.5q0 -161 -77.5 -288.5t-214 -198t-306.5 -70.5q-259 0 -426.5 153t-167.5 404zM303 537q0 -153 106.5 -255t262.5 -102q174 0 273 100.5t99 256.5t-106.5 254t-265.5 98
q-161 0 -265 -97.5t-104 -254.5zM594 1343l168 181q17 20 45 20q33 0 49 -22l31 -39q16 -19 16 -45q0 -37 -26 -60l-179 -153q-22 -19 -49 -19q-30 0 -57 27q-23 26 -23 53q0 28 25 57z" />
    <glyph glyph-name="uniF363.var.accented" unicode="&#xf363;`" horiz-adv-x="1085" 
d="M285 1026l317 -506l242 502q31 63 94 63q42 0 70 -26.5t28 -65.5q0 -23 -12 -47l-340 -688q-67 -135 -144.5 -200.5t-183.5 -65.5q-57 0 -100 30.5t-43 75.5q0 44 25.5 69.5t76.5 25.5q21 0 41 -5h15q24 0 45 15.5t31.5 31t27.5 44.5l19 32l-400 602q-20 33 -20 64
q0 44 30 76t80 32q62 0 101 -59zM467 1343l168 181q17 20 45 20q32 0 49 -22l31 -39q16 -19 16 -45q0 -37 -26 -60l-179 -153q-22 -19 -49 -19q-30 0 -57 27q-23 26 -23 53q0 28 25 57z" />
    <glyph glyph-name="uniF36B.var.accented" unicode="&#xf36b;`" horiz-adv-x="1476" 
d="M1311 983v-895q0 -42 -31.5 -73t-75.5 -31t-75 31t-31 73v895q0 42 31 72t75 30t75.5 -30.5t31.5 -71.5zM377 522v-321q39 -4 110 -4q234 0 234 172q0 78 -60 118.5t-169 40.5q-44 0 -115 -6zM166 102v881q0 42 31 72t75 30t74.5 -30t30.5 -72v-262q80 6 131 6
q218 0 328 -93.5t110 -260.5q0 -173 -128 -275t-355 -102q-35 0 -100.5 1t-92.5 1q-44 2 -74 31.5t-30 72.5zM614 1343l168 181q17 20 45 20q33 0 50 -22l30 -39q17 -20 17 -45q0 -36 -27 -60l-178 -153q-22 -19 -49 -19q-31 0 -58 27q-22 25 -22 53q0 30 24 57z" />
    <glyph glyph-name="uniF36D.var.accented" unicode="&#xf36d;`" horiz-adv-x="1118" 
d="M147 240q23 0 70 -15q108 -43 229 -43q152 0 251.5 67t125.5 200h-432q-40 0 -68 29t-28 71q0 41 28 69.5t68 28.5h428q-31 120 -129 183t-252 63q-126 0 -219 -37q-27 -12 -55 -12q-48 0 -76 45q-14 25 -14 45q0 55 71 96q115 64 301 64q263 0 430.5 -153.5
t167.5 -403.5q0 -255 -168 -404t-454 -149q-190 0 -301 63q-68 38 -68 98q0 23 17 54q28 41 77 41zM365 1343l167 181q17 20 46 20q32 0 49 -22l30 -39q17 -20 17 -45q0 -36 -27 -60l-178 -153q-22 -19 -49 -19q-31 0 -58 27q-22 25 -22 53t25 57z" />
    <glyph glyph-name="uniF36E.var.accented" unicode="&#xf36e;`" horiz-adv-x="1789" 
d="M377 449v-361q0 -42 -30.5 -73t-74.5 -31t-75 31t-31 73v895q0 42 31 72t75 30t74.5 -30t30.5 -72v-336h201q33 199 181 323t376 124q266 0 421.5 -150.5t155.5 -404.5q0 -247 -156.5 -401t-420.5 -154q-226 0 -378.5 125.5t-181.5 339.5h-198zM795 539
q0 -154 96.5 -255.5t249.5 -101.5q163 0 254.5 100t91.5 257q0 159 -94.5 256.5t-251.5 97.5q-153 0 -249.5 -98t-96.5 -256zM770 1343l168 181q17 20 45 20q33 0 49 -22l31 -39q16 -19 16 -45q0 -37 -26 -60l-179 -153q-22 -19 -49 -19q-30 0 -57 27q-23 26 -23 53
q0 28 25 57z" />
    <glyph glyph-name="uniF36F.var.accented" unicode="&#xf36f;`" horiz-adv-x="1085" 
d="M918 971v-883q0 -42 -30.5 -73t-74.5 -31t-76 31t-32 73v260h-209l-217 -307q-47 -57 -103 -57q-43 0 -69.5 28t-26.5 66q0 42 22 69l185 246q-87 44 -142 120.5t-55 182.5q0 78 27.5 145.5t83.5 122t150 86t216 31.5q100 0 248 -4q43 -2 73 -32.5t30 -73.5zM705 549v328
q-11 0 -68.5 2t-89.5 2q-112 0 -172 -47t-60 -125q0 -63 48 -107t116 -53h226zM446 1343l168 181q17 20 45 20q33 0 50 -22l30 -39q17 -20 17 -45q0 -36 -27 -60l-178 -153q-22 -19 -49 -19q-31 0 -58 27q-22 25 -22 53q0 30 24 57z" />
    <glyph glyph-name="uniF371.var.accented" unicode="&#xf371;`" horiz-adv-x="1009" 
d="M293 1221q-50 0 -83.5 29t-33.5 81q0 46 34 75.5t83 29.5q40 0 72 -30t32 -75q0 -51 -31.5 -80.5t-72.5 -29.5zM768 1221q-47 0 -80 29t-33 81q0 46 33.5 75.5t79.5 29.5q43 0 74.5 -29.5t31.5 -75.5q0 -51 -31 -80.5t-75 -29.5zM682 1466l-129 -133q-25 -28 -59 -28
q-29 0 -52.5 21.5t-23.5 49.5q0 31 22 62l109 151q20 33 63 33q34 0 67.5 -29.5t33.5 -64.5q0 -34 -31 -62zM377 201h418q42 0 73 -30.5t31 -68.5q0 -41 -30.5 -71.5t-73.5 -30.5h-525q-43 0 -73.5 30.5t-30.5 71.5v869q0 43 30.5 73.5t73.5 30.5h508q42 0 72.5 -29.5
t30.5 -68.5q0 -41 -30 -70.5t-73 -29.5h-401v-234h352q41 0 71.5 -30.5t30.5 -67.5q0 -41 -30.5 -72t-71.5 -31h-352v-241z" />
    <glyph glyph-name="uni0410.var.accented" unicode="&#x410;`" horiz-adv-x="1406" 
d="M1016 393h-635l-141 -344q-25 -65 -93 -65q-44 0 -72 29t-28 69q0 21 10 41l529 1235q40 86 121 86q44 0 73 -24.5t43 -61.5l529 -1231q8 -24 8 -41q0 -41 -28.5 -71.5t-71.5 -30.5q-38 0 -65 19t-38 50zM700 1155l-235 -563h469zM610 1651l303 159q18 9 29 9
q35 0 57 -37l21 -51q4 -8 4 -27q0 -41 -39 -57l-313 -123q-8 -4 -25 -4q-45 0 -65 41q-9 18 -9 30q0 18 11 35t26 25z" />
    <glyph glyph-name="uni0415.var.accented" unicode="&#x415;`" horiz-adv-x="1177" 
d="M420 201h530q40 0 68.5 -30t28.5 -71t-28.5 -70.5t-68.5 -29.5h-643q-41 0 -70.5 29.5t-29.5 70.5v1233q0 41 29.5 71t70.5 30h623q39 0 67.5 -29.5t28.5 -69.5q0 -43 -28 -72.5t-68 -29.5h-510v-410h448q40 0 68.5 -28.5t28.5 -69.5q0 -42 -28.5 -71t-68.5 -29h-448
v-424zM539 1651l303 159q18 9 28 9q36 0 58 -37l20 -51q4 -8 4 -27q0 -41 -39 -57l-313 -123q-8 -4 -25 -4q-45 0 -65 41q-8 16 -8 30q0 18 11 35t26 25z" />
    <glyph glyph-name="uni0418.var.accented" unicode="&#x418;`" horiz-adv-x="1626" 
d="M1417 90q0 -43 -30 -74.5t-74 -31.5t-76.5 31.5t-32.5 74.5v991l-770 -1026q-54 -71 -119 -71q-52 0 -80 30t-28 80v1245q0 43 31.5 74t76.5 31q43 0 74 -31t31 -74v-989l770 1026q51 68 117 68q51 0 80.5 -29.5t29.5 -79.5v-1245zM723 1651l303 159q18 9 29 9
q35 0 57 -37l21 -51q4 -8 4 -27q0 -41 -39 -57l-314 -123q-8 -4 -24 -4q-46 0 -66 41q-8 16 -8 30q0 18 11 35t26 25z" />
    <glyph glyph-name="uni041E.var.accented" unicode="&#x41e;`" horiz-adv-x="1671" 
d="M98 717q0 154 55 290t151 234.5t234 155.5t298 57q157 0 293.5 -53.5t234.5 -149t154.5 -233.5t56.5 -301q0 -211 -96.5 -379.5t-265 -263t-377.5 -94.5q-210 0 -377.5 91t-264 260t-96.5 386zM324 717q0 -229 148 -384t364 -155q154 0 272 71.5t180 193.5t62 274
q0 234 -147.5 386t-366.5 152q-221 0 -366.5 -151.5t-145.5 -386.5zM743 1651l304 159q18 9 28 9q36 0 58 -37l20 -51q4 -8 4 -27q0 -41 -39 -57l-313 -123q-8 -4 -25 -4q-45 0 -65 41q-8 16 -8 30q0 18 10.5 35t25.5 25z" />
    <glyph glyph-name="uni0423.var.accented" unicode="&#x423;`" horiz-adv-x="1335" 
d="M270 1380l471 -796l340 786q31 74 97 74q46 0 73 -25t27 -63q0 -25 -12 -49l-435 -975q-80 -181 -163.5 -256.5t-208.5 -75.5q-62 0 -111 16q-28 11 -51 37t-23 62q0 40 27.5 67t71.5 27q10 0 41 -5t49 -5q95 0 151 123l25 51l-553 913q-16 21 -16 57q0 42 27 71.5
t71 29.5q61 0 102 -64zM602 1651l303 159q18 9 29 9q35 0 57 -37l21 -51q4 -8 4 -27q0 -41 -39 -57l-313 -123q-8 -4 -25 -4q-46 0 -66 41q-8 16 -8 30q0 18 11 35t26 25z" />
    <glyph glyph-name="uni042B.var.accented" unicode="&#x42b;`" horiz-adv-x="1748" 
d="M1544 1339v-1249q0 -43 -31.5 -74.5t-74.5 -31.5q-44 0 -75.5 31.5t-31.5 74.5v1249q0 43 31.5 74t75.5 31q43 0 74.5 -31t31.5 -74zM420 721v-520q25 0 74.5 -2t78.5 -2q158 0 241 70t83 208q0 126 -82.5 192t-236.5 66q-64 0 -158 -12zM207 106v1233q0 43 31.5 74
t76.5 31q43 0 74 -31t31 -74v-417q90 10 174 10q262 0 395 -120.5t133 -332.5q0 -227 -151.5 -355t-421.5 -128q-98 0 -238 4q-43 0 -73.5 31t-30.5 75zM750 1651l303 159q18 9 28 9q36 0 58 -37l20 -51q4 -8 4 -27q0 -41 -39 -57l-313 -123q-8 -4 -25 -4q-45 0 -65 41
q-8 16 -8 30q0 18 11 35t26 25z" />
    <glyph glyph-name="uni042D.var.accented" unicode="&#x42d;`" horiz-adv-x="1357" 
d="M152 262q34 0 61 -16q149 -68 301 -68q211 0 356 120t172 333h-579q-40 0 -69 29.5t-29 70.5t29 70.5t69 29.5h575q-32 200 -177.5 312t-368.5 112q-120 0 -259 -63q-27 -16 -59 -16q-40 0 -67 27t-27 65q0 55 57 90q166 96 395 96q326 0 528 -200.5t202 -532.5
q0 -333 -203 -537t-541 -204q-124 0 -222 20.5t-187 73.5q-56 32 -56 90q0 43 28 70.5t71 27.5zM463 1651l303 159q18 9 29 9q35 0 57 -37l20 -51q5 -10 5 -27q0 -41 -39 -57l-314 -123q-8 -4 -24 -4q-46 0 -66 41q-8 16 -8 30q0 18 11 35t26 25z" />
    <glyph glyph-name="uni042E.var.accented" unicode="&#x42e;`" horiz-adv-x="2211" 
d="M420 631v-541q0 -43 -31 -74.5t-74 -31.5q-45 0 -76.5 31.5t-31.5 74.5v1249q0 43 31.5 74t76.5 31q43 0 74 -31t31 -74v-508h276q24 179 116 320t243.5 222t339.5 81q208 0 371.5 -91.5t255.5 -259.5t92 -386q0 -212 -91.5 -380t-256 -262.5t-371.5 -94.5
q-185 0 -338 80t-250 229t-115 342h-272zM913 717q0 -229 141 -384t347 -155q153 0 265 72t167 193t55 274q0 237 -135 387.5t-352 150.5q-210 0 -349 -151.5t-139 -386.5zM1051 1651l303 159q18 9 28 9q36 0 58 -37l20 -51q4 -8 4 -27q0 -41 -39 -57l-313 -123
q-8 -4 -25 -4q-45 0 -65 41q-8 16 -8 30q0 18 11 35t26 25z" />
    <glyph glyph-name="uni042F.var.accented" unicode="&#x42f;`" horiz-adv-x="1249" 
d="M1042 1327v-1237q0 -43 -30.5 -74.5t-73.5 -31.5q-45 0 -76 31.5t-31 74.5v424h-237l-320 -473q-43 -57 -98 -57q-43 0 -69.5 27t-26.5 65q0 36 22 63l287 416q-115 52 -190.5 155t-75.5 244q0 101 34 187t101.5 154t179.5 106.5t258 38.5q78 0 242 -4q43 -2 73.5 -33.5
t30.5 -75.5zM831 713v520q-82 8 -176 8q-144 0 -225.5 -76t-81.5 -198q0 -99 66 -168.5t157 -85.5h260zM608 1651l303 159q18 9 29 9q35 0 57 -37l21 -51q4 -8 4 -27q0 -41 -39 -57l-313 -123q-8 -4 -25 -4q-45 0 -65 41q-9 18 -9 30q0 18 11 35t26 25z" />
    <glyph glyph-name="uni0401.var.accented" unicode="&#x401;`" horiz-adv-x="1177" 
d="M225 1675q0 51 30.5 81t76.5 30q39 0 68.5 -30.5t29.5 -80.5q0 -54 -29.5 -86.5t-68.5 -32.5q-46 0 -76.5 32t-30.5 87zM821 1675q0 50 31.5 80.5t75.5 30.5q40 0 68 -30t28 -81q0 -55 -28 -87t-68 -32q-44 0 -75.5 32t-31.5 87zM498 1573q0 21 10 33l110 176
q25 49 74 49q31 0 52.5 -18.5t21.5 -47.5q0 -27 -23 -53l-157 -156q-25 -22 -45 -22q-19 0 -31 11t-12 28zM420 201h530q40 0 68.5 -30t28.5 -71t-28.5 -70.5t-68.5 -29.5h-643q-41 0 -70.5 29.5t-29.5 70.5v1233q0 41 29.5 71t70.5 30h623q39 0 67.5 -29.5t28.5 -69.5
q0 -43 -28 -72.5t-68 -29.5h-510v-410h448q40 0 68.5 -28.5t28.5 -69.5q0 -42 -28.5 -71t-68.5 -29h-448v-424z" />
    <glyph glyph-name="uni0430.var.accented" unicode="&#x430;`" horiz-adv-x="946" 
d="M362 -12q-128 0 -206 75t-78 207q0 143 94.5 219t245.5 76q61 0 122 -15t99 -42v29q0 117 -42.5 175t-150.5 58q-54 0 -120 -17.5t-80 -17.5q-39 0 -60.5 23t-21.5 55q0 25 15.5 46.5t41.5 31.5q114 51 244 51q194 0 278 -95t84 -284v-489q0 -35 -26 -60.5t-66 -25.5
q-38 0 -63 24.5t-25 61.5v35q-43 -54 -115.5 -87.5t-169.5 -33.5zM639 262v105q-74 53 -184 53q-73 0 -122.5 -34t-49.5 -99q0 -58 39.5 -92.5t107.5 -34.5q128 0 209 102zM412 1219l135 206q17 29 57 29q23 0 41 -12l39 -29q27 -18 27 -55q0 -28 -17 -45l-155 -185
q-23 -26 -62 -26q-27 0 -45 12q-33 23 -33 66q0 20 13 39z" />
    <glyph glyph-name="uni0435.var.accented" unicode="&#x435;`" horiz-adv-x="1073" 
d="M791 545q-3 100 -66.5 161.5t-171.5 61.5q-113 0 -181.5 -60.5t-86.5 -162.5h506zM295 399q12 -116 93 -180.5t206 -64.5q117 0 197 45q28 14 49 14q33 0 55.5 -21t22.5 -55q0 -46 -35 -67q-131 -90 -310 -90q-223 0 -358 131.5t-135 349.5q0 207 130 344t351 137
q183 0 307.5 -118t124.5 -306q0 -119 -92 -119h-606zM469 1219l135 206q17 29 58 29q22 0 40 -12l39 -29q27 -18 27 -55q0 -29 -16 -45l-156 -185q-23 -26 -61 -26q-28 0 -46 12q-32 22 -32 66q0 21 12 39z" />
    <glyph glyph-name="uni0438.var.accented" unicode="&#x438;`" horiz-adv-x="1159" 
d="M1020 82q0 -40 -28.5 -69t-69.5 -29q-43 0 -73 29t-30 69v541l-438 -557q-35 -41 -65 -61.5t-70 -20.5q-46 0 -76.5 31.5t-30.5 76.5v746q0 40 29 68t72 28q41 0 70.5 -28t29.5 -68v-543l438 557q34 41 63 61.5t70 20.5q48 0 78.5 -31.5t30.5 -75.5v-745zM487 1219
l136 206q17 29 57 29q23 0 41 -12l39 -29q26 -17 26 -55q0 -29 -16 -45l-156 -185q-23 -26 -61 -26q-27 0 -45 12q-33 23 -33 66q0 21 12 39z" />
    <glyph glyph-name="uni043E.var.accented" unicode="&#x43e;`" horiz-adv-x="1153" 
d="M80 461q0 210 137.5 345.5t360.5 135.5q222 0 358.5 -135.5t136.5 -345.5t-136.5 -345.5t-358.5 -135.5q-223 0 -360.5 135.5t-137.5 345.5zM293 461q0 -130 80.5 -213.5t204.5 -83.5t203 82t79 215q0 130 -79.5 212.5t-202.5 82.5q-122 0 -203.5 -82t-81.5 -213z
M496 1219l135 206q17 29 57 29q23 0 41 -12l39 -29q27 -18 27 -55q0 -28 -17 -45l-155 -185q-23 -26 -62 -26q-27 0 -45 12q-33 23 -33 66q0 20 13 39z" />
    <glyph glyph-name="uni0443.var.accented" unicode="&#x443;`" horiz-adv-x="987" 
d="M475 377q15 -34 51 -135q16 71 39 137l168 479q23 76 98 76q51 0 79 -27t28 -69q0 -25 -10 -52l-314 -786q-66 -167 -122.5 -257t-108.5 -121.5t-125 -31.5t-122.5 28t-49.5 83q0 35 22 58.5t60 23.5q9 0 35.5 -5t42.5 -5q48 0 86 43t76 135l20 49l-367 778
q-12 24 -12 49q0 45 31 76t84 31q30 0 56 -19.5t38 -50.5zM418 1219l135 206q17 29 57 29q23 0 41 -12l39 -29q27 -18 27 -55q0 -28 -17 -45l-155 -185q-23 -26 -62 -26q-27 0 -45 12q-32 22 -32 66q0 21 12 39z" />
    <glyph glyph-name="uni044B.var.accented" unicode="&#x44b;`" horiz-adv-x="1349" 
d="M340 657h131q87 0 154.5 -17.5t110.5 -46.5t70.5 -70.5t38.5 -86t11 -96.5q0 -67 -21.5 -125.5t-66.5 -108t-125 -78t-188 -28.5h-219q-40 0 -68.5 28t-28.5 68v742q0 40 29 68t72 28q41 0 70.5 -28t29.5 -68v-181zM1210 838v-756q0 -40 -29 -69t-71 -29t-70 29t-28 69
v756q0 40 28 68t70 28t71 -28t29 -68zM340 180h104q201 0 201 152q0 155 -199 155h-106v-307zM553 1219l135 206q17 29 57 29q23 0 41 -12l39 -29q27 -18 27 -55q0 -29 -16 -45l-156 -185q-23 -26 -62 -26q-27 0 -45 12q-32 22 -32 66q0 21 12 39z" />
    <glyph glyph-name="uni044D.var.accented" unicode="&#x44d;`" horiz-adv-x="974" 
d="M147 219q28 0 60 -16q86 -45 203 -45q118 0 192.5 61t93.5 174h-352q-38 0 -60 21.5t-22 52.5q0 30 22 52t60 22h348q-21 110 -99.5 166.5t-191.5 56.5q-116 0 -208 -53q-24 -15 -52 -15q-37 0 -60.5 26t-23.5 56q0 46 45 76q137 88 304 88q222 0 358.5 -131t136.5 -350
q0 -205 -132.5 -343t-346.5 -138q-200 0 -320 81q-36 23 -36 74q0 34 23 59t58 25zM336 1219l135 206q17 29 57 29q23 0 41 -12l39 -29q27 -18 27 -55q0 -28 -17 -45l-155 -185q-23 -26 -62 -26q-27 0 -45 12q-32 22 -32 66q0 21 12 39z" />
    <glyph glyph-name="uni044E.var.accented" unicode="&#x44e;`" horiz-adv-x="1568" 
d="M352 371v-285q0 -42 -31 -72t-75 -30q-45 0 -76 30t-31 72v745q0 43 31 73t76 30q44 0 75 -30t31 -73v-262h180q33 169 157.5 271t309.5 102q219 0 353.5 -135.5t134.5 -345.5q0 -209 -136 -345t-352 -136q-191 0 -316.5 107.5t-152.5 283.5h-178zM750 461
q0 -130 71 -206.5t185 -76.5t185 77t71 206q0 128 -69 205t-187 77q-113 0 -184.5 -77.5t-71.5 -204.5zM709 1219l135 206q17 29 57 29q23 0 41 -12l39 -29q27 -18 27 -55q0 -28 -17 -45l-155 -185q-23 -26 -62 -26q-27 0 -45 12q-33 23 -33 66q0 20 13 39z" />
    <glyph glyph-name="uni044F.var.accented" unicode="&#x44f;`" horiz-adv-x="960" 
d="M131 141l148 197q-75 24 -132 92.5t-57 173.5q0 66 24 121t73.5 100.5t136 71t202.5 25.5h199q39 0 66.5 -28.5t27.5 -68.5v-743q0 -40 -28 -69t-70 -29t-71 29t-29 69v209h-154l-182 -254q-39 -53 -88 -53q-42 0 -68.5 25t-26.5 61q0 31 29 71zM621 455v286h-127
q-94 0 -142.5 -42t-48.5 -105q0 -61 49.5 -100t112.5 -39h156zM444 1219l136 206q17 29 57 29q23 0 41 -12l39 -29q26 -17 26 -55q0 -29 -16 -45l-156 -185q-23 -26 -61 -26q-27 0 -45 12q-33 23 -33 66q0 21 12 39z" />
    <glyph glyph-name="uni0451.var.accented" unicode="&#x451;`" horiz-adv-x="1073" 
d="M182 1219q0 43 28 68.5t69 25.5q36 0 62 -26t26 -68q0 -45 -26 -73t-62 -28q-41 0 -69 27.5t-28 73.5zM737 1219q0 43 28.5 68.5t68.5 25.5q37 0 62.5 -25.5t25.5 -68.5q0 -46 -25.5 -73.5t-62.5 -27.5q-40 0 -68.5 27.5t-28.5 73.5zM446 1202l136 203q20 33 57 33
q28 0 55 -22t27 -56q0 -27 -19 -49l-153 -181q-24 -30 -62 -30q-21 0 -39 17t-18 38q0 25 16 47zM791 545q-3 100 -66.5 161.5t-171.5 61.5q-113 0 -181.5 -60.5t-86.5 -162.5h506zM295 399q12 -116 93 -180.5t206 -64.5q117 0 197 45q28 14 49 14q32 0 55 -21t23 -55
q0 -46 -35 -67q-131 -90 -310 -90q-223 0 -358 131.5t-135 349.5q0 207 130 344t351 137q183 0 307.5 -118t124.5 -306q0 -119 -92 -119h-606z" />
    <glyph glyph-name="fi" unicode="fi" horiz-adv-x="1069" 
d="M942 825v-743q0 -40 -28 -69t-70 -29t-71.5 29t-29.5 69v651h-389v-651q0 -40 -29 -69t-71 -29t-70 29t-28 69v958q0 208 105.5 311t291.5 103t291 -90q35 -28 35 -70q0 -39 -27.5 -64.5t-63.5 -25.5q-27 0 -94.5 32t-120.5 32q-219 0 -219 -246v-100h494
q39 0 66.5 -28.5t27.5 -68.5z" />
    <glyph glyph-name="fl" unicode="fl" horiz-adv-x="1153" 
d="M893 1294v-958q0 -86 24.5 -125t75.5 -39q12 0 34.5 2t29.5 2q34 0 60 -19t26 -59q0 -114 -209 -114q-240 0 -240 266v964q-74 54 -157 54q-183 0 -183 -215v-131h92q40 0 68.5 -28.5t28.5 -66.5q0 -37 -29 -65.5t-68 -28.5h-92v-651q0 -40 -29 -69t-71 -29t-70 29
t-28 69v989q0 190 83.5 286.5t239.5 96.5q149 0 238 -61h82q39 0 66.5 -29.5t27.5 -69.5z" />
    <glyph glyph-name=".notdef" horiz-adv-x="446" 
 />
    <glyph glyph-name=".null" horiz-adv-x="0" 
 />
    <glyph glyph-name="nonmarkingreturn" horiz-adv-x="682" 
 />
    <glyph glyph-name="space" unicode=" " horiz-adv-x="446" 
 />
    <glyph glyph-name="exclam" unicode="!" horiz-adv-x="632" 
d="M422 1339v-766q0 -43 -30.5 -74.5t-74.5 -31.5t-75 31.5t-31 74.5v766q0 43 31 74t75 31t74.5 -31t30.5 -74zM180 131q0 51 40 91t104 40q53 0 90 -40.5t37 -90.5q0 -56 -36.5 -97.5t-90.5 -41.5q-65 0 -104.5 41t-39.5 98z" />
    <glyph glyph-name="quotedbl" unicode="&#x22;" horiz-adv-x="866" 
d="M713 1335v-278q0 -40 -30.5 -69.5t-72.5 -29.5q-40 0 -69 29.5t-29 69.5v278q0 40 29.5 69.5t70.5 29.5t71 -29.5t30 -69.5zM356 1335v-278q0 -40 -30 -69.5t-72 -29.5q-40 0 -69 29.5t-29 69.5v278q0 40 29.5 69.5t70.5 29.5t70.5 -29.5t29.5 -69.5z" />
    <glyph glyph-name="numbersign" unicode="#" horiz-adv-x="1462" 
d="M950 385l-123 -332q-9 -24 -29.5 -38.5t-45.5 -14.5q-35 0 -59.5 23.5t-24.5 58.5q0 11 4 27l102 276h-344l-123 -332q-9 -24 -31 -38.5t-47 -14.5q-35 0 -59.5 22.5t-24.5 59.5q0 13 7 27l102 276h-90q-34 0 -58 25t-24 61t24 61t58 25h153l117 320h-270q-34 0 -58 25
t-24 61t24 61t58 25h336l123 331q9 24 31 39t48 15q33 0 57.5 -21.5t24.5 -62.5q0 -15 -6 -27l-102 -274h344l123 331q9 24 31 39t47 15q33 0 57.5 -21t24.5 -61q0 -17 -5 -27l-102 -276h102q34 0 58 -25t24 -61t-24 -61t-58 -25h-168l-116 -320h284q34 0 58 -25t24 -61
t-24 -61t-58 -25h-348zM494 557h346l114 320h-344z" />
    <glyph glyph-name="dollar" unicode="$" horiz-adv-x="1163" 
d="M123 201q0 37 22 65q30 37 74 37q35 0 78 -29q138 -96 268 -96q103 0 166.5 51t63.5 144q0 51 -23 92t-62 70t-89.5 54.5t-106.5 49.5t-112 50t-106.5 61t-89.5 77.5t-62 104.5t-23 137q0 140 93.5 244t252.5 133v74q0 40 30 69t72 29q40 0 69.5 -29t29.5 -69v-70
q145 -24 221 -74q57 -37 57 -90q0 -24 -16 -53q-28 -41 -78 -41q-33 0 -66 16q-92 47 -196 47q-118 0 -181 -49.5t-63 -134.5q0 -66 37 -115t96.5 -81t131.5 -61t144 -64.5t131.5 -80.5t96.5 -119.5t37 -172.5q0 -153 -96.5 -257t-255.5 -132v-94q0 -40 -29.5 -69.5
t-69.5 -29.5q-42 0 -72 29.5t-30 69.5v92q-195 28 -311 141q-33 33 -33 74z" />
    <glyph glyph-name="percent" unicode="%" horiz-adv-x="1830" 
d="M1462 1317l-962 -1284q-20 -33 -62 -33q-22 0 -41 16q-26 19 -26 54q0 26 14 43l963 1288q19 29 53 29q18 0 45 -17q29 -22 29 -57q0 -23 -13 -39zM489 733q-170 0 -279.5 99t-109.5 258q0 160 109 258t280 98q169 0 279.5 -98.5t110.5 -257.5q0 -158 -110.5 -257.5
t-279.5 -99.5zM489 1284q-87 0 -144.5 -53.5t-57.5 -140.5t58.5 -141t143.5 -54q86 0 143.5 53.5t57.5 141.5q0 87 -58 140.5t-143 53.5zM1352 -31q-170 0 -279.5 99t-109.5 258q0 160 109 258t280 98q169 0 279 -98.5t110 -257.5q0 -158 -110 -257.5t-279 -99.5zM1352 520
q-87 0 -145 -53.5t-58 -140.5t58.5 -141t144.5 -54t143 53.5t57 141.5q0 87 -57.5 140.5t-142.5 53.5z" />
    <glyph glyph-name="ampersand" unicode="&#x26;" horiz-adv-x="1490" 
d="M1356 834v-9q-25 -301 -180 -514l122 -151q33 -38 33 -82q0 -40 -27 -67t-67 -27q-32 0 -53.5 14.5t-48.5 48.5l-99 121q-159 -188 -430 -188q-211 0 -342 114.5t-131 294.5q0 70 18.5 132.5t47 109.5t75 94.5t88.5 80.5t101 73q-82 33 -130 103.5t-48 168.5
q0 135 96.5 219t230.5 84q136 0 233 -84t97 -219q0 -97 -58 -174.5t-143 -99.5l316 -406q86 157 102 354q3 44 29 72.5t69 28.5q48 0 73.5 -27t25.5 -65zM915 328l-325 434q-118 -92 -175 -167.5t-57 -164.5q0 -107 74 -179.5t178 -72.5q200 0 305 150zM471 1151
q0 -57 40.5 -98t100.5 -41t101 41t41 98q0 59 -42 101t-100 42q-60 0 -100.5 -41t-40.5 -102z" />
    <glyph glyph-name="quotesingle" unicode="'" horiz-adv-x="512" 
d="M356 1335v-278q0 -40 -30 -69.5t-72 -29.5q-40 0 -69 29.5t-29 69.5v278q0 40 29.5 69.5t70.5 29.5t70.5 -29.5t29.5 -69.5z" />
    <glyph glyph-name="parenleft" unicode="(" horiz-adv-x="612" 
d="M590 1237q0 -32 -25 -61q-147 -159 -214.5 -332t-67.5 -383q0 -201 74 -386.5t208 -328.5q25 -31 25 -61q0 -32 -26 -57t-58 -25q-43 0 -68 28q-356 343 -356 830q0 474 358 829q29 29 68 29q36 0 59 -24.5t23 -57.5z" />
    <glyph glyph-name="parenright" unicode=")" horiz-adv-x="612" 
d="M104 1319q39 0 68 -29q358 -358 358 -829q0 -487 -354 -830q-31 -28 -70 -28q-37 0 -61.5 25t-24.5 57q0 27 27 61q134 144 209.5 329.5t75.5 385.5q0 208 -68 381.5t-215 333.5q-29 29 -29 61t24 57t60 25z" />
    <glyph glyph-name="asterisk" unicode="*" horiz-adv-x="1044" 
d="M524 1200q-53 0 -90 36t-37 91q0 51 37.5 89t89.5 38t89.5 -38t37.5 -89q0 -55 -37 -91t-90 -36zM520 598q-52 0 -89.5 37t-37.5 90t37.5 92t89.5 39t89.5 -39t37.5 -92t-37.5 -90t-89.5 -37zM786 1053q-52 0 -89.5 37.5t-37.5 89.5q0 53 37.5 91t89.5 38t89.5 -38
t37.5 -91q0 -52 -37.5 -89.5t-89.5 -37.5zM786 750q-52 0 -89.5 37t-37.5 90t37.5 91t89.5 38t89.5 -38t37.5 -91t-37.5 -90t-89.5 -37zM254 750q-51 0 -88 37.5t-37 89.5q0 53 37 91t88 38q55 0 93 -38t38 -91t-38 -90t-93 -37zM254 1053q-51 0 -88 37.5t-37 89.5
q0 53 37 91t88 38q55 0 93 -38t38 -91t-38 -90t-93 -37z" />
    <glyph glyph-name="plus" unicode="+" 
d="M512 352v299h-291q-34 0 -58 25t-24 61t24 61t58 25h291v295q0 36 26 61t68 25t68 -25t26 -61v-295h295q34 0 58 -25t24 -61t-24 -61t-58 -25h-295v-299q0 -36 -26 -62t-68 -26t-68 26t-26 62z" />
    <glyph glyph-name="comma" unicode="," horiz-adv-x="477" 
d="M242 -16q0 18 -9 36q-13 -20 -53 -20q-38 0 -65 31t-27 82q0 59 35.5 94t101.5 35q73 0 118.5 -59t45.5 -154q0 -202 -184 -308q-24 -8 -35 -8q-28 0 -42.5 14.5t-14.5 36.5q0 31 30 54q99 70 99 166z" />
    <glyph glyph-name="hyphen" unicode="-" horiz-adv-x="782" 
d="M549 651q39 0 66.5 -26.5t27.5 -63.5q0 -40 -27 -67t-67 -27h-316q-38 0 -66 27t-28 65t28 65t66 27h316z" />
    <glyph glyph-name="period" unicode="." horiz-adv-x="462" 
d="M238 262q55 0 92 -40.5t37 -90.5q0 -56 -37 -97.5t-92 -41.5q-62 0 -101 41.5t-39 97.5q0 50 39.5 90.5t100.5 40.5z" />
    <glyph glyph-name="slash" unicode="/" horiz-adv-x="733" 
d="M754 1321l-619 -1669q-10 -25 -32 -39t-48 -14q-33 0 -57.5 22t-24.5 55q0 12 7 33l620 1669q9 24 30 38t48 14q35 0 58.5 -22.5t23.5 -59.5q0 -12 -6 -27z" />
    <glyph glyph-name="zero" unicode="0" horiz-adv-x="1142" 
d="M573 1450q119 0 210 -53t147.5 -151t85 -231t28.5 -298q0 -222 -48 -383.5t-154 -255.5t-264 -94q-160 0 -269.5 94t-160 256t-50.5 383q0 222 49.5 383.5t157.5 255.5t268 94zM578 170q135 0 194 134t59 413q0 277 -61 411t-197 134q-137 0 -199.5 -136t-62.5 -409
q0 -547 267 -547z" />
    <glyph glyph-name="one" unicode="1" horiz-adv-x="761" 
d="M332 1155l-111 -86q-28 -22 -65 -22q-49 0 -76 34q-23 26 -23 58q0 50 41 80l256 194q34 27 76 27t71 -29t29 -70v-1259q0 -40 -29 -69t-71 -29q-41 0 -69.5 29t-28.5 69v1073z" />
    <glyph glyph-name="two" unicode="2" horiz-adv-x="1054" 
d="M856 186q39 0 66.5 -27.5t27.5 -64.5q0 -40 -27 -67t-67 -27h-709q-42 0 -70 26.5t-28 65.5q0 52 57 109q213 213 303 317q270 315 271 522q0 95 -53.5 152t-153.5 57q-133 0 -199 -119q-37 -55 -94 -55q-42 0 -68 27.5t-26 66.5q0 21 10 48q108 233 398 233
q98 0 176 -31.5t125.5 -84.5t72.5 -117.5t25 -135.5q0 -82 -26.5 -171t-65 -163.5t-97.5 -155.5t-106.5 -136t-111.5 -118.5t-93 -89.5t-69 -61h532z" />
    <glyph glyph-name="three" unicode="3" horiz-adv-x="1077" 
d="M897 1092q0 -119 -56.5 -208t-164.5 -136q130 -26 203 -122t73 -227q0 -191 -129.5 -305t-330.5 -114q-253 0 -402 159q-35 30 -35 78q0 38 29.5 67t67.5 29q36 0 73 -32q109 -103 258 -103q119 0 187.5 64.5t68.5 163.5q0 106 -74.5 166.5t-201.5 60.5h-21
q-43 0 -73.5 28t-30.5 72t29.5 71t72.5 27h17q91 0 159 63.5t68 160.5q0 92 -54.5 146t-154.5 54q-119 0 -209 -84q-30 -30 -76 -30q-36 0 -62 24.5t-26 63.5q0 47 31 74q141 151 361 151q184 0 293.5 -97t109.5 -265z" />
    <glyph glyph-name="four" unicode="4" horiz-adv-x="1134" 
d="M885 344v-252q0 -41 -29.5 -70.5t-69.5 -29.5t-70 29.5t-30 70.5v252h-563q-43 0 -73 28t-30 70q0 28 29 84l526 867q31 55 93 55q40 0 68 -25.5t28 -66.5q0 -33 -16 -62l-459 -749h397v276q0 41 30 71t70 30t69.5 -30t29.5 -71v-276h90q42 0 72 -29.5t30 -69.5
q0 -42 -30 -72t-72 -30h-90z" />
    <glyph glyph-name="five" unicode="5" horiz-adv-x="1032" 
d="M455 178q114 0 188 76.5t74 196.5q0 121 -88.5 199.5t-237.5 78.5q-19 0 -64 -4t-57 -4q-43 0 -68.5 25.5t-25.5 68.5q0 2 1 8t1 8l64 506q4 41 35 69t71 28h471q40 0 68 -29t28 -70q0 -43 -28 -72.5t-68 -29.5h-391l-47 -336q41 12 98 12q197 0 324 -122.5t127 -327.5
q0 -147 -65.5 -257.5t-173.5 -166t-240 -55.5q-223 0 -373 163q-27 27 -27 66q0 38 26 66t66 28q33 0 74 -33q103 -92 238 -92z" />
    <glyph glyph-name="six" unicode="6" horiz-adv-x="1150" 
d="M649 885q173 0 289.5 -123.5t116.5 -315.5q0 -106 -39 -195.5t-103 -148t-145 -90.5t-166 -32q-155 0 -271 72.5t-174.5 191.5t-58.5 264q0 140 36 271t96.5 233.5t141 188.5t167.5 144.5t178 92.5q32 8 51 8q44 0 66 -24.5t22 -61.5q0 -30 -19.5 -55t-50.5 -37
q-107 -45 -195.5 -117t-159 -183t-99.5 -245q100 162 317 162zM602 178q105 0 173.5 74.5t68.5 177.5q0 117 -68.5 192.5t-193.5 75.5q-101 0 -172 -56.5t-101 -133.5q0 -142 77 -236t216 -94z" />
    <glyph glyph-name="seven" unicode="7" horiz-adv-x="993" 
d="M254 135l442 1098h-536q-42 0 -72.5 30.5t-30.5 71.5q0 40 30.5 69.5t72.5 29.5h676q42 0 72 -30t30 -73q0 -33 -12 -57l-484 -1213q-28 -69 -98 -69q-43 0 -71.5 27.5t-28.5 68.5q0 27 10 47z" />
    <glyph glyph-name="eight" unicode="8" horiz-adv-x="1222" 
d="M612 -20q-135 0 -245 46t-176 136t-66 209q0 133 71 230.5t187 135.5q-92 37 -153.5 130t-61.5 212q0 166 127 270.5t315 104.5q123 0 224.5 -46t162 -132.5t60.5 -196.5q0 -107 -62.5 -202t-167.5 -138q117 -24 194 -119.5t77 -232.5q0 -126 -66 -220t-175 -140.5
t-245 -46.5zM844 1047q0 97 -67 152.5t-169 55.5q-100 0 -163.5 -57.5t-63.5 -150.5q0 -86 60.5 -148.5t148.5 -62.5h45q86 0 147.5 63t61.5 148zM338 410q0 -100 75.5 -166t196.5 -66q129 0 202 63.5t73 164.5q0 108 -71.5 169.5t-178.5 61.5h-41q-105 0 -180.5 -63.5
t-75.5 -163.5z" />
    <glyph glyph-name="nine" unicode="9" horiz-adv-x="1132" 
d="M502 543q-184 0 -307 126.5t-123 315.5q0 106 41 196.5t107.5 149t149 91t167.5 32.5q156 0 270 -71t171.5 -192t57.5 -278q0 -188 -48.5 -346.5t-136.5 -273t-207.5 -191t-264.5 -110.5q-10 -4 -27 -4q-42 0 -66 25.5t-24 56.5q0 32 20 55.5t54 34.5q196 58 312.5 194
t150.5 342q-44 -72 -120 -112.5t-177 -40.5zM539 1255q-107 0 -181.5 -76.5t-74.5 -179.5q0 -111 72.5 -190.5t195.5 -79.5q104 0 173 53.5t99 130.5q0 93 -29.5 168.5t-95 124.5t-159.5 49z" />
    <glyph glyph-name="colon" unicode=":" horiz-adv-x="653" 
d="M332 942q55 0 92 -40.5t37 -90.5q0 -56 -37 -97.5t-92 -41.5q-62 0 -100.5 41t-38.5 98q0 51 39 91t100 40zM332 262q55 0 92 -40.5t37 -90.5q0 -56 -37 -97.5t-92 -41.5q-62 0 -100.5 41t-38.5 98q0 51 39 91t100 40z" />
    <glyph glyph-name="semicolon" unicode=";" horiz-adv-x="659" 
d="M332 942q55 0 92 -40.5t37 -90.5q0 -56 -37 -97.5t-92 -41.5q-62 0 -100.5 41t-38.5 98q0 51 39 91t100 40zM344 -16q0 20 -8 36q-13 -20 -53 -20q-38 0 -65.5 31t-27.5 82q0 59 36 94t102 35q73 0 118.5 -59t45.5 -154q0 -202 -185 -308q-24 -8 -35 -8q-28 0 -42.5 14.5
t-14.5 36.5q0 30 31 54q98 69 98 166z" />
    <glyph glyph-name="less" unicode="&#x3c;" horiz-adv-x="1153" 
d="M152 813l733 432q25 17 53 17q38 0 64 -27t26 -64q0 -59 -53 -88l-598 -342l598 -346q53 -29 53 -84q0 -40 -27 -67t-65 -27q-27 0 -51 16l-733 435q-50 30 -50 73q0 45 50 72z" />
    <glyph glyph-name="equal" unicode="=" 
d="M993 635q35 0 59.5 -24.5t24.5 -61.5t-24.5 -61.5t-59.5 -24.5h-770q-35 0 -59.5 24.5t-24.5 61.5t24.5 61.5t59.5 24.5h770zM993 1012q35 0 59.5 -24.5t24.5 -61.5t-24.5 -61.5t-59.5 -24.5h-770q-35 0 -59.5 24.5t-24.5 61.5t24.5 61.5t59.5 24.5h770z" />
    <glyph glyph-name="greater" unicode="&#x3e;" horiz-adv-x="1153" 
d="M268 1245l731 -432q52 -25 52 -72q0 -45 -52 -73l-733 -435q-21 -16 -49 -16q-37 0 -64.5 27.5t-27.5 66.5q0 52 51 84l602 346l-602 342q-51 32 -51 88q0 37 26 64t64 27q27 0 53 -17z" />
    <glyph glyph-name="question" unicode="?" horiz-adv-x="933" 
d="M573 647q-44 -42 -64 -76t-26 -79q-6 -52 -25.5 -76.5t-60.5 -24.5q-94 0 -94 131q0 71 33.5 125t109.5 115q15 13 49.5 39t51.5 40t42.5 40.5t37.5 49t22 55t10 69.5q0 84 -63.5 142t-157.5 58q-114 0 -202 -67q-40 -29 -74 -29q-35 0 -61.5 26.5t-26.5 63.5q0 38 32 70
q145 135 345 135q193 0 307 -102t114 -254q0 -64 -14.5 -118.5t-36 -91.5t-55.5 -74t-62 -59.5t-68 -54.5t-63 -53zM266 131q0 50 39.5 90.5t100.5 40.5q56 0 93.5 -40.5t37.5 -90.5q0 -56 -37 -97.5t-94 -41.5q-62 0 -101 41.5t-39 97.5z" />
    <glyph glyph-name="at" unicode="@" horiz-adv-x="2048" 
d="M125 461q0 186 70 352t191 286t292.5 190.5t365.5 70.5q249 0 449 -99.5t316 -283.5t116 -420q0 -85 -18.5 -165t-57 -151.5t-93 -125t-131.5 -84.5t-167 -31h-110q-39 0 -65 24t-26 58q-53 -45 -123.5 -73.5t-146.5 -28.5q-208 0 -331.5 131.5t-123.5 349.5
q0 203 148.5 342t376.5 139q187 0 338 -74q27 -12 44 -38t17 -56v-588h43q105 0 171.5 104t66.5 267q0 127 -49.5 240t-138 196.5t-219.5 132t-286 48.5q-151 0 -285.5 -51t-233.5 -142.5t-156.5 -226.5t-57.5 -293q0 -202 98 -366t265.5 -255.5t369.5 -91.5q23 0 79 6t75 6
q43 0 71.5 -25t28.5 -67q0 -39 -24.5 -63.5t-65.5 -30.5q-76 -12 -164 -12q-261 0 -471 116t-329 322t-119 461zM1257 274v431q-102 51 -204 51q-140 0 -224 -88t-84 -217q0 -133 76.5 -210t200.5 -77q68 0 131.5 32t103.5 78z" />
    <glyph glyph-name="A" unicode="A" horiz-adv-x="1406" 
d="M1016 393h-635l-141 -344q-25 -65 -93 -65q-44 0 -72 29t-28 69q0 21 10 41l529 1235q40 86 121 86q44 0 73 -24.5t43 -61.5l529 -1231q8 -24 8 -41q0 -41 -28.5 -71.5t-71.5 -30.5q-38 0 -65 19t-38 50zM700 1155l-235 -563h469z" />
    <glyph glyph-name="B" unicode="B" horiz-adv-x="1263" 
d="M1077 1085q0 -123 -61 -206t-164 -125q126 -26 200 -111.5t74 -226.5q0 -107 -40 -189.5t-111.5 -133t-166.5 -76t-210 -25.5q-43 0 -143 2t-144 2q-43 3 -73.5 35t-30.5 75v1221q0 43 31 75t73 32q135 6 299 6q125 0 217 -27t145.5 -76.5t79 -112t25.5 -139.5zM420 635
v-434q82 -8 194 -8q143 0 221 59t78 174q0 102 -75 155.5t-213 53.5h-205zM420 821h198q107 0 176.5 56t69.5 159q0 99 -67 152t-191 53q-92 0 -186 -8v-412z" />
    <glyph glyph-name="C" unicode="C" horiz-adv-x="1323" 
d="M1077 1200q-116 55 -254 55q-220 0 -359.5 -148t-139.5 -390q0 -240 146 -389.5t380 -149.5q140 0 264 68q27 16 66 16q42 0 68 -26t26 -62q0 -54 -49 -88q-156 -106 -394 -106q-215 0 -381.5 90.5t-259 258.5t-92.5 388q0 155 49 289t139 234t228 157t307 57
q203 0 350 -84q62 -35 62 -88q0 -41 -25 -68.5t-69 -27.5q-37 0 -62 14z" />
    <glyph glyph-name="D" unicode="D" horiz-adv-x="1515" 
d="M311 1434q153 6 303 6q167 0 303 -37.5t228 -102.5t154 -155.5t90 -193t28 -218.5q0 -123 -32.5 -232.5t-99.5 -202t-163 -160t-230 -105t-294 -37.5q-61 0 -287 4q-43 0 -73.5 31t-30.5 75v1221q0 44 30.5 75.5t73.5 31.5zM420 1233v-1032q82 -4 184 -4q279 0 433.5 146
t154.5 390q0 230 -152.5 369t-429.5 139q-64 0 -190 -8z" />
    <glyph glyph-name="E" unicode="E" horiz-adv-x="1177" 
d="M420 201h530q40 0 68.5 -30t28.5 -71t-28.5 -70.5t-68.5 -29.5h-643q-41 0 -70.5 29.5t-29.5 70.5v1233q0 41 29.5 71t70.5 30h623q39 0 67.5 -29.5t28.5 -69.5q0 -43 -28 -72.5t-68 -29.5h-510v-410h448q40 0 68.5 -28.5t28.5 -69.5q0 -42 -28.5 -71t-68.5 -29h-448
v-424z" />
    <glyph glyph-name="F" unicode="F" horiz-adv-x="1101" 
d="M420 578v-488q0 -43 -31 -74.5t-74 -31.5q-45 0 -76.5 31.5t-31.5 74.5v1243q0 41 29.5 71t70.5 30h617q39 0 67.5 -29.5t28.5 -69.5q0 -43 -28 -72.5t-68 -29.5h-504v-455h442q40 0 68 -29.5t28 -70.5t-28 -70.5t-68 -29.5h-442z" />
    <glyph glyph-name="G" unicode="G" horiz-adv-x="1488" 
d="M98 717q0 154 50.5 289t142.5 234.5t229.5 156.5t302.5 57q206 0 357 -86q61 -30 61 -88q0 -40 -25.5 -68t-70.5 -28q-36 0 -64 14q-117 57 -250 57q-226 0 -366.5 -146t-140.5 -392q0 -245 141.5 -392t374.5 -147q90 0 185 33t146 80v260h-270q-40 0 -68 29t-28 71
q0 41 28 70t68 29h369q42 0 72 -29.5t30 -69.5v-399q0 -81 -69 -129q-95 -67 -224 -105t-243 -38q-342 0 -540 200t-198 537z" />
    <glyph glyph-name="H" unicode="H" horiz-adv-x="1560" 
d="M1354 1339v-1249q0 -43 -31 -74.5t-74 -31.5q-45 0 -75.5 31.5t-30.5 74.5v541h-723v-541q0 -43 -31 -74.5t-74 -31.5q-45 0 -76.5 31.5t-31.5 74.5v1249q0 43 31.5 74t76.5 31q43 0 74 -31t31 -74v-508h723v508q0 43 30.5 74t75.5 31q43 0 74 -31t31 -74z" />
    <glyph glyph-name="I" unicode="I" horiz-adv-x="698" 
d="M455 1339v-1249q0 -43 -30.5 -74.5t-74.5 -31.5t-76 31.5t-32 74.5v1249q0 43 32 74t76 31t74.5 -31t30.5 -74z" />
    <glyph glyph-name="J" unicode="J" horiz-adv-x="774" 
d="M352 369v970q0 43 32.5 74t76.5 31t74 -31t30 -74v-1007q0 -170 -81 -261t-246 -91q-93 0 -152 26q-29 11 -47.5 35t-18.5 55q0 42 26 69.5t69 27.5q11 0 44 -7.5t50 -7.5q143 0 143 191z" />
    <glyph glyph-name="K" unicode="K" horiz-adv-x="1314" 
d="M420 90q0 -43 -31 -74.5t-74 -31.5q-45 0 -76.5 31.5t-31.5 74.5v1249q0 43 31.5 74t76.5 31q43 0 74 -31t31 -74v-1249zM1223 78q0 -40 -29.5 -67t-73.5 -27q-32 0 -54.5 15.5t-49.5 45.5l-520 627q-29 37 -29 73t31 76l493 568q49 55 99 55q42 0 68 -25t26 -63
q0 -42 -33 -78l-475 -516l512 -598q35 -41 35 -86z" />
    <glyph glyph-name="L" unicode="L" horiz-adv-x="1122" 
d="M420 201h573q41 0 72 -30.5t31 -70.5q0 -41 -30.5 -70.5t-72.5 -29.5h-682q-43 0 -73.5 31t-30.5 75v1233q0 43 31.5 74t76.5 31q43 0 74 -31t31 -74v-1138z" />
    <glyph glyph-name="M" unicode="M" horiz-adv-x="1835" 
d="M420 1081v-991q0 -43 -31 -74.5t-74 -31.5q-45 0 -76.5 31.5t-31.5 74.5v1225q0 56 33 92.5t88 36.5q45 0 75.5 -20t57.5 -58l471 -635l452 637q54 76 132 76q52 0 83 -33t31 -84v-1237q0 -43 -31.5 -74.5t-74.5 -31.5q-44 0 -75.5 31.5t-31.5 74.5v997l-391 -540
q-46 -64 -104 -64t-107 64z" />
    <glyph glyph-name="N" unicode="N" horiz-adv-x="1626" 
d="M1219 369v979q0 40 29 68t71 28q41 0 69.5 -28t28.5 -68v-1262q0 -43 -25.5 -72.5t-66.5 -29.5q-64 0 -121 69l-798 1008v-979q0 -40 -29 -69t-70 -29q-42 0 -71 29t-29 69v1257q0 44 27.5 74.5t72.5 30.5q35 0 61.5 -16t57.5 -56z" />
    <glyph glyph-name="O" unicode="O" horiz-adv-x="1671" 
d="M98 717q0 154 55 290t151 234.5t234 155.5t298 57q157 0 293.5 -53.5t234.5 -149t154.5 -233.5t56.5 -301q0 -211 -96.5 -379.5t-265 -263t-377.5 -94.5q-210 0 -377.5 91t-264 260t-96.5 386zM324 717q0 -229 148 -384t364 -155q154 0 272 71.5t180 193.5t62 274
q0 234 -147.5 386t-366.5 152q-221 0 -366.5 -151.5t-145.5 -386.5z" />
    <glyph glyph-name="P" unicode="P" horiz-adv-x="1236" 
d="M598 1438q121 0 216 -25.5t155.5 -68t100 -101.5t55.5 -122.5t16 -135.5q0 -91 -33.5 -172.5t-96.5 -145.5t-163.5 -101.5t-226.5 -37.5q-122 0 -201 7v-445q0 -43 -31 -74.5t-74 -31.5q-45 0 -76.5 31.5t-31.5 74.5v1237q0 44 30.5 75.5t73.5 31.5q192 4 287 4z
M420 1233v-496q105 -10 194 -10q138 0 219.5 67.5t81.5 192.5q0 122 -74 186t-223 64q-130 0 -198 -4z" />
    <glyph glyph-name="Q" unicode="Q" horiz-adv-x="1671" 
d="M1294 -8l-73 86q-165 -98 -385 -98q-210 0 -377.5 91t-264 260t-96.5 386q0 154 55 290t151 234.5t234 155.5t298 57q157 0 293.5 -53.5t234.5 -149t154.5 -233.5t56.5 -301q0 -154 -54.5 -289t-152.5 -233l70 -80q24 -24 24 -66q0 -38 -27 -64t-67 -26q-44 0 -74 33z
M1163 436l66 -80q121 146 121 361q0 234 -147.5 386t-366.5 152q-221 0 -366.5 -151.5t-145.5 -386.5q0 -229 148 -384t364 -155q129 0 249 60l-61 73q-25 28 -25 66q0 37 27 64.5t64 27.5q44 0 73 -33z" />
    <glyph glyph-name="R" unicode="R" horiz-adv-x="1294" 
d="M1008 45l-383 510h-205v-465q0 -43 -31 -74.5t-74 -31.5q-45 0 -76.5 31.5t-31.5 74.5v1237q0 44 30.5 75.5t73.5 31.5q230 4 307 4q141 0 243.5 -33.5t160.5 -94.5t84.5 -136.5t26.5 -169.5q0 -84 -26 -155.5t-69.5 -121t-93.5 -82.5t-104 -49l346 -446q24 -35 24 -68
q0 -41 -27.5 -69.5t-72.5 -28.5q-57 0 -102 61zM420 754h186q124 0 212.5 67t88.5 180q0 107 -70 171.5t-231 64.5q-118 0 -186 -4v-479z" />
    <glyph glyph-name="S" unicode="S" horiz-adv-x="1081" 
d="M90 209q0 39 28 68.5t72 29.5q37 0 70 -20q146 -109 260 -109q106 0 176 51.5t70 143.5q0 51 -23 92t-62 70t-90 54.5t-107 49.5t-112 50t-107 61t-90 77.5t-62 104.5t-23 137q0 165 119.5 275t320.5 110q176 0 310 -78q61 -33 61 -90q0 -41 -27 -69.5t-71 -28.5
q-36 0 -60 16q-101 53 -198 53q-106 0 -168 -51t-62 -135q0 -66 37.5 -115t97 -81t131.5 -61t144 -64.5t131.5 -80.5t97 -119.5t37.5 -172.5q0 -117 -63 -208.5t-170.5 -140t-239.5 -48.5q-215 0 -391 151q-37 30 -37 78z" />
    <glyph glyph-name="T" unicode="T" horiz-adv-x="1220" 
d="M504 90v1143h-385q-40 0 -69.5 30t-29.5 72q0 40 29.5 69.5t69.5 29.5h983q40 0 69 -29.5t29 -69.5q0 -42 -29 -72t-69 -30h-385v-1143q0 -43 -31.5 -74.5t-75.5 -31.5t-75 31.5t-31 74.5z" />
    <glyph glyph-name="U" unicode="U" horiz-adv-x="1536" 
d="M1139 639v700q0 43 31 74t75 31q43 0 75 -31t32 -74v-743q0 -128 -30.5 -232t-82.5 -174.5t-124.5 -118.5t-154 -69.5t-172.5 -21.5q-132 0 -241.5 40t-190.5 117t-125.5 198t-44.5 275v729q0 43 32 74t77 31q43 0 73.5 -31t30.5 -74v-686q0 -221 99.5 -347t289.5 -126
q171 0 261 116.5t90 342.5z" />
    <glyph glyph-name="V" unicode="V" horiz-adv-x="1314" 
d="M242 1370l430 -1055l413 1055q31 74 95 74q48 0 75 -27t27 -67q0 -20 -10 -47l-502 -1242q-33 -77 -106 -77q-76 0 -107 77l-514 1237q-10 20 -10 43q0 43 28 73t78 30q74 0 103 -74z" />
    <glyph glyph-name="W" unicode="W" horiz-adv-x="1978" 
d="M1130 1339l328 -987l285 1004q24 88 98 88q46 0 73.5 -28t27.5 -68q0 -3 -5 -33l-358 -1227q-31 -104 -117 -104q-91 0 -127 102l-344 1004l-336 -1002q-33 -104 -125 -104q-46 0 -77 27.5t-43 76.5l-367 1198q-6 24 -6 45q0 47 30.5 80t88.5 33q41 0 67.5 -25t38.5 -63
l287 -1002l323 985q33 105 127 105q97 0 131 -105z" />
    <glyph glyph-name="X" unicode="X" horiz-adv-x="1294" 
d="M307 1376l344 -487l340 487q47 68 107 68q44 0 71 -28t27 -68q0 -31 -20 -64l-390 -555l410 -582q21 -30 21 -61q0 -41 -28.5 -71.5t-70.5 -30.5q-59 0 -98 57l-373 526l-368 -524q-42 -59 -101 -59q-43 0 -71.5 28.5t-28.5 69.5q0 36 22 70l410 577l-387 553
q-21 35 -21 64q0 40 29.5 69t77.5 29q53 0 98 -68z" />
    <glyph glyph-name="Y" unicode="Y" horiz-adv-x="1212" 
d="M266 1374l344 -567l342 567q42 70 105 70q44 0 69 -26.5t25 -65.5q0 -22 -16 -58l-426 -688v-516q0 -43 -32 -74.5t-75 -31.5q-45 0 -75.5 31.5t-30.5 74.5v516l-418 678q-17 26 -17 59q0 42 28.5 71.5t78.5 29.5q58 0 98 -70z" />
    <glyph glyph-name="Z" unicode="Z" horiz-adv-x="1286" 
d="M139 0q-40 0 -66 23.5t-26 62.5q0 41 45 98l803 1049h-696q-40 0 -68.5 29.5t-28.5 72.5q0 40 28.5 69.5t68.5 29.5h909q42 0 67 -23.5t25 -62.5q0 -40 -49 -101l-805 -1046h760q40 0 69 -30t29 -71t-29 -70.5t-69 -29.5h-967z" />
    <glyph glyph-name="bracketleft" unicode="[" horiz-adv-x="686" 
d="M567 -223q38 0 65 -28t27 -66q0 -37 -27 -65t-65 -28h-350q-38 0 -66 28.5t-28 66.5v1552q0 38 28 66t66 28h350q38 0 65 -28t27 -66q0 -37 -27 -65.5t-65 -28.5h-243v-1366h243z" />
    <glyph glyph-name="backslash" unicode="\" horiz-adv-x="733" 
d="M598 -350l-618 1669q-5 13 -5 33q0 34 23 58t55 24q26 0 47.5 -15.5t30.5 -40.5l623 -1671q6 -15 6 -29q0 -33 -25.5 -56t-58.5 -23q-26 0 -47.5 13.5t-30.5 37.5z" />
    <glyph glyph-name="bracketright" unicode="]" horiz-adv-x="686" 
d="M119 1143q-37 0 -65.5 28.5t-28.5 65.5q0 38 28.5 66t65.5 28h352q37 0 64.5 -28t27.5 -66v-1552q0 -38 -27.5 -66.5t-64.5 -28.5h-352q-37 0 -65.5 28.5t-28.5 66.5q0 37 28.5 64.5t65.5 27.5h246v1366h-246z" />
    <glyph glyph-name="asciicircum" unicode="^" horiz-adv-x="1024" 
d="M512 1249l-186 -272q-36 -55 -88 -55q-36 0 -60 24t-24 58q0 38 22 65l230 326q28 39 52.5 55t57.5 16q56 0 105 -71l229 -330q20 -29 20 -61q0 -33 -24 -57.5t-55 -24.5q-59 0 -95 55z" />
    <glyph glyph-name="underscore" unicode="_" horiz-adv-x="671" 
d="M575 -209q39 0 68 -30t29 -72q0 -40 -29.5 -69.5t-67.5 -29.5h-479q-38 0 -67 29.5t-29 69.5q0 42 28.5 72t67.5 30h479z" />
    <glyph glyph-name="grave" unicode="`" horiz-adv-x="618" 
d="M322 1421l133 -200q12 -18 12 -43q0 -38 -29 -64q-21 -12 -45 -12q-43 0 -65 28l-156 179q-16 19 -16 47q0 36 26 53l39 29q19 16 41 16q37 0 60 -33z" />
    <glyph glyph-name="a" unicode="a" horiz-adv-x="946" 
d="M362 -12q-128 0 -206 75t-78 207q0 143 94.5 219t245.5 76q61 0 122 -15t99 -42v29q0 117 -42.5 175t-150.5 58q-54 0 -120 -17.5t-80 -17.5q-39 0 -60.5 23t-21.5 55q0 25 15.5 46.5t41.5 31.5q114 51 244 51q194 0 278 -95t84 -284v-489q0 -35 -26 -60.5t-66 -25.5
q-38 0 -63 24.5t-25 61.5v35q-43 -54 -115.5 -87.5t-169.5 -33.5zM639 262v105q-74 53 -184 53q-73 0 -122.5 -34t-49.5 -99q0 -58 39.5 -92.5t107.5 -34.5q128 0 209 102z" />
    <glyph glyph-name="b" unicode="b" horiz-adv-x="1122" 
d="M340 848q48 42 118.5 68t145.5 26q202 0 320 -129.5t118 -337.5q0 -227 -140.5 -361t-377.5 -134q-175 0 -311 65q-32 12 -53 42.5t-21 68.5v1181q0 40 29.5 68.5t71.5 28.5q41 0 70.5 -28.5t29.5 -68.5v-489zM340 651v-430q85 -57 192 -57q129 0 213 80.5t84 216.5
q0 139 -75.5 217t-196.5 78q-66 0 -124.5 -30.5t-92.5 -74.5z" />
    <glyph glyph-name="c" unicode="c" horiz-adv-x="974" 
d="M745 721q-77 35 -167 35q-115 0 -200 -83t-85 -212q0 -133 87 -215t212 -82q100 0 174 51q42 27 74 27q37 0 61.5 -25t24.5 -63q0 -47 -37 -74q-122 -100 -309 -100q-225 0 -362.5 131.5t-137.5 349.5q0 203 134 342t339 139q171 0 278 -59q26 -14 42 -36.5t16 -47.5
q0 -37 -24 -65.5t-62 -28.5q-26 0 -58 16z" />
    <glyph glyph-name="d" unicode="d" horiz-adv-x="1136" 
d="M997 1337v-1247q0 -43 -26 -74.5t-74 -31.5q-42 0 -70 25.5t-28 66.5v30q-115 -122 -279 -122q-201 0 -320.5 128t-119.5 341q0 216 142 352.5t364 136.5q131 0 213 -53v448q0 40 28 68.5t70 28.5t71 -28.5t29 -68.5zM799 279v413q-104 64 -205 64q-126 0 -213.5 -81
t-87.5 -216q0 -134 75 -211.5t191 -77.5q67 0 130 31t110 78z" />
    <glyph glyph-name="e" unicode="e" horiz-adv-x="1073" 
d="M791 545q-3 100 -66.5 161.5t-171.5 61.5q-113 0 -181.5 -60.5t-86.5 -162.5h506zM295 399q12 -116 93 -180.5t206 -64.5q117 0 197 45q28 14 49 14q33 0 55.5 -21t22.5 -55q0 -46 -35 -67q-131 -90 -310 -90q-223 0 -358 131.5t-135 349.5q0 207 130 344t351 137
q183 0 307.5 -118t124.5 -306q0 -119 -92 -119h-606z" />
    <glyph glyph-name="f" unicode="f" horiz-adv-x="684" 
d="M354 733v-651q0 -40 -29 -69t-71 -29t-70 29t-28 69v989q0 190 83.5 286.5t239.5 96.5q124 0 193 -41q41 -23 41 -74q0 -41 -26 -63.5t-69 -22.5q-14 0 -51 8.5t-57 8.5q-74 0 -115 -55t-41 -162v-131h183q39 0 67.5 -28t28.5 -67q0 -37 -28.5 -65.5t-67.5 -28.5h-183z
" />
    <glyph glyph-name="g" unicode="g" horiz-adv-x="1032" 
d="M475 264h-18q-8 -19 -8 -41q0 -27 16 -53h18q220 0 350 -77t130 -222q0 -98 -63.5 -166.5t-168 -99.5t-242.5 -31q-213 0 -343 74.5t-130 222.5q0 110 79 182t216 101q-18 27 -18 67q0 47 22 74q-100 39 -156.5 122t-56.5 185q0 143 106 241.5t279 98.5q137 0 234 -65
l180 43q4 1 17 3.5t20 2.5q41 0 59.5 -24t18.5 -54q0 -63 -62 -78l-114 -29q32 -69 32 -139q0 -141 -107.5 -239.5t-289.5 -98.5zM201 -129q0 -65 77.5 -101t210.5 -36q132 0 209.5 36t77.5 101q0 64 -76 100.5t-211 36.5q-136 0 -212 -37t-76 -100zM291 602
q0 -78 53.5 -127t142.5 -49q87 0 142 48.5t55 127.5q0 76 -53.5 128t-143.5 52q-88 0 -142 -52t-54 -128z" />
    <glyph glyph-name="h" unicode="h" horiz-adv-x="1130" 
d="M340 651v-569q0 -40 -29.5 -69t-70.5 -29q-42 0 -71.5 29t-29.5 69v1255q0 40 29.5 68.5t71.5 28.5q41 0 70.5 -28.5t29.5 -68.5v-510q48 48 124.5 79.5t158.5 31.5q181 0 281 -99t100 -307v-450q0 -40 -30 -69t-71 -29q-42 0 -71 29t-29 69v422q0 121 -59.5 183.5
t-172.5 62.5q-65 0 -127.5 -27.5t-103.5 -71.5z" />
    <glyph glyph-name="i" unicode="i" horiz-adv-x="557" 
d="M379 838v-756q0 -40 -29 -69t-71 -29t-70.5 29t-28.5 69v756q0 40 28.5 68t70.5 28t71 -28t29 -68zM283 1378q46 0 82 -33t36 -83q0 -58 -35.5 -92.5t-82.5 -34.5q-55 0 -91 34t-36 93q0 51 36.5 83.5t90.5 32.5z" />
    <glyph glyph-name="j" unicode="j" horiz-adv-x="593" 
d="M219 -51v889q0 40 29 68t71 28t70.5 -28t28.5 -68v-906q0 -358 -287 -358q-94 0 -149 31q-48 25 -48 80q0 41 25.5 60t60.5 19q7 0 29.5 -3t32.5 -3q137 0 137 191zM324 1378q46 0 82 -33t36 -83q0 -58 -35.5 -92.5t-82.5 -34.5q-55 0 -91 34t-36 93q0 51 36.5 83.5
t90.5 32.5z" />
    <glyph glyph-name="k" unicode="k" horiz-adv-x="993" 
d="M719 37l-311 383q-23 30 -23 63q0 30 23 60l272 338q43 53 94 53q44 0 69 -26.5t25 -63.5q0 -36 -24 -66l-246 -282l291 -346q26 -37 26 -70q0 -40 -28 -68t-72 -28q-53 0 -96 53zM340 1337v-1255q0 -40 -29.5 -69t-70.5 -29q-42 0 -71.5 29t-29.5 69v1255
q0 40 29.5 68.5t71.5 28.5q41 0 70.5 -28.5t29.5 -68.5z" />
    <glyph glyph-name="l" unicode="l" horiz-adv-x="602" 
d="M340 1337v-1001q0 -164 96 -164q14 0 35.5 2t28.5 2q37 0 61.5 -18.5t24.5 -59.5q0 -45 -30.5 -71t-73.5 -34.5t-105 -8.5q-238 0 -238 266v1087q0 40 29.5 68.5t71.5 28.5q41 0 70.5 -28.5t29.5 -68.5z" />
    <glyph glyph-name="m" unicode="m" horiz-adv-x="1650" 
d="M340 813q50 57 129.5 91t165.5 34q105 0 178 -42.5t98 -111.5q52 71 133 112.5t183 41.5q297 0 297 -336v-520q0 -40 -30 -69t-71 -29q-42 0 -71 29t-29 69v467q0 201 -178 201q-73 0 -128.5 -32.5t-84.5 -86.5v-549q0 -40 -29.5 -69t-71.5 -29t-71 29t-29 69v493
q0 80 -45 127.5t-129 47.5q-70 0 -127 -30t-90 -81v-557q0 -40 -29.5 -69t-70.5 -29q-42 0 -71.5 29t-29.5 69v749q0 45 29 74t74 29q41 0 69.5 -26.5t28.5 -67.5v-27z" />
    <glyph glyph-name="n" unicode="n" horiz-adv-x="1130" 
d="M242 934q42 0 69 -25.5t27 -64.5v-25q47 50 124.5 84.5t160.5 34.5q381 0 381 -401v-455q0 -40 -30 -69t-71 -29q-42 0 -71 29t-29 69v418q0 250 -234 250q-133 0 -229 -103v-565q0 -40 -29.5 -69t-70.5 -29q-42 0 -71.5 29t-29.5 69v749q0 45 29 74t74 29z" />
    <glyph glyph-name="o" unicode="o" horiz-adv-x="1153" 
d="M80 461q0 210 137.5 345.5t360.5 135.5q222 0 358.5 -135.5t136.5 -345.5t-136.5 -345.5t-358.5 -135.5q-223 0 -360.5 135.5t-137.5 345.5zM293 461q0 -130 80.5 -213.5t204.5 -83.5t203 82t79 215q0 130 -79.5 212.5t-202.5 82.5q-122 0 -203.5 -82t-81.5 -213z" />
    <glyph glyph-name="p" unicode="p" horiz-adv-x="1140" 
d="M139 -313v1140q0 49 28.5 78t74.5 29q43 0 70.5 -24.5t27.5 -61.5v-25q46 51 128 85t171 34q191 0 306.5 -130.5t115.5 -336.5q0 -214 -134 -354.5t-349 -140.5q-156 0 -238 53v-346q0 -40 -29.5 -68.5t-70.5 -28.5q-42 0 -71.5 28.5t-29.5 68.5zM340 643v-416
q97 -63 219 -63q132 0 210.5 86t78.5 219q0 128 -72 207.5t-198 79.5q-68 0 -131 -31t-107 -82z" />
    <glyph glyph-name="q" unicode="q" horiz-adv-x="1142" 
d="M1004 760v-1073q0 -40 -29 -68.5t-70 -28.5q-43 0 -72.5 28.5t-29.5 68.5v374q-51 -39 -117 -60t-129 -21q-219 0 -348 131t-129 350q0 203 148 342t374 139q173 0 326 -68q33 -14 54.5 -45.5t21.5 -68.5zM803 262v443q-94 51 -201 51q-142 0 -225.5 -88t-83.5 -217
q0 -126 79.5 -206.5t209.5 -80.5q63 0 124.5 28.5t96.5 69.5z" />
    <glyph glyph-name="r" unicode="r" horiz-adv-x="704" 
d="M242 934q41 0 68.5 -26.5t27.5 -63.5v-23q42 56 92 87.5t129 31.5q55 0 94 -22.5t39 -73.5q0 -44 -30 -71.5t-89 -27.5q-6 0 -34.5 2.5t-34.5 2.5q-109 0 -164 -115v-553q0 -40 -29.5 -69t-70.5 -29t-71 29t-30 69v745q0 47 28.5 77t74.5 30z" />
    <glyph glyph-name="s" unicode="s" horiz-adv-x="854" 
d="M78 147q0 35 24 60.5t58 25.5q27 0 57 -20q106 -66 213 -66q61 0 102 28.5t41 78.5q0 34 -27.5 58t-71 40t-96.5 31t-106.5 36.5t-97 51.5t-71 81.5t-27.5 119.5q0 126 91 198t234 72q156 0 271 -70q43 -24 43 -69q0 -34 -24 -58t-60 -24q-25 0 -49 12q-84 41 -170 41
q-59 0 -95 -29t-36 -69q0 -31 21.5 -54.5t56.5 -37.5t79.5 -29t91 -28t91 -35t79.5 -49.5t56.5 -73t21.5 -103.5q0 -136 -102 -211t-262 -75q-176 0 -303 100q-33 26 -33 67z" />
    <glyph glyph-name="t" unicode="t" horiz-adv-x="708" 
d="M573 184q37 0 59.5 -22.5t22.5 -57.5q0 -50 -53 -79q-74 -43 -196 -43q-151 0 -219 92.5t-68 275.5v731q0 40 29 68.5t71 28.5q41 0 70.5 -28.5t29.5 -68.5v-159h222q39 0 66.5 -28t27.5 -67q0 -37 -27.5 -65.5t-66.5 -28.5h-222v-368q0 -197 136 -197q28 0 67 8t51 8z
" />
    <glyph glyph-name="u" unicode="u" horiz-adv-x="1101" 
d="M762 291v547q0 40 28 68t70 28q43 0 72 -28t29 -68v-756q0 -40 -29.5 -69t-71.5 -29q-43 0 -70.5 27.5t-27.5 70.5v41q-49 -61 -130 -102t-181 -41q-152 0 -242 96.5t-90 288.5v473q0 40 29 68t71 28q41 0 70.5 -28t29.5 -68v-428q0 -246 205 -246q68 0 131 34.5
t107 92.5z" />
    <glyph glyph-name="v" unicode="v" horiz-adv-x="954" 
d="M418 475q43 -97 74 -207q33 126 71 211l164 393q11 28 36.5 45t57.5 17q41 0 67.5 -27.5t26.5 -66.5q0 -19 -6 -37l-325 -748q-27 -71 -101 -71q-65 0 -100 71l-334 727q-10 18 -10 45q0 44 31 75.5t80 31.5q67 0 96 -70z" />
    <glyph glyph-name="w" unicode="w" horiz-adv-x="1433" 
d="M1006 381q11 -32 38 -129q7 40 33 137l133 467q9 35 34.5 56.5t60.5 21.5q43 0 69.5 -25t26.5 -63q0 -4 -1 -10t-2.5 -13.5t-2.5 -11.5l-234 -741q-11 -40 -40.5 -63t-71.5 -23t-72.5 22t-44.5 60l-184 483q-11 30 -33 110q-15 -60 -35 -114l-180 -477q-31 -84 -113 -84
q-81 0 -108 86l-240 729q-1 4 -2.5 11.5t-2.5 13.5t-1 10q0 40 29 70t73 30q74 0 98 -74l144 -479q8 -25 18 -67.5t15 -59.5q22 89 36 127l164 467q32 86 115 86q39 0 68 -23t43 -63z" />
    <glyph glyph-name="x" unicode="x" horiz-adv-x="974" 
d="M299 879l195 -285l198 285q39 55 90 55q44 0 69.5 -25t25.5 -61q0 -29 -21 -57l-221 -312l237 -336q21 -35 21 -63q0 -39 -27 -67.5t-71 -28.5q-56 0 -95 57l-213 311l-221 -311q-42 -57 -94 -57q-43 0 -66.5 25.5t-23.5 62.5q0 32 20 59l242 338l-217 309q-16 24 -16 60
q0 39 25.5 67.5t72.5 28.5q51 0 90 -55z" />
    <glyph glyph-name="y" unicode="y" horiz-adv-x="987" 
d="M475 377q15 -34 51 -135q16 71 39 137l168 479q23 76 98 76q51 0 79 -27t28 -69q0 -25 -10 -52l-314 -786q-66 -167 -122.5 -257t-108.5 -121.5t-125 -31.5t-122.5 28t-49.5 83q0 35 22 58.5t60 23.5q9 0 35.5 -5t42.5 -5q48 0 86 43t76 135l20 49l-367 778
q-12 24 -12 49q0 45 31 76t84 31q30 0 56 -19.5t38 -50.5z" />
    <glyph glyph-name="z" unicode="z" horiz-adv-x="954" 
d="M176 0q-43 0 -70.5 26t-27.5 68q0 40 39 82l489 557h-405q-39 0 -67 27.5t-28 66.5q0 40 27.5 67.5t67.5 27.5h590q43 0 68.5 -26t25.5 -69q0 -45 -37 -82l-488 -559h431q39 0 66.5 -27.5t27.5 -64.5q0 -40 -27 -67t-67 -27h-615z" />
    <glyph glyph-name="braceleft" unicode="{" horiz-adv-x="702" 
d="M121 354q-49 30 -67.5 53t-18.5 56q0 32 18 53.5t68 52.5q96 55 96 205v256q0 154 69.5 227.5t233.5 73.5h43q47 0 76 -25.5t29 -68.5q0 -41 -28 -67.5t-77 -26.5q-80 0 -112.5 -39.5t-32.5 -140.5v-267q0 -99 -42 -161.5t-112 -71.5q69 -9 111.5 -69t42.5 -165v-268
q0 -100 34.5 -141t112.5 -41q49 0 76 -25t27 -67q0 -43 -30 -69t-77 -26h-45q-156 0 -227.5 71t-71.5 224v277q0 139 -96 190z" />
    <glyph glyph-name="bar" unicode="|" horiz-adv-x="684" 
d="M442 1337v-1255q0 -40 -28.5 -69t-69.5 -29q-42 0 -72 29t-30 69v1255q0 40 29.5 68.5t72.5 28.5q41 0 69.5 -28.5t28.5 -68.5z" />
    <glyph glyph-name="braceright" unicode="}" horiz-adv-x="702" 
d="M582 569q50 -30 68 -51.5t18 -54.5t-18.5 -56t-67.5 -53q-99 -50 -99 -190v-277q0 -153 -71 -224t-226 -71h-45q-47 0 -76.5 26t-29.5 69q0 41 27 66.5t73 25.5q81 0 115.5 41t34.5 141v268q0 105 41.5 165t111.5 69q-70 9 -111.5 71.5t-41.5 161.5v267q0 100 -33 140
t-113 40q-48 0 -76 26.5t-28 67.5q0 43 28.5 68.5t75.5 25.5h43q165 0 233 -73t68 -228v-256q0 -151 99 -205z" />
    <glyph glyph-name="asciitilde" unicode="~" 
d="M1104 684q-120 -106 -248 -106q-55 0 -121.5 22.5t-118 50t-114 50t-109.5 22.5q-79 0 -155 -64q-30 -24 -66 -24q-33 0 -57 24q-25 19 -25 54q0 25 21 53q127 127 272 127q56 0 123.5 -22.5t120 -50t118.5 -50t119 -22.5q57 0 123 47q40 24 64 24q32 0 57 -28
q18 -18 18 -52q0 -36 -22 -55z" />
    <glyph glyph-name="uni00A0" unicode="&#xa0;" horiz-adv-x="446" 
 />
    <glyph glyph-name="exclamdown" unicode="&#xa1;" horiz-adv-x="632" 
d="M213 -406v766q0 43 30 75t74 32t75.5 -32t31.5 -75v-766q0 -43 -31.5 -73.5t-75.5 -30.5t-74 30.5t-30 73.5zM455 803q0 -51 -40 -91t-104 -40q-53 0 -90 40.5t-37 90.5q0 56 36.5 97.5t90.5 41.5q65 0 104.5 -41t39.5 -98z" />
    <glyph glyph-name="cent" unicode="&#xa2;" horiz-adv-x="1157" 
d="M393 461q0 -133 87.5 -215t211.5 -82q100 0 174 51q39 27 72 27q36 0 66 -33q20 -20 20 -57q0 -45 -35 -72q-100 -83 -233 -96v-136q0 -40 -29 -67t-72 -27q-42 0 -70 27t-28 67v144q-173 33 -275 158t-102 311q0 177 104 308t273 165v131q0 38 28 65t70 27t71.5 -27.5
t29.5 -64.5v-127q84 -10 176 -55q59 -30 59 -84q0 -21 -12 -45q-26 -47 -82 -47q-29 0 -49 10q-83 39 -168 39q-117 0 -202 -83t-85 -212z" />
    <glyph glyph-name="sterling" unicode="&#xa3;" horiz-adv-x="1196" 
d="M1145 158q0 -43 -43 -80q-120 -86 -262 -86q-79 0 -233.5 53t-233.5 53q-45 0 -87 -20t-76 -40t-60 -20q-37 0 -60.5 26.5t-23.5 61.5q0 42 28 70q69 61 144 94q97 133 86 283h-103q-37 0 -59.5 22.5t-22.5 59.5q0 35 22.5 56.5t59.5 21.5h64q-9 22 -32 73t-35 81
t-23 81.5t-11 104.5q0 169 126.5 283t328.5 114q182 0 332 -102q49 -34 49 -82q0 -37 -28 -67t-66 -30q-33 0 -74 23q-102 57 -207 57t-170 -62t-65 -157q0 -59 17.5 -109.5t46.5 -107.5t42 -100h262q36 0 59 -21.5t23 -56.5q0 -36 -23 -59t-59 -23l-241 -4
q-7 -133 -99 -256q60 -8 196 -54t210 -46q80 0 143 38q31 19 66 19q37 0 64.5 -27.5t27.5 -64.5z" />
    <glyph glyph-name="currency" unicode="&#xa4;" horiz-adv-x="1163" 
d="M82 328l108 110q-75 115 -75 267q0 151 78 266l-103 106q-24 24 -24 62q0 37 24 61q25 25 62 25q36 0 61 -25l102 -106q117 73 267 73q147 0 264 -73l112 110q25 25 62 25q36 0 61 -25t25 -61q0 -37 -25 -62l-110 -110q80 -122 80 -266q0 -152 -80 -267l106 -102
q25 -25 25 -62q0 -36 -25 -61t-61 -25q-37 0 -62 25l-106 102q-110 -77 -266 -77q-157 0 -267 77l-110 -110q-25 -25 -62 -25q-36 0 -61 25t-25 61q0 37 25 62zM582 414q133 0 207.5 82.5t74.5 208.5q0 127 -76.5 208.5t-205.5 81.5q-127 0 -205 -82.5t-78 -207.5
q0 -124 77.5 -207.5t205.5 -83.5z" />
    <glyph glyph-name="yen" unicode="&#xa5;" horiz-adv-x="1159" 
d="M680 252v-154q0 -44 -30.5 -75t-74.5 -31t-75 31t-31 75v154h-283q-33 0 -56.5 23.5t-23.5 58.5q0 32 24 56t56 24h283v192h-283q-33 0 -56.5 23.5t-23.5 58.5q0 32 24 55t56 23h191l-295 520q-14 22 -14 53q0 42 29.5 73.5t78.5 31.5q58 0 98 -68l310 -569l309 571
q36 66 98 66q44 0 72.5 -28t28.5 -68q0 -30 -15 -50l-305 -532h195q34 0 57 -23t23 -55q0 -35 -23 -58.5t-57 -23.5h-287v-192h287q33 0 56.5 -23.5t23.5 -56.5q0 -35 -23 -58.5t-57 -23.5h-287z" />
    <glyph glyph-name="brokenbar" unicode="&#xa6;" horiz-adv-x="684" 
d="M242 1337q0 40 29.5 68.5t72.5 28.5q41 0 69.5 -28.5t28.5 -68.5v-340q0 -40 -28.5 -68t-69.5 -28q-43 0 -72.5 28t-29.5 68v340zM442 96q0 -40 -28.5 -68t-69.5 -28q-43 0 -72.5 28t-29.5 68v340q0 40 29.5 68t72.5 28q41 0 69.5 -28t28.5 -68v-340z" />
    <glyph glyph-name="section" unicode="&#xa7;" horiz-adv-x="1073" 
d="M395 -195q45 -28 101 -28q60 0 102.5 41.5t42.5 101.5q0 131 -164 215q-164 18 -258 122t-94 253q0 126 68.5 222t191.5 134q-70 41 -114 113t-44 164q0 124 91 207.5t249 83.5q148 0 240 -86q29 -29 29 -66q0 -31 -21 -55q-27 -31 -67 -31q-34 0 -76 25q-40 24 -99 24
q-61 0 -104 -41t-43 -100q0 -130 164 -219q167 -15 261.5 -118.5t94.5 -256.5q0 -126 -68.5 -222t-191.5 -134q69 -43 111.5 -113t42.5 -160q0 -125 -90 -208t-250 -83q-151 0 -240 86q-31 31 -31 70q0 36 25 61q32 29 63 29t78 -31zM324 510q0 -82 59 -142.5t154 -60.5
q97 0 154 60t57 143q0 82 -58.5 143.5t-152.5 61.5q-95 0 -154 -61t-59 -144z" />
    <glyph glyph-name="dieresis" unicode="&#xa8;" horiz-adv-x="878" 
d="M238 1118q-48 0 -81.5 32t-33.5 87q0 51 34 83t81 32q42 0 74 -32.5t32 -82.5q0 -54 -32 -86.5t-74 -32.5zM649 1118q-48 0 -81 32t-33 87q0 51 33.5 83t80.5 32q43 0 75 -32t32 -83q0 -55 -31.5 -87t-75.5 -32z" />
    <glyph glyph-name="copyright" unicode="&#xa9;" horiz-adv-x="2084" 
d="M152 453q0 184 68.5 348.5t186 283.5t283.5 188.5t352 69.5t352 -69.5t284 -188.5t186.5 -283.5t68.5 -348.5q0 -147 -43.5 -283.5t-124.5 -246t-190 -191t-246.5 -126t-286.5 -44.5t-286.5 44.5t-246 126t-189.5 191t-124.5 246t-43.5 283.5zM324 451
q0 -146 54.5 -277.5t149 -228.5t229 -154t287.5 -57q201 0 365.5 97t257 261t92.5 359q0 197 -92.5 361t-257 260.5t-365.5 96.5q-204 0 -369.5 -96.5t-258 -260.5t-92.5 -361zM1229 717q-83 39 -168 39q-117 0 -202 -83t-85 -212q0 -133 87.5 -215t211.5 -82q100 0 174 51
q39 27 72 27q35 0 65 -33q21 -21 21 -57q0 -45 -35 -72q-120 -100 -309 -100q-225 0 -362.5 131.5t-137.5 349.5q0 203 134 342t337 139q174 0 281 -59q59 -30 59 -84q0 -21 -12 -45q-26 -47 -82 -47q-29 0 -49 10z" />
    <glyph glyph-name="ordfeminine" unicode="&#xaa;" horiz-adv-x="890" 
d="M358 1085q132 0 220 -45q-3 160 -160 160q-36 0 -92.5 -12t-65.5 -12q-30 0 -48.5 17.5t-18.5 47.5q0 46 51 66q109 41 213 41q80 0 145.5 -28.5t108.5 -91.5t43 -151v-356q0 -35 -24.5 -58.5t-63.5 -23.5q-40 0 -64 23t-24 55v20q-40 -47 -98.5 -72.5t-155.5 -25.5
q-102 0 -164 62.5t-62 154.5q0 109 69 169t191 60zM578 926q-83 37 -160 37q-61 0 -98 -25.5t-37 -65.5q0 -38 34 -62t95 -24q85 0 166 62v78z" />
    <glyph glyph-name="guillemotleft" unicode="&#xab;" horiz-adv-x="1064" 
d="M725 512l236 -279q22 -25 22 -57q0 -39 -33 -65q-21 -21 -55 -21q-47 0 -70 29l-274 327q-25 32 -25 66t25 66l280 325q28 31 66 31q36 0 61 -25q27 -24 27 -61t-22 -62zM279 512l235 -279q23 -26 23 -57q0 -39 -33 -65q-21 -21 -55 -21q-47 0 -70 29l-275 327
q-24 31 -24 66t24 66l281 325q28 31 66 31q36 0 61 -25q27 -24 27 -61q0 -36 -23 -62z" />
    <glyph glyph-name="logicalnot" unicode="&#xac;" 
d="M930 467v184h-733q-35 0 -59.5 24.5t-24.5 61.5t24.5 61.5t59.5 24.5h823q35 0 59.5 -24t24.5 -58v-274q0 -37 -25 -61.5t-63 -24.5q-37 0 -61.5 24.5t-24.5 61.5z" />
    <glyph glyph-name="uni00AD" unicode="&#xad;" horiz-adv-x="782" 
d="M553 651q37 0 63.5 -27t26.5 -65t-26.5 -65t-63.5 -27h-324q-37 0 -63.5 27.5t-26.5 66.5q0 37 26.5 63.5t63.5 26.5h324z" />
    <glyph glyph-name="registered" unicode="&#xae;" horiz-adv-x="1310" 
d="M643 930h-65v-127q0 -28 -19.5 -47t-48.5 -19t-48.5 19t-19.5 47v442q0 28 19 47t47 19h156q116 0 170.5 -50t54.5 -135q0 -60 -33 -104.5t-82 -60.5l82 -117q14 -16 14 -45q0 -26 -18.5 -44t-48.5 -18q-41 0 -66 45zM578 1028h69q49 0 78 27t29 69t-28 65t-83 23h-65
v-184zM655 455q-153 0 -281 75.5t-202 204.5t-74 281q0 151 74 279.5t202 203t281 74.5q154 0 282 -75t201.5 -203t73.5 -279q0 -152 -74 -281t-202 -204.5t-281 -75.5zM655 614q165 0 281.5 118.5t116.5 283.5t-115.5 281t-282.5 116q-165 0 -281 -116t-116 -281
t116 -283.5t281 -118.5z" />
    <glyph glyph-name="macron" unicode="&#xaf;" horiz-adv-x="802" 
d="M598 1319q34 0 58 -24t24 -58t-24 -57t-58 -23h-395q-33 0 -56.5 23.5t-23.5 56.5q0 34 24 58t56 24h395z" />
    <glyph glyph-name="degree" unicode="&#xb0;" horiz-adv-x="856" 
d="M426 836q-136 0 -232 95t-96 232q0 141 96 237.5t232 96.5q139 0 235.5 -91.5t96.5 -231.5q0 -139 -97.5 -238.5t-234.5 -99.5zM426 1323q-63 0 -109.5 -46t-46.5 -110t46.5 -109.5t109.5 -45.5q65 0 111.5 45.5t46.5 109.5t-46.5 110t-111.5 46z" />
    <glyph glyph-name="plusminus" unicode="&#xb1;" 
d="M700 688q0 -37 -27 -62.5t-67 -25.5t-67 25.5t-27 62.5v143h-287q-35 0 -60.5 26.5t-25.5 60.5q0 37 25.5 62.5t60.5 25.5h287v292q0 37 27 62.5t67 25.5t67 -25.5t27 -62.5v-292h291q35 0 60.5 -25.5t25.5 -62.5q0 -34 -25.5 -60.5t-60.5 -26.5h-291v-143zM225 502h766
q35 0 60.5 -25.5t25.5 -62.5q0 -34 -25.5 -60t-60.5 -26h-766q-35 0 -60.5 26t-25.5 60q0 37 25.5 62.5t60.5 25.5z" />
    <glyph glyph-name="twosuperior" unicode="&#xb2;" horiz-adv-x="716" 
d="M586 864q31 0 52 -21t21 -52t-21 -52.5t-52 -21.5h-459q-31 0 -51.5 21t-20.5 53q0 28 17.5 47t58.5 47q67 43 111.5 75t95 75t76.5 83.5t26 77.5q0 44 -28 71t-78 27q-57 0 -101 -49q-35 -41 -73 -41q-15 0 -35 8q-19 7 -33 25t-14 43q0 23 10 43q30 56 98.5 87.5
t165.5 31.5q131 0 203 -61.5t72 -161.5q0 -52 -27 -103.5t-63 -88t-88 -72.5t-86 -54.5t-72 -36.5h295z" />
    <glyph glyph-name="threesuperior" unicode="&#xb3;" horiz-adv-x="708" 
d="M606 1264q0 -64 -41 -108.5t-114 -61.5q86 -7 133 -55.5t47 -116.5q0 -98 -86.5 -157.5t-212.5 -59.5q-176 0 -271 108q-20 17 -20 47q0 27 25 49q20 17 45 17q30 0 61 -25q59 -53 131 -53q69 0 106 24.5t37 65.5q0 36 -35 58t-104 22q-29 0 -47 17t-18 46
q0 27 17.5 43.5t45.5 16.5q51 0 82 24.5t31 63.5q0 34 -29.5 54t-81.5 20q-79 0 -127 -39q-25 -19 -49 -19q-29 0 -45 19q-18 15 -18 41q0 29 28 57q91 84 248 84q117 0 189.5 -49t72.5 -133z" />
    <glyph glyph-name="acute" unicode="&#xb4;" horiz-adv-x="618" 
d="M164 1219l135 206q17 29 57 29q23 0 41 -12l39 -29q27 -18 27 -55q0 -28 -17 -45l-155 -185q-23 -26 -62 -26q-27 0 -45 12q-32 22 -32 66q0 21 12 39z" />
    <glyph glyph-name="mu" unicode="&#xb5;" horiz-adv-x="1103" 
d="M774 291v547q0 40 28 68t70 28q43 0 72 -28t29 -68v-756q0 -40 -29.5 -69t-71.5 -29q-43 0 -70.5 28.5t-27.5 73.5v37q-51 -62 -131 -102.5t-180 -40.5q-75 0 -131 24v-317q0 -40 -30 -68.5t-71 -28.5q-42 0 -71 28.5t-29 68.5v1151q0 40 29 68t71 28q41 0 71 -28t30 -68
v-439q0 -112 50.5 -173.5t154.5 -61.5q68 0 130.5 34.5t106.5 92.5z" />
    <glyph glyph-name="paragraph" unicode="&#xb6;" horiz-adv-x="974" 
d="M279 -227q43 -13 73 -13q51 0 86.5 18.5t54 53.5t26 75.5t7.5 94.5v537q-118 1 -217.5 52.5t-162 154.5t-62.5 239q0 206 124 327.5t322 121.5h297q37 0 64 -28.5t27 -66.5q0 -37 -27.5 -65.5t-63.5 -28.5h-102v-1249q0 -422 -360 -422q-94 0 -177 39q-21 8 -39 31.5
t-18 50.5q0 19 8 35q18 55 78 55q25 0 62 -12z" />
    <glyph glyph-name="periodcentered" unicode="&#xb7;" horiz-adv-x="446" 
d="M229 745q55 0 92 -40.5t37 -90.5q0 -56 -37 -97.5t-92 -41.5q-62 0 -100.5 41t-38.5 98q0 51 39 91t100 40z" />
    <glyph glyph-name="cedilla" unicode="&#xb8;" horiz-adv-x="745" 
d="M414 -78q209 -15 209 -172q0 -77 -71 -124.5t-200 -47.5q-106 0 -180 45q-29 16 -29 53q0 17 4 25q15 29 50 29q19 0 34 -9q52 -20 97 -20q42 0 69 17t27 49q0 53 -55 59q-58 14 -58 74v120h103v-98z" />
    <glyph glyph-name="onesuperior" unicode="&#xb9;" horiz-adv-x="516" 
d="M197 1233l-50 -29q-18 -12 -41 -12q-38 0 -57 29q-10 15 -10 36q0 38 33 58l129 88q3 2 8 6q56 36 80 40l14 1q30 0 48 -19.5t18 -50.5v-585q0 -35 -23.5 -58.5t-62.5 -23.5t-62.5 23.5t-23.5 58.5v438z" />
    <glyph glyph-name="ordmasculine" unicode="&#xba;" horiz-adv-x="997" 
d="M500 635q-170 0 -279.5 98.5t-109.5 257.5q0 160 109.5 258.5t279.5 98.5q169 0 279 -99t110 -258q0 -158 -110 -257t-279 -99zM500 1186q-87 0 -145 -54t-58 -141t58.5 -140.5t144.5 -53.5t143 53t57 141q0 87 -57.5 141t-142.5 54z" />
    <glyph glyph-name="guillemotright" unicode="&#xbb;" horiz-adv-x="1064" 
d="M528 848q0 35 31 63q21 21 57 21q37 0 66 -29l281 -325q24 -24 24 -68t-24 -68l-275 -323q-23 -29 -67 -29q-34 0 -58 21q-31 25 -31 67q0 31 21 55l235 279l-237 274q-23 30 -23 62zM78 848q0 35 31 63q21 21 57 21t65 -29l281 -325q25 -25 25 -68t-25 -68l-274 -323
q-23 -29 -68 -29q-33 0 -57 21q-31 25 -31 67q0 32 20 55l236 279l-238 274q-22 28 -22 62z" />
    <glyph glyph-name="onequarter" unicode="&#xbc;" horiz-adv-x="1400" 
d="M213 1233l-49 -29q-18 -12 -41 -12q-38 0 -57 29q-11 17 -11 36q0 38 33 58l129 88q3 2 8 6q56 36 80 40l14 1q30 0 48 -19.5t18 -50.5v-585q0 -35 -23.5 -58.5t-62.5 -23.5t-62.5 23.5t-23.5 58.5v438zM1196 1317l-963 -1284q-20 -33 -61 -33q-22 0 -41 16
q-27 20 -27 54q0 25 15 43l962 1288q19 29 54 29q18 0 45 -17q28 -21 28 -57q0 -24 -12 -39zM1249 289q36 0 57 -18t21 -46q0 -32 -21 -52.5t-57 -20.5h-32v-78q0 -31 -23.5 -54.5t-56.5 -23.5q-34 0 -57 23t-23 55v78h-324q-34 0 -56 21.5t-22 55.5q0 8 2.5 17t5 15.5t9 17
t10 15.5t13.5 18t14 18l241 334q21 30 38.5 43.5t43.5 13.5q28 0 46 -16.5t18 -42.5q0 -24 -19 -56l-237 -317h217v92q0 34 22.5 57t57.5 23q34 0 57 -23t23 -57v-92h32z" />
    <glyph glyph-name="onehalf" unicode="&#xbd;" horiz-adv-x="1376" 
d="M219 1233l-49 -29q-18 -12 -41 -12q-38 0 -57 29q-11 17 -11 36q0 38 33 58l129 88q30 20 42 27t28.5 13.5t32.5 6.5q30 0 47.5 -19.5t17.5 -50.5v-585q0 -35 -23.5 -58.5t-62.5 -23.5t-62.5 23.5t-23.5 58.5v438zM1165 1317l-962 -1284q-20 -33 -62 -33q-22 0 -41 16
q-26 20 -26 54q0 26 14 43l963 1288q19 29 53 29q18 0 45 -17q29 -22 29 -57q0 -23 -13 -39zM1247 147q31 0 52.5 -21t21.5 -52t-21.5 -52.5t-52.5 -21.5h-459q-31 0 -51 21t-20 53q0 28 17.5 47t58.5 47q67 43 111.5 75t95 75t76.5 83.5t26 77.5q0 44 -28.5 71.5
t-78.5 27.5q-55 0 -100 -50q-35 -41 -74 -41q-13 0 -35 9q-19 7 -33 24.5t-14 42.5q0 21 11 43q30 56 98.5 87.5t165.5 31.5q131 0 202.5 -61.5t71.5 -161.5q0 -52 -27 -103.5t-63 -88t-88 -72.5t-86 -54.5t-72 -36.5h295z" />
    <glyph glyph-name="threequarters" unicode="&#xbe;" horiz-adv-x="1523" 
d="M1362 1317l-963 -1284q-20 -33 -61 -33q-22 0 -41 16q-27 20 -27 54q0 25 15 43l962 1288q19 29 53 29q19 0 46 -17q28 -21 28 -57q0 -24 -12 -39zM1372 289q36 0 57 -18t21 -46q0 -32 -21 -52.5t-57 -20.5h-33v-78q0 -31 -23 -54.5t-56 -23.5q-34 0 -57 23t-23 55v78
h-324q-34 0 -56 21.5t-22 55.5q0 7 1 14t4.5 15t6 13t9 14.5t9.5 13.5t11.5 15.5t11.5 15.5l242 334q21 30 38.5 43.5t43.5 13.5q28 0 46 -16.5t18 -42.5q0 -24 -19 -56l-237 -317h217v92q0 34 22.5 57t57.5 23q34 0 56.5 -23t22.5 -57v-92h33zM610 1264q0 -64 -41 -108.5
t-114 -61.5q86 -7 133 -55.5t47 -116.5q0 -98 -86.5 -157.5t-212.5 -59.5q-175 0 -270 108q-21 17 -21 47q0 27 25 49q20 17 45 17q30 0 61 -25q59 -53 131 -53q69 0 106.5 24.5t37.5 65.5q0 36 -35.5 58t-104.5 22q-29 0 -47 17t-18 46q0 27 17.5 43.5t45.5 16.5
q51 0 82 24.5t31 63.5q0 34 -29.5 54t-81.5 20q-79 0 -127 -39q-25 -19 -49 -19q-29 0 -45 19q-18 15 -18 41q0 29 28 57q91 84 248 84q117 0 189.5 -49t72.5 -133z" />
    <glyph glyph-name="questiondown" unicode="&#xbf;" horiz-adv-x="933" 
d="M389 287q44 42 64 76t26 79q6 52 25.5 76.5t60.5 24.5q94 0 94 -131q0 -71 -33.5 -125t-109.5 -115q-15 -13 -49.5 -39t-51.5 -40t-42.5 -40.5t-37.5 -49t-22 -55t-10 -69.5q0 -84 63.5 -142.5t157.5 -58.5q114 0 203 68q40 29 74 29q35 0 61.5 -26.5t26.5 -63.5t-33 -70
q-145 -135 -344 -135q-194 0 -308 102t-114 254q0 64 14.5 118.5t36 91.5t55.5 74t62 59.5t68 54.5t63 53zM696 803q0 -51 -39 -91t-100 -40q-56 0 -93.5 40.5t-37.5 90.5q0 56 37 97.5t94 41.5q62 0 100.5 -41t38.5 -98z" />
    <glyph glyph-name="Agrave" unicode="&#xc0;" horiz-adv-x="1406" 
d="M1016 393h-635l-141 -344q-25 -65 -93 -65q-44 0 -72 29t-28 69q0 21 10 41l529 1235q40 86 121 86q44 0 73 -24.5t43 -61.5l529 -1231q8 -24 8 -41q0 -41 -28.5 -71.5t-71.5 -30.5q-38 0 -65 19t-38 50zM700 1155l-235 -563h469zM500 1810l299 -157q39 -19 39 -64
q0 -14 -7 -28q-20 -41 -65 -41q-17 0 -27 4l-313 123q-19 6 -30 22.5t-11 36.5q0 15 6 27l23 47q6 17 21.5 27t33.5 10q13 0 31 -7z" />
    <glyph glyph-name="Aacute" unicode="&#xc1;" horiz-adv-x="1406" 
d="M1016 393h-635l-141 -344q-25 -65 -93 -65q-44 0 -72 29t-28 69q0 21 10 41l529 1235q40 86 121 86q44 0 73 -24.5t43 -61.5l529 -1231q8 -24 8 -41q0 -41 -28.5 -71.5t-71.5 -30.5q-38 0 -65 19t-38 50zM700 1155l-235 -563h469zM610 1651l303 159q18 9 29 9
q35 0 57 -37l21 -51q4 -8 4 -27q0 -41 -39 -57l-313 -123q-8 -4 -25 -4q-45 0 -65 41q-9 18 -9 30q0 18 11 35t26 25z" />
    <glyph glyph-name="Acircumflex" unicode="&#xc2;" horiz-adv-x="1406" 
d="M1016 393h-635l-141 -344q-25 -65 -93 -65q-44 0 -72 29t-28 69q0 21 10 41l529 1235q40 86 121 86q44 0 73 -24.5t43 -61.5l529 -1231q8 -24 8 -41q0 -41 -28.5 -71.5t-71.5 -30.5q-38 0 -65 19t-38 50zM700 1155l-235 -563h469zM700 1649l-223 -121q-13 -10 -37 -10
q-37 0 -61 30q-10 15 -10 39q0 41 32 60l240 145q30 18 61 18q32 0 58 -16l246 -147q14 -9 23 -25.5t9 -32.5q0 -24 -12 -39q-18 -34 -61 -34q-17 0 -37 10z" />
    <glyph glyph-name="Atilde" unicode="&#xc3;" horiz-adv-x="1406" 
d="M1016 393h-635l-141 -344q-25 -65 -93 -65q-44 0 -72 29t-28 69q0 21 10 41l529 1235q40 86 121 86q44 0 73 -24.5t43 -61.5l529 -1231q8 -24 8 -41q0 -41 -28.5 -71.5t-71.5 -30.5q-38 0 -65 19t-38 50zM700 1155l-235 -563h469zM1057 1628q-105 -100 -213 -100
q-53 0 -147.5 48t-147.5 48q-40 0 -100 -39q-19 -16 -48 -16q-31 0 -53 28q-16 16 -16 41q0 36 24 54q108 88 201 88q41 0 83.5 -15t72.5 -33.5t70 -33.5t77 -15q6 0 12.5 1t12 2.5t13 5t12 5.5t13.5 7.5t12.5 7.5t14 8.5t13.5 8.5q26 20 55 20q27 0 47 -23q18 -15 18 -43
q0 -29 -26 -55z" />
    <glyph glyph-name="Adieresis" unicode="&#xc4;" horiz-adv-x="1406" 
d="M1016 393h-635l-141 -344q-25 -65 -93 -65q-44 0 -72 29t-28 69q0 21 10 41l529 1235q40 86 121 86q44 0 73 -24.5t43 -61.5l529 -1231q8 -24 8 -41q0 -41 -28.5 -71.5t-71.5 -30.5q-38 0 -65 19t-38 50zM700 1155l-235 -563h469zM471 1786q50 0 88.5 -30t38.5 -79
q0 -54 -38 -85t-89 -31q-58 0 -96.5 30.5t-38.5 85.5q0 50 39 79.5t96 29.5zM946 1786q52 0 89.5 -29.5t37.5 -79.5q0 -54 -37 -85t-90 -31q-58 0 -96.5 30.5t-38.5 85.5q0 50 39 79.5t96 29.5z" />
    <glyph glyph-name="Aring" unicode="&#xc5;" horiz-adv-x="1411" 
d="M240 49q-11 -29 -37 -47t-60 -18q-42 0 -69 29t-27 69q0 23 8 39l555 1304q-80 20 -128 72.5t-48 132.5q0 103 76.5 156t194.5 53q121 0 197.5 -52.5t76.5 -156.5q0 -79 -46.5 -131.5t-125.5 -73.5l549 -1294q8 -16 8 -41q0 -42 -28 -74t-70 -32q-37 0 -64.5 20t-38.5 49
l-145 348h-633zM702 1161l-235 -561h469zM584 1630q0 -51 34 -77.5t89 -26.5t89.5 26.5t34.5 77.5q0 50 -34 74.5t-90 24.5t-89.5 -24.5t-33.5 -74.5z" />
    <glyph glyph-name="AE" unicode="&#xc6;" horiz-adv-x="1941" 
d="M1184 201h528q40 0 69 -30t29 -71t-29 -70.5t-69 -29.5h-641q-41 0 -70.5 29.5t-29.5 70.5v306h-496l-254 -365q-43 -57 -102 -57q-40 0 -66 29t-26 69q0 36 22 61l885 1233q19 26 48.5 42t61.5 16h648q40 0 69 -29.5t29 -69.5q0 -42 -29 -72t-69 -30h-508v-410h446
q40 0 69.5 -28.5t29.5 -69.5q0 -42 -29.5 -71t-69.5 -29h-446v-424zM971 1110l-355 -504h355v504z" />
    <glyph glyph-name="Ccedilla" unicode="&#xc7;" horiz-adv-x="1323" 
d="M846 -78q223 -14 223 -172q0 -76 -70.5 -124t-191.5 -48q-131 0 -219 57q-23 13 -23 46q0 17 8 30q19 29 50 29q16 0 28 -6q64 -33 107 -33q44 0 71 15.5t27 45.5q0 27 -15.5 44t-41.5 22q-58 13 -58 66v90q-291 28 -467 226t-176 507q0 155 49 289t139 234t228 157
t307 57q203 0 350 -84q62 -35 62 -88q0 -23 -16 -49q-26 -47 -82 -47q-33 0 -58 14q-116 55 -254 55q-220 0 -359.5 -148t-139.5 -390q0 -240 146 -389.5t380 -149.5q140 0 264 68q27 16 66 16q50 0 77 -37q17 -23 17 -53q0 -52 -49 -86q-153 -106 -379 -106v-58z" />
    <glyph glyph-name="Egrave" unicode="&#xc8;" horiz-adv-x="1177" 
d="M420 201h530q40 0 68.5 -30t28.5 -71t-28.5 -70.5t-68.5 -29.5h-643q-41 0 -70.5 29.5t-29.5 70.5v1233q0 41 29.5 71t70.5 30h623q39 0 67.5 -29.5t28.5 -69.5q0 -43 -28 -72.5t-68 -29.5h-510v-410h448q40 0 68.5 -28.5t28.5 -69.5q0 -42 -28.5 -71t-68.5 -29h-448
v-424zM438 1810l299 -157q39 -19 39 -64q0 -16 -6 -28q-20 -41 -65 -41q-17 0 -27 4l-313 123q-19 6 -30 22.5t-11 36.5q0 15 6 27l22 47q6 17 22 27t34 10q12 0 30 -7z" />
    <glyph glyph-name="Eacute" unicode="&#xc9;" horiz-adv-x="1177" 
d="M420 201h530q40 0 68.5 -30t28.5 -71t-28.5 -70.5t-68.5 -29.5h-643q-41 0 -70.5 29.5t-29.5 70.5v1233q0 41 29.5 71t70.5 30h623q39 0 67.5 -29.5t28.5 -69.5q0 -43 -28 -72.5t-68 -29.5h-510v-410h448q40 0 68.5 -28.5t28.5 -69.5q0 -42 -28.5 -71t-68.5 -29h-448
v-424zM512 1651l303 159q18 9 29 9q35 0 57 -37l21 -51q4 -8 4 -27q0 -41 -39 -57l-314 -123q-8 -4 -24 -4q-46 0 -66 41q-8 16 -8 30q0 18 11 35t26 25z" />
    <glyph glyph-name="Ecircumflex" unicode="&#xca;" horiz-adv-x="1177" 
d="M420 201h530q40 0 68.5 -30t28.5 -71t-28.5 -70.5t-68.5 -29.5h-643q-41 0 -70.5 29.5t-29.5 70.5v1233q0 41 29.5 71t70.5 30h623q39 0 67.5 -29.5t28.5 -69.5q0 -43 -28 -72.5t-68 -29.5h-510v-410h448q40 0 68.5 -28.5t28.5 -69.5q0 -42 -28.5 -71t-68.5 -29h-448
v-424zM614 1649l-223 -121q-13 -10 -37 -10q-37 0 -61 30q-10 15 -10 39q0 41 32 60l240 145q30 18 61 18q32 0 58 -16l246 -147q14 -9 23 -25.5t9 -32.5q0 -24 -12 -39q-18 -34 -61 -34q-17 0 -37 10z" />
    <glyph glyph-name="Edieresis" unicode="&#xcb;" horiz-adv-x="1177" 
d="M420 201h530q40 0 68.5 -30t28.5 -71t-28.5 -70.5t-68.5 -29.5h-643q-41 0 -70.5 29.5t-29.5 70.5v1233q0 41 29.5 71t70.5 30h623q39 0 67.5 -29.5t28.5 -69.5q0 -43 -28 -72.5t-68 -29.5h-510v-410h448q40 0 68.5 -28.5t28.5 -69.5q0 -42 -28.5 -71t-68.5 -29h-448
v-424zM389 1786q50 0 88.5 -30t38.5 -79q0 -54 -38 -85t-89 -31q-58 0 -96.5 30.5t-38.5 85.5q0 50 39 79.5t96 29.5zM864 1786q52 0 89.5 -29.5t37.5 -79.5q0 -54 -37 -85t-90 -31q-58 0 -96.5 30.5t-38.5 85.5q0 50 39 79.5t96 29.5z" />
    <glyph glyph-name="Igrave" unicode="&#xcc;" horiz-adv-x="698" 
d="M455 1339v-1249q0 -43 -30.5 -74.5t-74.5 -31.5t-76 31.5t-32 74.5v1249q0 43 32 74t76 31t74.5 -31t30.5 -74zM125 1810l299 -157q39 -19 39 -64q0 -16 -6 -28q-20 -41 -66 -41q-16 0 -26 4l-314 123q-19 6 -30 22.5t-11 36.5q0 15 6 27l23 47q6 17 21.5 27t33.5 10
q14 0 31 -7z" />
    <glyph glyph-name="Iacute" unicode="&#xcd;" horiz-adv-x="698" 
d="M455 1339v-1249q0 -43 -30.5 -74.5t-74.5 -31.5t-76 31.5t-32 74.5v1249q0 43 32 74t76 31t74.5 -31t30.5 -74zM274 1651l304 159q18 9 28 9q36 0 58 -37l20 -51q4 -8 4 -27q0 -41 -39 -57l-313 -123q-8 -4 -25 -4q-45 0 -65 41q-8 16 -8 30q0 18 10.5 35t25.5 25z" />
    <glyph glyph-name="Icircumflex" unicode="&#xce;" horiz-adv-x="698" 
d="M455 1339v-1249q0 -43 -30.5 -74.5t-74.5 -31.5t-76 31.5t-32 74.5v1249q0 43 32 74t76 31t74.5 -31t30.5 -74zM346 1649l-223 -121q-12 -10 -37 -10q-37 0 -61 30q-11 16 -11 39q0 40 33 60l240 145q30 18 61 18q32 0 58 -16l245 -147q15 -9 24 -25.5t9 -32.5
q0 -24 -12 -39q-18 -34 -62 -34q-17 0 -37 10z" />
    <glyph glyph-name="Idieresis" unicode="&#xcf;" horiz-adv-x="698" 
d="M455 1339v-1249q0 -43 -30.5 -74.5t-74.5 -31.5t-76 31.5t-32 74.5v1249q0 43 32 74t76 31t74.5 -31t30.5 -74zM115 1786q50 0 88.5 -30t38.5 -79q0 -54 -38 -85t-89 -31q-58 0 -96.5 30.5t-38.5 85.5q0 50 39 79.5t96 29.5zM590 1786q52 0 89.5 -29.5t37.5 -79.5
q0 -54 -37 -85t-90 -31q-58 0 -96.5 30.5t-38.5 85.5q0 50 39 79.5t96 29.5z" />
    <glyph glyph-name="Eth" unicode="&#xd0;" horiz-adv-x="1540" 
d="M621 -4q-63 0 -293 4q-40 0 -69.5 29t-29.5 69v529h-114q-38 0 -66.5 28.5t-28.5 65.5q0 38 28.5 66t66.5 28h114v520q0 40 29.5 69.5t69.5 29.5q37 1 103 2.5t117.5 2.5t88.5 1q167 0 303 -37.5t228.5 -102.5t155 -155.5t90.5 -193t28 -218.5q0 -123 -32.5 -232.5
t-99.5 -202t-163 -160t-231 -105t-295 -37.5zM442 627v-426q82 -4 185 -4q279 0 434.5 146t155.5 390q0 230 -153 369t-431 139q-59 0 -191 -8v-418h283q37 0 63.5 -28t26.5 -66q0 -37 -27 -65.5t-63 -28.5h-283z" />
    <glyph glyph-name="Ntilde" unicode="&#xd1;" horiz-adv-x="1626" 
d="M1219 369v979q0 40 29 68t71 28q41 0 69.5 -28t28.5 -68v-1262q0 -43 -25.5 -72.5t-66.5 -29.5q-64 0 -121 69l-798 1008v-979q0 -40 -29 -69t-70 -29q-42 0 -71 29t-29 69v1257q0 44 27.5 74.5t72.5 30.5q35 0 61.5 -16t57.5 -56zM1180 1628q-105 -100 -213 -100
q-53 0 -147.5 48t-147.5 48q-41 0 -101 -39q-19 -16 -47 -16q-31 0 -53 28q-16 16 -16 41q0 36 24 54q108 88 201 88q41 0 83.5 -15t72.5 -33.5t70 -33.5t77 -15q7 0 14 1t14.5 4t13.5 5.5t15.5 8t13.5 8t15.5 10t15.5 9.5q26 20 56 20q27 0 47 -23q18 -15 18 -43
q0 -29 -26 -55z" />
    <glyph glyph-name="Ograve" unicode="&#xd2;" horiz-adv-x="1671" 
d="M98 717q0 154 55 290t151 234.5t234 155.5t298 57q157 0 293.5 -53.5t234.5 -149t154.5 -233.5t56.5 -301q0 -211 -96.5 -379.5t-265 -263t-377.5 -94.5q-210 0 -377.5 91t-264 260t-96.5 386zM324 717q0 -229 148 -384t364 -155q154 0 272 71.5t180 193.5t62 274
q0 234 -147.5 386t-366.5 152q-221 0 -366.5 -151.5t-145.5 -386.5zM684 1810l299 -157q39 -19 39 -64q0 -16 -6 -28q-20 -41 -66 -41q-16 0 -26 4l-314 123q-19 6 -30 22.5t-11 36.5q0 15 6 27l23 47q6 17 21.5 27t33.5 10q13 0 31 -7z" />
    <glyph glyph-name="Oacute" unicode="&#xd3;" horiz-adv-x="1671" 
d="M98 717q0 154 55 290t151 234.5t234 155.5t298 57q157 0 293.5 -53.5t234.5 -149t154.5 -233.5t56.5 -301q0 -211 -96.5 -379.5t-265 -263t-377.5 -94.5q-210 0 -377.5 91t-264 260t-96.5 386zM324 717q0 -229 148 -384t364 -155q154 0 272 71.5t180 193.5t62 274
q0 234 -147.5 386t-366.5 152q-221 0 -366.5 -151.5t-145.5 -386.5zM743 1651l304 159q18 9 28 9q36 0 58 -37l20 -51q4 -8 4 -27q0 -41 -39 -57l-313 -123q-8 -4 -25 -4q-45 0 -65 41q-8 16 -8 30q0 18 10.5 35t25.5 25z" />
    <glyph glyph-name="Ocircumflex" unicode="&#xd4;" horiz-adv-x="1671" 
d="M98 717q0 154 55 290t151 234.5t234 155.5t298 57q157 0 293.5 -53.5t234.5 -149t154.5 -233.5t56.5 -301q0 -211 -96.5 -379.5t-265 -263t-377.5 -94.5q-210 0 -377.5 91t-264 260t-96.5 386zM324 717q0 -229 148 -384t364 -155q154 0 272 71.5t180 193.5t62 274
q0 234 -147.5 386t-366.5 152q-221 0 -366.5 -151.5t-145.5 -386.5zM838 1649l-224 -121q-12 -10 -36 -10q-38 0 -62 30q-10 15 -10 39q0 40 33 60l239 145q30 18 62 18q31 0 57 -16l246 -147q15 -9 24 -25.5t9 -32.5q0 -23 -13 -39q-18 -34 -61 -34q-17 0 -37 10z" />
    <glyph glyph-name="Otilde" unicode="&#xd5;" horiz-adv-x="1671" 
d="M98 717q0 154 55 290t151 234.5t234 155.5t298 57q157 0 293.5 -53.5t234.5 -149t154.5 -233.5t56.5 -301q0 -211 -96.5 -379.5t-265 -263t-377.5 -94.5q-210 0 -377.5 91t-264 260t-96.5 386zM324 717q0 -229 148 -384t364 -155q154 0 272 71.5t180 193.5t62 274
q0 234 -147.5 386t-366.5 152q-221 0 -366.5 -151.5t-145.5 -386.5zM1184 1628q-105 -100 -213 -100q-53 0 -147.5 48t-147.5 48q-41 0 -101 -39q-19 -16 -47 -16q-31 0 -53 28q-16 16 -16 41q0 36 24 54q108 88 201 88q41 0 83.5 -15t72.5 -33.5t70 -33.5t77 -15
q6 0 12.5 1t12 2.5t13 5t12 5.5t13.5 7.5t12.5 7.5t14 8.5t13.5 8.5q26 20 55 20q27 0 47 -23q18 -15 18 -43q0 -29 -26 -55z" />
    <glyph glyph-name="Odieresis" unicode="&#xd6;" horiz-adv-x="1671" 
d="M98 717q0 154 55 290t151 234.5t234 155.5t298 57q157 0 293.5 -53.5t234.5 -149t154.5 -233.5t56.5 -301q0 -211 -96.5 -379.5t-265 -263t-377.5 -94.5q-210 0 -377.5 91t-264 260t-96.5 386zM324 717q0 -229 148 -384t364 -155q154 0 272 71.5t180 193.5t62 274
q0 234 -147.5 386t-366.5 152q-221 0 -366.5 -151.5t-145.5 -386.5zM598 1786q50 0 88.5 -30t38.5 -79q0 -54 -38 -85t-89 -31q-58 0 -96.5 30.5t-38.5 85.5q0 50 39 79.5t96 29.5zM1073 1786q52 0 89.5 -29.5t37.5 -79.5q0 -54 -37 -85t-90 -31q-58 0 -96.5 30.5
t-38.5 85.5q0 50 39 79.5t96 29.5z" />
    <glyph glyph-name="multiply" unicode="&#xd7;" horiz-adv-x="1060" 
d="M197 528l209 209l-207 209q-27 27 -27 62t29 61q25 25 61 25q37 0 62 -25l206 -209l207 209q28 25 62 25q36 0 61 -25q27 -24 27 -61q0 -38 -27 -62l-207 -209l211 -209q25 -25 25 -61t-25 -61q-24 -27 -61 -27q-38 0 -62 24l-211 211l-211 -211q-24 -24 -61 -24
q-34 0 -61 27q-25 25 -25 61t25 61z" />
    <glyph glyph-name="Oslash" unicode="&#xd8;" horiz-adv-x="1671" 
d="M203 233l33 33q-138 187 -138 451q0 154 55 290t151 234.5t234 155.5t298 57q268 0 467 -147l22 20q25 25 61 25q35 0 59.5 -23t24.5 -55q0 -31 -28 -62l-23 -20q156 -206 156 -475q0 -211 -96.5 -379.5t-265 -263t-377.5 -94.5q-288 0 -486 165l-31 -30q-29 -25 -57 -25
q-38 0 -62 25.5t-24 60.5q0 33 27 57zM1257 1032l-749 -733q133 -121 328 -121q154 0 272 71.5t180 193.5t62 274q0 175 -93 315zM399 426l746 727q-136 102 -309 102q-221 0 -366.5 -151.5t-145.5 -386.5q0 -165 75 -291z" />
    <glyph glyph-name="Ugrave" unicode="&#xd9;" horiz-adv-x="1536" 
d="M1139 639v700q0 43 31 74t75 31q43 0 75 -31t32 -74v-743q0 -128 -30.5 -232t-82.5 -174.5t-124.5 -118.5t-154 -69.5t-172.5 -21.5q-132 0 -241.5 40t-190.5 117t-125.5 198t-44.5 275v729q0 43 32 74t77 31q43 0 73.5 -31t30.5 -74v-686q0 -221 99.5 -347t289.5 -126
q171 0 261 116.5t90 342.5zM590 1810l299 -157q39 -19 39 -64q0 -16 -6 -28q-20 -41 -66 -41q-17 0 -27 4l-313 123q-19 6 -30 22.5t-11 36.5q0 15 6 27l23 47q6 17 21.5 27t33.5 10q13 0 31 -7z" />
    <glyph glyph-name="Uacute" unicode="&#xda;" horiz-adv-x="1536" 
d="M1139 639v700q0 43 31 74t75 31q43 0 75 -31t32 -74v-743q0 -128 -30.5 -232t-82.5 -174.5t-124.5 -118.5t-154 -69.5t-172.5 -21.5q-132 0 -241.5 40t-190.5 117t-125.5 198t-44.5 275v729q0 43 32 74t77 31q43 0 73.5 -31t30.5 -74v-686q0 -221 99.5 -347t289.5 -126
q171 0 261 116.5t90 342.5zM670 1651l303 159q18 9 28 9q36 0 58 -37l20 -51q4 -8 4 -27q0 -41 -39 -57l-313 -123q-8 -4 -24 -4q-46 0 -66 41q-8 16 -8 30q0 18 11 35t26 25z" />
    <glyph glyph-name="Ucircumflex" unicode="&#xdb;" horiz-adv-x="1536" 
d="M1139 639v700q0 43 31 74t75 31q43 0 75 -31t32 -74v-743q0 -128 -30.5 -232t-82.5 -174.5t-124.5 -118.5t-154 -69.5t-172.5 -21.5q-132 0 -241.5 40t-190.5 117t-125.5 198t-44.5 275v729q0 43 32 74t77 31q43 0 73.5 -31t30.5 -74v-686q0 -221 99.5 -347t289.5 -126
q171 0 261 116.5t90 342.5zM764 1649l-223 -121q-13 -10 -37 -10q-38 0 -62 30q-10 15 -10 39q0 40 33 60l240 145q30 18 61 18t57 -16l246 -147q15 -9 24 -25.5t9 -32.5q0 -24 -12 -39q-18 -34 -62 -34q-17 0 -37 10z" />
    <glyph glyph-name="Udieresis" unicode="&#xdc;" horiz-adv-x="1536" 
d="M1139 639v700q0 43 31 74t75 31q43 0 75 -31t32 -74v-743q0 -128 -30.5 -232t-82.5 -174.5t-124.5 -118.5t-154 -69.5t-172.5 -21.5q-132 0 -241.5 40t-190.5 117t-125.5 198t-44.5 275v729q0 43 32 74t77 31q43 0 73.5 -31t30.5 -74v-686q0 -221 99.5 -347t289.5 -126
q171 0 261 116.5t90 342.5zM524 1786q50 0 88.5 -30t38.5 -79q0 -54 -38 -85t-89 -31q-58 0 -96.5 30.5t-38.5 85.5q0 50 39 79.5t96 29.5zM999 1786q52 0 89.5 -29.5t37.5 -79.5q0 -54 -37 -85t-90 -31q-58 0 -96.5 30.5t-38.5 85.5q0 50 39 79.5t96 29.5z" />
    <glyph glyph-name="Yacute" unicode="&#xdd;" horiz-adv-x="1212" 
d="M266 1374l344 -567l342 567q42 70 105 70q44 0 69 -26.5t25 -65.5q0 -22 -16 -58l-426 -688v-516q0 -43 -32 -74.5t-75 -31.5q-45 0 -75.5 31.5t-30.5 74.5v516l-418 678q-17 26 -17 59q0 42 28.5 71.5t78.5 29.5q58 0 98 -70zM508 1651l303 159q18 9 29 9q35 0 57 -37
l21 -51q4 -8 4 -27q0 -41 -39 -57l-314 -123q-8 -4 -24 -4q-46 0 -66 41q-8 16 -8 30q0 18 11 35t26 25z" />
    <glyph glyph-name="Thorn" unicode="&#xde;" horiz-adv-x="1236" 
d="M598 1225q121 0 216 -25t155.5 -67.5t100 -101.5t55.5 -122t16 -135q0 -92 -33.5 -173.5t-96.5 -146t-163.5 -102t-226.5 -37.5q-125 0 -201 9v-234q0 -43 -31 -74.5t-74 -31.5q-45 0 -76.5 31.5t-31.5 74.5v1249q0 43 31.5 74t76.5 31q43 0 74 -31t31 -74v-118
q22 0 91 2t87 2zM420 1020v-496q105 -10 194 -10q138 0 219.5 68t81.5 192q0 121 -79 185.5t-234 64.5q-96 0 -182 -4z" />
    <glyph glyph-name="germandbls" unicode="&#xdf;" horiz-adv-x="1122" 
d="M459 123q0 36 21 58t57 22q22 0 69 -17.5t82 -17.5q65 0 108.5 41.5t43.5 114.5q0 41 -19.5 76.5t-51 62.5t-69.5 52.5t-76.5 52.5t-70 56.5t-51 70.5t-19.5 89q0 57 18.5 103.5t45.5 77t53.5 57.5t45 59t18.5 68q0 53 -42.5 87t-105.5 34q-92 0 -134 -61t-42 -195v-932
q0 -40 -28.5 -69t-69.5 -29q-43 0 -73 29t-30 69v952q0 216 105 320t301 104q142 0 237 -78.5t95 -193.5q0 -56 -18.5 -101t-45.5 -74t-53.5 -55.5t-45 -59.5t-18.5 -73q0 -41 19.5 -75t51 -59t69.5 -49.5t76.5 -53.5t70 -63t51 -86.5t19.5 -117.5q0 -143 -92.5 -241
t-235.5 -98q-149 0 -229 67q-37 34 -37 76z" />
    <glyph glyph-name="agrave" unicode="&#xe0;" horiz-adv-x="946" 
d="M362 -12q-128 0 -206 75t-78 207q0 143 94.5 219t245.5 76q61 0 122 -15t99 -42v29q0 117 -42.5 175t-150.5 58q-54 0 -120 -17.5t-80 -17.5q-39 0 -60.5 23t-21.5 55q0 25 15.5 46.5t41.5 31.5q114 51 244 51q194 0 278 -95t84 -284v-489q0 -35 -26 -60.5t-66 -25.5
q-38 0 -63 24.5t-25 61.5v35q-43 -54 -115.5 -87.5t-169.5 -33.5zM639 262v105q-74 53 -184 53q-73 0 -122.5 -34t-49.5 -99q0 -58 39.5 -92.5t107.5 -34.5q128 0 209 102zM457 1421l133 -200q12 -18 12 -43q0 -38 -29 -64q-21 -12 -45 -12q-43 0 -65 28l-156 179
q-16 19 -16 47q0 36 26 53l39 29q19 16 41 16q37 0 60 -33z" />
    <glyph glyph-name="aacute" unicode="&#xe1;" horiz-adv-x="946" 
d="M362 -12q-128 0 -206 75t-78 207q0 143 94.5 219t245.5 76q61 0 122 -15t99 -42v29q0 117 -42.5 175t-150.5 58q-54 0 -120 -17.5t-80 -17.5q-39 0 -60.5 23t-21.5 55q0 25 15.5 46.5t41.5 31.5q114 51 244 51q194 0 278 -95t84 -284v-489q0 -35 -26 -60.5t-66 -25.5
q-38 0 -63 24.5t-25 61.5v35q-43 -54 -115.5 -87.5t-169.5 -33.5zM639 262v105q-74 53 -184 53q-73 0 -122.5 -34t-49.5 -99q0 -58 39.5 -92.5t107.5 -34.5q128 0 209 102zM371 1219l135 206q17 29 57 29q23 0 41 -12l39 -29q27 -18 27 -55q0 -28 -17 -45l-155 -185
q-23 -26 -62 -26q-27 0 -45 12q-33 23 -33 66q0 20 13 39z" />
    <glyph glyph-name="acircumflex" unicode="&#xe2;" horiz-adv-x="946" 
d="M362 -12q-128 0 -206 75t-78 207q0 143 94.5 219t245.5 76q61 0 122 -15t99 -42v29q0 117 -42.5 175t-150.5 58q-54 0 -120 -17.5t-80 -17.5q-39 0 -60.5 23t-21.5 55q0 25 15.5 46.5t41.5 31.5q114 51 244 51q194 0 278 -95t84 -284v-489q0 -35 -26 -60.5t-66 -25.5
q-38 0 -63 24.5t-25 61.5v35q-43 -54 -115.5 -87.5t-169.5 -33.5zM639 262v105q-74 53 -184 53q-73 0 -122.5 -34t-49.5 -99q0 -58 39.5 -92.5t107.5 -34.5q128 0 209 102zM270 1087q-33 0 -57 27q-16 19 -16 49q0 37 24 58l197 176q20 20 57 20q34 0 57 -20l193 -176
q25 -22 25 -58q0 -30 -21 -51q-21 -27 -57 -27q-25 0 -49 17l-152 129l-152 -125q-25 -19 -49 -19z" />
    <glyph glyph-name="atilde" unicode="&#xe3;" horiz-adv-x="946" 
d="M362 -12q-128 0 -206 75t-78 207q0 143 94.5 219t245.5 76q61 0 122 -15t99 -42v29q0 117 -42.5 175t-150.5 58q-54 0 -120 -17.5t-80 -17.5q-39 0 -60.5 23t-21.5 55q0 25 15.5 46.5t41.5 31.5q114 51 244 51q194 0 278 -95t84 -284v-489q0 -35 -26 -60.5t-66 -25.5
q-38 0 -63 24.5t-25 61.5v35q-43 -54 -115.5 -87.5t-169.5 -33.5zM639 262v105q-74 53 -184 53q-73 0 -122.5 -34t-49.5 -99q0 -58 39.5 -92.5t107.5 -34.5q128 0 209 102zM774 1196q-108 -96 -196 -96q-46 0 -120 48t-120 48q-9 0 -22 -5t-20.5 -9t-24.5 -15.5t-21 -13.5
q-29 -16 -49 -16q-25 0 -49 24q-13 16 -13 35q0 30 31 61q101 82 184 82q40 0 83 -23.5t83 -47t74 -23.5q14 0 28.5 5.5t20.5 8.5t25 16.5t20 14.5q25 19 49 19t47 -23q15 -18 15 -39q0 -32 -25 -51z" />
    <glyph glyph-name="adieresis" unicode="&#xe4;" horiz-adv-x="946" 
d="M362 -12q-128 0 -206 75t-78 207q0 143 94.5 219t245.5 76q61 0 122 -15t99 -42v29q0 117 -42.5 175t-150.5 58q-54 0 -120 -17.5t-80 -17.5q-39 0 -60.5 23t-21.5 55q0 25 15.5 46.5t41.5 31.5q114 51 244 51q194 0 278 -95t84 -284v-489q0 -35 -26 -60.5t-66 -25.5
q-38 0 -63 24.5t-25 61.5v35q-43 -54 -115.5 -87.5t-169.5 -33.5zM639 262v105q-74 53 -184 53q-73 0 -122.5 -34t-49.5 -99q0 -58 39.5 -92.5t107.5 -34.5q128 0 209 102zM274 1118q-48 0 -81 32t-33 87q0 51 33.5 83t80.5 32q42 0 74.5 -32.5t32.5 -82.5q0 -54 -32 -86.5
t-75 -32.5zM686 1118q-48 0 -81.5 32t-33.5 87q0 51 34 83t81 32q43 0 75 -32t32 -83q0 -55 -31.5 -87t-75.5 -32z" />
    <glyph glyph-name="aring" unicode="&#xe5;" horiz-adv-x="946" 
d="M362 -12q-128 0 -206 75t-78 207q0 143 94.5 219t245.5 76q61 0 122 -15t99 -42v29q0 117 -42.5 175t-150.5 58q-54 0 -120 -17.5t-80 -17.5q-39 0 -60.5 23t-21.5 55q0 25 15.5 46.5t41.5 31.5q114 51 244 51q194 0 278 -95t84 -284v-489q0 -35 -26 -60.5t-66 -25.5
q-38 0 -63 24.5t-25 61.5v35q-43 -54 -115.5 -87.5t-169.5 -33.5zM639 262v105q-74 53 -184 53q-73 0 -122.5 -34t-49.5 -99q0 -58 39.5 -92.5t107.5 -34.5q128 0 209 102zM479 1020q-105 0 -175.5 68.5t-70.5 164.5q0 99 70.5 168.5t175.5 69.5q106 0 178 -69.5t72 -168.5
q0 -96 -72 -164.5t-178 -68.5zM483 1380q-52 0 -86.5 -35.5t-34.5 -87.5q0 -53 34.5 -90t86.5 -37q50 0 83.5 37t33.5 90q0 52 -33.5 87.5t-83.5 35.5z" />
    <glyph glyph-name="ae" unicode="&#xe6;" horiz-adv-x="1581" 
d="M635 565q0 205 -189 205q-59 0 -123 -17.5t-77 -17.5q-39 0 -60.5 25t-21.5 55q0 25 14 45t37 29q124 53 250 53q204 0 287 -106q128 106 319 106q183 0 307.5 -118t124.5 -306q0 -54 -25.5 -86.5t-66.5 -32.5h-584v-108q34 -64 106 -100.5t169 -36.5q116 0 201 43
q26 16 53 16q31 0 54.5 -23t23.5 -55q0 -41 -45 -69q-136 -86 -304 -86q-226 0 -360 131q-151 -127 -326 -127q-154 0 -237.5 76.5t-83.5 215.5q0 134 94.5 211.5t245.5 77.5q53 0 119 -11.5t98 -25.5v37zM827 545h473q-5 102 -68 162.5t-175 60.5q-73 0 -135.5 -33
t-98.5 -96q0 -11 2 -41t2 -53zM633 258l2 133q-92 29 -180 29q-72 0 -122 -35t-50 -98q0 -56 40 -89.5t107 -33.5q69 0 115.5 25.5t87.5 68.5z" />
    <glyph glyph-name="ccedilla" unicode="&#xe7;" horiz-adv-x="974" 
d="M618 -78q209 -15 209 -172q0 -77 -70.5 -124.5t-199.5 -47.5q-106 0 -180 45q-29 16 -29 53q0 17 4 25q14 29 49 29q20 0 35 -9q52 -20 96 -20q42 0 69.5 17t27.5 49q0 53 -56 59q-57 14 -57 74v82q-199 20 -317.5 149.5t-118.5 329.5q0 203 134 342t339 139
q171 0 278 -59q58 -28 58 -84q0 -21 -12 -45q-23 -47 -80 -47q-27 0 -47 10q-89 39 -172 39q-115 0 -200 -83t-85 -212q0 -133 87 -215t212 -82q100 0 174 51q42 27 74 27q33 0 63 -33q23 -26 23 -57q0 -45 -37 -72q-111 -93 -271 -100v-58z" />
    <glyph glyph-name="egrave" unicode="&#xe8;" horiz-adv-x="1073" 
d="M791 545q-3 100 -66.5 161.5t-171.5 61.5q-113 0 -181.5 -60.5t-86.5 -162.5h506zM295 399q12 -116 93 -180.5t206 -64.5q117 0 197 45q28 14 49 14q33 0 55.5 -21t22.5 -55q0 -46 -35 -67q-131 -90 -310 -90q-223 0 -358 131.5t-135 349.5q0 207 130 344t351 137
q183 0 307.5 -118t124.5 -306q0 -119 -92 -119h-606zM532 1421l134 -200q12 -18 12 -43q0 -38 -29 -64q-21 -12 -45 -12q-43 0 -65 28l-156 179q-16 19 -16 47q0 36 26 53l39 29q19 16 41 16q36 0 59 -33z" />
    <glyph glyph-name="eacute" unicode="&#xe9;" horiz-adv-x="1073" 
d="M791 545q-3 100 -66.5 161.5t-171.5 61.5q-113 0 -181.5 -60.5t-86.5 -162.5h506zM295 399q12 -116 93 -180.5t206 -64.5q117 0 197 45q28 14 49 14q33 0 55.5 -21t22.5 -55q0 -46 -35 -67q-131 -90 -310 -90q-223 0 -358 131.5t-135 349.5q0 207 130 344t351 137
q183 0 307.5 -118t124.5 -306q0 -119 -92 -119h-606zM479 1219l135 206q17 29 58 29q23 0 41 -12l39 -29q26 -17 26 -55q0 -29 -16 -45l-156 -185q-23 -26 -61 -26q-27 0 -45 12q-33 23 -33 66q0 21 12 39z" />
    <glyph glyph-name="ecircumflex" unicode="&#xea;" horiz-adv-x="1073" 
d="M791 545q-3 100 -66.5 161.5t-171.5 61.5q-113 0 -181.5 -60.5t-86.5 -162.5h506zM295 399q12 -116 93 -180.5t206 -64.5q117 0 197 45q28 14 49 14q33 0 55.5 -21t22.5 -55q0 -46 -35 -67q-131 -90 -310 -90q-223 0 -358 131.5t-135 349.5q0 207 130 344t351 137
q183 0 307.5 -118t124.5 -306q0 -119 -92 -119h-606zM348 1087q-33 0 -57 27q-17 20 -17 49q0 36 25 58l197 176q20 20 57 20q34 0 57 -20l193 -176q24 -21 24 -58q0 -31 -20 -51q-21 -27 -57 -27q-26 0 -50 17l-151 129l-152 -125q-25 -19 -49 -19z" />
    <glyph glyph-name="edieresis" unicode="&#xeb;" horiz-adv-x="1073" 
d="M791 545q-3 100 -66.5 161.5t-171.5 61.5q-113 0 -181.5 -60.5t-86.5 -162.5h506zM295 399q12 -116 93 -180.5t206 -64.5q117 0 197 45q28 14 49 14q33 0 55.5 -21t22.5 -55q0 -46 -35 -67q-131 -90 -310 -90q-223 0 -358 131.5t-135 349.5q0 207 130 344t351 137
q183 0 307.5 -118t124.5 -306q0 -119 -92 -119h-606zM346 1118q-48 0 -81.5 32t-33.5 87q0 51 34 83t81 32q42 0 74.5 -32.5t32.5 -82.5q0 -54 -32 -86.5t-75 -32.5zM758 1118q-48 0 -81.5 32t-33.5 87q0 51 34 83t81 32q43 0 74.5 -32t31.5 -83q0 -55 -31 -87t-75 -32z" />
    <glyph glyph-name="igrave" unicode="&#xec;" horiz-adv-x="557" 
d="M379 838v-756q0 -40 -29 -69t-71 -29t-70.5 29t-28.5 69v756q0 40 28.5 68t70.5 28t71 -28t29 -68zM201 1421l133 -200q12 -18 12 -43q0 -38 -29 -64q-21 -12 -45 -12q-43 0 -65 28l-156 179q-16 19 -16 47q0 36 26 53l39 29q19 16 41 16q37 0 60 -33z" />
    <glyph glyph-name="iacute" unicode="&#xed;" horiz-adv-x="557" 
d="M379 838v-756q0 -40 -29 -69t-71 -29t-70.5 29t-28.5 69v756q0 40 28.5 68t70.5 28t71 -28t29 -68zM184 1219l135 206q17 29 58 29q23 0 41 -12l39 -29q26 -17 26 -55q0 -29 -16 -45l-156 -185q-23 -26 -61 -26q-27 0 -45 12q-33 23 -33 66q0 21 12 39z" />
    <glyph glyph-name="icircumflex" unicode="&#xee;" horiz-adv-x="557" 
d="M379 838v-756q0 -40 -29 -69t-71 -29t-70.5 29t-28.5 69v756q0 40 28.5 68t70.5 28t71 -28t29 -68zM78 1087q-34 0 -58 27q-16 19 -16 49q0 36 25 58l196 176q20 20 58 20q34 0 57 -20l192 -176q25 -22 25 -58q0 -31 -20 -51q-21 -27 -58 -27q-25 0 -49 17l-151 129
l-152 -125q-25 -19 -49 -19z" />
    <glyph glyph-name="idieresis" unicode="&#xef;" horiz-adv-x="557" 
d="M379 838v-756q0 -40 -29 -69t-71 -29t-70.5 29t-28.5 69v756q0 40 28.5 68t70.5 28t71 -28t29 -68zM78 1118q-48 0 -81.5 32t-33.5 87q0 51 34 83t81 32q42 0 74 -32.5t32 -82.5q0 -54 -32 -86.5t-74 -32.5zM489 1118q-48 0 -81 32t-33 87q0 51 33.5 83t80.5 32
q43 0 75 -32t32 -83q0 -55 -31.5 -87t-75.5 -32z" />
    <glyph glyph-name="eth" unicode="&#xf0;" horiz-adv-x="1153" 
d="M80 461q0 210 137.5 345.5t360.5 135.5q74 0 136.5 -34.5t96.5 -92.5q-40 163 -156 315l-172 -65q-15 -6 -32 -6q-43 0 -69 28t-26 64q0 29 19 53t47 33l98 41q-25 22 -78 61q-41 30 -41 72q0 30 22.5 53t55.5 23q26 0 49 -17q91 -49 174 -122l129 51q18 6 37 6
q35 0 62.5 -25t27.5 -61q0 -31 -16.5 -55t-44.5 -35l-55 -25q111 -147 171 -323.5t60 -343.5q0 -260 -134.5 -408.5t-360.5 -148.5q-223 0 -360.5 135.5t-137.5 345.5zM293 461q0 -130 80.5 -213.5t204.5 -83.5q127 0 204.5 94.5t77.5 257.5v31q-21 89 -97 149t-185 60
q-122 0 -203.5 -82t-81.5 -213z" />
    <glyph glyph-name="ntilde" unicode="&#xf1;" horiz-adv-x="1130" 
d="M242 934q42 0 69 -25.5t27 -64.5v-25q47 50 124.5 84.5t160.5 34.5q381 0 381 -401v-455q0 -40 -30 -69t-71 -29q-42 0 -71 29t-29 69v418q0 250 -234 250q-133 0 -229 -103v-565q0 -40 -29.5 -69t-70.5 -29q-42 0 -71.5 29t-29.5 69v749q0 45 29 74t74 29zM866 1196
q-108 -96 -196 -96q-46 0 -120 48t-120 48q-9 0 -22 -5t-20.5 -9t-24.5 -15.5t-21 -13.5q-29 -16 -49 -16q-25 0 -49 24q-13 16 -13 35q0 30 31 61q101 82 184 82q40 0 83 -23.5t83 -47t74 -23.5q14 0 28.5 5.5t20.5 8.5t25 16.5t20 14.5q25 19 49 19q25 0 48 -23
q14 -17 14 -39q0 -32 -25 -51z" />
    <glyph glyph-name="ograve" unicode="&#xf2;" horiz-adv-x="1153" 
d="M80 461q0 210 137.5 345.5t360.5 135.5q222 0 358.5 -135.5t136.5 -345.5t-136.5 -345.5t-358.5 -135.5q-223 0 -360.5 135.5t-137.5 345.5zM293 461q0 -130 80.5 -213.5t204.5 -83.5t203 82t79 215q0 130 -79.5 212.5t-202.5 82.5q-122 0 -203.5 -82t-81.5 -213z
M532 1421l134 -200q12 -18 12 -43q0 -38 -29 -64q-21 -12 -45 -12q-43 0 -65 28l-156 179q-16 19 -16 47q0 36 26 53l39 29q19 16 41 16q36 0 59 -33z" />
    <glyph glyph-name="oacute" unicode="&#xf3;" horiz-adv-x="1153" 
d="M80 461q0 210 137.5 345.5t360.5 135.5q222 0 358.5 -135.5t136.5 -345.5t-136.5 -345.5t-358.5 -135.5q-223 0 -360.5 135.5t-137.5 345.5zM293 461q0 -130 80.5 -213.5t204.5 -83.5t203 82t79 215q0 130 -79.5 212.5t-202.5 82.5q-122 0 -203.5 -82t-81.5 -213z
M487 1219l136 206q17 29 57 29q23 0 41 -12l39 -29q26 -17 26 -55q0 -29 -16 -45l-156 -185q-23 -26 -61 -26q-27 0 -45 12q-33 23 -33 66q0 21 12 39z" />
    <glyph glyph-name="ocircumflex" unicode="&#xf4;" horiz-adv-x="1153" 
d="M80 461q0 210 137.5 345.5t360.5 135.5q222 0 358.5 -135.5t136.5 -345.5t-136.5 -345.5t-358.5 -135.5q-223 0 -360.5 135.5t-137.5 345.5zM293 461q0 -130 80.5 -213.5t204.5 -83.5t203 82t79 215q0 130 -79.5 212.5t-202.5 82.5q-122 0 -203.5 -82t-81.5 -213z
M377 1087q-34 0 -58 27q-16 19 -16 49q0 36 25 58l196 176q20 20 58 20q34 0 57 -20l192 -176q25 -22 25 -58q0 -31 -20 -51q-21 -27 -58 -27q-25 0 -49 17l-151 129l-152 -125q-25 -19 -49 -19z" />
    <glyph glyph-name="otilde" unicode="&#xf5;" horiz-adv-x="1153" 
d="M80 461q0 210 137.5 345.5t360.5 135.5q222 0 358.5 -135.5t136.5 -345.5t-136.5 -345.5t-358.5 -135.5q-223 0 -360.5 135.5t-137.5 345.5zM293 461q0 -130 80.5 -213.5t204.5 -83.5t203 82t79 215q0 130 -79.5 212.5t-202.5 82.5q-122 0 -203.5 -82t-81.5 -213z
M883 1196q-108 -96 -197 -96q-46 0 -120 48t-120 48q-9 0 -22 -5t-20.5 -9t-24.5 -15.5t-21 -13.5q-29 -16 -49 -16q-25 0 -49 24q-12 15 -12 35q0 30 31 61q101 82 184 82q40 0 83 -23.5t82.5 -47t73.5 -23.5q11 0 21.5 2.5t21.5 8t17 9.5t18.5 13t16.5 12q25 19 49 19
t47 -23q14 -17 14 -39q0 -33 -24 -51z" />
    <glyph glyph-name="odieresis" unicode="&#xf6;" horiz-adv-x="1153" 
d="M80 461q0 210 137.5 345.5t360.5 135.5q222 0 358.5 -135.5t136.5 -345.5t-136.5 -345.5t-358.5 -135.5q-223 0 -360.5 135.5t-137.5 345.5zM293 461q0 -130 80.5 -213.5t204.5 -83.5t203 82t79 215q0 130 -79.5 212.5t-202.5 82.5q-122 0 -203.5 -82t-81.5 -213z
M385 1118q-48 0 -81.5 32t-33.5 87q0 51 34 83t81 32q42 0 74.5 -32.5t32.5 -82.5q0 -54 -32 -86.5t-75 -32.5zM797 1118q-48 0 -81.5 32t-33.5 87q0 51 34 83t81 32q43 0 74.5 -32t31.5 -83q0 -55 -31 -87t-75 -32z" />
    <glyph glyph-name="divide" unicode="&#xf7;" 
d="M608 1268q53 0 86 -35.5t33 -81.5q0 -49 -33 -86t-86 -37q-56 0 -88.5 37t-32.5 86q0 46 33 81.5t88 35.5zM608 446q51 0 85 -36t34 -80q0 -50 -33 -86.5t-86 -36.5q-56 0 -88.5 36.5t-32.5 86.5q0 45 33 80.5t88 35.5zM991 823q37 0 61.5 -24.5t24.5 -61.5t-24.5 -61.5
t-61.5 -24.5h-766q-37 0 -61.5 24.5t-24.5 61.5t24.5 61.5t61.5 24.5h766z" />
    <glyph glyph-name="oslash" unicode="&#xf8;" horiz-adv-x="1142" 
d="M260 70l-45 -41q-14 -17 -47 -17q-29 0 -49 23q-17 20 -17 45q0 32 25 51l37 35q-96 126 -96 295q0 209 140.5 345t364.5 136q183 0 318 -98l41 37q16 16 43 16q31 0 51 -20q16 -19 16 -43q0 -30 -22 -52l-37 -32q94 -124 94 -289q0 -209 -140.5 -345t-363.5 -136
q-180 0 -313 90zM831 606l-421 -397q70 -45 163 -45q129 0 210 82t81 215q0 77 -33 145zM315 307l426 398q-70 51 -168 51q-127 0 -209.5 -81.5t-82.5 -213.5q0 -87 34 -154z" />
    <glyph glyph-name="ugrave" unicode="&#xf9;" horiz-adv-x="1101" 
d="M762 291v547q0 40 28 68t70 28q43 0 72 -28t29 -68v-756q0 -40 -29.5 -69t-71.5 -29q-43 0 -70.5 27.5t-27.5 70.5v41q-49 -61 -130 -102t-181 -41q-152 0 -242 96.5t-90 288.5v473q0 40 29 68t71 28q41 0 70.5 -28t29.5 -68v-428q0 -246 205 -246q68 0 131 34.5
t107 92.5zM498 1421l133 -200q12 -18 12 -43q0 -38 -29 -64q-21 -12 -45 -12q-43 0 -65 28l-156 179q-16 19 -16 47q0 36 26 53l39 29q19 16 41 16q37 0 60 -33z" />
    <glyph glyph-name="uacute" unicode="&#xfa;" horiz-adv-x="1101" 
d="M762 291v547q0 40 28 68t70 28q43 0 72 -28t29 -68v-756q0 -40 -29.5 -69t-71.5 -29q-43 0 -70.5 27.5t-27.5 70.5v41q-49 -61 -130 -102t-181 -41q-152 0 -242 96.5t-90 288.5v473q0 40 29 68t71 28q41 0 70.5 -28t29.5 -68v-428q0 -246 205 -246q68 0 131 34.5
t107 92.5zM467 1219l135 206q17 29 57 29q23 0 41 -12l39 -29q27 -18 27 -55q0 -29 -16 -45l-156 -185q-23 -26 -62 -26q-27 0 -45 12q-32 22 -32 66q0 21 12 39z" />
    <glyph glyph-name="ucircumflex" unicode="&#xfb;" horiz-adv-x="1101" 
d="M762 291v547q0 40 28 68t70 28q43 0 72 -28t29 -68v-756q0 -40 -29.5 -69t-71.5 -29q-43 0 -70.5 27.5t-27.5 70.5v41q-49 -61 -130 -102t-181 -41q-152 0 -242 96.5t-90 288.5v473q0 40 29 68t71 28q41 0 70.5 -28t29.5 -68v-428q0 -246 205 -246q68 0 131 34.5
t107 92.5zM344 1087q-33 0 -57 27q-17 20 -17 49q0 36 25 58l197 176q20 20 57 20q34 0 57 -20l193 -176q24 -21 24 -58q0 -31 -20 -51q-21 -27 -58 -27q-25 0 -49 17l-151 129l-152 -125q-25 -19 -49 -19z" />
    <glyph glyph-name="udieresis" unicode="&#xfc;" horiz-adv-x="1101" 
d="M762 291v547q0 40 28 68t70 28q43 0 72 -28t29 -68v-756q0 -40 -29.5 -69t-71.5 -29q-43 0 -70.5 27.5t-27.5 70.5v41q-49 -61 -130 -102t-181 -41q-152 0 -242 96.5t-90 288.5v473q0 40 29 68t71 28q41 0 70.5 -28t29.5 -68v-428q0 -246 205 -246q68 0 131 34.5
t107 92.5zM344 1118q-48 0 -81.5 32t-33.5 87q0 51 34 83t81 32q42 0 74.5 -32.5t32.5 -82.5q0 -54 -32 -86.5t-75 -32.5zM756 1118q-48 0 -81.5 32t-33.5 87q0 51 34 83t81 32q43 0 74.5 -32t31.5 -83q0 -55 -31 -87t-75 -32z" />
    <glyph glyph-name="yacute" unicode="&#xfd;" horiz-adv-x="987" 
d="M475 377q15 -34 51 -135q16 71 39 137l168 479q23 76 98 76q51 0 79 -27t28 -69q0 -25 -10 -52l-314 -786q-66 -167 -122.5 -257t-108.5 -121.5t-125 -31.5t-122.5 28t-49.5 83q0 35 22 58.5t60 23.5q9 0 35.5 -5t42.5 -5q48 0 86 43t76 135l20 49l-367 778
q-12 24 -12 49q0 45 31 76t84 31q30 0 56 -19.5t38 -50.5zM393 1219l135 206q17 29 58 29q23 0 41 -12l39 -29q26 -17 26 -55q0 -29 -16 -45l-156 -185q-23 -26 -61 -26q-27 0 -45 12q-33 23 -33 66q0 21 12 39z" />
    <glyph glyph-name="thorn" unicode="&#xfe;" horiz-adv-x="1140" 
d="M340 33v-346q0 -40 -29.5 -68.5t-70.5 -28.5q-42 0 -71.5 28.5t-29.5 68.5v1650q0 40 29.5 68.5t71.5 28.5q41 0 70.5 -28.5t29.5 -68.5v-501q52 48 129.5 77t169.5 29q191 0 306.5 -130.5t115.5 -336.5q0 -214 -134 -354.5t-349 -140.5q-156 0 -238 53zM340 643v-416
q97 -63 219 -63q132 0 210.5 86t78.5 219q0 128 -72 207.5t-198 79.5q-68 0 -131 -31t-107 -82z" />
    <glyph glyph-name="ydieresis" unicode="&#xff;" horiz-adv-x="987" 
d="M475 377q15 -34 51 -135q16 71 39 137l168 479q23 76 98 76q51 0 79 -27t28 -69q0 -25 -10 -52l-314 -786q-66 -167 -122.5 -257t-108.5 -121.5t-125 -31.5t-122.5 28t-49.5 83q0 35 22 58.5t60 23.5q9 0 35.5 -5t42.5 -5q48 0 86 43t76 135l20 49l-367 778
q-12 24 -12 49q0 45 31 76t84 31q30 0 56 -19.5t38 -50.5zM299 1118q-48 0 -81.5 32t-33.5 87q0 51 34 83t81 32q42 0 74.5 -32.5t32.5 -82.5q0 -54 -32 -86.5t-75 -32.5zM711 1118q-48 0 -81.5 32t-33.5 87q0 51 34 83t81 32q43 0 74.5 -32t31.5 -83q0 -55 -31 -87t-75 -32
z" />
    <glyph glyph-name="Amacron" unicode="&#x100;" horiz-adv-x="1406" 
d="M1016 393h-635l-141 -344q-25 -65 -93 -65q-44 0 -72 29t-28 69q0 21 10 41l529 1235q40 86 121 86q44 0 73 -24.5t43 -61.5l529 -1231q8 -24 8 -41q0 -41 -28.5 -71.5t-71.5 -30.5q-38 0 -65 19t-38 50zM700 1155l-235 -563h469zM938 1729q32 0 55 -24t23 -58t-23 -57
t-55 -23h-469q-33 0 -56.5 23.5t-23.5 56.5q0 34 24 58t56 24h469z" />
    <glyph glyph-name="amacron" unicode="&#x101;" horiz-adv-x="946" 
d="M362 -12q-128 0 -206 75t-78 207q0 143 94.5 219t245.5 76q61 0 122 -15t99 -42v29q0 117 -42.5 175t-150.5 58q-54 0 -120 -17.5t-80 -17.5q-39 0 -60.5 23t-21.5 55q0 25 15.5 46.5t41.5 31.5q114 51 244 51q194 0 278 -95t84 -284v-489q0 -35 -26 -60.5t-66 -25.5
q-38 0 -63 24.5t-25 61.5v35q-43 -54 -115.5 -87.5t-169.5 -33.5zM639 262v105q-74 53 -184 53q-73 0 -122.5 -34t-49.5 -99q0 -58 39.5 -92.5t107.5 -34.5q128 0 209 102zM676 1319q34 0 58 -24t24 -58t-24 -57t-58 -23h-395q-33 0 -56.5 23.5t-23.5 56.5q0 34 24 58t56 24
h395z" />
    <glyph glyph-name="Abreve" unicode="&#x102;" horiz-adv-x="1406" 
d="M1016 393h-635l-141 -344q-25 -65 -93 -65q-44 0 -72 29t-28 69q0 21 10 41l529 1235q40 86 121 86q44 0 73 -24.5t43 -61.5l529 -1231q8 -24 8 -41q0 -41 -28.5 -71.5t-71.5 -30.5q-38 0 -65 19t-38 50zM700 1155l-235 -563h469zM1077 1733q0 -30 -14 -41
q-66 -76 -159 -125t-191 -49q-109 0 -200.5 47.5t-156.5 122.5q-16 19 -16 41q0 28 25 53q18 18 45 18q32 0 57 -22q102 -86 246 -86q137 0 241 86q22 22 54 22q28 0 49 -18q20 -17 20 -49z" />
    <glyph glyph-name="abreve" unicode="&#x103;" horiz-adv-x="946" 
d="M362 -12q-128 0 -206 75t-78 207q0 143 94.5 219t245.5 76q61 0 122 -15t99 -42v29q0 117 -42.5 175t-150.5 58q-54 0 -120 -17.5t-80 -17.5q-39 0 -60.5 23t-21.5 55q0 25 15.5 46.5t41.5 31.5q114 51 244 51q194 0 278 -95t84 -284v-489q0 -35 -26 -60.5t-66 -25.5
q-38 0 -63 24.5t-25 61.5v35q-43 -54 -115.5 -87.5t-169.5 -33.5zM639 262v105q-74 53 -184 53q-73 0 -122.5 -34t-49.5 -99q0 -58 39.5 -92.5t107.5 -34.5q128 0 209 102zM776 1311q0 -19 -14 -37q-125 -160 -299 -160q-167 0 -287 156q-12 18 -12 41q0 30 22 49
q28 16 43 16q30 0 54 -24q78 -78 188 -78q106 0 193 76q25 22 51 22q22 0 41 -16q20 -14 20 -45z" />
    <glyph glyph-name="Aogonek" unicode="&#x104;" horiz-adv-x="1406" 
d="M1016 393h-635l-141 -344q-25 -65 -93 -65q-44 0 -72 29t-28 69q0 21 10 41l529 1235q40 86 121 86q44 0 73 -24.5t43 -61.5l529 -1231q8 -24 8 -41q0 -41 -28.5 -71.5t-71.5 -30.5q-30 0 -48 12q-66 -12 -110.5 -56.5t-44.5 -93.5q0 -50 32 -73t74 -23q10 0 31 4t31 4
q33 0 52 -20.5t19 -52.5q0 -23 -13.5 -42t-37.5 -28q-58 -25 -127 -25q-51 0 -96 10.5t-83 32t-60.5 59.5t-22.5 89q0 100 91 166t220 82q-6 10 -10 24zM700 1155l-235 -563h469z" />
    <glyph glyph-name="aogonek" unicode="&#x105;" horiz-adv-x="946" 
d="M78 270q0 143 94.5 219t245.5 76q61 0 122 -15t99 -42v29q0 116 -42.5 174.5t-150.5 58.5q-58 0 -121.5 -17.5t-78.5 -17.5q-35 0 -58.5 23.5t-23.5 54.5q0 56 57 78q114 51 244 51q194 0 278 -95t84 -284v-489q0 -35 -26 -60.5t-66 -25.5q-18 0 -33 6
q-47 -13 -79.5 -53.5t-32.5 -83.5q0 -55 33 -81t75 -26q8 0 28 4t26 4q37 0 57 -19t20 -52q0 -53 -51 -72q-58 -25 -127 -25q-70 0 -125.5 16.5t-95 60.5t-39.5 112q0 88 78.5 155.5t189.5 92.5q-12 18 -12 47v35q-43 -54 -115.5 -87.5t-169.5 -33.5q-128 0 -206 75t-78 207
zM639 262v105q-74 53 -184 53q-73 0 -122.5 -34t-49.5 -99q0 -58 39.5 -92.5t107.5 -34.5q128 0 209 102z" />
    <glyph glyph-name="Cacute" unicode="&#x106;" horiz-adv-x="1323" 
d="M1077 1200q-116 55 -254 55q-220 0 -359.5 -148t-139.5 -390q0 -240 146 -389.5t380 -149.5q140 0 264 68q27 16 66 16q42 0 68 -26t26 -62q0 -54 -49 -88q-156 -106 -394 -106q-215 0 -381.5 90.5t-259 258.5t-92.5 388q0 155 49 289t139 234t228 157t307 57
q203 0 350 -84q62 -35 62 -88q0 -41 -25 -68.5t-69 -27.5q-37 0 -62 14zM684 1651l303 159q18 9 29 9q35 0 57 -37l21 -51q4 -8 4 -27q0 -41 -39 -57l-314 -123q-8 -4 -24 -4q-46 0 -66 41q-8 16 -8 30q0 18 11 35t26 25z" />
    <glyph glyph-name="cacute" unicode="&#x107;" horiz-adv-x="974" 
d="M745 721q-77 35 -167 35q-115 0 -200 -83t-85 -212q0 -133 87 -215t212 -82q100 0 174 51q42 27 74 27q37 0 61.5 -25t24.5 -63q0 -47 -37 -74q-122 -100 -309 -100q-225 0 -362.5 131.5t-137.5 349.5q0 203 134 342t339 139q171 0 278 -59q26 -14 42 -36.5t16 -47.5
q0 -37 -24 -65.5t-62 -28.5q-26 0 -58 16zM461 1219l135 206q17 29 57 29q23 0 41 -12l39 -29q27 -18 27 -55q0 -28 -17 -45l-155 -185q-23 -26 -62 -26q-27 0 -45 12q-32 22 -32 66q0 21 12 39z" />
    <glyph glyph-name="Ccircumflex" unicode="&#x108;" horiz-adv-x="1323" 
d="M1077 1200q-116 55 -254 55q-220 0 -359.5 -148t-139.5 -390q0 -240 146 -389.5t380 -149.5q140 0 264 68q27 16 66 16q42 0 68 -26t26 -62q0 -54 -49 -88q-156 -106 -394 -106q-215 0 -381.5 90.5t-259 258.5t-92.5 388q0 155 49 289t139 234t228 157t307 57
q203 0 350 -84q62 -35 62 -88q0 -41 -25 -68.5t-69 -27.5q-37 0 -62 14zM793 1649l-224 -121q-13 -10 -37 -10q-37 0 -61 30q-10 15 -10 39q0 40 33 60l239 145q30 18 62 18q31 0 57 -16l246 -147q14 -9 23 -25.5t9 -32.5q0 -24 -12 -39q-18 -34 -61 -34q-17 0 -37 10z" />
    <glyph glyph-name="ccircumflex" unicode="&#x109;" horiz-adv-x="974" 
d="M745 721q-77 35 -167 35q-115 0 -200 -83t-85 -212q0 -133 87 -215t212 -82q100 0 174 51q42 27 74 27q37 0 61.5 -25t24.5 -63q0 -47 -37 -74q-122 -100 -309 -100q-225 0 -362.5 131.5t-137.5 349.5q0 203 134 342t339 139q171 0 278 -59q26 -14 42 -36.5t16 -47.5
q0 -37 -24 -65.5t-62 -28.5q-26 0 -58 16zM365 1087q-34 0 -58 27q-16 19 -16 49q0 37 24 58l197 176q20 20 57 20q35 0 58 -20l192 -176q25 -22 25 -58q0 -30 -21 -51q-21 -27 -57 -27q-25 0 -49 17l-152 129l-151 -125q-25 -19 -49 -19z" />
    <glyph glyph-name="Cdotaccent" unicode="&#x10a;" horiz-adv-x="1323" 
d="M1077 1200q-116 55 -254 55q-220 0 -359.5 -148t-139.5 -390q0 -240 146 -389.5t380 -149.5q140 0 264 68q27 16 66 16q42 0 68 -26t26 -62q0 -54 -49 -88q-156 -106 -394 -106q-215 0 -381.5 90.5t-259 258.5t-92.5 388q0 155 49 289t139 234t228 157t307 57
q203 0 350 -84q62 -35 62 -88q0 -41 -25 -68.5t-69 -27.5q-37 0 -62 14zM782 1812q54 0 92.5 -34t38.5 -90q0 -62 -38.5 -97t-92.5 -35q-59 0 -99 35t-40 97q0 56 40.5 90t98.5 34z" />
    <glyph glyph-name="cdotaccent" unicode="&#x10b;" horiz-adv-x="974" 
d="M745 721q-77 35 -167 35q-115 0 -200 -83t-85 -212q0 -133 87 -215t212 -82q100 0 174 51q42 27 74 27q37 0 61.5 -25t24.5 -63q0 -47 -37 -74q-122 -100 -309 -100q-225 0 -362.5 131.5t-137.5 349.5q0 203 134 342t339 139q171 0 278 -59q26 -14 42 -36.5t16 -47.5
q0 -37 -24 -65.5t-62 -28.5q-26 0 -58 16zM565 1378q47 0 83 -33t36 -83q0 -58 -35.5 -92.5t-83.5 -34.5q-55 0 -91 34t-36 93q0 51 36.5 83.5t90.5 32.5z" />
    <glyph glyph-name="Ccaron" unicode="&#x10c;" horiz-adv-x="1323" 
d="M1077 1200q-116 55 -254 55q-220 0 -359.5 -148t-139.5 -390q0 -240 146 -389.5t380 -149.5q140 0 264 68q27 16 66 16q42 0 68 -26t26 -62q0 -54 -49 -88q-156 -106 -394 -106q-215 0 -381.5 90.5t-259 258.5t-92.5 388q0 155 49 289t139 234t228 157t307 57
q203 0 350 -84q62 -35 62 -88q0 -41 -25 -68.5t-69 -27.5q-37 0 -62 14zM1065 1819q38 0 57 -31q11 -14 11 -35q0 -41 -33 -61l-240 -148q-27 -16 -61 -16q-38 0 -62 16l-243 148q-31 19 -31 57q0 26 8 39q23 33 61 33q20 0 37 -11l232 -133l225 133q15 9 39 9z" />
    <glyph glyph-name="ccaron" unicode="&#x10d;" horiz-adv-x="974" 
d="M745 721q-77 35 -167 35q-115 0 -200 -83t-85 -212q0 -133 87 -215t212 -82q100 0 174 51q42 27 74 27q37 0 61.5 -25t24.5 -63q0 -47 -37 -74q-122 -100 -309 -100q-225 0 -362.5 131.5t-137.5 349.5q0 203 134 342t339 139q171 0 278 -59q26 -14 42 -36.5t16 -47.5
q0 -37 -24 -65.5t-62 -28.5q-26 0 -58 16zM770 1421q29 0 49 -20q21 -21 21 -49q0 -33 -25 -58l-201 -180q-22 -22 -57 -22q-40 0 -59 22l-199 180q-25 25 -25 58q0 29 23 49q21 24 55 24q27 0 54 -20l153 -150l156 146q23 20 55 20z" />
    <glyph glyph-name="Dcaron" unicode="&#x10e;" horiz-adv-x="1515" 
d="M311 1434q153 6 303 6q167 0 303 -37.5t228 -102.5t154 -155.5t90 -193t28 -218.5q0 -123 -32.5 -232.5t-99.5 -202t-163 -160t-230 -105t-294 -37.5q-61 0 -287 4q-43 0 -73.5 31t-30.5 75v1221q0 44 30.5 75.5t73.5 31.5zM420 1233v-1032q82 -4 184 -4q279 0 433.5 146
t154.5 390q0 230 -152.5 369t-429.5 139q-64 0 -190 -8zM954 1819q39 0 58 -31q10 -12 10 -35q0 -41 -33 -61l-239 -148q-27 -16 -62 -16q-37 0 -61 16l-244 148q-31 19 -31 57q0 26 8 39q23 33 62 33q20 0 37 -11l231 -133l225 133q15 9 39 9z" />
    <glyph glyph-name="dcaron" unicode="&#x10f;" horiz-adv-x="1136" 
d="M997 1337v-1247q0 -43 -26 -74.5t-74 -31.5q-42 0 -70 25.5t-28 66.5v30q-115 -122 -279 -122q-201 0 -320.5 128t-119.5 341q0 216 142 352.5t364 136.5q131 0 213 -53v448q0 40 28 68.5t70 28.5t71 -28.5t29 -68.5zM799 279v413q-104 64 -205 64q-126 0 -213.5 -81
t-87.5 -216q0 -134 75 -211.5t191 -77.5q67 0 130 31t110 78zM1114 1106q0 19 17.5 49t35 73.5t17.5 94.5q0 8 -3 33.5t-3 34.5q0 43 51 43h78q63 0 63 -74q0 -127 -64 -223.5t-126 -96.5q-29 0 -48 18t-18 48z" />
    <glyph glyph-name="Dcroat" unicode="&#x110;" horiz-adv-x="1540" 
d="M621 -4q-63 0 -293 4q-40 0 -69.5 29t-29.5 69v529h-114q-38 0 -66.5 28.5t-28.5 65.5q0 38 28.5 66t66.5 28h114v520q0 40 29.5 69.5t69.5 29.5q37 1 103 2.5t117.5 2.5t88.5 1q167 0 303 -37.5t228.5 -102.5t155 -155.5t90.5 -193t28 -218.5q0 -123 -32.5 -232.5
t-99.5 -202t-163 -160t-231 -105t-295 -37.5zM442 627v-426q82 -4 185 -4q279 0 434.5 146t155.5 390q0 230 -153 369t-431 139q-59 0 -191 -8v-418h283q37 0 63.5 -28t26.5 -66q0 -37 -27 -65.5t-63 -28.5h-283z" />
    <glyph glyph-name="dcroat" unicode="&#x111;" horiz-adv-x="1142" 
d="M799 279v413q-104 64 -205 64q-126 0 -213.5 -81t-87.5 -216q0 -134 75 -211.5t191 -77.5q67 0 130 31t110 78zM799 1079h-211q-37 0 -59.5 24t-22.5 58t24 57t58 23h211v96q0 40 28 68.5t70 28.5t71 -28.5t29 -68.5v-96h93q37 0 59 -24t22 -56q0 -35 -22.5 -58.5
t-58.5 -23.5h-93v-989q0 -43 -26 -74.5t-74 -31.5q-44 0 -71 26t-27 68v31q-115 -125 -279 -125q-201 0 -320.5 128t-119.5 341q0 216 142 352.5t364 136.5q131 0 213 -53v190z" />
    <glyph glyph-name="Emacron" unicode="&#x112;" horiz-adv-x="1177" 
d="M420 201h530q40 0 68.5 -30t28.5 -71t-28.5 -70.5t-68.5 -29.5h-643q-41 0 -70.5 29.5t-29.5 70.5v1233q0 41 29.5 71t70.5 30h623q39 0 67.5 -29.5t28.5 -69.5q0 -43 -28 -72.5t-68 -29.5h-510v-410h448q40 0 68.5 -28.5t28.5 -69.5q0 -42 -28.5 -71t-68.5 -29h-448
v-424zM852 1729q32 0 55 -24t23 -58t-23 -57t-55 -23h-469q-33 0 -56.5 23.5t-23.5 56.5q0 34 24 58t56 24h469z" />
    <glyph glyph-name="emacron" unicode="&#x113;" horiz-adv-x="1073" 
d="M791 545q-3 100 -66.5 161.5t-171.5 61.5q-113 0 -181.5 -60.5t-86.5 -162.5h506zM295 399q12 -116 93 -180.5t206 -64.5q117 0 197 45q28 14 49 14q33 0 55.5 -21t22.5 -55q0 -46 -35 -67q-131 -90 -310 -90q-223 0 -358 131.5t-135 349.5q0 207 130 344t351 137
q183 0 307.5 -118t124.5 -306q0 -119 -92 -119h-606zM737 1319q34 0 58 -24t24 -58t-24 -57t-58 -23h-395q-33 0 -56.5 23.5t-23.5 56.5q0 34 24 58t56 24h395z" />
    <glyph glyph-name="Edotaccent" unicode="&#x116;" horiz-adv-x="1177" 
d="M420 201h530q40 0 68.5 -30t28.5 -71t-28.5 -70.5t-68.5 -29.5h-643q-41 0 -70.5 29.5t-29.5 70.5v1233q0 41 29.5 71t70.5 30h623q39 0 67.5 -29.5t28.5 -69.5q0 -43 -28 -72.5t-68 -29.5h-510v-410h448q40 0 68.5 -28.5t28.5 -69.5q0 -42 -28.5 -71t-68.5 -29h-448
v-424zM627 1812q54 0 92.5 -34t38.5 -90q0 -62 -38.5 -97t-92.5 -35q-59 0 -99.5 35t-40.5 97q0 56 41 90t99 34z" />
    <glyph glyph-name="edotaccent" unicode="&#x117;" horiz-adv-x="1073" 
d="M791 545q-3 100 -66.5 161.5t-171.5 61.5q-113 0 -181.5 -60.5t-86.5 -162.5h506zM295 399q12 -116 93 -180.5t206 -64.5q117 0 197 45q28 14 49 14q33 0 55.5 -21t22.5 -55q0 -46 -35 -67q-131 -90 -310 -90q-223 0 -358 131.5t-135 349.5q0 207 130 344t351 137
q183 0 307.5 -118t124.5 -306q0 -119 -92 -119h-606zM549 1378q47 0 83 -33t36 -83q0 -58 -35.5 -92.5t-83.5 -34.5q-55 0 -91 34t-36 93q0 51 36.5 83.5t90.5 32.5z" />
    <glyph glyph-name="Eogonek" unicode="&#x118;" horiz-adv-x="1177" 
d="M924 0q-79 -1 -137 -49.5t-58 -104.5q0 -50 32.5 -73t74.5 -23q9 0 29 4t28 4q36 0 57 -20t21 -53q0 -23 -13.5 -42t-37.5 -28q-58 -25 -129 -25q-69 0 -125.5 17.5t-97 62t-40.5 111.5q0 74 52 130t139 89h-412q-41 0 -70.5 29.5t-29.5 70.5v1233q0 41 29.5 71t70.5 30
h623q39 0 67.5 -29.5t28.5 -69.5q0 -43 -28 -72.5t-68 -29.5h-510v-410h448q40 0 68.5 -28.5t28.5 -69.5q0 -42 -28.5 -71t-68.5 -29h-448v-424h530q40 0 68.5 -30t28.5 -71t-28 -69.5t-65 -30.5h-30z" />
    <glyph glyph-name="eogonek" unicode="&#x119;" horiz-adv-x="1073" 
d="M295 399q12 -116 93 -180.5t206 -64.5q117 0 197 45q28 14 49 14q32 0 55 -22t23 -56q0 -47 -35 -65q-131 -87 -295 -90q-47 -22 -76 -59t-29 -75q0 -51 32.5 -73.5t74.5 -22.5q10 0 32.5 4t32.5 4q33 -2 51.5 -21t18.5 -52q0 -52 -49 -70q-58 -25 -129 -25
q-51 0 -96 10.5t-83 32t-60.5 59.5t-22.5 89q0 69 45 123t121 88q-170 34 -270.5 159.5t-100.5 309.5q0 207 130 344t351 137q183 0 307.5 -118t124.5 -306q0 -57 -23.5 -88t-64.5 -31h-610zM791 545q-3 101 -67 162t-171 61q-113 0 -181.5 -60.5t-86.5 -162.5h506z" />
    <glyph glyph-name="Ecaron" unicode="&#x11a;" horiz-adv-x="1177" 
d="M420 201h530q40 0 68.5 -30t28.5 -71t-28.5 -70.5t-68.5 -29.5h-643q-41 0 -70.5 29.5t-29.5 70.5v1233q0 41 29.5 71t70.5 30h623q39 0 67.5 -29.5t28.5 -69.5q0 -43 -28 -72.5t-68 -29.5h-510v-410h448q40 0 68.5 -28.5t28.5 -69.5q0 -42 -28.5 -71t-68.5 -29h-448
v-424zM901 1819q38 0 57 -31q11 -14 11 -35q0 -41 -33 -61l-240 -148q-27 -16 -61 -16q-38 0 -62 16l-243 148q-31 19 -31 57q0 26 8 39q23 33 62 33q20 0 37 -11l231 -133l225 133q15 9 39 9z" />
    <glyph glyph-name="ecaron" unicode="&#x11b;" horiz-adv-x="1073" 
d="M791 545q-3 100 -66.5 161.5t-171.5 61.5q-113 0 -181.5 -60.5t-86.5 -162.5h506zM295 399q12 -116 93 -180.5t206 -64.5q117 0 197 45q28 14 49 14q33 0 55.5 -21t22.5 -55q0 -46 -35 -67q-131 -90 -310 -90q-223 0 -358 131.5t-135 349.5q0 207 130 344t351 137
q183 0 307.5 -118t124.5 -306q0 -119 -92 -119h-606zM772 1421q29 0 49 -20q21 -21 21 -49q0 -33 -25 -58l-201 -180q-22 -22 -57 -22q-40 0 -59 22l-199 180q-25 25 -25 58q0 29 23 49q21 24 55 24q27 0 54 -20l153 -150l156 146q23 20 55 20z" />
    <glyph glyph-name="Gcircumflex" unicode="&#x11c;" horiz-adv-x="1488" 
d="M98 717q0 154 50.5 289t142.5 234.5t229.5 156.5t302.5 57q206 0 357 -86q61 -30 61 -88q0 -40 -25.5 -68t-70.5 -28q-36 0 -64 14q-117 57 -250 57q-226 0 -366.5 -146t-140.5 -392q0 -245 141.5 -392t374.5 -147q90 0 185 33t146 80v260h-270q-40 0 -68 29t-28 71
q0 41 28 70t68 29h369q42 0 72 -29.5t30 -69.5v-399q0 -81 -69 -129q-95 -67 -224 -105t-243 -38q-342 0 -540 200t-198 537zM793 1649l-224 -121q-13 -10 -37 -10q-37 0 -61 30q-10 15 -10 39q0 40 33 60l239 145q30 18 62 18q31 0 57 -16l246 -147q14 -9 23 -25.5t9 -32.5
q0 -24 -12 -39q-18 -34 -61 -34q-17 0 -37 10z" />
    <glyph glyph-name="gcircumflex" unicode="&#x11d;" horiz-adv-x="1032" 
d="M475 264h-18q-8 -19 -8 -41q0 -27 16 -53h18q220 0 350 -77t130 -222q0 -98 -63.5 -166.5t-168 -99.5t-242.5 -31q-213 0 -343 74.5t-130 222.5q0 110 79 182t216 101q-18 27 -18 67q0 47 22 74q-100 39 -156.5 122t-56.5 185q0 143 106 241.5t279 98.5q137 0 234 -65
l180 43q4 1 17 3.5t20 2.5q41 0 59.5 -24t18.5 -54q0 -63 -62 -78l-114 -29q32 -69 32 -139q0 -141 -107.5 -239.5t-289.5 -98.5zM201 -129q0 -65 77.5 -101t210.5 -36q132 0 209.5 36t77.5 101q0 64 -76 100.5t-211 36.5q-136 0 -212 -37t-76 -100zM291 602
q0 -78 53.5 -127t142.5 -49q87 0 142 48.5t55 127.5q0 76 -53.5 128t-143.5 52q-88 0 -142 -52t-54 -128zM295 1087q-33 0 -57 27q-17 20 -17 49q0 36 25 58l196 176q20 20 58 20q34 0 57 -20l193 -176q24 -21 24 -58q0 -31 -20 -51q-21 -27 -58 -27q-25 0 -49 17l-151 129
l-152 -125q-25 -19 -49 -19z" />
    <glyph glyph-name="Gbreve" unicode="&#x11e;" horiz-adv-x="1488" 
d="M98 717q0 154 50.5 289t142.5 234.5t229.5 156.5t302.5 57q206 0 357 -86q61 -30 61 -88q0 -40 -25.5 -68t-70.5 -28q-36 0 -64 14q-117 57 -250 57q-226 0 -366.5 -146t-140.5 -392q0 -245 141.5 -392t374.5 -147q90 0 185 33t146 80v260h-270q-40 0 -68 29t-28 71
q0 41 28 70t68 29h369q42 0 72 -29.5t30 -69.5v-399q0 -81 -69 -129q-95 -67 -224 -105t-243 -38q-342 0 -540 200t-198 537zM1196 1733q0 -30 -14 -41q-66 -75 -159.5 -124.5t-191.5 -49.5q-109 0 -200 47.5t-156 122.5q-16 19 -16 41q0 29 24 53q18 18 45 18q33 0 58 -22
q102 -86 245 -86q138 0 242 86q22 22 53 22q29 0 50 -18q20 -17 20 -49z" />
    <glyph glyph-name="gbreve" unicode="&#x11f;" horiz-adv-x="1032" 
d="M475 264h-18q-8 -19 -8 -41q0 -27 16 -53h18q220 0 350 -77t130 -222q0 -98 -63.5 -166.5t-168 -99.5t-242.5 -31q-213 0 -343 74.5t-130 222.5q0 110 79 182t216 101q-18 27 -18 67q0 47 22 74q-100 39 -156.5 122t-56.5 185q0 143 106 241.5t279 98.5q137 0 234 -65
l180 43q4 1 17 3.5t20 2.5q41 0 59.5 -24t18.5 -54q0 -63 -62 -78l-114 -29q32 -69 32 -139q0 -141 -107.5 -239.5t-289.5 -98.5zM201 -129q0 -65 77.5 -101t210.5 -36q132 0 209.5 36t77.5 101q0 64 -76 100.5t-211 36.5q-136 0 -212 -37t-76 -100zM291 602
q0 -78 53.5 -127t142.5 -49q87 0 142 48.5t55 127.5q0 76 -53.5 128t-143.5 52q-88 0 -142 -52t-54 -128zM803 1311q0 -18 -15 -37q-125 -160 -299 -160q-166 0 -286 156q-13 19 -13 41q0 29 23 49q28 16 43 16q29 0 53 -24q78 -78 189 -78q105 0 192 76q25 22 51 22
q22 0 41 -16q21 -15 21 -45z" />
    <glyph glyph-name="Gdotaccent" unicode="&#x120;" horiz-adv-x="1488" 
d="M98 717q0 154 50.5 289t142.5 234.5t229.5 156.5t302.5 57q206 0 357 -86q61 -30 61 -88q0 -40 -25.5 -68t-70.5 -28q-36 0 -64 14q-117 57 -250 57q-226 0 -366.5 -146t-140.5 -392q0 -245 141.5 -392t374.5 -147q90 0 185 33t146 80v260h-270q-40 0 -68 29t-28 71
q0 41 28 70t68 29h369q42 0 72 -29.5t30 -69.5v-399q0 -81 -69 -129q-95 -67 -224 -105t-243 -38q-342 0 -540 200t-198 537zM778 1812q54 0 92.5 -34t38.5 -90q0 -62 -38.5 -97t-92.5 -35q-59 0 -99 35t-40 97q0 56 40.5 90t98.5 34z" />
    <glyph glyph-name="gdotaccent" unicode="&#x121;" horiz-adv-x="1032" 
d="M475 264h-18q-8 -19 -8 -41q0 -27 16 -53h18q220 0 350 -77t130 -222q0 -98 -63.5 -166.5t-168 -99.5t-242.5 -31q-213 0 -343 74.5t-130 222.5q0 110 79 182t216 101q-18 27 -18 67q0 47 22 74q-100 39 -156.5 122t-56.5 185q0 143 106 241.5t279 98.5q137 0 234 -65
l180 43q4 1 17 3.5t20 2.5q41 0 59.5 -24t18.5 -54q0 -63 -62 -78l-114 -29q32 -69 32 -139q0 -141 -107.5 -239.5t-289.5 -98.5zM201 -129q0 -65 77.5 -101t210.5 -36q132 0 209.5 36t77.5 101q0 64 -76 100.5t-211 36.5q-136 0 -212 -37t-76 -100zM291 602
q0 -78 53.5 -127t142.5 -49q87 0 142 48.5t55 127.5q0 76 -53.5 128t-143.5 52q-88 0 -142 -52t-54 -128zM494 1378q46 0 82 -33t36 -83q0 -58 -35.5 -92.5t-82.5 -34.5q-55 0 -91 34t-36 93q0 51 36.5 83.5t90.5 32.5z" />
    <glyph glyph-name="uni0122" unicode="&#x122;" horiz-adv-x="1488" 
d="M98 717q0 154 50.5 289t142.5 234.5t229.5 156.5t302.5 57q206 0 357 -86q61 -30 61 -88q0 -40 -25.5 -68t-70.5 -28q-36 0 -64 14q-117 57 -250 57q-226 0 -366.5 -146t-140.5 -392q0 -245 141.5 -392t374.5 -147q90 0 185 33t146 80v260h-270q-40 0 -68 29t-28 71
q0 41 28 70t68 29h369q42 0 72 -29.5t30 -69.5v-399q0 -81 -69 -129q-95 -67 -224 -105t-243 -38q-342 0 -540 200t-198 537zM676 -356q0 26 26 49q46 38 46 100q0 15 -4.5 33.5t-4.5 23.5q0 37 41 48l88 18q6 2 15 2q34 0 49.5 -30.5t15.5 -67.5q0 -96 -73 -164t-140 -68
q-27 0 -43 17.5t-16 38.5z" />
    <glyph glyph-name="uni0123" unicode="&#x123;" horiz-adv-x="1032" 
d="M475 264h-18q-8 -19 -8 -41q0 -27 16 -53h18q220 0 350 -77t130 -222q0 -98 -63.5 -166.5t-168 -99.5t-242.5 -31q-213 0 -343 74.5t-130 222.5q0 110 79 182t216 101q-18 27 -18 67q0 47 22 74q-100 39 -156.5 122t-56.5 185q0 143 106 241.5t279 98.5q137 0 234 -65
l180 43q4 1 17 3.5t20 2.5q41 0 59.5 -24t18.5 -54q0 -63 -62 -78l-114 -29q32 -69 32 -139q0 -141 -107.5 -239.5t-289.5 -98.5zM201 -129q0 -65 77.5 -101t210.5 -36q132 0 209.5 36t77.5 101q0 64 -76 100.5t-211 36.5q-136 0 -212 -37t-76 -100zM291 602
q0 -78 53.5 -127t142.5 -49q87 0 142 48.5t55 127.5q0 76 -53.5 128t-143.5 52q-88 0 -142 -52t-54 -128zM633 1374q0 -25 -27 -49q-45 -37 -45 -100q0 -15 4 -34t4 -24q0 -36 -41 -47l-88 -18q-6 -2 -14 -2q-34 0 -50 30.5t-16 67.5q0 96 73 164t140 68q27 0 43.5 -17.5
t16.5 -38.5z" />
    <glyph glyph-name="Hcircumflex" unicode="&#x124;" horiz-adv-x="1560" 
d="M1354 1339v-1249q0 -43 -31 -74.5t-74 -31.5q-45 0 -75.5 31.5t-30.5 74.5v541h-723v-541q0 -43 -31 -74.5t-74 -31.5q-45 0 -76.5 31.5t-31.5 74.5v1249q0 43 31.5 74t76.5 31q43 0 74 -31t31 -74v-508h723v508q0 43 30.5 74t75.5 31q43 0 74 -31t31 -74zM780 1649
l-223 -121q-13 -10 -37 -10q-37 0 -61 30q-10 15 -10 39q0 41 32 60l240 145q30 18 61 18q32 0 58 -16l245 -147q15 -9 24 -25.5t9 -32.5q0 -24 -12 -39q-18 -34 -62 -34q-16 0 -36 10z" />
    <glyph glyph-name="hcircumflex" unicode="&#x125;" horiz-adv-x="1130" 
d="M340 651v-569q0 -40 -29.5 -69t-70.5 -29q-42 0 -71.5 29t-29.5 69v1255q0 40 29.5 68.5t71.5 28.5q41 0 70.5 -28.5t29.5 -68.5v-510q48 48 124.5 79.5t158.5 31.5q181 0 281 -99t100 -307v-450q0 -40 -30 -69t-71 -29q-42 0 -71 29t-29 69v422q0 121 -59.5 183.5
t-172.5 62.5q-65 0 -127.5 -27.5t-103.5 -71.5zM315 1649l-223 -121q-13 -10 -37 -10q-37 0 -61 30q-10 15 -10 39q0 41 32 60l240 145q30 18 61 18q32 0 58 -16l246 -147q14 -9 23 -25.5t9 -32.5q0 -24 -12 -39q-18 -34 -61 -34q-17 0 -37 10z" />
    <glyph glyph-name="Hbar" unicode="&#x126;" horiz-adv-x="1581" 
d="M1151 831v213h-721v-213h721zM1151 90v541h-721v-541q0 -43 -31 -74.5t-75 -31.5t-75.5 31.5t-31.5 74.5v954h-78q-37 0 -63.5 27.5t-26.5 67.5q0 37 26.5 64.5t63.5 27.5h78v108q0 43 31.5 74t75.5 31t75 -31t31 -74v-108h721v108q0 43 31.5 74t74.5 31q44 0 75.5 -31
t31.5 -74v-108h78q37 0 63.5 -27.5t26.5 -64.5q0 -40 -26.5 -67.5t-63.5 -27.5h-78v-954q0 -43 -31.5 -74.5t-75.5 -31.5q-43 0 -74.5 31.5t-31.5 74.5z" />
    <glyph glyph-name="hbar" unicode="&#x127;" horiz-adv-x="1183" 
d="M401 82q0 -40 -28 -69t-70 -29t-71 29t-29 69v967h-133q-39 0 -67 28.5t-28 65.5t28 65.5t67 28.5h133v100q0 40 29 68.5t71 28.5t70 -28.5t28 -68.5v-100h222q39 0 68.5 -28.5t29.5 -65.5t-29.5 -65.5t-68.5 -28.5h-222v-222q53 49 128 80t155 31q182 0 281.5 -99
t99.5 -307v-450q0 -40 -28 -69t-70 -29t-71.5 29t-29.5 69v422q0 121 -59 183.5t-172 62.5q-65 0 -127.5 -27.5t-106.5 -71.5v-569z" />
    <glyph glyph-name="Imacron" unicode="&#x12a;" horiz-adv-x="698" 
d="M455 1339v-1249q0 -43 -30.5 -74.5t-74.5 -31.5t-76 31.5t-32 74.5v1249q0 43 32 74t76 31t74.5 -31t30.5 -74zM590 1729q32 0 55 -24t23 -58t-23 -57t-55 -23h-469q-33 0 -56.5 23.5t-23.5 56.5q0 34 24 58t56 24h469z" />
    <glyph glyph-name="imacron" unicode="&#x12b;" horiz-adv-x="557" 
d="M379 838v-756q0 -40 -29 -69t-71 -29t-70.5 29t-28.5 69v756q0 40 28.5 68t70.5 28t71 -28t29 -68zM475 1319q34 0 58 -24t24 -58t-24 -57t-58 -23h-395q-33 0 -56.5 23.5t-23.5 56.5q0 34 24 58t56 24h395z" />
    <glyph glyph-name="Iogonek" unicode="&#x12e;" horiz-adv-x="698" 
d="M455 1339v-1249q0 -43 -30.5 -74.5t-74.5 -31.5q-23 0 -43 10q-63 -15 -105 -58.5t-42 -89.5q0 -50 31.5 -73t72.5 -23q9 0 31.5 4t32.5 4q35 0 54 -20t19 -53q0 -52 -49 -70q-58 -25 -129 -25q-51 0 -96 10.5t-83 32t-60.5 59.5t-22.5 89q0 98 86 163t215 85
q-20 27 -20 61v1249q0 43 32 74t76 31t74.5 -31t30.5 -74z" />
    <glyph glyph-name="iogonek" unicode="&#x12f;" horiz-adv-x="557" 
d="M379 838v-756q0 -40 -29 -69t-71 -29q-28 0 -46 12q-62 -15 -104.5 -59t-42.5 -91q0 -51 32.5 -73.5t74.5 -22.5q12 0 35 4t30 4q35 0 52.5 -20t17.5 -53q0 -52 -49 -70q-58 -25 -129 -25q-69 0 -126 17.5t-97 62t-40 111.5q0 98 88 163t218 85q-13 23 -13 53v756
q0 40 28.5 68t70.5 28t71 -28t29 -68zM283 1378q48 0 83 -32.5t35 -83.5q0 -59 -34.5 -93t-83.5 -34q-54 0 -90.5 34t-36.5 93q0 51 37 83.5t90 32.5z" />
    <glyph glyph-name="Idotaccent" unicode="&#x130;" horiz-adv-x="698" 
d="M455 1339v-1249q0 -43 -30.5 -74.5t-74.5 -31.5t-76 31.5t-32 74.5v1249q0 43 32 74t76 31t74.5 -31t30.5 -74zM352 1812q54 0 92.5 -34t38.5 -90q0 -62 -38.5 -97t-92.5 -35q-59 0 -99 35t-40 97q0 56 40.5 90t98.5 34z" />
    <glyph glyph-name="dotlessi" unicode="&#x131;" horiz-adv-x="557" 
d="M379 838v-756q0 -40 -29 -69t-71 -29t-70.5 29t-28.5 69v756q0 40 28.5 68t70.5 28t71 -28t29 -68z" />
    <glyph glyph-name="Jcircumflex" unicode="&#x134;" horiz-adv-x="774" 
d="M352 369v970q0 43 32.5 74t76.5 31t74 -31t30 -74v-1007q0 -170 -81 -261t-246 -91q-93 0 -152 26q-29 11 -47.5 35t-18.5 55q0 42 26 69.5t69 27.5q11 0 44 -7.5t50 -7.5q143 0 143 191zM449 1649l-224 -121q-13 -10 -37 -10q-37 0 -61 30q-10 15 -10 39q0 40 33 60
l239 145q30 18 62 18q31 0 57 -16l246 -147q14 -9 23 -25.5t9 -32.5q0 -24 -12 -39q-18 -34 -61 -34q-17 0 -37 10z" />
    <glyph glyph-name="jcircumflex" unicode="&#x135;" horiz-adv-x="593" 
d="M219 -51v889q0 40 29 68t71 28t70.5 -28t28.5 -68v-906q0 -358 -287 -358q-94 0 -149 31q-48 25 -48 80q0 41 25.5 60t60.5 19q7 0 29.5 -3t32.5 -3q137 0 137 191zM119 1087q-34 0 -58 27q-16 19 -16 49q0 36 25 58l196 176q20 20 58 20q34 0 57 -20l192 -176
q25 -22 25 -58q0 -31 -20 -51q-21 -27 -58 -27q-25 0 -49 17l-152 129l-151 -125q-25 -19 -49 -19z" />
    <glyph glyph-name="uni0136" unicode="&#x136;" horiz-adv-x="1314" 
d="M420 90q0 -43 -31 -74.5t-74 -31.5q-45 0 -76.5 31.5t-31.5 74.5v1249q0 43 31.5 74t76.5 31q43 0 74 -31t31 -74v-1249zM1223 78q0 -40 -29.5 -67t-73.5 -27q-32 0 -54.5 15.5t-49.5 45.5l-520 627q-29 37 -29 73t31 76l493 568q49 55 99 55q42 0 68 -25t26 -63
q0 -42 -33 -78l-475 -516l512 -598q35 -41 35 -86zM522 -356q0 25 27 49q45 37 45 100q0 15 -4 33.5t-4 23.5q0 37 41 48l88 18q6 2 14 2q34 0 50 -30.5t16 -67.5q0 -96 -73 -164t-140 -68q-27 0 -43.5 17.5t-16.5 38.5z" />
    <glyph glyph-name="uni0137" unicode="&#x137;" horiz-adv-x="993" 
d="M719 37l-311 383q-23 30 -23 63q0 30 23 60l272 338q43 53 94 53q44 0 69 -26.5t25 -63.5q0 -36 -24 -66l-246 -282l291 -346q26 -37 26 -70q0 -40 -28 -68t-72 -28q-53 0 -96 53zM340 1337v-1255q0 -40 -29.5 -69t-70.5 -29q-42 0 -71.5 29t-29.5 69v1255
q0 40 29.5 68.5t71.5 28.5q41 0 70.5 -28.5t29.5 -68.5zM342 -356q0 25 27 49q45 37 45 100q0 15 -4 33.5t-4 23.5q0 37 40 48l89 18q6 2 14 2q34 0 49.5 -30.5t15.5 -67.5q0 -96 -73 -164t-140 -68q-27 0 -43 17.5t-16 38.5z" />
    <glyph glyph-name="Lacute" unicode="&#x139;" horiz-adv-x="1122" 
d="M420 201h573q41 0 72 -30.5t31 -70.5q0 -41 -30.5 -70.5t-72.5 -29.5h-682q-43 0 -73.5 31t-30.5 75v1233q0 43 31.5 74t76.5 31q43 0 74 -31t31 -74v-1138zM475 1651l303 159q18 9 29 9q35 0 57 -37l21 -51q4 -8 4 -27q0 -41 -39 -57l-313 -123q-8 -4 -25 -4
q-46 0 -66 41q-8 16 -8 30q0 18 11 35t26 25z" />
    <glyph glyph-name="lacute" unicode="&#x13a;" horiz-adv-x="602" 
d="M340 1337v-1001q0 -164 96 -164q14 0 35.5 2t28.5 2q37 0 61.5 -18.5t24.5 -59.5q0 -45 -30.5 -71t-73.5 -34.5t-105 -8.5q-238 0 -238 266v1087q0 40 29.5 68.5t71.5 28.5q41 0 70.5 -28.5t29.5 -68.5zM201 1651l303 159q18 9 28 9q36 0 58 -37l20 -51q4 -8 4 -27
q0 -41 -39 -57l-313 -123q-8 -4 -24 -4q-46 0 -66 41q-8 16 -8 30q0 18 11 35t26 25z" />
    <glyph glyph-name="uni013B" unicode="&#x13b;" horiz-adv-x="1122" 
d="M420 201h573q41 0 72 -30.5t31 -70.5q0 -41 -30.5 -70.5t-72.5 -29.5h-682q-43 0 -73.5 31t-30.5 75v1233q0 43 31.5 74t76.5 31q43 0 74 -31t31 -74v-1138zM485 -356q0 25 27 49q45 37 45 100q0 15 -4 33.5t-4 23.5q0 37 41 48l88 18q6 2 14 2q34 0 50 -30.5t16 -67.5
q0 -96 -73 -164t-140 -68q-27 0 -43.5 17.5t-16.5 38.5z" />
    <glyph glyph-name="uni013C" unicode="&#x13c;" horiz-adv-x="602" 
d="M340 1337v-1001q0 -164 96 -164q14 0 35.5 2t28.5 2q37 0 61.5 -18.5t24.5 -59.5q0 -45 -30.5 -71t-73.5 -34.5t-105 -8.5q-238 0 -238 266v1087q0 40 29.5 68.5t71.5 28.5q41 0 70.5 -28.5t29.5 -68.5zM203 -356q0 26 26 49q45 37 45 100q0 15 -4 33.5t-4 23.5
q0 37 41 48l88 18q6 2 15 2q34 0 49.5 -30.5t15.5 -67.5q0 -96 -73 -164t-140 -68q-27 0 -43 17.5t-16 38.5z" />
    <glyph glyph-name="Lcaron" unicode="&#x13d;" horiz-adv-x="1122" 
d="M420 201h573q41 0 72 -30.5t31 -70.5q0 -41 -30.5 -70.5t-72.5 -29.5h-682q-43 0 -73.5 31t-30.5 75v1233q0 43 31.5 74t76.5 31q43 0 74 -31t31 -74v-1138zM682 1106q0 19 17.5 49t35 73.5t17.5 94.5q0 8 -3.5 33.5t-3.5 34.5q0 43 52 43h77q64 0 64 -74
q0 -127 -64 -223.5t-126 -96.5q-29 0 -48 18t-18 48z" />
    <glyph glyph-name="lcaron" unicode="&#x13e;" horiz-adv-x="602" 
d="M340 1337v-1001q0 -164 96 -164q14 0 35.5 2t28.5 2q37 0 61.5 -18.5t24.5 -59.5q0 -45 -30.5 -71t-73.5 -34.5t-105 -8.5q-238 0 -238 266v1087q0 40 29.5 68.5t71.5 28.5q41 0 70.5 -28.5t29.5 -68.5zM467 1106q0 19 17.5 49t35 73.5t17.5 94.5q0 8 -3.5 33.5
t-3.5 34.5q0 43 52 43h77q64 0 64 -74q0 -127 -64.5 -223.5t-126.5 -96.5q-29 0 -47.5 18t-17.5 48z" />
    <glyph glyph-name="Ldot" unicode="&#x13f;" horiz-adv-x="1122" 
d="M420 201h573q41 0 72 -30.5t31 -70.5q0 -41 -30.5 -70.5t-72.5 -29.5h-682q-43 0 -73.5 31t-30.5 75v1233q0 43 31.5 74t76.5 31q43 0 74 -31t31 -74v-1138zM881 897q55 0 92 -40.5t37 -90.5q0 -56 -37 -97.5t-92 -41.5q-62 0 -101 41.5t-39 97.5q0 50 39.5 90.5
t100.5 40.5z" />
    <glyph glyph-name="ldot" unicode="&#x140;" horiz-adv-x="690" 
d="M340 1337v-1001q0 -164 96 -164q14 0 35.5 2t28.5 2q37 0 61.5 -18.5t24.5 -59.5q0 -45 -30.5 -71t-73.5 -34.5t-105 -8.5q-238 0 -238 266v1087q0 40 29.5 68.5t71.5 28.5q41 0 70.5 -28.5t29.5 -68.5zM592 797q46 0 82.5 -33t36.5 -84q0 -58 -35.5 -92.5t-83.5 -34.5
q-55 0 -91 34t-36 93q0 52 36.5 84.5t90.5 32.5z" />
    <glyph glyph-name="Lslash" unicode="&#x141;" horiz-adv-x="1130" 
d="M217 723v616q0 43 31.5 74t75.5 31t75 -31t31 -74v-516l225 107q16 8 39 8q59 0 84 -51q8 -16 8 -39q0 -57 -51 -82l-305 -148v-417h582q37 0 65.5 -30t28.5 -71t-28.5 -70.5t-65.5 -29.5h-697q-40 0 -69 29t-29 69v420l-61 -31q-24 -8 -39 -8q-58 0 -84 53q-8 16 -8 39
q0 58 53 84z" />
    <glyph glyph-name="lslash" unicode="&#x142;" horiz-adv-x="643" 
d="M373 600v-264q0 -85 24 -124.5t74 -39.5q14 0 36.5 2t29.5 2q36 0 60 -18.5t24 -59.5q0 -114 -207 -114q-114 0 -177 66t-63 200v262l-37 -18q-26 -11 -41 -11q-34 0 -59 27.5t-25 60.5q0 27 15 51.5t39 36.5l108 54v624q0 40 29 68.5t71 28.5t70.5 -28.5t28.5 -68.5
v-534l119 57q16 8 45 8q34 0 60 -25t26 -61q0 -27 -15 -52t-41 -38z" />
    <glyph glyph-name="Nacute" unicode="&#x143;" horiz-adv-x="1626" 
d="M1219 369v979q0 40 29 68t71 28q41 0 69.5 -28t28.5 -68v-1262q0 -43 -25.5 -72.5t-66.5 -29.5q-64 0 -121 69l-798 1008v-979q0 -40 -29 -69t-70 -29q-42 0 -71 29t-29 69v1257q0 44 27.5 74.5t72.5 30.5q35 0 61.5 -16t57.5 -56zM733 1651l303 159q18 9 29 9
q35 0 57 -37l21 -51q4 -8 4 -27q0 -41 -39 -57l-313 -123q-8 -4 -25 -4q-45 0 -65 41q-9 18 -9 30q0 18 11 35t26 25z" />
    <glyph glyph-name="nacute" unicode="&#x144;" horiz-adv-x="1130" 
d="M242 934q42 0 69 -25.5t27 -64.5v-25q47 50 124.5 84.5t160.5 34.5q381 0 381 -401v-455q0 -40 -30 -69t-71 -29q-42 0 -71 29t-29 69v418q0 250 -234 250q-133 0 -229 -103v-565q0 -40 -29.5 -69t-70.5 -29q-42 0 -71.5 29t-29.5 69v749q0 45 29 74t74 29zM483 1219
l135 206q17 29 58 29q23 0 41 -12l39 -29q26 -17 26 -55q0 -29 -16 -45l-156 -185q-23 -26 -61 -26q-27 0 -45 12q-33 23 -33 66q0 21 12 39z" />
    <glyph glyph-name="uni0145" unicode="&#x145;" horiz-adv-x="1626" 
d="M1219 369v979q0 40 29 68t71 28q41 0 69.5 -28t28.5 -68v-1262q0 -43 -25.5 -72.5t-66.5 -29.5q-64 0 -121 69l-798 1008v-979q0 -40 -29 -69t-70 -29q-42 0 -71 29t-29 69v1257q0 44 27.5 74.5t72.5 30.5q35 0 61.5 -16t57.5 -56zM662 -356q0 26 26 49q45 37 45 100
q0 15 -4 33.5t-4 23.5q0 37 41 48l88 18q6 2 14 2q34 0 50 -30.5t16 -67.5q0 -96 -73 -164t-140 -68q-27 0 -43 17.5t-16 38.5z" />
    <glyph glyph-name="uni0146" unicode="&#x146;" horiz-adv-x="1130" 
d="M242 934q42 0 69 -25.5t27 -64.5v-25q47 50 124.5 84.5t160.5 34.5q381 0 381 -401v-455q0 -40 -30 -69t-71 -29q-42 0 -71 29t-29 69v418q0 250 -234 250q-133 0 -229 -103v-565q0 -40 -29.5 -69t-70.5 -29q-42 0 -71.5 29t-29.5 69v749q0 45 29 74t74 29zM410 -356
q0 26 26 49q45 37 45 100q0 15 -4 33.5t-4 23.5q0 37 41 48l88 18q6 2 14 2q34 0 50 -30.5t16 -67.5q0 -96 -73 -164t-140 -68q-27 0 -43 17.5t-16 38.5z" />
    <glyph glyph-name="Ncaron" unicode="&#x147;" horiz-adv-x="1626" 
d="M1219 369v979q0 40 29 68t71 28q41 0 69.5 -28t28.5 -68v-1262q0 -43 -25.5 -72.5t-66.5 -29.5q-64 0 -121 69l-798 1008v-979q0 -40 -29 -69t-70 -29q-42 0 -71 29t-29 69v1257q0 44 27.5 74.5t72.5 30.5q35 0 61.5 -16t57.5 -56zM1081 1819q39 0 58 -31q10 -12 10 -35
q0 -41 -33 -61l-239 -148q-27 -16 -62 -16q-37 0 -61 16l-244 148q-31 19 -31 57q0 26 8 39q23 33 62 33q21 0 37 -11l231 -133l225 133q15 9 39 9z" />
    <glyph glyph-name="ncaron" unicode="&#x148;" horiz-adv-x="1130" 
d="M242 934q42 0 69 -25.5t27 -64.5v-25q47 50 124.5 84.5t160.5 34.5q381 0 381 -401v-455q0 -40 -30 -69t-71 -29q-42 0 -71 29t-29 69v418q0 250 -234 250q-133 0 -229 -103v-565q0 -40 -29.5 -69t-70.5 -29q-42 0 -71.5 29t-29.5 69v749q0 45 29 74t74 29zM770 1421
q29 0 49 -20q21 -21 21 -49q0 -33 -25 -58l-201 -180q-22 -22 -57 -22q-40 0 -59 22l-199 180q-25 25 -25 58q0 29 23 49q21 24 55 24q27 0 54 -20l153 -150l156 146q23 20 55 20z" />
    <glyph glyph-name="Omacron" unicode="&#x14c;" horiz-adv-x="1671" 
d="M98 717q0 154 55 290t151 234.5t234 155.5t298 57q157 0 293.5 -53.5t234.5 -149t154.5 -233.5t56.5 -301q0 -211 -96.5 -379.5t-265 -263t-377.5 -94.5q-210 0 -377.5 91t-264 260t-96.5 386zM324 717q0 -229 148 -384t364 -155q154 0 272 71.5t180 193.5t62 274
q0 234 -147.5 386t-366.5 152q-221 0 -366.5 -151.5t-145.5 -386.5zM1083 1729q32 0 55 -24t23 -58t-23 -57t-55 -23h-469q-32 0 -55.5 23.5t-23.5 56.5q0 34 23.5 58t55.5 24h469z" />
    <glyph glyph-name="omacron" unicode="&#x14d;" horiz-adv-x="1153" 
d="M80 461q0 210 137.5 345.5t360.5 135.5q222 0 358.5 -135.5t136.5 -345.5t-136.5 -345.5t-358.5 -135.5q-223 0 -360.5 135.5t-137.5 345.5zM293 461q0 -130 80.5 -213.5t204.5 -83.5t203 82t79 215q0 130 -79.5 212.5t-202.5 82.5q-122 0 -203.5 -82t-81.5 -213z
M786 1319q34 0 58 -24t24 -58t-24 -57t-58 -23h-395q-33 0 -56.5 23.5t-23.5 56.5q0 34 24 58t56 24h395z" />
    <glyph glyph-name="Ohungarumlaut" unicode="&#x150;" horiz-adv-x="1671" 
d="M98 717q0 154 55 290t151 234.5t234 155.5t298 57q157 0 293.5 -53.5t234.5 -149t154.5 -233.5t56.5 -301q0 -211 -96.5 -379.5t-265 -263t-377.5 -94.5q-210 0 -377.5 91t-264 260t-96.5 386zM324 717q0 -229 148 -384t364 -155q154 0 272 71.5t180 193.5t62 274
q0 234 -147.5 386t-366.5 152q-221 0 -366.5 -151.5t-145.5 -386.5zM961 1626l225 176q17 17 45 17q25 0 49 -21l45 -41q16 -11 16 -33q0 -29 -24 -41l-270 -151q-18 -12 -46 -12q-32 0 -49 20q-16 13 -16 37q0 28 25 49zM586 1626l162 168q26 29 61 29q15 0 37 -11l59 -30
q23 -13 23 -37q0 -17 -17 -31l-233 -174q-19 -16 -49 -16q-29 0 -45 16q-17 17 -17 41q0 22 19 45z" />
    <glyph glyph-name="ohungarumlaut" unicode="&#x151;" horiz-adv-x="1153" 
d="M80 461q0 210 137.5 345.5t360.5 135.5q222 0 358.5 -135.5t136.5 -345.5t-136.5 -345.5t-358.5 -135.5q-223 0 -360.5 135.5t-137.5 345.5zM293 461q0 -130 80.5 -213.5t204.5 -83.5t203 82t79 215q0 130 -79.5 212.5t-202.5 82.5q-122 0 -203.5 -82t-81.5 -213z
M668 1214l149 199q20 29 57 29q26 0 44 -15l32 -24q25 -22 25 -53q0 -26 -17 -43l-163 -181q-28 -28 -66 -28q-26 0 -45 16q-29 20 -29 62q0 18 13 38zM338 1219l131 208q19 31 57 31q21 0 39 -12l29 -21q29 -19 29 -57q0 -25 -15 -43l-145 -195q-20 -28 -62 -28
q-25 0 -45 14q-30 21 -30 60q0 22 12 43z" />
    <glyph glyph-name="OE" unicode="&#x152;" horiz-adv-x="2129" 
d="M1372 201h529q40 0 69 -30t29 -71t-29 -70.5t-69 -29.5h-695q-20 0 -33.5 13.5t-13.5 35.5q-138 -69 -328 -69q-215 0 -381.5 90.5t-259 258.5t-92.5 388q0 155 49 289t139 234t228 157t307 57q190 0 338 -74q0 22 15.5 38t37.5 16h668q40 0 69 -29.5t29 -69.5
q0 -42 -29 -72t-69 -30h-508v-410h447q40 0 69 -28.5t29 -69.5q0 -42 -29 -71t-69 -29h-447v-424zM1159 266v889q-148 100 -336 100q-220 0 -359.5 -148t-139.5 -390q0 -240 146 -389.5t380 -149.5q170 0 309 88z" />
    <glyph glyph-name="oe" unicode="&#x153;" horiz-adv-x="1722" 
d="M729 461q0 124 49 225q-88 70 -200 70q-124 0 -205.5 -82t-81.5 -213q0 -130 81 -213.5t206 -83.5q118 0 200 72q-49 94 -49 225zM1442 545q-5 100 -69.5 161.5t-172.5 61.5q-112 0 -180 -60.5t-86 -162.5h508zM1556 399h-612q12 -117 92 -181t205 -64q118 0 201 45
q22 14 49 14q32 0 55 -23t23 -55q0 -44 -37 -65q-134 -90 -307 -90q-199 0 -326 100q-127 -100 -321 -100q-223 0 -360.5 135.5t-137.5 345.5t137.5 345.5t360.5 135.5q192 0 319 -102q130 102 315 102q182 0 306 -118t124 -306q0 -54 -23 -86.5t-63 -32.5z" />
    <glyph glyph-name="Racute" unicode="&#x154;" horiz-adv-x="1294" 
d="M1008 45l-383 510h-205v-465q0 -43 -31 -74.5t-74 -31.5q-45 0 -76.5 31.5t-31.5 74.5v1237q0 44 30.5 75.5t73.5 31.5q230 4 307 4q141 0 243.5 -33.5t160.5 -94.5t84.5 -136.5t26.5 -169.5q0 -84 -26 -155.5t-69.5 -121t-93.5 -82.5t-104 -49l346 -446q24 -35 24 -68
q0 -41 -27.5 -69.5t-72.5 -28.5q-57 0 -102 61zM420 754h186q124 0 212.5 67t88.5 180q0 107 -70 171.5t-231 64.5q-118 0 -186 -4v-479zM483 1651l303 159q18 9 29 9q35 0 57 -37l21 -51q4 -8 4 -27q0 -41 -39 -57l-313 -123q-8 -4 -25 -4q-45 0 -65 41q-9 18 -9 30
q0 18 11 35t26 25z" />
    <glyph glyph-name="racute" unicode="&#x155;" horiz-adv-x="704" 
d="M242 934q41 0 68.5 -26.5t27.5 -63.5v-23q42 56 92 87.5t129 31.5q55 0 94 -22.5t39 -73.5q0 -44 -30 -71.5t-89 -27.5q-6 0 -34.5 2.5t-34.5 2.5q-109 0 -164 -115v-553q0 -40 -29.5 -69t-70.5 -29t-71 29t-30 69v745q0 47 28.5 77t74.5 30zM307 1219l135 206
q17 29 58 29q23 0 41 -12l39 -29q26 -17 26 -55q0 -29 -16 -45l-156 -185q-23 -26 -61 -26q-27 0 -45 12q-33 23 -33 66q0 21 12 39z" />
    <glyph glyph-name="uni0156" unicode="&#x156;" horiz-adv-x="1294" 
d="M1008 45l-383 510h-205v-465q0 -43 -31 -74.5t-74 -31.5q-45 0 -76.5 31.5t-31.5 74.5v1237q0 44 30.5 75.5t73.5 31.5q230 4 307 4q141 0 243.5 -33.5t160.5 -94.5t84.5 -136.5t26.5 -169.5q0 -84 -26 -155.5t-69.5 -121t-93.5 -82.5t-104 -49l346 -446q24 -35 24 -68
q0 -41 -27.5 -69.5t-72.5 -28.5q-57 0 -102 61zM420 754h186q124 0 212.5 67t88.5 180q0 107 -70 171.5t-231 64.5q-118 0 -186 -4v-479zM510 -356q0 25 27 49q45 37 45 100q0 15 -4.5 33.5t-4.5 23.5q0 37 41 48l88 18q6 2 15 2q34 0 49.5 -30.5t15.5 -67.5q0 -96 -73 -164
t-140 -68q-27 0 -43 17.5t-16 38.5z" />
    <glyph glyph-name="uni0157" unicode="&#x157;" horiz-adv-x="704" 
d="M242 934q41 0 68.5 -26.5t27.5 -63.5v-23q42 56 92 87.5t129 31.5q55 0 94 -22.5t39 -73.5q0 -44 -30 -71.5t-89 -27.5q-6 0 -34.5 2.5t-34.5 2.5q-109 0 -164 -115v-553q0 -40 -29.5 -69t-70.5 -29t-71 29t-30 69v745q0 47 28.5 77t74.5 30zM186 -356q0 25 27 49
q45 37 45 100q0 15 -4 33.5t-4 23.5q0 37 41 48l88 18q6 2 14 2q34 0 50 -30.5t16 -67.5q0 -96 -73 -164t-140 -68q-27 0 -43.5 17.5t-16.5 38.5z" />
    <glyph glyph-name="Rcaron" unicode="&#x158;" horiz-adv-x="1294" 
d="M1008 45l-383 510h-205v-465q0 -43 -31 -74.5t-74 -31.5q-45 0 -76.5 31.5t-31.5 74.5v1237q0 44 30.5 75.5t73.5 31.5q230 4 307 4q141 0 243.5 -33.5t160.5 -94.5t84.5 -136.5t26.5 -169.5q0 -84 -26 -155.5t-69.5 -121t-93.5 -82.5t-104 -49l346 -446q24 -35 24 -68
q0 -41 -27.5 -69.5t-72.5 -28.5q-57 0 -102 61zM420 754h186q124 0 212.5 67t88.5 180q0 107 -70 171.5t-231 64.5q-118 0 -186 -4v-479zM874 1819q39 0 58 -31q10 -12 10 -35q0 -41 -33 -61l-239 -148q-27 -16 -62 -16q-37 0 -61 16l-244 148q-31 19 -31 57q0 24 9 39
q23 33 61 33q20 0 37 -11l231 -133l226 133q15 9 38 9z" />
    <glyph glyph-name="rcaron" unicode="&#x159;" horiz-adv-x="704" 
d="M242 934q41 0 68.5 -26.5t27.5 -63.5v-23q42 56 92 87.5t129 31.5q55 0 94 -22.5t39 -73.5q0 -44 -30 -71.5t-89 -27.5q-6 0 -34.5 2.5t-34.5 2.5q-109 0 -164 -115v-553q0 -40 -29.5 -69t-70.5 -29t-71 29t-30 69v745q0 47 28.5 77t74.5 30zM612 1421q30 0 50 -20
t20 -49q0 -33 -25 -58l-200 -180q-22 -22 -58 -22q-40 0 -59 22l-199 180q-24 24 -24 58q0 30 22 49q21 24 56 24q26 0 53 -20l153 -150l156 146q23 20 55 20z" />
    <glyph glyph-name="Sacute" unicode="&#x15a;" horiz-adv-x="1081" 
d="M90 209q0 39 28 68.5t72 29.5q37 0 70 -20q146 -109 260 -109q106 0 176 51.5t70 143.5q0 51 -23 92t-62 70t-90 54.5t-107 49.5t-112 50t-107 61t-90 77.5t-62 104.5t-23 137q0 165 119.5 275t320.5 110q176 0 310 -78q61 -33 61 -90q0 -41 -27 -69.5t-71 -28.5
q-36 0 -60 16q-101 53 -198 53q-106 0 -168 -51t-62 -135q0 -66 37.5 -115t97 -81t131.5 -61t144 -64.5t131.5 -80.5t97 -119.5t37.5 -172.5q0 -117 -63 -208.5t-170.5 -140t-239.5 -48.5q-215 0 -391 151q-37 30 -37 78zM453 1651l303 159q18 9 28 9q36 0 58 -37l20 -51
q4 -8 4 -27q0 -41 -39 -57l-313 -123q-8 -4 -25 -4q-45 0 -65 41q-8 16 -8 30q0 18 11 35t26 25z" />
    <glyph glyph-name="sacute" unicode="&#x15b;" horiz-adv-x="854" 
d="M78 147q0 35 24 60.5t58 25.5q27 0 57 -20q106 -66 213 -66q61 0 102 28.5t41 78.5q0 34 -27.5 58t-71 40t-96.5 31t-106.5 36.5t-97 51.5t-71 81.5t-27.5 119.5q0 126 91 198t234 72q156 0 271 -70q43 -24 43 -69q0 -34 -24 -58t-60 -24q-25 0 -49 12q-84 41 -170 41
q-59 0 -95 -29t-36 -69q0 -31 21.5 -54.5t56.5 -37.5t79.5 -29t91 -28t91 -35t79.5 -49.5t56.5 -73t21.5 -103.5q0 -136 -102 -211t-262 -75q-176 0 -303 100q-33 26 -33 67zM319 1219l136 206q17 29 57 29q23 0 41 -12l39 -29q26 -17 26 -55q0 -29 -16 -45l-156 -185
q-23 -26 -61 -26q-27 0 -45 12q-33 23 -33 66q0 21 12 39z" />
    <glyph glyph-name="Scircumflex" unicode="&#x15c;" horiz-adv-x="1081" 
d="M90 209q0 39 28 68.5t72 29.5q37 0 70 -20q146 -109 260 -109q106 0 176 51.5t70 143.5q0 51 -23 92t-62 70t-90 54.5t-107 49.5t-112 50t-107 61t-90 77.5t-62 104.5t-23 137q0 165 119.5 275t320.5 110q176 0 310 -78q61 -33 61 -90q0 -41 -27 -69.5t-71 -28.5
q-36 0 -60 16q-101 53 -198 53q-106 0 -168 -51t-62 -135q0 -66 37.5 -115t97 -81t131.5 -61t144 -64.5t131.5 -80.5t97 -119.5t37.5 -172.5q0 -117 -63 -208.5t-170.5 -140t-239.5 -48.5q-215 0 -391 151q-37 30 -37 78zM518 1649l-223 -121q-13 -10 -37 -10q-37 0 -61 30
q-11 16 -11 39q0 40 33 60l240 145q30 18 61 18q32 0 58 -16l245 -147q15 -9 24 -25.5t9 -32.5q0 -24 -12 -39q-18 -34 -62 -34q-17 0 -37 10z" />
    <glyph glyph-name="scircumflex" unicode="&#x15d;" horiz-adv-x="854" 
d="M78 147q0 35 24 60.5t58 25.5q27 0 57 -20q106 -66 213 -66q61 0 102 28.5t41 78.5q0 34 -27.5 58t-71 40t-96.5 31t-106.5 36.5t-97 51.5t-71 81.5t-27.5 119.5q0 126 91 198t234 72q156 0 271 -70q43 -24 43 -69q0 -34 -24 -58t-60 -24q-25 0 -49 12q-84 41 -170 41
q-59 0 -95 -29t-36 -69q0 -31 21.5 -54.5t56.5 -37.5t79.5 -29t91 -28t91 -35t79.5 -49.5t56.5 -73t21.5 -103.5q0 -136 -102 -211t-262 -75q-176 0 -303 100q-33 26 -33 67zM215 1087q-33 0 -57 27q-17 20 -17 49q0 36 25 58l196 176q20 20 58 20q34 0 57 -20l193 -176
q24 -21 24 -58q0 -31 -20 -51q-21 -27 -58 -27q-25 0 -49 17l-151 129l-152 -125q-25 -19 -49 -19z" />
    <glyph glyph-name="Scedilla" unicode="&#x15e;" horiz-adv-x="1081" 
d="M549 -78q223 -14 223 -172q0 -77 -70 -124.5t-192 -47.5q-127 0 -219 57q-23 15 -23 46q0 16 11 30q19 29 49 29q13 0 28 -6q60 -33 107 -33q43 0 70.5 15.5t27.5 45.5q0 27 -16 44t-43 22q-56 13 -56 66v90q-171 17 -319 147q-37 30 -37 76q0 37 25 65q28 35 78 35
q34 0 67 -20q146 -109 260 -109q106 0 176 51.5t70 143.5q0 51 -23 92t-62 70t-90 54.5t-107 49.5t-112 50t-107 61t-90 77.5t-62 104.5t-23 137q0 165 119.5 275t320.5 110q179 0 310 -78q57 -33 57 -88q0 -30 -16 -51q-30 -49 -82 -49q-27 0 -56 16q-101 53 -198 53
q-106 0 -168 -51t-62 -135q0 -66 37.5 -115t97 -81t131.5 -61t144 -64.5t131.5 -80.5t97 -119.5t37.5 -172.5q0 -169 -125.5 -278.5t-316.5 -118.5v-58z" />
    <glyph glyph-name="scedilla" unicode="&#x15f;" horiz-adv-x="854" 
d="M463 -78q209 -15 209 -172q0 -77 -71 -124.5t-200 -47.5q-106 0 -180 45q-28 16 -28 53q0 17 4 25q15 29 49 29q20 0 35 -9q52 -20 96 -20q42 0 69 17t27 49q0 53 -55 59q-58 14 -58 74v80q-142 14 -249 100q-33 26 -33 67q0 33 16 54q32 32 66 32q30 0 57 -20
q106 -66 213 -66q61 0 102 28.5t41 78.5q0 34 -27.5 58t-71 40t-96.5 31t-106.5 36.5t-97 51.5t-71 81.5t-27.5 119.5q0 126 91 198t234 72q156 0 271 -70q41 -23 41 -67q0 -23 -13 -43q-23 -41 -69 -41q-25 0 -49 12q-84 41 -170 41q-59 0 -95 -29t-36 -69
q0 -31 21.5 -54.5t56.5 -37.5t79.5 -29t91 -28t91 -35t79.5 -49.5t56.5 -73t21.5 -103.5q0 -126 -87 -199.5t-228 -84.5v-60z" />
    <glyph glyph-name="Scaron" unicode="&#x160;" horiz-adv-x="1081" 
d="M90 209q0 39 28 68.5t72 29.5q37 0 70 -20q146 -109 260 -109q106 0 176 51.5t70 143.5q0 51 -23 92t-62 70t-90 54.5t-107 49.5t-112 50t-107 61t-90 77.5t-62 104.5t-23 137q0 165 119.5 275t320.5 110q176 0 310 -78q61 -33 61 -90q0 -41 -27 -69.5t-71 -28.5
q-36 0 -60 16q-101 53 -198 53q-106 0 -168 -51t-62 -135q0 -66 37.5 -115t97 -81t131.5 -61t144 -64.5t131.5 -80.5t97 -119.5t37.5 -172.5q0 -117 -63 -208.5t-170.5 -140t-239.5 -48.5q-215 0 -391 151q-37 30 -37 78zM799 1819q38 0 57 -31q10 -12 10 -35q0 -42 -32 -61
l-240 -148q-27 -16 -62 -16q-37 0 -61 16l-244 148q-30 18 -30 57q0 26 8 39q23 33 61 33q20 0 37 -11l232 -133l225 133q15 9 39 9z" />
    <glyph glyph-name="scaron" unicode="&#x161;" horiz-adv-x="854" 
d="M78 147q0 35 24 60.5t58 25.5q27 0 57 -20q106 -66 213 -66q61 0 102 28.5t41 78.5q0 34 -27.5 58t-71 40t-96.5 31t-106.5 36.5t-97 51.5t-71 81.5t-27.5 119.5q0 126 91 198t234 72q156 0 271 -70q43 -24 43 -69q0 -34 -24 -58t-60 -24q-25 0 -49 12q-84 41 -170 41
q-59 0 -95 -29t-36 -69q0 -31 21.5 -54.5t56.5 -37.5t79.5 -29t91 -28t91 -35t79.5 -49.5t56.5 -73t21.5 -103.5q0 -136 -102 -211t-262 -75q-176 0 -303 100q-33 26 -33 67zM627 1421q29 0 49 -20t20 -49q0 -34 -24 -58l-201 -180q-22 -22 -57 -22q-41 0 -60 22l-198 180
q-25 25 -25 58q0 29 23 49q21 24 55 24q26 0 53 -20l154 -150l155 146q23 20 56 20z" />
    <glyph glyph-name="uni0162" unicode="&#x162;" horiz-adv-x="1220" 
d="M659 -78q224 -14 224 -172q0 -77 -70 -124.5t-192 -47.5q-128 0 -220 57q-22 15 -22 46q0 17 10 30q19 29 49 29q14 0 29 -6q61 -33 106 -33q43 0 71 15.5t28 45.5q0 27 -16.5 44t-43.5 22q-55 13 -55 66v106q-53 26 -53 90v1143h-385q-40 0 -69.5 30t-29.5 72
q0 40 29.5 69.5t69.5 29.5h983q40 0 69 -29.5t29 -69.5q0 -42 -29 -72t-69 -30h-385v-1143q0 -30 -16.5 -56t-41.5 -38v-74z" />
    <glyph glyph-name="uni0163" unicode="&#x163;" horiz-adv-x="708" 
d="M434 -78q209 -15 209 -172q0 -77 -70.5 -124.5t-199.5 -47.5q-106 0 -180 45q-29 16 -29 53q0 17 4 25q14 29 49 29q20 0 35 -9q52 -20 96 -20q42 0 69 17t27 49q0 53 -55 59q-57 14 -57 74v88q-112 21 -162.5 112t-50.5 250v731q0 40 29 68.5t71 28.5q41 0 70.5 -28.5
t29.5 -68.5v-159h222q39 0 66.5 -28t27.5 -67q0 -37 -27.5 -65.5t-66.5 -28.5h-222v-368q0 -197 136 -197q28 0 67 8t51 8q37 0 59.5 -22.5t22.5 -57.5q0 -50 -53 -79q-69 -41 -168 -41v-62z" />
    <glyph glyph-name="Tcaron" unicode="&#x164;" horiz-adv-x="1220" 
d="M504 90v1143h-385q-40 0 -69.5 30t-29.5 72q0 40 29.5 69.5t69.5 29.5h983q40 0 69 -29.5t29 -69.5q0 -42 -29 -72t-69 -30h-385v-1143q0 -43 -31.5 -74.5t-75.5 -31.5t-75 31.5t-31 74.5zM870 1819q39 0 58 -31q10 -12 10 -35q0 -41 -33 -61l-239 -148q-27 -16 -62 -16
q-37 0 -61 16l-244 148q-31 19 -31 57q0 26 8 39q23 33 62 33q20 0 37 -11l231 -133l225 133q15 9 39 9z" />
    <glyph glyph-name="tcaron" unicode="&#x165;" horiz-adv-x="708" 
d="M573 184q37 0 59.5 -22.5t22.5 -57.5q0 -50 -53 -79q-74 -43 -196 -43q-151 0 -219 92.5t-68 275.5v731q0 40 29 68.5t71 28.5q41 0 70.5 -28.5t29.5 -68.5v-159h222q39 0 66.5 -28t27.5 -67q0 -37 -27.5 -65.5t-66.5 -28.5h-222v-368q0 -197 136 -197q28 0 67 8t51 8z
M463 1106q0 16 11 39t23.5 44t23.5 57.5t11 76.5q0 8 -3 33.5t-3 34.5q0 43 52 43h77q64 0 64 -74q0 -127 -64.5 -223.5t-126.5 -96.5q-29 0 -47.5 18t-17.5 48z" />
    <glyph glyph-name="Umacron" unicode="&#x16a;" horiz-adv-x="1536" 
d="M1139 639v700q0 43 31 74t75 31q43 0 75 -31t32 -74v-743q0 -128 -30.5 -232t-82.5 -174.5t-124.5 -118.5t-154 -69.5t-172.5 -21.5q-132 0 -241.5 40t-190.5 117t-125.5 198t-44.5 275v729q0 43 32 74t77 31q43 0 73.5 -31t30.5 -74v-686q0 -221 99.5 -347t289.5 -126
q171 0 261 116.5t90 342.5zM1016 1729q32 0 55 -24t23 -58t-23 -57t-55 -23h-469q-33 0 -56.5 23.5t-23.5 56.5q0 34 24 58t56 24h469z" />
    <glyph glyph-name="umacron" unicode="&#x16b;" horiz-adv-x="1101" 
d="M762 291v547q0 40 28 68t70 28q43 0 72 -28t29 -68v-756q0 -40 -29.5 -69t-71.5 -29q-43 0 -70.5 27.5t-27.5 70.5v41q-49 -61 -130 -102t-181 -41q-152 0 -242 96.5t-90 288.5v473q0 40 29 68t71 28q41 0 70.5 -28t29.5 -68v-428q0 -246 205 -246q68 0 131 34.5
t107 92.5zM741 1319q34 0 58 -24t24 -58t-24 -57t-58 -23h-395q-33 0 -56.5 23.5t-23.5 56.5q0 34 24 58t56 24h395z" />
    <glyph glyph-name="Ubreve" unicode="&#x16c;" horiz-adv-x="1536" 
d="M1139 639v700q0 43 31 74t75 31q43 0 75 -31t32 -74v-743q0 -128 -30.5 -232t-82.5 -174.5t-124.5 -118.5t-154 -69.5t-172.5 -21.5q-132 0 -241.5 40t-190.5 117t-125.5 198t-44.5 275v729q0 43 32 74t77 31q43 0 73.5 -31t30.5 -74v-686q0 -221 99.5 -347t289.5 -126
q171 0 261 116.5t90 342.5zM1137 1733q0 -29 -15 -41q-66 -76 -159 -125t-191 -49q-109 0 -200 47.5t-156 122.5q-17 20 -17 41q0 28 25 53q18 18 45 18q32 0 57 -22q102 -86 246 -86q138 0 242 86q22 22 53 22q28 0 49 -18t21 -49z" />
    <glyph glyph-name="ubreve" unicode="&#x16d;" horiz-adv-x="1101" 
d="M762 291v547q0 40 28 68t70 28q43 0 72 -28t29 -68v-756q0 -40 -29.5 -69t-71.5 -29q-43 0 -70.5 27.5t-27.5 70.5v41q-49 -61 -130 -102t-181 -41q-152 0 -242 96.5t-90 288.5v473q0 40 29 68t71 28q41 0 70.5 -28t29.5 -68v-428q0 -246 205 -246q68 0 131 34.5
t107 92.5zM854 1311q0 -19 -14 -37q-125 -160 -299 -160q-167 0 -287 156q-12 18 -12 41q0 30 22 49q28 16 43 16q29 0 53 -24q78 -78 189 -78q105 0 192 76q25 22 52 22q22 0 41 -16q20 -14 20 -45z" />
    <glyph glyph-name="Uring" unicode="&#x16e;" horiz-adv-x="1536" 
d="M1139 639v700q0 43 31 74t75 31q43 0 75 -31t32 -74v-743q0 -128 -30.5 -232t-82.5 -174.5t-124.5 -118.5t-154 -69.5t-172.5 -21.5q-132 0 -241.5 40t-190.5 117t-125.5 198t-44.5 275v729q0 43 32 74t77 31q43 0 73.5 -31t30.5 -74v-686q0 -221 99.5 -347t289.5 -126
q171 0 261 116.5t90 342.5zM770 1839q121 0 197.5 -52.5t76.5 -156.5q0 -103 -77 -159t-197 -56q-118 0 -194 56t-76 159q0 104 75 156.5t195 52.5zM770 1526q55 0 91 27t36 77t-35.5 74.5t-91.5 24.5t-89.5 -24.5t-33.5 -74.5q0 -51 34 -77.5t89 -26.5z" />
    <glyph glyph-name="uring" unicode="&#x16f;" horiz-adv-x="1101" 
d="M762 291v547q0 40 28 68t70 28q43 0 72 -28t29 -68v-756q0 -40 -29.5 -69t-71.5 -29q-43 0 -70.5 27.5t-27.5 70.5v41q-49 -61 -130 -102t-181 -41q-152 0 -242 96.5t-90 288.5v473q0 40 29 68t71 28q41 0 70.5 -28t29.5 -68v-428q0 -246 205 -246q68 0 131 34.5
t107 92.5zM541 1020q-105 0 -175.5 68.5t-70.5 164.5q0 99 70.5 168.5t175.5 69.5q106 0 178 -69.5t72 -168.5q0 -96 -72 -164.5t-178 -68.5zM545 1380q-52 0 -86.5 -35.5t-34.5 -87.5q0 -53 34.5 -90t86.5 -37q50 0 83.5 37t33.5 90q0 52 -33.5 87.5t-83.5 35.5z" />
    <glyph glyph-name="Uhungarumlaut" unicode="&#x170;" horiz-adv-x="1536" 
d="M1139 639v700q0 43 31 74t75 31q43 0 75 -31t32 -74v-743q0 -128 -30.5 -232t-82.5 -174.5t-124.5 -118.5t-154 -69.5t-172.5 -21.5q-132 0 -241.5 40t-190.5 117t-125.5 198t-44.5 275v729q0 43 32 74t77 31q43 0 73.5 -31t30.5 -74v-686q0 -221 99.5 -347t289.5 -126
q171 0 261 116.5t90 342.5zM864 1626l226 176q17 17 45 17q25 0 49 -21l45 -41q16 -11 16 -33q0 -29 -24 -41l-271 -151q-18 -12 -45 -12q-32 0 -49 20q-16 13 -16 37q0 28 24 49zM489 1626l162 168q26 29 62 29q15 0 37 -11l59 -30q22 -13 22 -37q0 -18 -16 -31l-233 -174
q-19 -16 -50 -16q-29 0 -45 16t-16 41q0 23 18 45z" />
    <glyph glyph-name="uhungarumlaut" unicode="&#x171;" horiz-adv-x="1101" 
d="M762 291v547q0 40 28 68t70 28q43 0 72 -28t29 -68v-756q0 -40 -29.5 -69t-71.5 -29q-43 0 -70.5 27.5t-27.5 70.5v41q-49 -61 -130 -102t-181 -41q-152 0 -242 96.5t-90 288.5v473q0 40 29 68t71 28q41 0 70.5 -28t29.5 -68v-428q0 -246 205 -246q68 0 131 34.5
t107 92.5zM635 1214l149 199q20 29 58 29q25 0 43 -15l33 -24q24 -21 24 -53q0 -27 -16 -43l-164 -181q-28 -28 -66 -28q-26 0 -45 16q-28 20 -28 62q0 20 12 38zM305 1219l131 208q19 31 58 31q20 0 38 -12l29 -21q29 -19 29 -57q0 -25 -15 -43l-145 -195q-20 -28 -61 -28
q-25 0 -45 14q-31 22 -31 60q0 22 12 43z" />
    <glyph glyph-name="Uogonek" unicode="&#x172;" horiz-adv-x="1536" 
d="M1139 639v700q0 43 31 74t75 31q43 0 75 -31t32 -74v-743q0 -124 -28.5 -225.5t-77.5 -171.5t-117 -119t-145.5 -72.5t-164.5 -27.5q-49 -21 -77.5 -58t-28.5 -76q0 -50 33 -73t77 -23q8 0 29 4t29 4q34 0 52.5 -20t18.5 -53q0 -23 -13.5 -42t-37.5 -28q-58 -25 -127 -25
q-51 0 -96 10.5t-83 32t-60.5 59.5t-22.5 89q0 68 43.5 121.5t116.5 85.5q-223 32 -354.5 191.5t-131.5 430.5v729q0 43 32 74t77 31q43 0 73.5 -31t30.5 -74v-686q0 -221 99.5 -347t289.5 -126q171 0 261 116.5t90 342.5z" />
    <glyph glyph-name="uogonek" unicode="&#x173;" horiz-adv-x="1101" 
d="M762 291v547q0 40 28 68t70 28q43 0 72 -28t29 -68v-756q0 -40 -29.5 -69t-71.5 -29q-27 0 -45 12q-62 -15 -103.5 -59t-41.5 -91q0 -52 31.5 -74t72.5 -22q11 0 33 4t27 4q37 0 56 -19.5t19 -53.5q0 -52 -49 -70q-58 -25 -127 -25q-52 0 -97 10.5t-83 32t-60 59.5
t-22 89q0 67 44 120t111 84t150 44q-14 22 -14 53v41q-51 -62 -131 -102.5t-180 -40.5q-152 0 -242 96.5t-90 288.5v473q0 40 29 68t71 28q41 0 70.5 -28t29.5 -68v-428q0 -246 205 -246q68 0 131 34.5t107 92.5z" />
    <glyph glyph-name="Ydieresis" unicode="&#x178;" horiz-adv-x="1212" 
d="M266 1374l344 -567l342 567q42 70 105 70q44 0 69 -26.5t25 -65.5q0 -22 -16 -58l-426 -688v-516q0 -43 -32 -74.5t-75 -31.5q-45 0 -75.5 31.5t-30.5 74.5v516l-418 678q-17 26 -17 59q0 42 28.5 71.5t78.5 29.5q58 0 98 -70zM369 1786q50 0 88.5 -30t38.5 -79
q0 -54 -38 -85t-89 -31q-58 0 -97 30.5t-39 85.5q0 50 39.5 79.5t96.5 29.5zM844 1786q52 0 89.5 -29.5t37.5 -79.5q0 -54 -37 -85t-90 -31q-58 0 -96.5 30.5t-38.5 85.5q0 50 39 79.5t96 29.5z" />
    <glyph glyph-name="Zacute" unicode="&#x179;" horiz-adv-x="1286" 
d="M139 0q-40 0 -66 23.5t-26 62.5q0 41 45 98l803 1049h-696q-40 0 -68.5 29.5t-28.5 72.5q0 40 28.5 69.5t68.5 29.5h909q42 0 67 -23.5t25 -62.5q0 -40 -49 -101l-805 -1046h760q40 0 69 -30t29 -71t-29 -70.5t-69 -29.5h-967zM545 1651l303 159q18 9 29 9q35 0 57 -37
l20 -51q4 -8 4 -27q0 -42 -38 -57l-314 -123q-8 -4 -24 -4q-46 0 -66 41q-8 16 -8 30q0 18 11 35t26 25z" />
    <glyph glyph-name="zacute" unicode="&#x17a;" horiz-adv-x="954" 
d="M176 0q-43 0 -70.5 26t-27.5 68q0 40 39 82l489 557h-405q-39 0 -67 27.5t-28 66.5q0 40 27.5 67.5t67.5 27.5h590q43 0 68.5 -26t25.5 -69q0 -45 -37 -82l-488 -559h431q39 0 66.5 -27.5t27.5 -64.5q0 -40 -27 -67t-67 -27h-615zM403 1219l136 206q17 29 57 29
q23 0 41 -12l39 -29q26 -17 26 -55q0 -29 -16 -45l-156 -185q-23 -26 -61 -26q-27 0 -45 12q-33 23 -33 66q0 21 12 39z" />
    <glyph glyph-name="Zdotaccent" unicode="&#x17b;" horiz-adv-x="1286" 
d="M139 0q-40 0 -66 23.5t-26 62.5q0 41 45 98l803 1049h-696q-40 0 -68.5 29.5t-28.5 72.5q0 40 28.5 69.5t68.5 29.5h909q42 0 67 -23.5t25 -62.5q0 -40 -49 -101l-805 -1046h760q40 0 69 -30t29 -71t-29 -70.5t-69 -29.5h-967zM637 1812q54 0 92.5 -34t38.5 -90
q0 -62 -38.5 -97t-92.5 -35q-59 0 -99 35t-40 97q0 56 40.5 90t98.5 34z" />
    <glyph glyph-name="zdotaccent" unicode="&#x17c;" horiz-adv-x="954" 
d="M176 0q-43 0 -70.5 26t-27.5 68q0 40 39 82l489 557h-405q-39 0 -67 27.5t-28 66.5q0 40 27.5 67.5t67.5 27.5h590q43 0 68.5 -26t25.5 -69q0 -45 -37 -82l-488 -559h431q39 0 66.5 -27.5t27.5 -64.5q0 -40 -27 -67t-67 -27h-615zM483 1378q47 0 83 -33t36 -83
q0 -58 -35.5 -92.5t-83.5 -34.5q-55 0 -91 34t-36 93q0 51 36.5 83.5t90.5 32.5z" />
    <glyph glyph-name="Zcaron" unicode="&#x17d;" horiz-adv-x="1286" 
d="M139 0q-40 0 -66 23.5t-26 62.5q0 41 45 98l803 1049h-696q-40 0 -68.5 29.5t-28.5 72.5q0 40 28.5 69.5t68.5 29.5h909q42 0 67 -23.5t25 -62.5q0 -40 -49 -101l-805 -1046h760q40 0 69 -30t29 -71t-29 -70.5t-69 -29.5h-967zM909 1819q39 0 58 -31q10 -12 10 -35
q0 -41 -33 -61l-239 -148q-27 -16 -62 -16q-37 0 -61 16l-244 148q-31 19 -31 57q0 26 8 39q23 33 62 33q21 0 37 -11l231 -133l225 133q15 9 39 9z" />
    <glyph glyph-name="zcaron" unicode="&#x17e;" horiz-adv-x="954" 
d="M176 0q-43 0 -70.5 26t-27.5 68q0 40 39 82l489 557h-405q-39 0 -67 27.5t-28 66.5q0 40 27.5 67.5t67.5 27.5h590q43 0 68.5 -26t25.5 -69q0 -45 -37 -82l-488 -559h431q39 0 66.5 -27.5t27.5 -64.5q0 -40 -27 -67t-67 -27h-615zM711 1421q29 0 49 -20t20 -49
q0 -34 -24 -58l-201 -180q-22 -22 -57 -22q-41 0 -60 22l-198 180q-25 25 -25 58q0 29 23 49q21 24 55 24q26 0 53 -20l154 -150l155 146q23 20 56 20z" />
    <glyph glyph-name="longs" unicode="&#x17f;" horiz-adv-x="581" 
d="M621 1251q-15 0 -53 9.5t-58 9.5q-74 0 -115 -55t-41 -162v-971q0 -40 -29 -69t-71 -29t-70 29t-28 69v989q0 190 83.5 286.5t239.5 96.5q107 0 171.5 -29t64.5 -86q0 -40 -25 -64t-69 -24z" />
    <glyph glyph-name="uni018F" unicode="&#x18f;" horiz-adv-x="1568" 
d="M324 1341q179 113 417 113q216 0 381 -89.5t256.5 -256.5t91.5 -387q0 -333 -195.5 -537t-520.5 -204q-203 0 -359 91t-243.5 262.5t-88.5 399.5q0 41 29.5 69.5t67.5 28.5h1081q-31 198 -172 311t-352 113q-150 0 -287 -75q-38 -15 -61 -15q-51 0 -78 43q-17 23 -17 52
q0 54 50 81zM289 631q7 -125 62.5 -226.5t159.5 -164t239 -62.5q210 0 340.5 120.5t158.5 332.5h-960z" />
    <glyph glyph-name="florin" unicode="&#x192;" horiz-adv-x="1185" 
d="M1167 1331q0 -35 -24.5 -59.5t-61.5 -24.5q-13 0 -59 10.5t-74 10.5q-71 0 -110.5 -50t-59.5 -165l-24 -131h172q40 0 67 -27.5t27 -67.5t-27 -67t-67 -27h-205l-141 -801q-34 -181 -107 -269.5t-215 -88.5q-102 0 -164 33q-49 24 -49 82q0 37 25 60.5t69 23.5
q6 0 37.5 -5.5t38.5 -5.5q70 0 109 48.5t57 140.5l137 782h-170q-38 0 -65 27t-27 67t27 67.5t65 27.5h203l27 149q38 201 116 292t228 91q111 0 188 -41q57 -31 57 -82z" />
    <glyph glyph-name="uni01DD" unicode="&#x1dd;" horiz-adv-x="1048" 
d="M274 385q3 -108 67 -169.5t177 -61.5q111 0 180.5 63t81.5 168h-506zM512 -20q-191 0 -317.5 117t-126.5 306q0 125 90 125h614q-11 107 -89 173.5t-198 66.5q-115 0 -198 -45q-28 -14 -49 -14q-34 0 -56 22.5t-22 54.5q0 44 45 72q127 84 299 84q222 0 349.5 -130.5
t127.5 -350.5q0 -136 -53 -243.5t-161 -172.5t-255 -65z" />
    <glyph glyph-name="uni0218" unicode="&#x218;" horiz-adv-x="1081" 
d="M90 209q0 39 28 68.5t72 29.5q37 0 70 -20q146 -109 260 -109q106 0 176 51.5t70 143.5q0 51 -23 92t-62 70t-90 54.5t-107 49.5t-112 50t-107 61t-90 77.5t-62 104.5t-23 137q0 165 119.5 275t320.5 110q176 0 310 -78q61 -33 61 -90q0 -41 -27 -69.5t-71 -28.5
q-36 0 -60 16q-101 53 -198 53q-106 0 -168 -51t-62 -135q0 -66 37.5 -115t97 -81t131.5 -61t144 -64.5t131.5 -80.5t97 -119.5t37.5 -172.5q0 -117 -63 -208.5t-170.5 -140t-239.5 -48.5q-215 0 -391 151q-37 30 -37 78zM391 -356q0 25 27 49q45 37 45 100q0 15 -4 33.5
t-4 23.5q0 37 41 48l88 18q6 2 14 2q34 0 50 -30.5t16 -67.5q0 -96 -73 -164t-140 -68q-27 0 -43.5 17.5t-16.5 38.5z" />
    <glyph glyph-name="uni0219" unicode="&#x219;" horiz-adv-x="854" 
d="M78 147q0 35 24 60.5t58 25.5q27 0 57 -20q106 -66 213 -66q61 0 102 28.5t41 78.5q0 34 -27.5 58t-71 40t-96.5 31t-106.5 36.5t-97 51.5t-71 81.5t-27.5 119.5q0 126 91 198t234 72q156 0 271 -70q43 -24 43 -69q0 -34 -24 -58t-60 -24q-25 0 -49 12q-84 41 -170 41
q-59 0 -95 -29t-36 -69q0 -31 21.5 -54.5t56.5 -37.5t79.5 -29t91 -28t91 -35t79.5 -49.5t56.5 -73t21.5 -103.5q0 -136 -102 -211t-262 -75q-176 0 -303 100q-33 26 -33 67zM276 -356q0 25 27 49q45 37 45 100q0 15 -4 33.5t-4 23.5q0 37 41 48l88 18q6 2 14 2
q34 0 50 -30.5t16 -67.5q0 -96 -73 -164t-140 -68q-27 0 -43.5 17.5t-16.5 38.5z" />
    <glyph glyph-name="uni021A" unicode="&#x21a;" horiz-adv-x="1220" 
d="M504 90v1143h-385q-40 0 -69.5 30t-29.5 72q0 40 29.5 69.5t69.5 29.5h983q40 0 69 -29.5t29 -69.5q0 -42 -29 -72t-69 -30h-385v-1143q0 -43 -31.5 -74.5t-75.5 -31.5t-75 31.5t-31 74.5zM457 -356q0 26 26 49q45 37 45 100q0 15 -4 33.5t-4 23.5q0 37 41 48l88 18
q6 2 15 2q34 0 49.5 -30.5t15.5 -67.5q0 -96 -73 -164t-140 -68q-27 0 -43 17.5t-16 38.5z" />
    <glyph glyph-name="uni021B" unicode="&#x21b;" horiz-adv-x="708" 
d="M573 184q37 0 59.5 -22.5t22.5 -57.5q0 -50 -53 -79q-74 -43 -196 -43q-151 0 -219 92.5t-68 275.5v731q0 40 29 68.5t71 28.5q41 0 70.5 -28.5t29.5 -68.5v-159h222q39 0 66.5 -28t27.5 -67q0 -37 -27.5 -65.5t-66.5 -28.5h-222v-368q0 -197 136 -197q28 0 67 8t51 8z
M219 -356q0 25 27 49q45 37 45 100q0 15 -4 33.5t-4 23.5q0 37 41 48l88 18q6 2 14 2q34 0 50 -30.5t16 -67.5q0 -96 -73 -164t-140 -68q-27 0 -43.5 17.5t-16.5 38.5z" />
    <glyph glyph-name="uni0237" unicode="&#x237;" horiz-adv-x="593" 
d="M219 -51v889q0 40 29 68t71 28t70.5 -28t28.5 -68v-906q0 -358 -287 -358q-94 0 -149 31q-48 25 -48 80q0 41 25.5 60t60.5 19q7 0 29.5 -3t32.5 -3q137 0 137 191z" />
    <glyph glyph-name="uni0259" unicode="&#x259;" horiz-adv-x="1048" 
d="M274 385q3 -108 67 -169.5t177 -61.5q111 0 180.5 63t81.5 168h-506zM512 -20q-191 0 -317.5 117t-126.5 306q0 125 90 125h614q-11 107 -89 173.5t-198 66.5q-115 0 -198 -45q-28 -14 -49 -14q-34 0 -56 22.5t-22 54.5q0 44 45 72q127 84 299 84q222 0 349.5 -130.5
t127.5 -350.5q0 -136 -53 -243.5t-161 -172.5t-255 -65z" />
    <glyph glyph-name="uni02BC" unicode="&#x2bc;" horiz-adv-x="454" 
d="M111 963q0 24 20 47q49 67 49 155q0 19 -10 57.5t-10 49.5q0 18 9.5 30.5t33.5 26.5l53 31q10 6 29 6q39 0 55 -33q29 -67 29 -125q0 -117 -64 -213t-125 -96q-31 0 -50 19.5t-19 44.5z" />
    <glyph glyph-name="circumflex" unicode="&#x2c6;" horiz-adv-x="851" 
d="M225 1087q-33 0 -57 27q-16 19 -16 49q0 37 24 58l197 176q20 20 57 20q34 0 57 -20l193 -176q25 -22 25 -58q0 -30 -21 -51q-21 -27 -57 -27q-25 0 -49 17l-152 129l-152 -125q-25 -19 -49 -19z" />
    <glyph glyph-name="caron" unicode="&#x2c7;" horiz-adv-x="851" 
d="M639 1421q29 0 49 -20q21 -21 21 -49q0 -33 -25 -58l-201 -180q-22 -22 -57 -22q-40 0 -59 22l-199 180q-25 25 -25 58q0 29 23 49q21 24 55 24q26 0 53 -20l154 -150l156 146q23 20 55 20z" />
    <glyph glyph-name="breve" unicode="&#x2d8;" horiz-adv-x="868" 
d="M748 1311q0 -18 -15 -37q-125 -160 -299 -160q-167 0 -287 156q-12 18 -12 41q0 29 23 49q28 16 43 16q29 0 53 -24q78 -78 188 -78q106 0 193 76q25 22 51 22q22 0 41 -16q21 -15 21 -45z" />
    <glyph glyph-name="dotaccent" unicode="&#x2d9;" horiz-adv-x="491" 
d="M250 1378q47 0 83 -33t36 -83q0 -58 -35.5 -92.5t-83.5 -34.5q-55 0 -91 34t-36 93q0 51 36.5 83.5t90.5 32.5z" />
    <glyph glyph-name="ring" unicode="&#x2da;" horiz-adv-x="741" 
d="M369 1020q-105 0 -175.5 68.5t-70.5 164.5q0 99 70.5 168.5t175.5 69.5q106 0 177.5 -69.5t71.5 -168.5q0 -96 -71.5 -164.5t-177.5 -68.5zM373 1380q-52 0 -86.5 -35.5t-34.5 -87.5q0 -53 34.5 -90t86.5 -37q50 0 83 37t33 90q0 52 -33 87.5t-83 35.5z" />
    <glyph glyph-name="ogonek" unicode="&#x2db;" horiz-adv-x="700" 
d="M520 0q-79 0 -137.5 -49t-58.5 -105q0 -52 31.5 -74t74.5 -22q10 0 34 3t32 3q35 0 52 -20t17 -51q0 -47 -53 -70q-58 -25 -127 -25q-51 0 -96 10.5t-83 32t-60.5 59.5t-22.5 89q0 79 61 139t150 88.5t186 28.5h25v-37h-25z" />
    <glyph glyph-name="tilde" unicode="&#x2dc;" horiz-adv-x="927" 
d="M774 1196q-108 -96 -196 -96q-46 0 -120 48t-120 48q-9 0 -22 -5t-20.5 -9t-24.5 -15.5t-21 -13.5q-29 -16 -49 -16q-25 0 -49 24q-13 16 -13 35q0 30 31 61q101 82 184 82q40 0 83 -23.5t83 -47t74 -23.5q14 0 28.5 5.5t20.5 8.5t25 16.5t20 14.5q25 19 49 19t47 -23
q15 -18 15 -39q0 -32 -25 -51z" />
    <glyph glyph-name="hungarumlaut" unicode="&#x2dd;" horiz-adv-x="954" 
d="M492 1214l149 199q20 29 57 29q25 0 43 -15l33 -24q25 -22 25 -53q0 -26 -17 -43l-164 -181q-28 -28 -65 -28q-26 0 -45 16q-29 20 -29 62q0 18 13 38zM162 1219l131 208q19 31 57 31q21 0 39 -12l29 -21q28 -19 28 -57q0 -26 -14 -43l-145 -195q-20 -28 -62 -28
q-25 0 -45 14q-30 21 -30 60q0 22 12 43z" />
    <glyph glyph-name="gravecomb" unicode="&#x300;" horiz-adv-x="0" 
d="M-606 1425l139 -208q12 -18 12 -46q0 -40 -32 -59q-17 -14 -43 -14q-36 0 -64 28l-164 185q-14 17 -14 45q0 30 24 51l48 35q18 12 38 12q37 0 56 -29z" />
    <glyph glyph-name="acutecomb" unicode="&#x301;" horiz-adv-x="0" 
d="M-616 1219l135 206q17 29 57 29q23 0 41 -12l39 -29q27 -18 27 -55q0 -28 -17 -45l-155 -185q-23 -26 -62 -26q-27 0 -45 12q-33 23 -33 66q0 20 13 39z" />
    <glyph glyph-name="pi" unicode="&#x3c0;" horiz-adv-x="1265" 
d="M43 80q0 32 15.5 55t52.5 45q69 37 106 130.5t37 283.5v139h-90q-37 0 -64.5 28t-27.5 66q0 39 27.5 67t64.5 28h913q37 0 63.5 -27.5t26.5 -67.5q0 -38 -26.5 -66t-63.5 -28h-82v-403q0 -85 20.5 -123.5t71.5 -38.5q12 0 34.5 4t29.5 4q41 0 63.5 -22.5t22.5 -55.5
q0 -114 -217 -114q-223 0 -223 262v487h-346v-106q0 -140 -18 -252t-47 -183.5t-69 -119.5t-81.5 -68t-85.5 -20q-48 0 -77.5 26t-29.5 70z" />
    <glyph glyph-name="uni0401" unicode="&#x401;" horiz-adv-x="1177" 
d="M420 201h530q40 0 68.5 -30t28.5 -71t-28.5 -70.5t-68.5 -29.5h-643q-41 0 -70.5 29.5t-29.5 70.5v1233q0 41 29.5 71t70.5 30h623q39 0 67.5 -29.5t28.5 -69.5q0 -43 -28 -72.5t-68 -29.5h-510v-410h448q40 0 68.5 -28.5t28.5 -69.5q0 -42 -28.5 -71t-68.5 -29h-448
v-424zM399 1786q50 0 88.5 -30t38.5 -79q0 -54 -38 -85t-89 -31q-58 0 -96.5 30.5t-38.5 85.5q0 50 39 79.5t96 29.5zM874 1786q52 0 89.5 -29.5t37.5 -79.5q0 -54 -37 -85t-90 -31q-58 0 -96.5 30.5t-38.5 85.5q0 50 39 79.5t96 29.5z" />
    <glyph glyph-name="uni0402" unicode="&#x402;" horiz-adv-x="1562" 
d="M504 90v1143h-385q-40 0 -69.5 30t-29.5 72q0 40 29.5 69.5t69.5 29.5h983q40 0 69 -29.5t29 -69.5q0 -42 -29 -72t-69 -30h-385v-459q143 92 319 92q75 0 137.5 -13.5t117.5 -46.5t93 -83.5t60 -128t22 -176.5q0 -220 -95.5 -329t-260.5 -109q-104 0 -180 36
q-28 12 -45 38t-17 55q0 40 26.5 66t68.5 26q16 0 55.5 -11.5t62.5 -11.5q79 0 125.5 57.5t46.5 178.5q0 254 -258 254q-61 0 -118 -16t-85 -30t-75 -42v-490q0 -43 -31.5 -74.5t-75.5 -31.5t-75 31.5t-31 74.5z" />
    <glyph glyph-name="uni0403" unicode="&#x403;" horiz-adv-x="1036" 
d="M207 90v1243q0 41 29.5 71t70.5 30h606q40 0 69.5 -29.5t29.5 -69.5q0 -42 -29.5 -72t-69.5 -30h-493v-1143q0 -43 -31 -74.5t-74 -31.5q-45 0 -76.5 31.5t-31.5 74.5zM580 1651l303 159q18 9 28 9q36 0 58 -37l20 -51q4 -8 4 -27q0 -41 -39 -57l-313 -123q-8 -4 -25 -4
q-45 0 -65 41q-8 16 -8 30q0 18 11 35t26 25z" />
    <glyph glyph-name="uni0404" unicode="&#x404;" horiz-adv-x="1357" 
d="M1204 266q44 0 71.5 -26.5t27.5 -71.5q0 -55 -58 -90q-152 -98 -401 -98q-340 0 -543 200.5t-203 536.5q0 329 201 533t524 204q229 0 389 -90q62 -38 62 -90q0 -41 -27.5 -67.5t-66.5 -26.5q-34 0 -62 14q-116 61 -258 61q-220 0 -364.5 -113t-176.5 -311h576
q40 0 68 -29.5t28 -70.5t-28 -70.5t-68 -29.5h-580q27 -215 175.5 -334t361.5 -119q153 0 291 72q32 16 61 16z" />
    <glyph glyph-name="uni0405" unicode="&#x405;" horiz-adv-x="1081" 
d="M90 209q0 39 28 68.5t72 29.5q37 0 70 -20q146 -109 260 -109q106 0 176 51.5t70 143.5q0 51 -23 92t-62 70t-90 54.5t-107 49.5t-112 50t-107 61t-90 77.5t-62 104.5t-23 137q0 165 119.5 275t320.5 110q176 0 310 -78q61 -33 61 -90q0 -41 -27 -69.5t-71 -28.5
q-36 0 -60 16q-101 53 -198 53q-106 0 -168 -51t-62 -135q0 -66 37.5 -115t97 -81t131.5 -61t144 -64.5t131.5 -80.5t97 -119.5t37.5 -172.5q0 -117 -63 -208.5t-170.5 -140t-239.5 -48.5q-215 0 -391 151q-37 30 -37 78z" />
    <glyph glyph-name="uni0406" unicode="&#x406;" horiz-adv-x="698" 
d="M455 1339v-1249q0 -43 -30.5 -74.5t-74.5 -31.5t-76 31.5t-32 74.5v1249q0 43 32 74t76 31t74.5 -31t30.5 -74z" />
    <glyph glyph-name="uni0407" unicode="&#x407;" horiz-adv-x="700" 
d="M70 1677q0 50 33.5 79.5t84.5 29.5q45 0 78 -30t33 -79q0 -54 -32.5 -85t-78.5 -31q-52 0 -85 30.5t-33 85.5zM401 1677q0 50 34 79.5t85 29.5q45 0 78 -30t33 -79q0 -54 -32.5 -85t-78.5 -31q-52 0 -85.5 30.5t-33.5 85.5zM455 1339v-1249q0 -43 -30.5 -74.5
t-74.5 -31.5t-76 31.5t-32 74.5v1249q0 43 32 74t76 31t74.5 -31t30.5 -74z" />
    <glyph glyph-name="uni0408" unicode="&#x408;" horiz-adv-x="774" 
d="M352 369v970q0 43 32.5 74t76.5 31t74 -31t30 -74v-1007q0 -170 -81 -261t-246 -91q-93 0 -152 26q-29 11 -47.5 35t-18.5 55q0 42 26 69.5t69 27.5q11 0 44 -7.5t50 -7.5q143 0 143 191z" />
    <glyph glyph-name="uni0409" unicode="&#x409;" horiz-adv-x="2078" 
d="M504 1434h670q44 0 74 -31t30 -76v-405q90 10 176 10q260 0 394 -121t134 -332q0 -229 -151.5 -356t-423.5 -127q-96 0 -236 4q-43 0 -73.5 31t-30.5 75v1127h-469l-27 -270q-23 -237 -57 -411.5t-73 -282.5t-90 -172.5t-101.5 -88.5t-114.5 -24q-56 0 -91.5 26t-35.5 70
q0 89 107 108q48 10 85 57t71 151.5t60.5 291t45.5 459.5l14 182q3 44 36 74.5t77 30.5zM1278 721v-520q25 0 75 -2t79 -2q159 0 242 70t83 208q0 125 -83 191.5t-236 66.5q-61 0 -160 -12z" />
    <glyph glyph-name="uni040A" unicode="&#x40a;" horiz-adv-x="2134" 
d="M420 680v-590q0 -43 -31 -74.5t-74 -31.5q-45 0 -76.5 31.5t-31.5 74.5v1249q0 43 31.5 74t76.5 31q43 0 74 -31t31 -74v-458h702v458q0 43 31 74t76 31q43 0 73.5 -31t30.5 -74v-450q96 8 174 8q263 0 396 -115.5t133 -318.5q0 -219 -152 -343t-422 -124q-47 0 -126.5 2
t-114.5 2q-45 0 -72 29t-27 71v580h-702zM1333 201q25 0 75 -2t79 -2q158 0 240.5 66t82.5 196q0 115 -82.5 177t-236.5 62q-79 0 -158 -10v-487z" />
    <glyph glyph-name="uni040B" unicode="&#x40b;" horiz-adv-x="1564" 
d="M1253 90v258q0 320 -266 320q-130 0 -270 -90v-488q0 -43 -31.5 -74.5t-75.5 -31.5t-75 31.5t-31 74.5v1143h-385q-40 0 -69.5 30t-29.5 72q0 40 29.5 69.5t69.5 29.5h983q40 0 69 -29.5t29 -69.5q0 -42 -29 -72t-69 -30h-385v-459q137 92 325 92q87 0 160.5 -25
t134 -76.5t95 -142.5t34.5 -212v-320q0 -43 -30.5 -74.5t-75.5 -31.5q-43 0 -75 31.5t-32 74.5z" />
    <glyph glyph-name="uni040C" unicode="&#x40c;" horiz-adv-x="1314" 
d="M420 90q0 -43 -31 -74.5t-74 -31.5q-45 0 -76.5 31.5t-31.5 74.5v1249q0 43 31.5 74t76.5 31q43 0 74 -31t31 -74v-1249zM1223 78q0 -40 -29.5 -67t-73.5 -27q-32 0 -54.5 15.5t-49.5 45.5l-520 627q-29 37 -29 73t31 76l493 568q49 55 99 55q42 0 68 -25t26 -63
q0 -42 -33 -78l-475 -516l512 -598q35 -41 35 -86zM655 1651l303 159q18 9 29 9q35 0 57 -37l21 -51q4 -8 4 -27q0 -41 -39 -57l-313 -123q-8 -4 -25 -4q-45 0 -65 41q-9 18 -9 30q0 18 11 35t26 25z" />
    <glyph glyph-name="uni040E" unicode="&#x40e;" horiz-adv-x="1335" 
d="M270 1380l471 -796l340 786q31 74 97 74q46 0 73 -25t27 -63q0 -25 -12 -49l-435 -975q-80 -181 -163.5 -256.5t-208.5 -75.5q-62 0 -111 16q-28 11 -51 37t-23 62q0 40 27.5 67t71.5 27q10 0 41 -5t49 -5q95 0 151 123l25 51l-553 913q-16 21 -16 57q0 42 27 71.5
t71 29.5q61 0 102 -64zM1077 1749q0 -106 -110 -179t-279 -73q-171 0 -282 70t-111 178q0 43 26 70.5t72 27.5q78 0 107 -102q21 -94 188 -94q161 0 191 102q10 41 35 67.5t65 26.5q42 0 70 -26t28 -68z" />
    <glyph glyph-name="uni040F" unicode="&#x40f;" horiz-adv-x="1527" 
d="M862 -213q0 -42 -30 -72t-70 -30t-69 30t-29 72v213h-353q-43 0 -73.5 31t-30.5 75v1233q0 43 31.5 74t76.5 31q43 0 74 -31t31 -74v-1138h688v1138q0 43 32 74t77 31q43 0 73.5 -31t30.5 -74v-1233q0 -44 -30.5 -75t-73.5 -31h-355v-213z" />
    <glyph glyph-name="uni0410" unicode="&#x410;" horiz-adv-x="1406" 
d="M1016 393h-635l-141 -344q-25 -65 -93 -65q-44 0 -72 29t-28 69q0 21 10 41l529 1235q40 86 121 86q44 0 73 -24.5t43 -61.5l529 -1231q8 -24 8 -41q0 -41 -28.5 -71.5t-71.5 -30.5q-38 0 -65 19t-38 50zM700 1155l-235 -563h469z" />
    <glyph glyph-name="uni0411" unicode="&#x411;" horiz-adv-x="1255" 
d="M420 868q102 13 207 13q230 0 360.5 -115t130.5 -311q0 -223 -145 -343t-408 -120q-48 0 -258 6q-43 1 -71.5 31t-28.5 71v1233q0 41 29.5 71t70.5 30h627q40 0 69 -29.5t29 -69.5q0 -42 -29 -72t-69 -30h-514v-365zM420 668v-467q118 -8 178 -8q155 0 231 64t76 181
q0 111 -74 176.5t-221 65.5q-85 0 -190 -12z" />
    <glyph glyph-name="uni0412" unicode="&#x412;" horiz-adv-x="1263" 
d="M1077 1085q0 -123 -61 -206t-164 -125q126 -26 200 -111.5t74 -226.5q0 -107 -40 -189.5t-111.5 -133t-166.5 -76t-210 -25.5q-43 0 -143 2t-144 2q-43 3 -73.5 35t-30.5 75v1221q0 43 31 75t73 32q135 6 299 6q125 0 217 -27t145.5 -76.5t79 -112t25.5 -139.5zM420 635
v-434q82 -8 194 -8q143 0 221 59t78 174q0 102 -75 155.5t-213 53.5h-205zM420 821h198q107 0 176.5 56t69.5 159q0 99 -67 152t-191 53q-92 0 -186 -8v-412z" />
    <glyph glyph-name="uni0413" unicode="&#x413;" horiz-adv-x="1036" 
d="M207 90v1243q0 41 29.5 71t70.5 30h606q40 0 69.5 -29.5t29.5 -69.5q0 -42 -29.5 -72t-69.5 -30h-493v-1143q0 -43 -31 -74.5t-74 -31.5q-45 0 -76.5 31.5t-31.5 74.5z" />
    <glyph glyph-name="uni0414" unicode="&#x414;" horiz-adv-x="1540" 
d="M524 1434h666q41 0 70.5 -30t29.5 -71v-1132h94q41 0 71 -30t30 -73v-262q0 -40 -29.5 -69t-71.5 -29q-41 0 -69.5 29t-28.5 69v164h-1059v-164q0 -40 -29 -69t-71 -29q-41 0 -69.5 29t-28.5 69v262q0 43 29 73t69 30h53q27 32 58.5 102t67.5 183t65 287.5t39 373.5
l8 186q3 42 33.5 71.5t72.5 29.5zM1077 201v1032h-446l-21 -252q-22 -290 -83.5 -504.5t-110.5 -275.5h661z" />
    <glyph glyph-name="uni0415" unicode="&#x415;" horiz-adv-x="1177" 
d="M420 201h530q40 0 68.5 -30t28.5 -71t-28.5 -70.5t-68.5 -29.5h-643q-41 0 -70.5 29.5t-29.5 70.5v1233q0 41 29.5 71t70.5 30h623q39 0 67.5 -29.5t28.5 -69.5q0 -43 -28 -72.5t-68 -29.5h-510v-410h448q40 0 68.5 -28.5t28.5 -69.5q0 -42 -28.5 -71t-68.5 -29h-448
v-424z" />
    <glyph glyph-name="uni0416" unicode="&#x416;" horiz-adv-x="1859" 
d="M930 1444q44 0 75 -31t31 -74v-1249q0 -43 -31 -74.5t-75 -31.5q-43 0 -75 31.5t-32 74.5v1249q0 43 32 74t75 31zM1780 78q0 -38 -25.5 -66t-66.5 -28q-32 0 -54.5 14.5t-48.5 48.5l-479 629q-25 36 -25 69q0 39 25 70l453 569q50 60 100 60q40 0 66 -26t26 -62
q0 -35 -25 -70l-440 -536l471 -607q23 -29 23 -65zM276 47q-24 -32 -47.5 -47.5t-56.5 -15.5q-42 0 -67 26t-25 64q0 39 24 69l474 605l-439 536q-28 32 -28 68q0 38 27 65t67 27q28 0 50.5 -15.5t49.5 -48.5l449 -565q26 -33 26 -70q0 -30 -24 -69z" />
    <glyph glyph-name="uni0417" unicode="&#x417;" horiz-adv-x="1159" 
d="M524 -20q-235 0 -420 159q-34 27 -34 80q0 40 27 69t71 29q34 0 65 -22q157 -117 281 -117q128 0 211.5 63t83.5 181q0 97 -70 154t-198 57h-56q-45 0 -73.5 28.5t-28.5 71.5t27 70.5t71 27.5h51q88 0 155 61.5t67 156.5q0 100 -65.5 153t-168.5 53q-122 0 -248 -88
q-34 -24 -69 -24q-40 0 -66 27t-26 63q0 50 43 82q88 70 180.5 104.5t208.5 34.5q192 0 308 -101.5t116 -283.5q0 -92 -52 -180.5t-149 -143.5q125 -31 189.5 -123.5t64.5 -220.5t-70 -225.5t-181.5 -146.5t-244.5 -49z" />
    <glyph glyph-name="uni0418" unicode="&#x418;" horiz-adv-x="1626" 
d="M1417 90q0 -43 -30 -74.5t-74 -31.5t-76.5 31.5t-32.5 74.5v991l-770 -1026q-54 -71 -119 -71q-52 0 -80 30t-28 80v1245q0 43 31.5 74t76.5 31q43 0 74 -31t31 -74v-989l770 1026q51 68 117 68q51 0 80.5 -29.5t29.5 -79.5v-1245z" />
    <glyph glyph-name="uni0419" unicode="&#x419;" horiz-adv-x="1626" 
d="M1417 90q0 -43 -30 -74.5t-74 -31.5t-76.5 31.5t-32.5 74.5v991l-770 -1026q-54 -71 -119 -71q-52 0 -80 30t-28 80v1245q0 43 31.5 74t76.5 31q43 0 74 -31t31 -74v-989l770 1026q51 68 117 68q51 0 80.5 -29.5t29.5 -79.5v-1245zM1221 1749q0 -106 -110.5 -179
t-279.5 -73q-171 0 -282 70t-111 178q0 43 26.5 70.5t72.5 27.5q77 0 106 -102q21 -94 188 -94q161 0 191 102q10 41 35 67.5t65 26.5q42 0 70.5 -26t28.5 -68z" />
    <glyph glyph-name="uni041A" unicode="&#x41a;" horiz-adv-x="1314" 
d="M420 90q0 -43 -31 -74.5t-74 -31.5q-45 0 -76.5 31.5t-31.5 74.5v1249q0 43 31.5 74t76.5 31q43 0 74 -31t31 -74v-1249zM1223 78q0 -40 -29.5 -67t-73.5 -27q-32 0 -54.5 15.5t-49.5 45.5l-520 627q-29 37 -29 73t31 76l493 568q49 55 99 55q42 0 68 -25t26 -63
q0 -42 -33 -78l-475 -516l512 -598q35 -41 35 -86z" />
    <glyph glyph-name="uni041B" unicode="&#x41b;" horiz-adv-x="1486" 
d="M1278 1329v-1239q0 -43 -30 -74.5t-74 -31.5t-75.5 31.5t-31.5 74.5v1143h-469l-27 -270q-23 -237 -57 -411.5t-73 -282.5t-90 -172.5t-101.5 -88.5t-114.5 -24q-56 0 -91.5 26t-35.5 70q0 89 107 108q48 10 85 57t71 151.5t60.5 291t45.5 459.5l14 182q3 44 36 74.5
t77 30.5h672q42 0 72 -31t30 -74z" />
    <glyph glyph-name="uni041C" unicode="&#x41c;" horiz-adv-x="1835" 
d="M420 1081v-991q0 -43 -31 -74.5t-74 -31.5q-45 0 -76.5 31.5t-31.5 74.5v1225q0 56 33 92.5t88 36.5q45 0 75.5 -20t57.5 -58l471 -635l452 637q54 76 132 76q52 0 83 -33t31 -84v-1237q0 -43 -31.5 -74.5t-74.5 -31.5q-44 0 -75.5 31.5t-31.5 74.5v997l-391 -540
q-46 -64 -104 -64t-107 64z" />
    <glyph glyph-name="uni041D" unicode="&#x41d;" horiz-adv-x="1560" 
d="M1354 1339v-1249q0 -43 -31 -74.5t-74 -31.5q-45 0 -75.5 31.5t-30.5 74.5v541h-723v-541q0 -43 -31 -74.5t-74 -31.5q-45 0 -76.5 31.5t-31.5 74.5v1249q0 43 31.5 74t76.5 31q43 0 74 -31t31 -74v-508h723v508q0 43 30.5 74t75.5 31q43 0 74 -31t31 -74z" />
    <glyph glyph-name="uni041E" unicode="&#x41e;" horiz-adv-x="1671" 
d="M98 717q0 154 55 290t151 234.5t234 155.5t298 57q157 0 293.5 -53.5t234.5 -149t154.5 -233.5t56.5 -301q0 -211 -96.5 -379.5t-265 -263t-377.5 -94.5q-210 0 -377.5 91t-264 260t-96.5 386zM324 717q0 -229 148 -384t364 -155q154 0 272 71.5t180 193.5t62 274
q0 234 -147.5 386t-366.5 152q-221 0 -366.5 -151.5t-145.5 -386.5z" />
    <glyph glyph-name="uni041F" unicode="&#x41f;" horiz-adv-x="1548" 
d="M1341 1327v-1237q0 -43 -30.5 -74.5t-73.5 -31.5q-45 0 -77 31.5t-32 74.5v1143h-708v-1143q0 -43 -31 -74.5t-74 -31.5q-45 0 -76.5 31.5t-31.5 74.5v1237q0 44 30.5 75.5t73.5 31.5h926q43 0 73.5 -31.5t30.5 -75.5z" />
    <glyph glyph-name="uni0420" unicode="&#x420;" horiz-adv-x="1236" 
d="M598 1438q121 0 216 -25.5t155.5 -68t100 -101.5t55.5 -122.5t16 -135.5q0 -91 -33.5 -172.5t-96.5 -145.5t-163.5 -101.5t-226.5 -37.5q-122 0 -201 7v-445q0 -43 -31 -74.5t-74 -31.5q-45 0 -76.5 31.5t-31.5 74.5v1237q0 44 30.5 75.5t73.5 31.5q192 4 287 4z
M420 1233v-496q105 -10 194 -10q138 0 219.5 67.5t81.5 192.5q0 122 -74 186t-223 64q-130 0 -198 -4z" />
    <glyph glyph-name="uni0421" unicode="&#x421;" horiz-adv-x="1323" 
d="M1077 1200q-116 55 -254 55q-220 0 -359.5 -148t-139.5 -390q0 -240 146 -389.5t380 -149.5q140 0 264 68q27 16 66 16q42 0 68 -26t26 -62q0 -54 -49 -88q-156 -106 -394 -106q-215 0 -381.5 90.5t-259 258.5t-92.5 388q0 155 49 289t139 234t228 157t307 57
q203 0 350 -84q62 -35 62 -88q0 -41 -25 -68.5t-69 -27.5q-37 0 -62 14z" />
    <glyph glyph-name="uni0422" unicode="&#x422;" horiz-adv-x="1220" 
d="M504 90v1143h-385q-40 0 -69.5 30t-29.5 72q0 40 29.5 69.5t69.5 29.5h983q40 0 69 -29.5t29 -69.5q0 -42 -29 -72t-69 -30h-385v-1143q0 -43 -31.5 -74.5t-75.5 -31.5t-75 31.5t-31 74.5z" />
    <glyph glyph-name="uni0423" unicode="&#x423;" horiz-adv-x="1335" 
d="M270 1380l471 -796l340 786q31 74 97 74q46 0 73 -25t27 -63q0 -25 -12 -49l-435 -975q-80 -181 -163.5 -256.5t-208.5 -75.5q-62 0 -111 16q-28 11 -51 37t-23 62q0 40 27.5 67t71.5 27q10 0 41 -5t49 -5q95 0 151 123l25 51l-553 913q-16 21 -16 57q0 42 27 71.5
t71 29.5q61 0 102 -64z" />
    <glyph glyph-name="uni0424" unicode="&#x424;" horiz-adv-x="1712" 
d="M963 172v-84q0 -42 -32 -73t-75 -31q-45 0 -74.5 30.5t-29.5 73.5v84q-306 0 -490 149t-184 416q0 265 183.5 414t490.5 152v43q0 43 29.5 73.5t74.5 30.5q43 0 75 -31t32 -73v-43q305 -3 489 -153.5t184 -412.5q0 -177 -86 -305t-236.5 -193.5t-350.5 -66.5zM963 369
q216 0 332 93.5t116 274.5q0 169 -115.5 267.5t-332.5 101.5v-737zM752 1106q-213 -1 -331 -100.5t-118 -268.5q0 -179 118.5 -273.5t330.5 -94.5v737z" />
    <glyph glyph-name="uni0425" unicode="&#x425;" horiz-adv-x="1294" 
d="M307 1376l344 -487l340 487q47 68 107 68q44 0 71 -28t27 -68q0 -31 -20 -64l-390 -555l410 -582q21 -30 21 -61q0 -41 -28.5 -71.5t-70.5 -30.5q-59 0 -98 57l-373 526l-368 -524q-42 -59 -101 -59q-43 0 -71.5 28.5t-28.5 69.5q0 36 22 70l410 577l-387 553
q-21 35 -21 64q0 40 29.5 69t77.5 29q53 0 98 -68z" />
    <glyph glyph-name="uni0426" unicode="&#x426;" horiz-adv-x="1581" 
d="M1526 -160q0 -42 -30.5 -72t-70.5 -30t-69 30t-29 72v160h-1016q-43 0 -73.5 31t-30.5 75v1233q0 43 31.5 74t76.5 31q43 0 74 -31t31 -74v-1138h698v1138q0 43 31.5 74t75.5 31t75 -31t31 -74v-1138h90q43 0 74 -32t31 -75v-254z" />
    <glyph glyph-name="uni0427" unicode="&#x427;" horiz-adv-x="1347" 
d="M930 803v536q0 43 30.5 74t75.5 31q43 0 75 -31t32 -74v-1249q0 -43 -32 -74.5t-75 -31.5q-45 0 -75.5 31.5t-30.5 74.5v516q-62 -42 -156.5 -72t-204.5 -30q-88 0 -162.5 24.5t-137 76.5t-98.5 143t-36 213v378q0 43 31.5 74t75.5 31t75 -31t31 -74v-319
q0 -318 277 -318q152 0 305 101z" />
    <glyph glyph-name="uni0428" unicode="&#x428;" horiz-adv-x="2039" 
d="M1833 1339v-1233q0 -44 -30.5 -75t-73.5 -31h-1418q-43 0 -73.5 31t-30.5 75v1233q0 43 31.5 74t76.5 31q43 0 74 -31t31 -74v-1138h493v1138q0 43 31.5 74t75.5 31t75 -31t31 -74v-1138h494v1138q0 43 32 74t77 31q43 0 73.5 -31t30.5 -74z" />
    <glyph glyph-name="uni0429" unicode="&#x429;" horiz-adv-x="2084" 
d="M2028 -160q0 -41 -29.5 -71.5t-69.5 -30.5q-41 0 -71.5 30.5t-30.5 71.5v160h-1516q-43 0 -73.5 31t-30.5 75v1233q0 43 31.5 74t76.5 31q43 0 74 -31t31 -74v-1138h493v1138q0 43 31.5 74t75.5 31t75 -31t31 -74v-1138h494v1138q0 43 32 74t77 31q43 0 73.5 -31
t30.5 -74v-1138h88q44 0 75.5 -32t31.5 -75v-254z" />
    <glyph glyph-name="uni042A" unicode="&#x42a;" horiz-adv-x="1374" 
d="M688 -4q-98 0 -246 4q-43 0 -72.5 29.5t-29.5 70.5v1133h-229q-40 0 -69.5 30t-29.5 72q0 40 29.5 69.5t69.5 29.5h342q41 0 70.5 -30t29.5 -71v-411q90 10 184 10q269 0 405 -120.5t136 -332.5q0 -228 -154.5 -355.5t-435.5 -127.5zM553 721v-520q25 0 79 -2t83 -2
q163 0 250.5 68.5t87.5 209.5q0 126 -88 192t-244 66q-69 0 -168 -12z" />
    <glyph glyph-name="uni042B" unicode="&#x42b;" horiz-adv-x="1748" 
d="M1544 1339v-1249q0 -43 -31.5 -74.5t-74.5 -31.5q-44 0 -75.5 31.5t-31.5 74.5v1249q0 43 31.5 74t75.5 31q43 0 74.5 -31t31.5 -74zM420 721v-520q25 0 74.5 -2t78.5 -2q158 0 241 70t83 208q0 126 -82.5 192t-236.5 66q-64 0 -158 -12zM207 106v1233q0 43 31.5 74
t76.5 31q43 0 74 -31t31 -74v-417q90 10 174 10q262 0 395 -120.5t133 -332.5q0 -227 -151.5 -355t-421.5 -128q-98 0 -238 4q-43 0 -73.5 31t-30.5 75z" />
    <glyph glyph-name="uni042C" unicode="&#x42c;" horiz-adv-x="1241" 
d="M420 721v-520q25 0 79 -2t83 -2q161 0 248.5 68.5t87.5 209.5q0 127 -87.5 192.5t-244.5 65.5q-72 0 -166 -12zM207 106v1233q0 43 31.5 74t76.5 31q43 0 74 -31t31 -74v-417q90 10 182 10q270 0 405.5 -120.5t135.5 -332.5q0 -228 -153.5 -355.5t-432.5 -127.5
q-98 0 -246 4q-43 0 -73.5 31t-30.5 75z" />
    <glyph glyph-name="uni042D" unicode="&#x42d;" horiz-adv-x="1357" 
d="M152 262q34 0 61 -16q149 -68 301 -68q211 0 356 120t172 333h-579q-40 0 -69 29.5t-29 70.5t29 70.5t69 29.5h575q-32 200 -177.5 312t-368.5 112q-120 0 -259 -63q-27 -16 -59 -16q-40 0 -67 27t-27 65q0 55 57 90q166 96 395 96q326 0 528 -200.5t202 -532.5
q0 -333 -203 -537t-541 -204q-124 0 -222 20.5t-187 73.5q-56 32 -56 90q0 43 28 70.5t71 27.5z" />
    <glyph glyph-name="uni042E" unicode="&#x42e;" horiz-adv-x="2211" 
d="M420 631v-541q0 -43 -31 -74.5t-74 -31.5q-45 0 -76.5 31.5t-31.5 74.5v1249q0 43 31.5 74t76.5 31q43 0 74 -31t31 -74v-508h276q24 179 116 320t243.5 222t339.5 81q208 0 371.5 -91.5t255.5 -259.5t92 -386q0 -212 -91.5 -380t-256 -262.5t-371.5 -94.5
q-185 0 -338 80t-250 229t-115 342h-272zM913 717q0 -229 141 -384t347 -155q153 0 265 72t167 193t55 274q0 237 -135 387.5t-352 150.5q-210 0 -349 -151.5t-139 -386.5z" />
    <glyph glyph-name="uni042F" unicode="&#x42f;" horiz-adv-x="1249" 
d="M1042 1327v-1237q0 -43 -30.5 -74.5t-73.5 -31.5q-45 0 -76 31.5t-31 74.5v424h-237l-320 -473q-43 -57 -98 -57q-43 0 -69.5 27t-26.5 65q0 36 22 63l287 416q-115 52 -190.5 155t-75.5 244q0 101 34 187t101.5 154t179.5 106.5t258 38.5q78 0 242 -4q43 -2 73.5 -33.5
t30.5 -75.5zM831 713v520q-82 8 -176 8q-144 0 -225.5 -76t-81.5 -198q0 -99 66 -168.5t157 -85.5h260z" />
    <glyph glyph-name="uni0430" unicode="&#x430;" horiz-adv-x="946" 
d="M362 -12q-128 0 -206 75t-78 207q0 143 94.5 219t245.5 76q61 0 122 -15t99 -42v29q0 117 -42.5 175t-150.5 58q-54 0 -120 -17.5t-80 -17.5q-39 0 -60.5 23t-21.5 55q0 25 15.5 46.5t41.5 31.5q114 51 244 51q194 0 278 -95t84 -284v-489q0 -35 -26 -60.5t-66 -25.5
q-38 0 -63 24.5t-25 61.5v35q-43 -54 -115.5 -87.5t-169.5 -33.5zM639 262v105q-74 53 -184 53q-73 0 -122.5 -34t-49.5 -99q0 -58 39.5 -92.5t107.5 -34.5q128 0 209 102z" />
    <glyph glyph-name="uni0431" unicode="&#x431;" horiz-adv-x="1118" 
d="M1044 453q0 -198 -134 -335.5t-343 -137.5q-229 0 -361 155t-132 422q0 596 344 741q67 29 138 44.5t126 26.5t94 32q56 29 92 29q45 0 72 -28.5t27 -64.5q0 -47 -49 -86q-45 -35 -99.5 -55t-100 -25.5t-110 -20.5t-119.5 -40q-192 -87 -215 -395q46 86 142.5 140
t206.5 54q193 0 307 -124t114 -332zM287 516q0 -156 76 -254t198 -98q121 0 195.5 80.5t74.5 197.5q0 124 -68 201.5t-192 77.5q-109 0 -185 -59.5t-99 -145.5z" />
    <glyph glyph-name="uni0432" unicode="&#x432;" horiz-adv-x="1019" 
d="M895 692q0 -82 -50 -139.5t-128 -71.5q205 -46 205 -217q0 -272 -430 -272q-16 0 -256 6q-41 2 -69 30.5t-28 69.5v725q0 41 28.5 70.5t68.5 32.5q34 0 119 2t132 2q408 0 408 -238zM340 401v-241q82 -8 172 -8q95 0 148 33.5t53 93.5q0 61 -52 91.5t-149 30.5h-172z
M340 524h180q72 0 118 33.5t46 93.5q0 59 -49.5 89t-130.5 30q-65 0 -164 -6v-240z" />
    <glyph glyph-name="uni0433" unicode="&#x433;" horiz-adv-x="753" 
d="M340 733v-651q0 -40 -29.5 -69t-70.5 -29q-42 0 -71.5 29t-29.5 69v743q0 40 28.5 68.5t68.5 28.5h407q40 0 69 -28.5t29 -66.5q0 -37 -29.5 -65.5t-68.5 -28.5h-303z" />
    <glyph glyph-name="uni0434" unicode="&#x434;" horiz-adv-x="1114" 
d="M207 0v-127q0 -37 -27.5 -65.5t-64.5 -28.5q-38 0 -66.5 28.5t-28.5 65.5v219q0 39 26 66.5t65 27.5h24q51 63 88.5 199t46.5 303l9 139q3 40 32.5 67.5t69.5 27.5h465q38 0 66 -28.5t28 -66.5v-641h59q38 0 66.5 -28t28.5 -66v-219q0 -37 -28.5 -65.5t-66.5 -28.5
q-37 0 -65.5 28.5t-28.5 65.5v127h-698zM741 186v547h-270l-8 -123q-13 -149 -46.5 -262.5t-70.5 -161.5h395z" />
    <glyph glyph-name="uni0435" unicode="&#x435;" horiz-adv-x="1073" 
d="M791 545q-3 100 -66.5 161.5t-171.5 61.5q-113 0 -181.5 -60.5t-86.5 -162.5h506zM295 399q12 -116 93 -180.5t206 -64.5q117 0 197 45q28 14 49 14q33 0 55.5 -21t22.5 -55q0 -46 -35 -67q-131 -90 -310 -90q-223 0 -358 131.5t-135 349.5q0 207 130 344t351 137
q183 0 307.5 -118t124.5 -306q0 -119 -92 -119h-606z" />
    <glyph glyph-name="uni0436" unicode="&#x436;" horiz-adv-x="1355" 
d="M1241 782l-219 -307l244 -336q20 -26 20 -61q0 -39 -25 -66.5t-69 -27.5q-59 0 -94 57l-254 371q-19 28 -19 63q0 34 19 66l225 338q36 55 96 55q44 0 70.5 -27.5t26.5 -66.5q0 -37 -21 -58zM774 838v-756q0 -40 -28 -69t-70 -29t-71.5 29t-29.5 69v756q0 40 29 68t72 28
q42 0 70 -28t28 -68zM508 410l-250 -369q-35 -57 -94 -57q-43 0 -68.5 28t-25.5 66q0 34 20 61l240 336l-219 303q-17 23 -17 58q0 39 27 68.5t72 29.5q55 0 92 -57l223 -336q18 -27 18 -66q0 -35 -18 -65z" />
    <glyph glyph-name="uni0437" unicode="&#x437;" horiz-adv-x="927" 
d="M446 942q172 0 264.5 -67.5t92.5 -186.5q0 -70 -42 -126.5t-124 -86.5q93 -14 143.5 -75t50.5 -144q0 -127 -112 -201.5t-293 -74.5q-105 0 -180.5 19.5t-145.5 70.5q-34 24 -34 69q0 32 23.5 59t60.5 27q23 0 55 -16q106 -62 198 -62q98 0 156.5 36.5t58.5 95.5
q0 53 -41.5 81.5t-117.5 28.5h-90q-32 0 -53 22.5t-21 51.5t21 51.5t53 22.5h80q62 0 101.5 34t39.5 86q0 55 -48 86t-132 31q-93 0 -197 -51q-20 -10 -43 -10q-38 0 -59 23.5t-21 54.5q0 48 45 73q140 78 311 78z" />
    <glyph glyph-name="uni0438" unicode="&#x438;" horiz-adv-x="1159" 
d="M1020 82q0 -40 -28.5 -69t-69.5 -29q-43 0 -73 29t-30 69v541l-438 -557q-35 -41 -65 -61.5t-70 -20.5q-46 0 -76.5 31.5t-30.5 76.5v746q0 40 29 68t72 28q41 0 70.5 -28t29.5 -68v-543l438 557q34 41 63 61.5t70 20.5q48 0 78.5 -31.5t30.5 -75.5v-745z" />
    <glyph glyph-name="uni0439" unicode="&#x439;" horiz-adv-x="1159" 
d="M1020 82q0 -40 -28.5 -69t-69.5 -29q-43 0 -73 29t-30 69v541l-438 -557q-35 -41 -65 -61.5t-70 -20.5q-46 0 -76.5 31.5t-30.5 76.5v746q0 40 29 68t72 28q41 0 70.5 -28t29.5 -68v-543l438 557q34 41 63 61.5t70 20.5q48 0 78.5 -31.5t30.5 -75.5v-745zM803 1423
q41 0 65.5 -24.5t24.5 -67.5q0 -100 -82 -173t-221 -73q-151 0 -231 71.5t-80 174.5q0 43 23.5 67.5t66.5 24.5q86 0 96 -88q17 -102 125 -102q51 0 81 27.5t38 74.5q13 88 94 88z" />
    <glyph glyph-name="uni043A" unicode="&#x43a;" horiz-adv-x="999" 
d="M721 37l-307 371q-23 26 -23 63q0 33 21 57l278 353q43 53 96 53q44 0 69.5 -27t25.5 -63q0 -38 -25 -66l-256 -295l289 -331q29 -32 29 -74q0 -38 -27 -66t-76 -28q-47 0 -94 53zM340 838v-756q0 -40 -29.5 -69t-70.5 -29q-42 0 -71.5 29t-29.5 69v756q0 40 29 68t72 28
q41 0 70.5 -28t29.5 -68z" />
    <glyph glyph-name="uni043B" unicode="&#x43b;" horiz-adv-x="1079" 
d="M940 825v-743q0 -40 -29 -69t-71 -29t-70.5 29t-28.5 69v639h-288l-9 -127q-19 -310 -100.5 -460t-204.5 -150q-44 0 -72 24t-28 66q0 36 18 58t58 44q60 30 94 132.5t45 326.5l12 190q1 40 31 68.5t70 28.5h477q40 0 68 -28.5t28 -68.5z" />
    <glyph glyph-name="uni043C" unicode="&#x43c;" horiz-adv-x="1286" 
d="M340 606v-524q0 -40 -29.5 -69t-70.5 -29q-42 0 -71.5 29t-29.5 69v749q0 44 29.5 73.5t73.5 29.5q34 0 61.5 -19.5t63.5 -62.5l288 -356l273 358q60 80 119 80q46 0 73 -27.5t27 -68.5v-756q0 -40 -28.5 -69t-69.5 -29q-43 0 -73 29t-30 69v524l-225 -287
q-29 -36 -74 -36t-74 36z" />
    <glyph glyph-name="uni043D" unicode="&#x43d;" horiz-adv-x="1134" 
d="M995 838v-756q0 -40 -28 -69t-70 -29t-71 29t-29 69v289h-457v-289q0 -40 -29.5 -69t-70.5 -29q-42 0 -71.5 29t-29.5 69v756q0 40 29 68t72 28q41 0 70.5 -28t29.5 -68v-281h457v281q0 40 29 68t71 28t70 -28t28 -68z" />
    <glyph glyph-name="uni043E" unicode="&#x43e;" horiz-adv-x="1153" 
d="M80 461q0 210 137.5 345.5t360.5 135.5q222 0 358.5 -135.5t136.5 -345.5t-136.5 -345.5t-358.5 -135.5q-223 0 -360.5 135.5t-137.5 345.5zM293 461q0 -130 80.5 -213.5t204.5 -83.5t203 82t79 215q0 130 -79.5 212.5t-202.5 82.5q-122 0 -203.5 -82t-81.5 -213z" />
    <glyph glyph-name="uni043F" unicode="&#x43f;" horiz-adv-x="1126" 
d="M987 825v-743q0 -40 -29.5 -69t-70.5 -29q-42 0 -71.5 29t-29.5 69v651h-446v-651q0 -40 -29.5 -69t-70.5 -29q-42 0 -71.5 29t-29.5 69v743q0 40 28.5 68.5t68.5 28.5h653q40 0 69 -28.5t29 -68.5z" />
    <glyph glyph-name="uni0440" unicode="&#x440;" horiz-adv-x="1140" 
d="M139 -313v1140q0 49 28.5 78t74.5 29q43 0 70.5 -24.5t27.5 -61.5v-25q46 51 128 85t171 34q191 0 306.5 -130.5t115.5 -336.5q0 -214 -134 -354.5t-349 -140.5q-156 0 -238 53v-346q0 -40 -29.5 -68.5t-70.5 -28.5q-42 0 -71.5 28.5t-29.5 68.5zM340 643v-416
q97 -63 219 -63q132 0 210.5 86t78.5 219q0 128 -72 207.5t-198 79.5q-68 0 -131 -31t-107 -82z" />
    <glyph glyph-name="uni0441" unicode="&#x441;" horiz-adv-x="974" 
d="M745 721q-77 35 -167 35q-115 0 -200 -83t-85 -212q0 -133 87 -215t212 -82q100 0 174 51q42 27 74 27q37 0 61.5 -25t24.5 -63q0 -47 -37 -74q-122 -100 -309 -100q-225 0 -362.5 131.5t-137.5 349.5q0 203 134 342t339 139q171 0 278 -59q26 -14 42 -36.5t16 -47.5
q0 -37 -24 -65.5t-62 -28.5q-26 0 -58 16z" />
    <glyph glyph-name="uni0442" unicode="&#x442;" horiz-adv-x="905" 
d="M553 82q0 -40 -28.5 -69t-69.5 -29q-43 0 -73 29t-30 69v639h-223q-40 0 -68 29.5t-28 72.5q0 41 28 70t68 29h647q40 0 68 -29t28 -70q0 -43 -28 -72.5t-68 -29.5h-223v-639z" />
    <glyph glyph-name="uni0443" unicode="&#x443;" horiz-adv-x="987" 
d="M475 377q15 -34 51 -135q16 71 39 137l168 479q23 76 98 76q51 0 79 -27t28 -69q0 -25 -10 -52l-314 -786q-66 -167 -122.5 -257t-108.5 -121.5t-125 -31.5t-122.5 28t-49.5 83q0 35 22 58.5t60 23.5q9 0 35.5 -5t42.5 -5q48 0 86 43t76 135l20 49l-367 778
q-12 24 -12 49q0 45 31 76t84 31q30 0 56 -19.5t38 -50.5z" />
    <glyph glyph-name="uni0444" unicode="&#x444;" horiz-adv-x="1392" 
d="M799 -20v-293q0 -40 -30 -68.5t-73 -28.5q-42 0 -71 28.5t-29 68.5v293h-18q-154 0 -268.5 64t-172 172t-57.5 245q0 94 33.5 180t95 153.5t157.5 107.5t212 40h18v395q0 40 29 68.5t71 28.5q43 0 73 -28.5t30 -68.5v-395h18q152 0 266.5 -64.5t173 -173t58.5 -243.5
q0 -103 -32 -190t-93 -152.5t-156.5 -102t-216.5 -36.5h-18zM799 756v-592h12q143 0 217 81.5t74 215.5q0 122 -76 208.5t-209 86.5h-18zM596 756h-21q-136 0 -209 -84.5t-73 -210.5q0 -133 74.5 -215t214.5 -82h14v592z" />
    <glyph glyph-name="uni0445" unicode="&#x445;" horiz-adv-x="974" 
d="M299 879l195 -285l198 285q39 55 90 55q44 0 69.5 -25t25.5 -61q0 -29 -21 -57l-221 -312l237 -336q21 -35 21 -63q0 -39 -27 -67.5t-71 -28.5q-56 0 -95 57l-213 311l-221 -311q-42 -57 -94 -57q-43 0 -66.5 25.5t-23.5 62.5q0 32 20 59l242 338l-217 309q-16 24 -16 60
q0 39 25.5 67.5t72.5 28.5q51 0 90 -55z" />
    <glyph glyph-name="uni0446" unicode="&#x446;" horiz-adv-x="1155" 
d="M1126 -127q0 -40 -27 -67t-65 -27q-39 0 -66.5 27.5t-27.5 66.5v127h-704q-40 0 -68.5 28t-28.5 68v742q0 40 29 68t72 28q41 0 70.5 -28t29.5 -68v-652h434v652q0 40 29 68t71 28q41 0 71 -28t30 -68v-652h57q40 0 67 -28t27 -68v-217z" />
    <glyph glyph-name="uni0447" unicode="&#x447;" horiz-adv-x="995" 
d="M657 512v326q0 40 29 68t72 28q42 0 70 -28t28 -68v-756q0 -40 -28 -69t-70 -29t-71.5 29t-29.5 69v256q-99 -59 -243 -59q-170 0 -250 88.5t-80 267.5v201q0 43 30 70.5t79 27.5q46 0 75 -27.5t29 -70.5v-177q0 -97 45 -145.5t129 -48.5q113 0 186 47z" />
    <glyph glyph-name="uni0448" unicode="&#x448;" horiz-adv-x="1476" 
d="M1337 838v-742q0 -40 -28 -68t-68 -28h-1005q-40 0 -68.5 28t-28.5 68v742q0 40 29 68t72 28q41 0 70.5 -28t29.5 -68v-652h299v652q0 40 28 68t70 28q43 0 72 -28t29 -68v-652h299v652q0 40 29 68t71 28t71 -28t29 -68z" />
    <glyph glyph-name="uni0449" unicode="&#x449;" horiz-adv-x="1519" 
d="M1491 -127q0 -39 -27.5 -66.5t-66.5 -27.5q-37 0 -65.5 27.5t-28.5 66.5v127h-1067q-40 0 -68.5 28t-28.5 68v742q0 40 29 68t72 28q41 0 70.5 -28t29.5 -68v-652h299v652q0 40 28 68t70 28q43 0 72 -28t29 -68v-652h299v652q0 40 29 68t71 28t71 -28t29 -68v-652h58
q40 0 68 -28t28 -68v-217z" />
    <glyph glyph-name="uni044A" unicode="&#x44a;" horiz-adv-x="1069" 
d="M602 0h-233q-40 0 -68.5 28t-28.5 68v637h-155q-39 0 -68 28.5t-29 65.5q0 38 28.5 66.5t68.5 28.5h260q39 0 66.5 -28.5t27.5 -68.5v-168h150q107 0 184.5 -26t120 -72t61.5 -100t19 -119q0 -67 -21.5 -125.5t-67 -108t-126.5 -78t-189 -28.5zM471 180h123
q199 0 199 152q0 155 -199 155h-123v-307z" />
    <glyph glyph-name="uni044B" unicode="&#x44b;" horiz-adv-x="1349" 
d="M340 657h131q87 0 154.5 -17.5t110.5 -46.5t70.5 -70.5t38.5 -86t11 -96.5q0 -67 -21.5 -125.5t-66.5 -108t-125 -78t-188 -28.5h-219q-40 0 -68.5 28t-28.5 68v742q0 40 29 68t72 28q41 0 70.5 -28t29.5 -68v-181zM1210 838v-756q0 -40 -29 -69t-71 -29t-70 29t-28 69
v756q0 40 28 68t70 28t71 -28t29 -68zM340 180h104q201 0 201 152q0 155 -199 155h-106v-307z" />
    <glyph glyph-name="uni044C" unicode="&#x44c;" horiz-adv-x="935" 
d="M340 657h147q107 0 184.5 -26t120 -72t61.5 -100t19 -119q0 -53 -12.5 -101t-43 -92t-76 -76.5t-115.5 -51.5t-158 -19h-231q-40 0 -68.5 28t-28.5 68v742q0 40 29 68t72 28q41 0 70.5 -28t29.5 -68v-181zM340 180h119q200 0 200 152q0 155 -198 155h-121v-307z" />
    <glyph glyph-name="uni044D" unicode="&#x44d;" horiz-adv-x="974" 
d="M147 219q28 0 60 -16q86 -45 203 -45q118 0 192.5 61t93.5 174h-352q-38 0 -60 21.5t-22 52.5q0 30 22 52t60 22h348q-21 110 -99.5 166.5t-191.5 56.5q-116 0 -208 -53q-24 -15 -52 -15q-37 0 -60.5 26t-23.5 56q0 46 45 76q137 88 304 88q222 0 358.5 -131t136.5 -350
q0 -205 -132.5 -343t-346.5 -138q-200 0 -320 81q-36 23 -36 74q0 34 23 59t58 25z" />
    <glyph glyph-name="uni044E" unicode="&#x44e;" horiz-adv-x="1568" 
d="M352 371v-285q0 -42 -31 -72t-75 -30q-45 0 -76 30t-31 72v745q0 43 31 73t76 30q44 0 75 -30t31 -73v-262h180q33 169 157.5 271t309.5 102q219 0 353.5 -135.5t134.5 -345.5q0 -209 -136 -345t-352 -136q-191 0 -316.5 107.5t-152.5 283.5h-178zM750 461
q0 -130 71 -206.5t185 -76.5t185 77t71 206q0 128 -69 205t-187 77q-113 0 -184.5 -77.5t-71.5 -204.5z" />
    <glyph glyph-name="uni044F" unicode="&#x44f;" horiz-adv-x="960" 
d="M131 141l148 197q-75 24 -132 92.5t-57 173.5q0 66 24 121t73.5 100.5t136 71t202.5 25.5h199q39 0 66.5 -28.5t27.5 -68.5v-743q0 -40 -28 -69t-70 -29t-71 29t-29 69v209h-154l-182 -254q-39 -53 -88 -53q-42 0 -68.5 25t-26.5 61q0 31 29 71zM621 455v286h-127
q-94 0 -142.5 -42t-48.5 -105q0 -61 49.5 -100t112.5 -39h156z" />
    <glyph glyph-name="uni0451" unicode="&#x451;" horiz-adv-x="1073" 
d="M791 545q-3 100 -66.5 161.5t-171.5 61.5q-113 0 -181.5 -60.5t-86.5 -162.5h506zM295 399q12 -116 93 -180.5t206 -64.5q117 0 197 45q28 14 49 14q33 0 55.5 -21t22.5 -55q0 -46 -35 -67q-131 -90 -310 -90q-223 0 -358 131.5t-135 349.5q0 207 130 344t351 137
q183 0 307.5 -118t124.5 -306q0 -119 -92 -119h-606zM350 1118q-48 0 -81 32t-33 87q0 51 33.5 83t80.5 32q42 0 74.5 -32.5t32.5 -82.5q0 -54 -32 -86.5t-75 -32.5zM762 1118q-48 0 -81.5 32t-33.5 87q0 51 34 83t81 32q43 0 74.5 -32t31.5 -83q0 -55 -31 -87t-75 -32z" />
    <glyph glyph-name="uni0452" unicode="&#x452;" horiz-adv-x="1212" 
d="M264 1075v273q0 40 29.5 69t71.5 29t70 -29t28 -69v-273h262q34 0 58 -23t24 -57q0 -33 -22 -57.5t-60 -24.5h-262v-276q52 50 127 81.5t155 31.5q182 0 281.5 -98t99.5 -304q0 -237 -82 -421t-258 -337q-20 -20 -53 -20t-57 24q-17 17 -17 46q0 36 29 65
q133 135 185.5 275t52.5 319q0 130 -59 196t-171 66q-66 0 -127.5 -27t-105.5 -73v-379q0 -40 -28 -69t-70 -29t-71.5 29t-29.5 69v831h-170q-36 0 -59 24t-23 58q0 32 23 56t59 24h170z" />
    <glyph glyph-name="uni0453" unicode="&#x453;" horiz-adv-x="753" 
d="M340 733v-651q0 -40 -29.5 -69t-70.5 -29q-42 0 -71.5 29t-29.5 69v743q0 40 28.5 68.5t68.5 28.5h407q40 0 69 -28.5t29 -66.5q0 -37 -29.5 -65.5t-68.5 -28.5h-303zM391 1219l135 206q17 29 58 29q23 0 41 -12l39 -29q26 -17 26 -55q0 -29 -16 -45l-156 -185
q-23 -26 -61 -26q-27 0 -45 12q-33 23 -33 66q0 21 12 39z" />
    <glyph glyph-name="uni0454" unicode="&#x454;" horiz-adv-x="987" 
d="M571 158q117 0 203 45q25 14 57 14q46 0 68 -35q14 -20 14 -47q0 -51 -34 -72q-69 -47 -143 -65t-177 -18q-214 0 -346.5 138t-132.5 343q0 219 136.5 350t361.5 131q163 0 294 -84q50 -32 50 -80q0 -18 -13 -41q-23 -39 -71 -39q-22 0 -52 15q-94 51 -206 51
q-114 0 -193 -56.5t-100 -166.5h350q36 0 58 -22t22 -52t-22 -52t-58 -22h-350q17 -113 92 -174t192 -61z" />
    <glyph glyph-name="uni0455" unicode="&#x455;" horiz-adv-x="854" 
d="M78 147q0 35 24 60.5t58 25.5q27 0 57 -20q106 -66 213 -66q61 0 102 28.5t41 78.5q0 34 -27.5 58t-71 40t-96.5 31t-106.5 36.5t-97 51.5t-71 81.5t-27.5 119.5q0 126 91 198t234 72q156 0 271 -70q43 -24 43 -69q0 -34 -24 -58t-60 -24q-25 0 -49 12q-84 41 -170 41
q-59 0 -95 -29t-36 -69q0 -31 21.5 -54.5t56.5 -37.5t79.5 -29t91 -28t91 -35t79.5 -49.5t56.5 -73t21.5 -103.5q0 -136 -102 -211t-262 -75q-176 0 -303 100q-33 26 -33 67z" />
    <glyph glyph-name="uni0456" unicode="&#x456;" horiz-adv-x="557" 
d="M379 838v-756q0 -40 -29 -69t-71 -29t-70.5 29t-28.5 69v756q0 40 28.5 68t70.5 28t71 -28t29 -68zM283 1378q46 0 82 -33t36 -83q0 -58 -35.5 -92.5t-82.5 -34.5q-55 0 -91 34t-36 93q0 51 36.5 83.5t90.5 32.5z" />
    <glyph glyph-name="uni0457" unicode="&#x457;" horiz-adv-x="622" 
d="M61 1233q0 45 31 73.5t76 28.5q37 0 65.5 -29t28.5 -73q0 -47 -28.5 -76t-65.5 -29q-46 0 -76.5 28.5t-30.5 76.5zM360 1233q0 44 31 73t74 29q39 0 67.5 -28.5t28.5 -73.5q0 -48 -28 -76.5t-68 -28.5q-43 0 -74 28.5t-31 76.5zM410 838v-756q0 -40 -30 -69t-71 -29
q-42 0 -71 29t-29 69v756q0 40 29 68t71 28q41 0 71 -28t30 -68z" />
    <glyph glyph-name="uni0458" unicode="&#x458;" horiz-adv-x="593" 
d="M219 -51v889q0 40 29 68t71 28t70.5 -28t28.5 -68v-906q0 -358 -287 -358q-94 0 -149 31q-48 25 -48 80q0 41 25.5 60t60.5 19q7 0 29.5 -3t32.5 -3q137 0 137 191zM324 1378q46 0 82 -33t36 -83q0 -58 -35.5 -92.5t-82.5 -34.5q-55 0 -91 34t-36 93q0 51 36.5 83.5
t90.5 32.5z" />
    <glyph glyph-name="uni0459" unicode="&#x459;" horiz-adv-x="1495" 
d="M940 180h86q105 0 152 38.5t47 113.5q0 155 -197 155h-88v-307zM254 635l12 190q1 40 31 68.5t70 28.5h477q40 0 68 -28.5t28 -68.5v-168h113q87 0 154.5 -17.5t110.5 -46.5t70.5 -70.5t38.5 -86t11 -96.5q0 -67 -21.5 -125.5t-67 -108t-126.5 -78t-189 -28.5h-198
q-40 0 -67.5 28t-27.5 68v625h-284l-8 -127q-21 -314 -102 -462t-204 -148q-45 0 -74.5 26.5t-29.5 71.5q0 38 17 60t55 44q62 31 97 130.5t46 318.5z" />
    <glyph glyph-name="uni045A" unicode="&#x45a;" horiz-adv-x="1560" 
d="M995 643h115q87 0 154.5 -17t110.5 -45t70.5 -69t38.5 -84.5t11 -95.5q0 -67 -21.5 -124t-66.5 -105t-125.5 -75.5t-189.5 -27.5h-199q-40 0 -68 28t-28 68v289h-457v-303q0 -40 -29.5 -69t-70.5 -29q-42 0 -71.5 29t-29.5 69v756q0 40 29 68t72 28q41 0 70.5 -28
t29.5 -68v-265h457v265q0 40 29 68t71 28t70 -28t28 -68v-195zM995 180h86q108 0 154.5 35t46.5 109q0 75 -46.5 111t-150.5 36h-90v-291z" />
    <glyph glyph-name="uni045B" unicode="&#x45b;" horiz-adv-x="1212" 
d="M264 913h-170q-36 0 -59 24t-23 58q0 32 23 56t59 24h170v262q0 40 29.5 68.5t71.5 28.5t70 -28.5t28 -68.5v-262h262q34 0 58 -23t24 -57q0 -33 -22 -57.5t-60 -24.5h-262v-276q52 50 127 81.5t155 31.5q182 0 281.5 -99t99.5 -309v-260q0 -40 -28 -69t-70 -29t-71 29
t-29 69v233q0 119 -60.5 182.5t-171.5 63.5q-66 0 -127.5 -27t-105.5 -73v-379q0 -40 -28 -69t-70 -29t-71.5 29t-29.5 69v831z" />
    <glyph glyph-name="uni045C" unicode="&#x45c;" horiz-adv-x="999" 
d="M721 37l-307 371q-23 26 -23 63q0 33 21 57l278 353q43 53 96 53q44 0 69.5 -27t25.5 -63q0 -38 -25 -66l-256 -295l289 -331q29 -32 29 -74q0 -38 -27 -66t-76 -28q-47 0 -94 53zM340 838v-756q0 -40 -29.5 -69t-70.5 -29q-42 0 -71.5 29t-29.5 69v756q0 40 29 68t72 28
q41 0 70.5 -28t29.5 -68zM436 1219l135 206q17 29 58 29q23 0 41 -12l39 -29q26 -17 26 -55q0 -29 -16 -45l-156 -185q-23 -26 -61 -26q-27 0 -45 12q-33 23 -33 66q0 21 12 39z" />
    <glyph glyph-name="uni045E" unicode="&#x45e;" horiz-adv-x="987" 
d="M475 377q15 -34 51 -135q16 71 39 137l168 479q23 76 98 76q51 0 79 -27t28 -69q0 -25 -10 -52l-314 -786q-66 -167 -122.5 -257t-108.5 -121.5t-125 -31.5t-122.5 28t-49.5 83q0 35 22 58.5t60 23.5q9 0 35.5 -5t42.5 -5q48 0 86 43t76 135l20 49l-367 778
q-12 24 -12 49q0 45 31 76t84 31q30 0 56 -19.5t38 -50.5zM717 1423q41 0 65.5 -24.5t24.5 -67.5q0 -100 -82 -173t-221 -73q-151 0 -231 71.5t-80 174.5q0 43 23.5 67.5t66.5 24.5q86 0 96 -88q17 -102 125 -102q51 0 81 27.5t38 74.5q13 88 94 88z" />
    <glyph glyph-name="uni045F" unicode="&#x45f;" horiz-adv-x="1105" 
d="M647 -156q0 -39 -28.5 -66.5t-65.5 -27.5q-39 0 -66.5 27.5t-27.5 66.5v156h-223q-40 0 -68.5 28t-28.5 68v742q0 40 29 68t72 28q41 0 70.5 -28t29.5 -68v-652h426v652q0 40 29 68t71 28q41 0 71 -28t30 -68v-742q0 -39 -29.5 -67.5t-69.5 -28.5h-221v-156z" />
    <glyph glyph-name="uni0462" unicode="&#x462;" horiz-adv-x="1318" 
d="M285 1249v90q0 43 31 74t75 31t74.5 -31t30.5 -74v-90h211q41 0 71.5 -29t30.5 -69q0 -41 -30.5 -71.5t-71.5 -30.5h-211v-179q136 11 184 11q541 0 541 -426q0 -225 -152 -342t-436 -117q-96 0 -244 4q-43 0 -73.5 31t-30.5 75v943h-158q-41 0 -71.5 30.5t-30.5 71.5
q0 40 30.5 69t71.5 29h158zM496 670v-469q26 0 80 -2t83 -2q166 0 251 58t85 194q0 125 -84 178t-247 53q-58 0 -168 -10z" />
    <glyph glyph-name="uni0463" unicode="&#x463;" horiz-adv-x="1048" 
d="M465 172h121q100 0 142 32t42 99q0 64 -43 96.5t-141 32.5h-121v-260zM266 750h-168q-37 0 -61.5 24.5t-24.5 61.5t24.5 61.5t61.5 24.5h168v415q0 40 28.5 68.5t70.5 28.5t71 -28.5t29 -68.5v-415h231q34 0 59 -25t25 -61t-25 -61t-59 -25h-231v-154h133q109 0 186 -22
t119.5 -63.5t61 -92t18.5 -115.5q0 -66 -21 -119.5t-67 -95.5t-125.5 -65t-189.5 -23h-220q-40 0 -67 28t-27 68v654z" />
    <glyph glyph-name="uni0472" unicode="&#x472;" horiz-adv-x="1671" 
d="M98 717q0 154 55 290t151 234.5t234 155.5t298 57q157 0 293.5 -53.5t234.5 -149t154.5 -233.5t56.5 -301q0 -211 -96.5 -379.5t-265 -263t-377.5 -94.5q-210 0 -377.5 91t-264 260t-96.5 386zM336 594q37 -184 176 -300t324 -116q211 0 347 128.5t160 332.5
q-137 -86 -258 -86q-56 0 -109 16.5t-96 40t-84.5 47t-90.5 40t-99 16.5q-70 0 -144 -36t-126 -83zM1337 838q-38 188 -176 302.5t-325 114.5q-200 0 -340 -125t-168 -327q145 96 278 96q56 0 110 -16.5t97.5 -39.5t86.5 -46t94.5 -39.5t105.5 -16.5q57 0 124.5 29.5
t112.5 67.5z" />
    <glyph glyph-name="uni0473" unicode="&#x473;" horiz-adv-x="1179" 
d="M80 461q0 210 139.5 345.5t370.5 135.5q230 0 369 -135.5t139 -345.5t-139 -345.5t-369 -135.5q-231 0 -370.5 135.5t-139.5 345.5zM287 381q22 -116 106.5 -179t196.5 -63q116 0 200.5 67.5t102.5 192.5q-75 -63 -156 -63q-44 0 -89 17.5t-75.5 39t-69.5 39t-73 17.5
q-78 0 -143 -68zM893 530q-21 120 -106 186t-197 66q-116 0 -202.5 -68.5t-104.5 -193.5q82 64 155 64q45 0 93.5 -17.5t82.5 -38t75 -38t73 -17.5q77 0 131 57z" />
    <glyph glyph-name="uni0474" unicode="&#x474;" horiz-adv-x="1351" 
d="M1249 1450q59 0 101.5 -22t42.5 -74q0 -66 -58 -84q-16 -5 -63 -13q-46 -5 -73 -48.5t-69 -153.5l-3 -9t-3 -8.5t-4 -9.5l-354 -962q-31 -82 -102 -82q-76 0 -107 77l-512 1231q-10 18 -10 47q0 44 29 74.5t79 30.5q32 0 57 -19t38 -49l430 -1057l286 820q57 165 124 238
t171 73z" />
    <glyph glyph-name="uni0475" unicode="&#x475;" horiz-adv-x="993" 
d="M893 938q50 0 86.5 -23t36.5 -71q0 -52 -26.5 -76.5t-67.5 -26.5q-37 -1 -59.5 -33.5t-65.5 -138.5l-207 -512q-30 -73 -98 -73q-70 0 -103 71l-340 727q-10 27 -10 49q0 42 31 72.5t82 30.5q64 0 94 -70l180 -389q42 -89 72 -205q30 115 65 209l80 213q53 135 105 190.5
t145 55.5z" />
    <glyph glyph-name="uni0490" unicode="&#x490;" horiz-adv-x="1036" 
d="M420 1233v-1143q0 -43 -31 -74.5t-74 -31.5q-45 0 -76.5 31.5t-31.5 74.5v1237q0 44 30.5 75.5t73.5 31.5h500v145q0 41 29.5 71.5t70.5 30.5q40 0 70.5 -30.5t30.5 -71.5v-240q0 -43 -32 -74.5t-75 -31.5h-485z" />
    <glyph glyph-name="uni0491" unicode="&#x491;" horiz-adv-x="753" 
d="M340 733v-651q0 -40 -29.5 -69t-70.5 -29q-42 0 -71.5 29t-29.5 69v743q0 40 28.5 68.5t68.5 28.5h317v110q0 39 28.5 67.5t65.5 28.5t65.5 -28.5t28.5 -67.5v-201q0 -40 -29 -69t-69 -29h-303z" />
    <glyph glyph-name="uni1E9E" unicode="&#x1e9e;" horiz-adv-x="1349" 
d="M561 125q0 38 26 67t68 29q18 0 74 -21.5t105 -21.5q74 0 127 51.5t53 135.5q0 51 -26 101t-78 98.5t-105 87t-133 89.5q-45 31 -45 84q0 31 18 58l211 297q-26 32 -80 53.5t-117 21.5q-109 0 -174 -66.5t-65 -201.5v-897q0 -44 -31 -75t-74 -31q-46 0 -77 31t-31 75v885
q0 124 34.5 217.5t97 150t145.5 84t186 27.5q208 0 374 -147q37 -37 37 -86q0 -35 -24 -70l-221 -289q403 -235 403 -528q0 -79 -32 -147t-84.5 -112.5t-118 -69.5t-132.5 -25q-152 0 -260 65q-51 26 -51 80z" />
    <glyph glyph-name="uni2010" unicode="&#x2010;" horiz-adv-x="782" 
d="M549 651q39 0 66.5 -26.5t27.5 -63.5q0 -40 -27 -67t-67 -27h-316q-38 0 -66 27t-28 65t28 65t66 27h316z" />
    <glyph glyph-name="uni2011" unicode="&#x2011;" horiz-adv-x="782" 
d="M549 651q39 0 66.5 -26.5t27.5 -63.5q0 -40 -27 -67t-67 -27h-316q-38 0 -66 27t-28 65t28 65t66 27h316z" />
    <glyph glyph-name="figuredash" unicode="&#x2012;" horiz-adv-x="1220" 
d="M954 811q37 0 62.5 -24.5t25.5 -61.5t-25.5 -61.5t-62.5 -24.5h-688q-37 0 -61.5 24.5t-24.5 61.5t24.5 61.5t61.5 24.5h688z" />
    <glyph glyph-name="endash" unicode="&#x2013;" horiz-adv-x="1220" 
d="M954 639q37 0 62.5 -24.5t25.5 -61.5t-25.5 -61.5t-62.5 -24.5h-688q-37 0 -61.5 24.5t-24.5 61.5t24.5 61.5t61.5 24.5h688z" />
    </font>
</defs>
</svg>
