<?xml version="1.0" standalone="no"?>
<!DOCTYPE svg PUBLIC "-//W3C//DTD SVG 1.1//EN" "http://www.w3.org/Graphics/SVG/1.1/DTD/svg11.dtd" >
<svg xmlns="http://www.w3.org/2000/svg" xmlns:xlink="http://www.w3.org/1999/xlink" version="1.1">
<metadata>
Created by FontForge 20170731 at Wed Mar 15 10:29:11 2023
 By Aleksey,,,
Copyright (c) 2011 Paratype, Inc., ParaType Ltd. All rights reserved.
</metadata>
<defs>
<font id="Circe-Regular" horiz-adv-x="1212" >
  <font-face 
    font-family="Circe"
    font-weight="400"
    font-stretch="normal"
    units-per-em="2048"
    panose-1="2 11 5 2 2 2 3 2 2 3"
    ascent="1583"
    descent="-465"
    x-height="922"
    cap-height="1434"
    bbox="-1094 -803 3443 2058"
    underline-thickness="102"
    underline-position="-307"
    unicode-range="U+0020-FEFF"
  />
<missing-glyph horiz-adv-x="460" 
 />
    <glyph glyph-name="uniF350.var.accented" unicode="&#xf350;`" horiz-adv-x="1208" 
d="M25 0l503 1081h152l504 -1081h-187l-131 287h-534l-131 -287h-176zM600 872l-194 -421h387zM838 1444l-277 -256l-82 90l258 291z" />
    <glyph glyph-name="uniF355.var.accented" unicode="&#xf355;`" horiz-adv-x="999" 
d="M172 0v1075h696v-164h-522v-286h471v-164h-471v-297h539v-164h-713zM752 1444l-277 -256l-82 90l258 291z" />
    <glyph glyph-name="uniF358.var.accented" unicode="&#xf358;`" horiz-adv-x="1343" 
d="M326 0h-154v1075h174v-799l672 799h153v-1075h-174v799zM895 1444l-277 -256l-81 90l258 291z" />
    <glyph glyph-name="uniF35E.var.accented" unicode="&#xf35e;`" horiz-adv-x="1341" 
d="M82 537q0 115 43.5 217t120.5 176t187.5 117t238.5 43q167 0 300.5 -68.5t210.5 -195t77 -289.5q0 -159 -76.5 -286.5t-211 -198t-300.5 -70.5q-168 0 -302 68.5t-211 195.5t-77 291zM266 537q0 -167 117.5 -279.5t288.5 -112.5q184 0 293.5 111t109.5 281t-115.5 279.5
t-287.5 109.5q-175 0 -290.5 -109.5t-115.5 -279.5zM918 1444l-277 -256l-82 90l258 291z" />
    <glyph glyph-name="uniF363.var.accented" unicode="&#xf363;`" horiz-adv-x="1118" 
d="M1098 1075l-404 -821q-64 -129 -137 -191.5t-174 -62.5q-86 0 -141 41l61 147q45 -26 88 -26t71.5 26.5t53.5 71.5l21 37l-514 778h217l387 -606l293 606h178zM813 1444l-276 -256l-82 90l258 291z" />
    <glyph glyph-name="uniF36B.var.accented" unicode="&#xf36b;`" horiz-adv-x="1445" 
d="M1100 0v1075h174v-1075h-174zM477 543q-52 0 -131 -6v-373q82 -4 127 -4q268 0 268 198q0 90 -68 137.5t-196 47.5zM346 1075v-375q100 7 146 7q216 0 325 -91t109 -254q0 -171 -125.5 -268.5t-347.5 -97.5q-57 0 -154 2t-127 2v1075h174zM915 1444l-276 -256l-82 90
l258 291z" />
    <glyph glyph-name="uniF36D.var.accented" unicode="&#xf36d;`" horiz-adv-x="1140" 
d="M322 467v164h557q-28 143 -136.5 220t-283.5 77q-202 0 -322 -84l-69 131q68 52 172.5 84.5t226.5 32.5q263 0 428.5 -151.5t165.5 -401.5q0 -251 -166.5 -403t-445.5 -152q-120 0 -224.5 30t-171.5 82l76 146q138 -95 340 -95q170 0 280.5 83t131.5 237h-559zM711 1444
l-277 -256l-82 90l258 291z" />
    <glyph glyph-name="uniF36E.var.accented" unicode="&#xf36e;`" horiz-adv-x="1783" 
d="M172 0v1075h174v-444h229q28 203 177.5 332t377.5 129q260 0 416 -151.5t156 -401.5q0 -245 -156.5 -400t-415.5 -155q-227 0 -380.5 132t-176.5 351h-227v-467h-174zM754 539q0 -169 106.5 -280.5t274.5 -111.5q177 0 280 110.5t103 281.5q0 173 -105.5 281t-277.5 108
q-167 0 -274 -108.5t-107 -280.5zM1102 1444l-277 -256l-82 90l258 291z" />
    <glyph glyph-name="uniF36F.var.accented" unicode="&#xf36f;`" horiz-adv-x="1093" 
d="M748 0v369h-230l-274 -369h-207l305 403q-92 42 -151.5 120t-59.5 184q0 77 27.5 143t82 118.5t145 82.5t208.5 30q66 0 182.5 -3t145.5 -3v-1075h-174zM502 532h246v379q-123 7 -170 7q-127 0 -195 -56t-68 -145q0 -71 55.5 -122.5t131.5 -62.5zM813 1444l-276 -256
l-82 90l258 291z" />
    <glyph glyph-name="uniF371.var.accented" unicode="&#xf371;`" horiz-adv-x="999" 
d="M172 1339q0 39 28.5 63.5t69.5 24.5q34 0 61 -25t27 -63q0 -42 -27 -68t-61 -26q-41 0 -69.5 25.5t-28.5 68.5zM680 1339q0 39 28 63.5t66 24.5q37 0 63.5 -24.5t26.5 -63.5q0 -43 -26.5 -68.5t-63.5 -25.5q-39 0 -66.5 25.5t-27.5 68.5zM690 1481l-223 -293l-92 57
l174 324zM172 0v1075h696v-164h-522v-286h471v-164h-471v-297h539v-164h-713z" />
    <glyph glyph-name="uni0410.var.accented" unicode="&#x410;`" horiz-adv-x="1443" 
d="M31 0l616 1442h150l616 -1442h-186l-185 434h-653l-182 -434h-176zM717 1210l-258 -612h516zM1051 1677l-414 -172l-47 99l399 213z" />
    <glyph glyph-name="uni0415.var.accented" unicode="&#x415;`" horiz-adv-x="1177" 
d="M215 0v1434h809v-164h-635v-463h574v-164h-574v-479h655v-164h-829zM948 1677l-413 -172l-48 99l400 213z" />
    <glyph glyph-name="uni0418.var.accented" unicode="&#x418;`" horiz-adv-x="1628" 
d="M369 0h-154v1434h174v-1147l871 1147h153v-1434h-174v1147zM1133 1677l-414 -172l-47 99l399 213z" />
    <glyph glyph-name="uni041E.var.accented" unicode="&#x41e;`" horiz-adv-x="1667" 
d="M102 717q0 206 93.5 374.5t261.5 265.5t377 97q154 0 289 -54.5t232.5 -150t153.5 -233.5t56 -299q0 -157 -56 -294.5t-153 -234.5t-232.5 -152.5t-289.5 -55.5q-207 0 -373.5 92.5t-262.5 261.5t-96 383zM287 717q0 -160 72.5 -292t198 -207t276.5 -75q161 0 286 76
t192.5 206.5t67.5 291.5q0 248 -157 410.5t-389 162.5q-154 0 -279 -73t-196.5 -204.5t-71.5 -295.5zM1153 1677l-414 -172l-47 99l400 213z" />
    <glyph glyph-name="uni0423.var.accented" unicode="&#x423;`" horiz-adv-x="1363" 
d="M1333 1434l-495 -1106q-76 -170 -159 -249t-198 -79q-48 0 -96.5 14t-77.5 37l62 148q53 -37 110 -37q107 0 176 145l25 53l-649 1074h196l537 -899l393 899h176zM1040 1677l-413 -172l-47 99l399 213z" />
    <glyph glyph-name="uni042B.var.accented" unicode="&#x42b;`" horiz-adv-x="1730" 
d="M1341 0v1434h175v-1434h-175zM567 748q-61 0 -178 -13v-569q165 -6 172 -6q178 0 271.5 77t93.5 228q0 137 -93 210t-266 73zM389 1434v-533q130 10 191 10q263 0 396.5 -117t133.5 -325q0 -225 -150.5 -349t-418.5 -124q-66 0 -177.5 2t-148.5 2v1434h174zM1153 1677
l-414 -172l-47 99l400 213z" />
    <glyph glyph-name="uni042D.var.accented" unicode="&#x42d;`" horiz-adv-x="1386" 
d="M395 649v164h709q-28 223 -183.5 350t-396.5 127q-212 0 -362 -116l-68 131q78 69 202.5 109t268.5 40q322 0 520.5 -200.5t198.5 -532.5q0 -217 -89.5 -385t-257 -262t-388.5 -94q-141 0 -265.5 39.5t-211.5 109.5l75 145q174 -131 398 -131q230 0 384 136t177 370h-711
zM907 1677l-413 -172l-48 99l400 213z" />
    <glyph glyph-name="uni042E.var.accented" unicode="&#x42e;`" horiz-adv-x="2207" 
d="M215 0v1434h174v-621h309q15 138 72.5 256t147 203t213 133.5t264.5 48.5q206 0 367.5 -92.5t252 -261t90.5 -383.5q0 -211 -90 -379t-252.5 -263t-367.5 -95q-284 0 -480.5 186t-218.5 483h-307v-649h-174zM879 717q0 -245 149 -409.5t371 -164.5q161 0 281 76.5
t180.5 205.5t60.5 292q0 251 -145.5 412t-376.5 161q-226 0 -373 -161.5t-147 -411.5zM1460 1677l-413 -172l-48 99l400 213z" />
    <glyph glyph-name="uni042F.var.accented" unicode="&#x42f;`" horiz-adv-x="1275" 
d="M887 0v532h-269l-370 -532h-197l398 563q-121 48 -202 153t-81 249q0 99 33.5 183.5t100 150.5t175.5 103.5t250 37.5q49 0 172 -3t164 -3v-1434h-174zM598 696h289v574q-141 6 -195 6q-162 0 -252 -84.5t-90 -216.5q0 -109 74 -186t174 -93zM1061 1677l-414 -172l-47 99
l399 213z" />
    <glyph glyph-name="uni0401.var.accented" unicode="&#x401;`" horiz-adv-x="1177" 
d="M254 1665q0 42 25 67t63 25q34 0 59 -25.5t25 -66.5q0 -47 -24.5 -73.5t-59.5 -26.5q-38 0 -63 26t-25 74zM825 1665q0 41 26.5 66.5t63.5 25.5q34 0 59 -25.5t25 -66.5q0 -47 -24.5 -73.5t-59.5 -26.5q-38 0 -64 26.5t-26 73.5zM825 1774l-284 -256l-60 30l207 269z
M215 0v1434h809v-164h-635v-463h574v-164h-574v-479h655v-164h-829z" />
    <glyph glyph-name="uni0430.var.accented" unicode="&#x430;`" horiz-adv-x="942" 
d="M197 727l-43 131q135 84 307 84q190 0 272 -94.5t82 -282.5v-565h-156v119q-105 -133 -294 -133q-128 0 -205.5 76t-77.5 208q0 137 97 215t251 78q149 0 229 -59q0 57 -4 97t-17 79t-35 62.5t-60.5 38t-91.5 14.5q-78 0 -133.5 -17t-120.5 -51zM422 133q81 0 136.5 33
t100.5 86v117q-85 61 -206 61q-81 0 -139 -38.5t-58 -112.5q0 -67 44 -106.5t122 -39.5zM727 1380l-246 -293l-98 70l217 322z" />
    <glyph glyph-name="uni0435.var.accented" unicode="&#x435;`" horiz-adv-x="1064" 
d="M874 229l52 -129q-65 -59 -157 -89.5t-189 -30.5q-224 0 -359 131.5t-135 349.5q0 135 54.5 243t164 173t256.5 65q182 0 305 -117.5t123 -304.5q0 -62 -10 -110h-709q10 -129 97.5 -203t224.5 -74q86 0 161 26.5t121 69.5zM553 788q-123 0 -201 -68t-92 -177h559
q-6 115 -76.5 180t-189.5 65zM786 1380l-245 -293l-99 70l217 322z" />
    <glyph glyph-name="uni0438.var.accented" unicode="&#x438;`" horiz-adv-x="1157" 
d="M311 0h-164v922h164v-686l533 686h164v-922h-164v686zM803 1380l-246 -293l-98 70l217 322z" />
    <glyph glyph-name="uni043E.var.accented" unicode="&#x43e;`" horiz-adv-x="1157" 
d="M86 461q0 209 136.5 345t355.5 136t355 -136t136 -345t-136 -345t-355 -136t-355.5 136t-136.5 345zM260 461q0 -144 89.5 -236t228.5 -92t228 90.5t89 237.5q0 144 -89 235.5t-228 91.5q-137 0 -227.5 -91t-90.5 -236zM813 1380l-246 -293l-98 70l217 322z" />
    <glyph glyph-name="uni0443.var.accented" unicode="&#x443;`" horiz-adv-x="1005" 
d="M985 922l-369 -922q-67 -164 -123 -253.5t-108 -123t-121 -33.5q-88 0 -174 58l53 125q69 -31 103 -31q58 0 104 49t92 160l21 49l-443 922h197l270 -586q28 -65 56 -139q14 51 43 141l213 584h186zM758 1380l-246 -293l-98 70l217 322z" />
    <glyph glyph-name="uni044B.var.accented" unicode="&#x44b;`" horiz-adv-x="1314" 
d="M147 0v922h164v-277h152q82 0 146 -17.5t104.5 -46.5t66.5 -70.5t36.5 -86t10.5 -96.5q0 -64 -20 -120t-62.5 -104t-119.5 -76t-181 -28h-297zM1004 0v922h163v-922h-163zM432 492h-121v-338h119q119 0 171 41.5t52 126.5t-52.5 127.5t-168.5 42.5zM860 1380l-246 -293
l-98 70l217 322z" />
    <glyph glyph-name="uni044D.var.accented" unicode="&#x44d;`" horiz-adv-x="1001" 
d="M291 401v134h452q-20 124 -105 188.5t-214 64.5q-169 0 -283 -100l-69 123q62 61 159.5 96t190.5 35q220 0 355.5 -131.5t135.5 -349.5q0 -133 -60 -243t-167.5 -174t-239.5 -64q-251 0 -370 116l78 121q45 -41 122 -62.5t160 -21.5q128 0 210 70.5t99 197.5h-454z
M680 1380l-246 -293l-98 70l217 322z" />
    <glyph glyph-name="uni044E.var.accented" unicode="&#x44e;`" horiz-adv-x="1556" 
d="M147 0v922h175v-369h200q28 173 153.5 281t311.5 108q214 0 347.5 -136t133.5 -345t-134.5 -345t-346.5 -136q-192 0 -318.5 113t-148.5 296h-198v-389h-175zM700 461q0 -144 82 -231t211 -87t210 87.5t81 230.5q0 142 -80 229.5t-211 87.5q-130 0 -211.5 -87.5
t-81.5 -229.5zM1018 1380l-246 -293l-98 70l217 322z" />
    <glyph glyph-name="uni044F.var.accented" unicode="&#x44f;`" horiz-adv-x="987" 
d="M551 922h287v-922h-164v307h-178l-226 -307h-198l266 348q-79 19 -139 89.5t-60 176.5q0 62 22 115t68 97.5t128.5 70t193.5 25.5zM313 610q0 -67 53 -108t119 -41h189v307h-150q-109 0 -160 -44t-51 -114zM805 1380l-246 -293l-98 70l217 322z" />
    <glyph glyph-name="uni0451.var.accented" unicode="&#x451;`" horiz-adv-x="1064" 
d="M197 1233q0 36 23.5 58t58.5 22q31 0 53 -22.5t22 -57.5q0 -38 -22 -61t-53 -23q-35 0 -58.5 22.5t-23.5 61.5zM737 1233q0 36 24 58t58 22q31 0 53.5 -22.5t22.5 -57.5q0 -38 -22.5 -61t-53.5 -23q-34 0 -58 23t-24 61zM737 1380l-245 -293l-80 56l219 321zM874 229
l52 -129q-65 -59 -157 -89.5t-189 -30.5q-224 0 -359 131.5t-135 349.5q0 135 54.5 243t164 173t256.5 65q182 0 305 -117.5t123 -304.5q0 -62 -10 -110h-709q10 -129 97.5 -203t224.5 -74q86 0 161 26.5t121 69.5zM553 788q-123 0 -201 -68t-92 -177h559q-6 115 -76.5 180
t-189.5 65z" />
    <glyph glyph-name="fi" unicode="fi" horiz-adv-x="1052" 
d="M745 0v768h-413v-768h-164v1047q0 204 102.5 305.5t282.5 101.5q225 0 338 -151l-119 -97q-72 94 -192 94q-123 0 -185.5 -64.5t-62.5 -207.5v-106h577v-922h-164z" />
    <glyph glyph-name="fl" unicode="fl" horiz-adv-x="1148" 
d="M705 246v997q-77 57 -168 57q-103 0 -154 -60t-51 -187v-131h211v-154h-211v-768h-164v1071q0 190 84 286.5t240 96.5q149 0 233 -65h143v-1070q0 -95 25.5 -138.5t83.5 -43.5q51 0 115 41l36 -125q-83 -69 -217 -69q-104 0 -155 64.5t-51 197.5z" />
    <glyph glyph-name=".notdef" horiz-adv-x="460" 
 />
    <glyph glyph-name=".null" horiz-adv-x="0" 
 />
    <glyph glyph-name="nonmarkingreturn" horiz-adv-x="682" 
 />
    <glyph glyph-name="space" unicode=" " horiz-adv-x="460" 
 />
    <glyph glyph-name="exclam" unicode="!" horiz-adv-x="634" 
d="M229 440v994h174v-994h-174zM203 111q0 42 33 75t86 33q46 0 77 -33t31 -75q0 -47 -31 -82t-77 -35q-53 0 -86 34.5t-33 82.5z" />
    <glyph glyph-name="quotedbl" unicode="&#x22;" horiz-adv-x="849" 
d="M512 977v457h164v-457h-164zM174 977v457h164v-457h-164z" />
    <glyph glyph-name="numbersign" unicode="#" horiz-adv-x="1441" 
d="M649 25l137 374h-376l-156 -419l-129 45l139 374h-182v144h235l129 348h-364v143h418l155 420l129 -47l-139 -373h377l156 420l129 -45l-140 -375h193v-143h-246l-129 -348h375v-144h-428l-156 -419zM592 891l-129 -348h377l129 348h-377z" />
    <glyph glyph-name="dollar" unicode="$" 
d="M881 367q0 56 -24 100.5t-64.5 76t-93 58t-111 50.5t-116.5 49.5t-110.5 60t-93 76.5t-64.5 103.5t-24 137.5q0 140 96 242.5t261 126.5v170h163v-168q207 -25 318 -145l-94 -131q-116 116 -291 116q-127 0 -197.5 -57t-70.5 -154q0 -56 24 -101t64.5 -75.5t93 -56
t110.5 -48.5t116 -48t110.5 -58.5t93 -76t64.5 -105.5t24 -141q0 -152 -101 -254.5t-264 -126.5v-193h-163v189q-124 14 -230.5 70.5t-150.5 140.5l100 118q60 -80 159 -125t195 -45q117 0 194 59.5t77 164.5z" />
    <glyph glyph-name="percent" unicode="%" horiz-adv-x="1796" 
d="M326 47l1052 1407l95 -70l-1051 -1404zM92 1100q0 154 106 250t269 96t269 -96t106 -250t-106 -251t-269 -97t-269 97t-106 251zM246 1100q0 -95 65 -155t156 -60q93 0 157 59.5t64 155.5q0 94 -64.5 153.5t-156.5 59.5q-93 0 -157 -59t-64 -154zM954 336q0 154 106 250
t269 96t269 -96t106 -250t-106 -251t-269 -97t-269 97t-106 251zM1108 336q0 -95 65 -155t156 -60q93 0 157 59.5t64 155.5q0 94 -64.5 153.5t-156.5 59.5q-93 0 -157 -59t-64 -154z" />
    <glyph glyph-name="ampersand" unicode="&#x26;" horiz-adv-x="1523" 
d="M1196 0l-149 188q-160 -208 -441 -208q-204 0 -333.5 115t-129.5 294q0 69 20 133t50 112.5t77.5 97t91 82.5t101.5 73q-86 29 -138 99.5t-52 170.5q0 130 93 213.5t222 83.5q130 0 224 -83.5t94 -213.5q0 -99 -62 -177t-151 -95l348 -449q119 209 119 486h161
q0 -171 -47 -332.5t-133 -284.5l240 -305h-205zM610 143q216 0 336 176l-358 472q-127 -96 -193.5 -182t-66.5 -187q0 -121 83 -200t199 -79zM446 1157q0 -66 47.5 -114t114.5 -48q68 0 116 47.5t48 114.5t-48 115.5t-116 48.5t-115 -47.5t-47 -116.5z" />
    <glyph glyph-name="quotesingle" unicode="'" horiz-adv-x="512" 
d="M174 977v457h164v-457h-164z" />
    <glyph glyph-name="parenleft" unicode="(" horiz-adv-x="600" 
d="M600 -332l-104 -90q-414 357 -414 883q0 242 96.5 461t319.5 421l102 -90q-187 -178 -270.5 -369.5t-83.5 -422.5q0 -227 92 -434t262 -359z" />
    <glyph glyph-name="parenright" unicode=")" horiz-adv-x="600" 
d="M104 -422l-104 90q170 152 262 359t92 434q0 231 -83.5 422.5t-270.5 369.5l102 90q223 -202 319.5 -421t96.5 -461q0 -526 -414 -883z" />
    <glyph glyph-name="asterisk" unicode="*" horiz-adv-x="980" 
d="M387 1346q0 42 31.5 74t73.5 32q45 0 76.5 -31.5t31.5 -74.5q0 -44 -31 -74.5t-77 -30.5q-42 0 -73.5 30.5t-31.5 74.5zM383 768q0 45 32 78t74 33q43 0 76 -33t33 -78q0 -41 -33 -73.5t-76 -32.5q-41 0 -73.5 32.5t-32.5 73.5zM625 1196q0 45 30 77t72 32
q44 0 76.5 -32.5t32.5 -76.5q0 -43 -32.5 -74.5t-76.5 -31.5q-42 0 -72 31.5t-30 74.5zM625 924q0 44 29.5 75t72.5 31q45 0 77 -31t32 -75t-32.5 -76.5t-76.5 -32.5q-42 0 -72 32t-30 77zM145 924q0 44 31 75t74 31q44 0 75 -31t31 -75q0 -45 -31 -77t-75 -32
q-43 0 -74 32.5t-31 76.5zM145 1196q0 44 31 76.5t74 32.5q44 0 75 -32t31 -77q0 -43 -31 -74.5t-75 -31.5q-43 0 -74 31.5t-31 74.5z" />
    <glyph glyph-name="plus" unicode="+" 
d="M141 666v143h385v391h154v-391h391v-143h-391v-396h-154v396h-385z" />
    <glyph glyph-name="comma" unicode="," horiz-adv-x="456" 
d="M111 94q0 49 30.5 79t85.5 30q65 0 106.5 -54.5t41.5 -144.5q0 -113 -61.5 -193t-163.5 -110l-46 78q46 15 82.5 49.5t49.5 87.5q16 69 -3 102q-11 -18 -45 -18q-31 0 -54 27.5t-23 66.5z" />
    <glyph glyph-name="hyphen" unicode="-" horiz-adv-x="796" 
d="M154 481v154h489v-154h-489z" />
    <glyph glyph-name="period" unicode="." horiz-adv-x="430" 
d="M102 111q0 42 32.5 75t84.5 33q46 0 77.5 -33.5t31.5 -74.5q0 -47 -31.5 -82t-77.5 -35q-52 0 -84.5 34.5t-32.5 82.5z" />
    <glyph glyph-name="slash" unicode="/" horiz-adv-x="686" 
d="M-61 -379l682 1833l127 -47l-680 -1833z" />
    <glyph glyph-name="zero" unicode="0" horiz-adv-x="1155" 
d="M113 717q0 164 27.5 296.5t83 231t145.5 152t209 53.5q158 0 263.5 -95t153 -256t47.5 -382q0 -165 -26.5 -297t-81.5 -231t-144 -152t-208 -53q-158 0 -265 94.5t-155.5 256t-48.5 382.5zM287 717q0 -580 295 -580q152 0 219 145.5t67 434.5q0 287 -69 433t-221 146
t-221.5 -147t-69.5 -432z" />
    <glyph glyph-name="one" unicode="1" horiz-adv-x="776" 
d="M72 1176l344 266h114v-1442h-163v1206l-209 -164z" />
    <glyph glyph-name="two" unicode="2" horiz-adv-x="1079" 
d="M92 0v133q216 212 309 316q332 371 332 606q0 100 -60.5 165.5t-172.5 65.5q-92 0 -163.5 -59.5t-92.5 -169.5l-140 57q26 156 140.5 246t269.5 90q97 0 174 -31.5t123.5 -83.5t71 -115.5t24.5 -132.5q0 -82 -28 -173t-70 -169t-103.5 -162.5t-114.5 -145t-117.5 -125.5
t-98 -95.5t-70.5 -62.5h662v-154h-875z" />
    <glyph glyph-name="three" unicode="3" horiz-adv-x="1089" 
d="M506 -20q-151 0 -265 63t-169 182l94 117q52 -97 141.5 -148t192.5 -51q130 0 206 73t76 185q0 114 -81 182t-212 68h-112v164h102q99 0 173.5 70.5t74.5 177.5q0 106 -62 166.5t-171 60.5q-194 0 -295 -178l-93 113q49 109 154.5 169t245.5 60q181 0 288 -97t107 -265
q0 -118 -57.5 -208.5t-165.5 -135.5v-7q130 -21 204 -118t74 -228q0 -189 -127 -302t-323 -113z" />
    <glyph glyph-name="four" unicode="4" horiz-adv-x="1126" 
d="M702 0v358h-661v117l594 959h188l-567 -912h446v400h164v-400h199v-164h-199v-358h-164z" />
    <glyph glyph-name="five" unicode="5" horiz-adv-x="1056" 
d="M203 713l90 721h647v-164h-504l-53 -387q54 14 115 14q198 0 325 -121.5t127 -322.5q0 -144 -64 -253t-169.5 -164.5t-233.5 -55.5q-124 0 -237 55t-174 162l94 120q51 -82 140 -128t181 -46q124 0 206.5 86t82.5 217q0 132 -95.5 218t-252.5 86q-128 0 -225 -37z" />
    <glyph glyph-name="six" unicode="6" horiz-adv-x="1134" 
d="M102 508q0 128 29.5 247.5t81 215.5t119.5 179t146.5 143t159.5 101t161 60l67 -125q-205 -53 -365.5 -219.5t-205.5 -417.5q46 87 131 139t207 52q178 0 293.5 -123.5t115.5 -317.5q0 -103 -37.5 -191t-100 -146.5t-141.5 -91.5t-163 -33q-116 0 -211.5 42.5t-157.5 115
t-95.5 167.5t-33.5 203zM276 508q0 -155 84 -260t238 -105q116 0 193 84.5t77 202.5q0 131 -75.5 215t-214.5 84q-116 0 -194.5 -67t-107.5 -154z" />
    <glyph glyph-name="seven" unicode="7" horiz-adv-x="993" 
d="M61 1270v164h861v-107l-529 -1327h-180l510 1270h-662z" />
    <glyph glyph-name="eight" unicode="8" horiz-adv-x="1218" 
d="M584 819h53q92 0 160.5 69.5t68.5 166.5q0 108 -75.5 171.5t-184.5 63.5q-108 0 -181 -65t-73 -170q0 -97 69.5 -166.5t162.5 -69.5zM635 655h-45q-117 0 -200 -72t-83 -182q0 -112 85 -185t216 -73q137 0 220 71t83 187q-1 118 -80 186t-196 68zM610 -20
q-130 0 -237.5 46t-173.5 136.5t-66 208.5q0 132 74.5 230t195.5 132v6q-96 33 -160.5 127.5t-64.5 212.5q0 166 124 270.5t306 104.5t307 -104.5t125 -270.5q0 -107 -63.5 -201.5t-171.5 -136.5v-6q122 -21 201 -117t79 -235q0 -124 -65.5 -217t-172 -139.5t-237.5 -46.5z
" />
    <glyph glyph-name="nine" unicode="9" horiz-adv-x="1128" 
d="M1026 915q0 -199 -55 -367t-152 -285.5t-227.5 -190.5t-282.5 -92l-55 129q242 46 394.5 207t185.5 413q-44 -82 -127.5 -130t-196.5 -48q-186 0 -307 126t-121 314q0 136 68.5 244t172 163.5t216.5 55.5q155 0 267 -72t166 -192t54 -275zM852 915q0 102 -32 184.5
t-104 136.5t-175 54q-118 0 -201.5 -85t-83.5 -201q0 -124 78.5 -211.5t216.5 -87.5q117 0 195 62t106 148z" />
    <glyph glyph-name="colon" unicode=":" horiz-adv-x="655" 
d="M215 831q0 42 32.5 75.5t84.5 33.5q46 0 77 -33.5t31 -75.5q0 -47 -31 -81.5t-77 -34.5q-52 0 -84.5 34t-32.5 82zM215 111q0 42 32.5 75t84.5 33q46 0 77 -33t31 -75q0 -47 -31 -82t-77 -35q-52 0 -84.5 34.5t-32.5 82.5z" />
    <glyph glyph-name="semicolon" unicode=";" horiz-adv-x="663" 
d="M215 831q0 42 32.5 75.5t84.5 33.5q46 0 77 -33.5t31 -75.5q0 -47 -31 -81.5t-77 -34.5q-52 0 -84.5 34t-32.5 82zM215 94q0 49 30.5 79t86.5 30q65 0 106 -54.5t41 -144.5q0 -113 -61.5 -193t-163.5 -110l-45 78q46 15 82 49.5t49 87.5q16 70 -2 102q-11 -18 -45 -18
q-31 0 -54.5 27.5t-23.5 66.5z" />
    <glyph glyph-name="less" unicode="&#x3c;" 
d="M1018 162l-901 545v69l901 541v-178l-674 -398l674 -401v-178z" />
    <glyph glyph-name="equal" unicode="=" 
d="M141 850v143h930v-143h-930zM141 481v144h930v-144h-930z" />
    <glyph glyph-name="greater" unicode="&#x3e;" 
d="M1094 707l-899 -545v178l673 401l-673 398v178l899 -541v-69z" />
    <glyph glyph-name="question" unicode="?" horiz-adv-x="954" 
d="M717 1065q0 95 -71 160t-179 65q-176 0 -287 -151l-98 108q57 92 162.5 149.5t232.5 57.5q192 0 304 -101.5t112 -252.5q0 -59 -12.5 -109.5t-34 -87.5t-49.5 -71t-59 -58.5t-63 -51t-61.5 -48.5t-54 -50t-40.5 -56.5t-22 -68t3 -83.5l-148 -2q-14 68 -5.5 124.5
t31.5 94.5t57 72.5t71.5 60t75.5 57t68 63t48.5 78t18.5 101.5zM311 111q0 42 33 75t86 33q46 0 77.5 -33.5t31.5 -74.5q0 -47 -31.5 -82t-77.5 -35q-53 0 -86 34.5t-33 82.5z" />
    <glyph glyph-name="at" unicode="@" horiz-adv-x="2060" 
d="M1286 0v96q-52 -52 -127.5 -84t-157.5 -32q-209 0 -332.5 131t-123.5 350q0 99 39 188t107 153.5t164.5 102t207.5 37.5q107 0 210 -29t177 -75v-684h43q127 0 204 113.5t77 285.5q0 136 -52.5 255.5t-145.5 207t-229.5 138t-295.5 50.5q-160 0 -300.5 -54.5t-243 -151
t-161.5 -235.5t-59 -302q0 -209 101 -380t276 -267.5t387 -96.5q112 0 221 25l10 -152q-120 -26 -231 -26q-196 0 -366.5 68.5t-291.5 187.5t-190.5 285.5t-69.5 355.5q0 185 69.5 350.5t190 286t292 190.5t366.5 70q248 0 447.5 -100.5t314 -284.5t114.5 -418
q0 -85 -18.5 -165t-57.5 -151t-93.5 -124t-132.5 -84t-169 -31h-170zM1028 133q74 0 145 36t113 85v475q-104 59 -225 59q-152 0 -247 -97t-95 -238q0 -149 85 -234.5t224 -85.5z" />
    <glyph glyph-name="A" unicode="A" horiz-adv-x="1443" 
d="M31 0l616 1442h150l616 -1442h-186l-185 434h-653l-182 -434h-176zM717 1210l-258 -612h516z" />
    <glyph glyph-name="B" unicode="B" horiz-adv-x="1263" 
d="M215 2v1430q320 8 393 8q124 0 215.5 -27t144 -76.5t77 -111.5t24.5 -140q0 -128 -67.5 -211.5t-178.5 -119.5v-4q138 -22 217.5 -109t79.5 -231q0 -106 -39 -187t-110 -130.5t-164 -74t-207 -24.5q-217 0 -385 8zM621 653h-232v-487q94 -8 221 -8q161 0 248.5 66
t87.5 196q0 113 -84.5 173t-240.5 60zM604 1276q-62 0 -215 -6v-463h229q119 0 198 63.5t79 176.5q0 112 -74 170.5t-217 58.5z" />
    <glyph glyph-name="C" unicode="C" horiz-adv-x="1343" 
d="M1212 270l70 -131q-72 -73 -195.5 -116t-257.5 -43q-213 0 -378 90.5t-257 258.5t-92 388q0 207 84 373t248 265t383 99q275 0 436 -139l-79 -131q-142 106 -355 106q-234 0 -383 -159.5t-149 -413.5q0 -256 155 -415t404 -159q210 0 366 127z" />
    <glyph glyph-name="D" unicode="D" horiz-adv-x="1513" 
d="M215 0v1434h25q44 0 174.5 3t191.5 3q167 0 303 -37.5t228.5 -102.5t155 -155t90.5 -192.5t28 -217.5q0 -155 -52.5 -288t-152 -234t-258 -159t-358.5 -58q-45 0 -166.5 2t-185.5 2h-23zM602 1276q-38 0 -73.5 -1t-75.5 -2.5t-64 -2.5v-1106q188 -4 207 -4q151 0 271 43
t198.5 119.5t120 181.5t41.5 231q0 242 -161.5 391.5t-463.5 149.5z" />
    <glyph glyph-name="E" unicode="E" horiz-adv-x="1177" 
d="M215 0v1434h809v-164h-635v-463h574v-164h-574v-479h655v-164h-829z" />
    <glyph glyph-name="F" unicode="F" horiz-adv-x="1105" 
d="M215 0v1434h809v-164h-635v-508h574v-164h-574v-598h-174z" />
    <glyph glyph-name="G" unicode="G" horiz-adv-x="1488" 
d="M815 565v164h551v-551q-91 -91 -243.5 -144.5t-293.5 -53.5q-333 0 -530 200.5t-197 536.5q0 206 86 373t248 265.5t371 98.5q273 0 450 -139l-75 -139q-61 56 -155 85t-200 29q-241 0 -390.5 -157.5t-149.5 -415.5q0 -260 150.5 -417t396.5 -157q102 0 206.5 36
t161.5 91v295h-387z" />
    <glyph glyph-name="H" unicode="H" horiz-adv-x="1566" 
d="M1178 0v649h-789v-649h-174v1434h174v-621h789v621h174v-1434h-174z" />
    <glyph glyph-name="I" unicode="I" horiz-adv-x="686" 
d="M256 0v1434h174v-1434h-174z" />
    <glyph glyph-name="J" unicode="J" horiz-adv-x="765" 
d="M551 1434v-1108q0 -346 -313 -346q-68 0 -128 22.5t-90 52.5l60 133q59 -45 135 -45q88 0 125 55.5t37 155.5v1080h174z" />
    <glyph glyph-name="K" unicode="K" horiz-adv-x="1337" 
d="M1264 1434l-639 -674l671 -760h-223l-649 748l629 686h211zM215 0v1434h174v-1434h-174z" />
    <glyph glyph-name="L" unicode="L" horiz-adv-x="1126" 
d="M215 0v1434h174v-1270h707v-164h-881z" />
    <glyph glyph-name="M" unicode="M" horiz-adv-x="1826" 
d="M215 0v1434h176l539 -736l516 736h166v-1434h-174v1159l-508 -713h-27l-514 707v-1153h-174z" />
    <glyph glyph-name="N" unicode="N" horiz-adv-x="1628" 
d="M1413 0h-139l-895 1126v-1126h-164v1434h139l895 -1131v1131h164v-1434z" />
    <glyph glyph-name="O" unicode="O" horiz-adv-x="1667" 
d="M102 717q0 206 93.5 374.5t261.5 265.5t377 97q154 0 289 -54.5t232.5 -150t153.5 -233.5t56 -299q0 -157 -56 -294.5t-153 -234.5t-232.5 -152.5t-289.5 -55.5q-207 0 -373.5 92.5t-262.5 261.5t-96 383zM287 717q0 -160 72.5 -292t198 -207t276.5 -75q161 0 286 76
t192.5 206.5t67.5 291.5q0 248 -157 410.5t-389 162.5q-154 0 -279 -73t-196.5 -204.5t-71.5 -295.5z" />
    <glyph glyph-name="P" unicode="P" horiz-adv-x="1222" 
d="M389 0h-174v1434q39 0 184 2t191 2q119 0 212 -25t152 -67t97 -100.5t53.5 -120.5t15.5 -132q0 -89 -32 -169t-94 -143.5t-162.5 -100.5t-227.5 -37q-119 0 -215 8v-551zM606 1274q-81 0 -217 -4v-553q117 -10 209 -10q158 0 248 76.5t90 211.5q0 132 -82 205.5
t-248 73.5z" />
    <glyph glyph-name="Q" unicode="Q" horiz-adv-x="1667" 
d="M102 717q0 206 93.5 374.5t261.5 265.5t377 97q154 0 289 -54.5t232.5 -150t153.5 -233.5t56 -299q0 -158 -56.5 -295.5t-158.5 -237.5l157 -184h-204l-76 88q-174 -108 -393 -108q-207 0 -373.5 92.5t-262.5 261.5t-96 383zM287 717q0 -160 72.5 -292t198 -207
t276.5 -75q156 0 282 74l-125 150l115 104l131 -154q143 162 143 400q0 248 -157 410.5t-389 162.5q-154 0 -279 -73t-196.5 -204.5t-71.5 -295.5z" />
    <glyph glyph-name="R" unicode="R" horiz-adv-x="1316" 
d="M389 0h-174v1434q45 0 207 2t178 2q114 0 203 -22.5t146 -60.5t94 -93.5t52 -116.5t15 -133q0 -81 -26 -151.5t-70.5 -120.5t-99 -84t-115.5 -50l477 -606h-213l-440 573h-234v-573zM590 1274q-65 0 -201 -4v-533h211q131 0 228.5 75.5t97.5 197.5q0 121 -78.5 192.5
t-257.5 71.5z" />
    <glyph glyph-name="S" unicode="S" horiz-adv-x="1124" 
d="M838 367q0 56 -24 100.5t-64.5 76t-93 58t-111 50.5t-116.5 49.5t-110.5 60t-93 76.5t-64.5 103.5t-24 137.5q0 161 117 268t315 107q123 0 228.5 -40.5t167.5 -108.5l-95 -131q-116 116 -290 116q-119 0 -188.5 -57.5t-69.5 -153.5q0 -56 24 -101t64.5 -75.5t93 -56
t110.5 -48.5t116 -48t110.5 -58.5t93 -76t64.5 -105.5t24 -141q0 -115 -62.5 -204.5t-168.5 -137t-236 -47.5q-139 0 -270 59t-183 156l101 118q60 -80 159 -125t195 -45q118 0 199.5 60t81.5 164z" />
    <glyph glyph-name="T" unicode="T" horiz-adv-x="1218" 
d="M20 1270v164h1178v-164h-502v-1270h-174v1270h-502z" />
    <glyph glyph-name="U" unicode="U" horiz-adv-x="1538" 
d="M1343 1434v-836q0 -159 -45 -280t-123.5 -193t-176 -107.5t-210.5 -35.5q-130 0 -238 40t-187.5 117t-123.5 198t-44 275v822h174v-789q0 -235 109.5 -367.5t309.5 -132.5q180 0 280.5 124t100.5 364v801h174z" />
    <glyph glyph-name="V" unicode="V" horiz-adv-x="1343" 
d="M1333 1434l-590 -1442h-129l-604 1442h187l487 -1180l473 1180h176z" />
    <glyph glyph-name="W" unicode="W" horiz-adv-x="1986" 
d="M1966 1434l-414 -1434h-159l-394 1153l-385 -1153h-159l-435 1434h197l334 -1141l371 1141h168l380 -1141l326 1141h170z" />
    <glyph glyph-name="X" unicode="X" horiz-adv-x="1359" 
d="M1300 1434l-507 -705l526 -729h-207l-434 596l-432 -596h-205l526 729l-504 705h205l416 -574l410 574h206z" />
    <glyph glyph-name="Y" unicode="Y" horiz-adv-x="1236" 
d="M1217 1434l-515 -820v-614h-174v614l-508 820h201l402 -656l403 656h191z" />
    <glyph glyph-name="Z" unicode="Z" horiz-adv-x="1300" 
d="M123 1270v164h1075v-117l-881 -1153h902v-164h-1137v117l876 1153h-835z" />
    <glyph glyph-name="bracketleft" unicode="[" horiz-adv-x="655" 
d="M123 -410v1741h512v-153h-348v-1434h348v-154h-512z" />
    <glyph glyph-name="backslash" unicode="\" horiz-adv-x="686" 
d="M66 1454l682 -1833l-130 -47l-679 1833z" />
    <glyph glyph-name="bracketright" unicode="]" horiz-adv-x="655" 
d="M532 1331v-1741h-512v154h349v1434h-349v153h512z" />
    <glyph glyph-name="asciicircum" unicode="^" horiz-adv-x="1007" 
d="M82 922l369 528h110l365 -528h-178l-244 360l-244 -360h-178z" />
    <glyph glyph-name="underscore" unicode="_" horiz-adv-x="638" 
d="M0 -410v164h639v-164h-639z" />
    <glyph glyph-name="grave" unicode="`" horiz-adv-x="593" 
d="M371 1087l-248 291l129 99l219 -320z" />
    <glyph glyph-name="a" unicode="a" horiz-adv-x="942" 
d="M197 727l-43 131q135 84 307 84q190 0 272 -94.5t82 -282.5v-565h-156v119q-105 -133 -294 -133q-128 0 -205.5 76t-77.5 208q0 137 97 215t251 78q149 0 229 -59q0 57 -4 97t-17 79t-35 62.5t-60.5 38t-91.5 14.5q-78 0 -133.5 -17t-120.5 -51zM422 133q81 0 136.5 33
t100.5 86v117q-85 61 -206 61q-81 0 -139 -38.5t-58 -112.5q0 -67 44 -106.5t122 -39.5z" />
    <glyph glyph-name="b" unicode="b" horiz-adv-x="1124" 
d="M147 86v1348h164v-600q52 47 129.5 77.5t157.5 30.5q202 0 320 -129.5t118 -337.5q0 -226 -139.5 -360.5t-372.5 -134.5q-108 0 -209 29t-168 77zM561 788q-75 0 -144 -35.5t-106 -82.5v-473q97 -64 221 -64q143 0 236.5 89t93.5 241q0 153 -82.5 239t-218.5 86z" />
    <glyph glyph-name="c" unicode="c" horiz-adv-x="999" 
d="M856 252l78 -119q-57 -74 -151.5 -113.5t-202.5 -39.5q-221 0 -357.5 132t-136.5 349q0 133 60 243t167.5 174t239.5 64q241 0 362 -121l-75 -129q-104 96 -265 96q-128 0 -221.5 -92.5t-93.5 -234.5q0 -148 95.5 -238t236.5 -90q160 0 264 119z" />
    <glyph glyph-name="d" unicode="d" horiz-adv-x="1134" 
d="M823 0v117q-122 -133 -293 -133q-202 0 -323 128.5t-121 342.5t142.5 350.5t361.5 136.5q142 0 233 -65v557h164v-1434h-164zM561 137q75 0 145 35.5t117 87.5v457q-113 71 -227 71q-141 0 -238.5 -90.5t-97.5 -238.5q0 -149 84.5 -235.5t216.5 -86.5z" />
    <glyph glyph-name="e" unicode="e" horiz-adv-x="1064" 
d="M874 229l52 -129q-65 -59 -157 -89.5t-189 -30.5q-224 0 -359 131.5t-135 349.5q0 135 54.5 243t164 173t256.5 65q182 0 305 -117.5t123 -304.5q0 -62 -10 -110h-709q10 -129 97.5 -203t224.5 -74q86 0 161 26.5t121 69.5zM553 788q-123 0 -201 -68t-92 -177h559
q-6 115 -76.5 180t-189.5 65z" />
    <glyph glyph-name="f" unicode="f" horiz-adv-x="675" 
d="M168 0v1071q0 190 84 286.5t240 96.5q79 0 143 -23t102 -59l-57 -125q-63 53 -162 53q-186 0 -186 -247v-131h307v-154h-307v-768h-164z" />
    <glyph glyph-name="g" unicode="g" horiz-adv-x="1011" 
d="M20 -133q0 109 79 180t216 100q-22 28 -22 76t24 78q-97 39 -151.5 120t-54.5 183q0 142 103.5 240t272.5 98q134 0 234 -68l270 66l4 -133l-174 -43q43 -70 43 -160q0 -141 -105 -236.5t-272 -95.5q-41 0 -61 2q-10 -20 -10 -51q0 -37 18 -61q9 0 27.5 1t27.5 1
q210 0 339.5 -76t129.5 -221q0 -96 -62 -163t-166 -98.5t-241 -31.5q-138 0 -241 30.5t-165.5 98t-62.5 164.5zM174 -133q0 -76 85.5 -118t229.5 -42q145 0 230.5 41.5t85.5 118.5t-84 120.5t-232 43.5t-231.5 -43.5t-83.5 -120.5zM264 604q0 -87 61.5 -142.5t161.5 -55.5
q98 0 161 55t63 143t-61.5 146.5t-162.5 58.5q-100 0 -161.5 -58.5t-61.5 -146.5z" />
    <glyph glyph-name="h" unicode="h" horiz-adv-x="1124" 
d="M147 0v1434h164v-619q53 54 134.5 88.5t166.5 34.5q383 0 383 -410v-528h-164v506q0 278 -258 278q-75 0 -146.5 -32.5t-115.5 -83.5v-668h-164z" />
    <glyph glyph-name="i" unicode="i" horiz-adv-x="548" 
d="M193 0v922h163v-922h-163zM172 1268q0 43 31.5 70.5t75.5 27.5q40 0 70 -27.5t30 -70.5q0 -49 -29.5 -78t-70.5 -29q-45 0 -76 29t-31 78z" />
    <glyph glyph-name="j" unicode="j" horiz-adv-x="544" 
d="M365 922v-990q0 -358 -289 -358q-63 0 -118.5 17t-86.5 42l47 131q59 -36 121 -36q162 0 162 217v977h164zM178 1268q0 43 31.5 70.5t75.5 27.5q40 0 70 -27.5t30 -70.5q0 -49 -29.5 -78t-70.5 -29q-45 0 -76 29t-31 78z" />
    <glyph glyph-name="k" unicode="k" horiz-adv-x="1005" 
d="M936 922l-391 -428l440 -494h-223l-416 481l381 441h209zM147 0v1434h164v-1434h-164z" />
    <glyph glyph-name="l" unicode="l" horiz-adv-x="593" 
d="M147 246v1188h164v-1115q0 -95 25.5 -138.5t83.5 -43.5q53 0 117 41l36 -125q-87 -69 -217 -69q-209 0 -209 262z" />
    <glyph glyph-name="m" unicode="m" horiz-adv-x="1644" 
d="M1516 604v-604h-164v559q0 225 -199 225q-81 0 -144.5 -37t-97.5 -96q2 -16 2 -65v-586h-163v594q0 87 -51 138.5t-146 51.5q-76 0 -140.5 -35.5t-101.5 -89.5v-659h-164v922h164v-117q51 60 133.5 96.5t171.5 36.5q105 0 178.5 -43.5t100.5 -116.5q51 73 136.5 116.5
t187.5 43.5q297 0 297 -334z" />
    <glyph glyph-name="n" unicode="n" horiz-adv-x="1124" 
d="M147 0v922h164v-113q50 55 132 92t169 37q383 0 383 -406v-532h-164v502q0 282 -260 282q-76 0 -145 -32.5t-115 -85.5v-666h-164z" />
    <glyph glyph-name="o" unicode="o" horiz-adv-x="1157" 
d="M86 461q0 209 136.5 345t355.5 136t355 -136t136 -345t-136 -345t-355 -136t-355.5 136t-136.5 345zM260 461q0 -144 89.5 -236t228.5 -92t228 90.5t89 237.5q0 144 -89 235.5t-228 91.5q-137 0 -227.5 -91t-90.5 -236z" />
    <glyph glyph-name="p" unicode="p" horiz-adv-x="1138" 
d="M147 -410v1332h164v-109q48 57 134 93t180 36q194 0 310 -130t116 -337q0 -214 -133 -354.5t-347 -140.5q-163 0 -260 63v-453h-164zM578 788q-79 0 -151 -35t-116 -91v-457q107 -72 246 -72q146 0 233 94t87 242q0 143 -79.5 231t-219.5 88z" />
    <glyph glyph-name="q" unicode="q" horiz-adv-x="1140" 
d="M827 -410v484q-56 -43 -128 -68.5t-140 -25.5q-216 0 -344.5 131t-128.5 350q0 99 39 188t107 153.5t164.5 102t207.5 37.5q107 0 210 -29t177 -75v-1248h-164zM580 133q71 0 140 32.5t107 78.5v485q-104 59 -225 59q-152 0 -247 -97t-95 -238q0 -142 88 -231t232 -89z
" />
    <glyph glyph-name="r" unicode="r" horiz-adv-x="696" 
d="M147 0v922h164v-109q84 125 232 125q96 0 143 -35l-57 -153q-34 20 -59 27t-66 7q-126 0 -193 -131v-653h-164z" />
    <glyph glyph-name="s" unicode="s" horiz-adv-x="880" 
d="M614 250q0 33 -21.5 58t-56.5 40t-79.5 31t-91 30t-91 37t-79.5 52t-56.5 76t-21.5 108q0 120 87 190t226 70q106 0 188.5 -31.5t129.5 -76.5l-78 -125q-101 90 -232 90q-67 0 -107 -33.5t-40 -81.5q0 -39 27.5 -67.5t71 -46t96.5 -33.5t106.5 -37t97 -49.5t71 -77.5
t27.5 -115q0 -71 -29.5 -125.5t-80 -87t-113 -49t-133.5 -16.5q-107 0 -206 45t-134 98l92 117q40 -46 119.5 -81.5t147.5 -35.5q69 0 116 33.5t47 93.5z" />
    <glyph glyph-name="t" unicode="t" horiz-adv-x="722" 
d="M127 350v828h164v-256h338v-154h-338v-401q0 -230 164 -230q78 0 145 51l51 -127q-92 -77 -235 -77q-151 0 -220 92t-69 274z" />
    <glyph glyph-name="u" unicode="u" horiz-adv-x="1105" 
d="M956 922v-922h-163v131q-52 -64 -138 -107.5t-188 -43.5q-159 0 -249.5 98t-90.5 295v549h164v-512q0 -277 237 -277q76 0 148 39t117 98v652h163z" />
    <glyph glyph-name="v" unicode="v" horiz-adv-x="974" 
d="M965 922l-408 -930h-119l-428 930h193l223 -498q33 -73 78 -205q33 111 76 209l211 494h174z" />
    <glyph glyph-name="w" unicode="w" horiz-adv-x="1445" 
d="M1425 922l-295 -930h-143l-229 600q-19 49 -35 113q-21 -75 -39 -119l-223 -594h-135l-306 930h177l180 -582q8 -26 20 -71.5t15 -57.5q32 108 39 129l208 582h142l211 -580q10 -27 43 -133q13 59 37 141l168 572h165z" />
    <glyph glyph-name="x" unicode="x" horiz-adv-x="1038" 
d="M967 922l-330 -445l350 -477h-201l-270 373l-274 -373h-191l348 469l-327 453h200l250 -349l254 349h191z" />
    <glyph glyph-name="y" unicode="y" horiz-adv-x="1005" 
d="M985 922l-369 -922q-67 -164 -123 -253.5t-108 -123t-121 -33.5q-88 0 -174 58l53 125q69 -31 103 -31q58 0 104 49t92 160l21 49l-443 922h197l270 -586q28 -65 56 -139q14 51 43 141l213 584h186z" />
    <glyph glyph-name="z" unicode="z" horiz-adv-x="993" 
d="M123 768v154h778v-115l-577 -653h567v-154h-799v115l576 653h-545z" />
    <glyph glyph-name="braceleft" unicode="{" horiz-adv-x="686" 
d="M225 -133v321q0 58 -16.5 99.5t-45 63t-58.5 30.5t-64 8v143q31 0 60.5 10.5t58.5 34t47 70t18 111.5v284q0 146 64.5 217.5t218.5 71.5h137v-153h-98q-87 0 -122.5 -43t-35.5 -148v-291q0 -99 -41.5 -161.5t-111.5 -71.5q70 -8 111.5 -65t41.5 -169v-297
q0 -100 40.5 -144t129.5 -44h86v-154h-145q-136 0 -205.5 66t-69.5 211z" />
    <glyph glyph-name="bar" unicode="|" horiz-adv-x="675" 
d="M256 0v1434h164v-1434h-164z" />
    <glyph glyph-name="braceright" unicode="}" horiz-adv-x="686" 
d="M461 188v-321q0 -145 -69.5 -211t-207.5 -66h-143v154h86q89 0 129.5 44t40.5 144v297q0 112 42 169t112 65q-70 9 -112 71.5t-42 161.5v291q0 104 -36 147.5t-122 43.5h-98v153h137q153 0 218 -72t65 -217v-284q0 -65 18 -111.5t47 -70t58.5 -34t60.5 -10.5v-143
q-34 1 -64 -8t-58.5 -30.5t-45 -63t-16.5 -99.5z" />
    <glyph glyph-name="asciitilde" unicode="~" 
d="M176 629l-74 104q65 70 138 109t141 39q56 0 122.5 -23t118 -50t116.5 -50t118 -23q94 0 186 92l66 -112q-130 -123 -254 -123q-55 0 -121 22.5t-117 50t-114 50t-113 22.5q-101 0 -213 -108z" />
    <glyph glyph-name="uni00A0" unicode="&#xa0;" horiz-adv-x="460" 
 />
    <glyph glyph-name="exclamdown" unicode="&#xa1;" horiz-adv-x="634" 
d="M406 496v-994h-175v994h175zM432 825q0 -42 -33 -75t-86 -33q-46 0 -77 33t-31 75q0 47 31 82t77 35q53 0 86 -34.5t33 -82.5z" />
    <glyph glyph-name="cent" unicode="&#xa2;" 
d="M952 252l78 -119q-103 -130 -293 -149v-230h-164v234q-180 29 -285.5 155.5t-105.5 317.5q0 182 109 314.5t282 160.5v223h164v-221q174 -19 275 -117l-76 -129q-104 96 -264 96q-128 0 -222 -92.5t-94 -234.5q0 -148 95.5 -238t236.5 -90q160 0 264 119z" />
    <glyph glyph-name="sterling" unicode="&#xa3;" 
d="M154 563v133h161q-9 20 -35 74.5t-38 85t-24.5 85.5t-12.5 112q0 166 122.5 281.5t319.5 115.5q124 0 224 -41.5t167 -114.5l-92 -127q-125 119 -295 119q-116 0 -189 -72t-73 -172q0 -68 19 -124.5t51.5 -118.5t46.5 -103h332v-133h-308v-18q0 -145 -110 -285
q68 -6 209.5 -55t216.5 -49q62 0 114 20t109 74l74 -127q-128 -131 -301 -131q-79 0 -233.5 53t-233.5 53q-113 0 -228 -112l-69 129q77 83 172 123q106 137 106 276q0 33 -2 49h-200z" />
    <glyph glyph-name="currency" unicode="&#xa4;" 
d="M141 707q0 154 84 276l-170 174l103 103l170 -175q120 86 278 86q155 0 277 -84l180 179l102 -103l-180 -178q86 -125 86 -278q0 -155 -86 -277l174 -174l-100 -100l-174 172q-120 -86 -279 -86q-158 0 -278 86l-181 -181l-100 101l178 182q-84 119 -84 277zM295 707
q0 -136 84.5 -229t226.5 -93q145 0 228.5 92.5t83.5 229.5q0 139 -84.5 230t-227.5 91q-141 0 -226 -92t-85 -229z" />
    <glyph glyph-name="yen" unicode="&#xa5;" 
d="M139 612v133h299l-399 689h201l370 -656l373 656h191l-406 -689h301v-133h-379v-215h379v-133h-379v-264h-174v264h-377v133h377v215h-377z" />
    <glyph glyph-name="brokenbar" unicode="&#xa6;" horiz-adv-x="675" 
d="M420 901h-164v533h164v-533zM256 532h164v-532h-164v532z" />
    <glyph glyph-name="section" unicode="&#xa7;" horiz-adv-x="1073" 
d="M133 510q0 130 72 226.5t198 131.5q-74 41 -120.5 112.5t-46.5 164.5q0 124 88.5 206.5t240.5 82.5q173 0 277 -134l-99 -110q-27 30 -43 44.5t-51.5 30t-79.5 15.5q-71 0 -120.5 -48.5t-49.5 -117.5q0 -140 179 -229q166 -12 264 -116.5t98 -258.5q0 -130 -73 -227.5
t-201 -130.5q74 -42 121 -112t47 -161q0 -124 -89 -206.5t-241 -82.5q-178 0 -279 134l99 110q26 -29 43 -44t53 -30.5t80 -15.5q71 0 120.5 48.5t49.5 117.5q0 77 -49 131t-134 96q-163 15 -258.5 118.5t-95.5 254.5zM297 510q0 -96 68 -163.5t172 -67.5q106 0 172.5 67.5
t66.5 163.5t-67.5 164.5t-171.5 68.5t-172 -68t-68 -165z" />
    <glyph glyph-name="dieresis" unicode="&#xa8;" horiz-adv-x="849" 
d="M123 1249q0 42 27.5 68t68.5 26q35 0 62.5 -26.5t27.5 -67.5q0 -47 -27 -74.5t-63 -27.5q-41 0 -68.5 27t-27.5 75zM539 1249q0 42 28.5 68t69.5 26q35 0 62.5 -26.5t27.5 -67.5q0 -47 -27 -74.5t-63 -27.5q-42 0 -70 27t-28 75z" />
    <glyph glyph-name="copyright" unicode="&#xa9;" horiz-adv-x="2084" 
d="M154 453q0 183 68 347.5t185.5 283t283 188t351.5 69.5t351.5 -69.5t283 -188t186 -283t68.5 -347.5t-68.5 -347.5t-186 -283.5t-283 -188.5t-351.5 -69.5t-351.5 69.5t-283 188.5t-185.5 283.5t-68 347.5zM297 451q0 -152 56.5 -289t154 -237t237 -159t297.5 -59
q210 0 381.5 100t268 270.5t96.5 373.5q0 204 -96.5 375t-268 271.5t-381.5 100.5q-158 0 -297.5 -59t-237 -159.5t-154 -238t-56.5 -290.5zM1335 252l78 -119q-57 -74 -151.5 -113.5t-202.5 -39.5q-221 0 -357.5 132t-136.5 349q0 133 60 243t167.5 174t239.5 64
q242 0 363 -121l-76 -129q-104 96 -264 96q-128 0 -222 -92.5t-94 -234.5q0 -148 95.5 -238t236.5 -90q160 0 264 119z" />
    <glyph glyph-name="ordfeminine" unicode="&#xaa;" horiz-adv-x="870" 
d="M233 1174l-61 96q107 78 266 78q126 0 207.5 -68.5t81.5 -196.5v-417h-143v96q-87 -105 -254 -105q-102 0 -165 61t-63 150q0 106 68.5 164t189.5 58q136 0 224 -52v11q0 176 -172 176q-106 0 -179 -51zM399 778q95 0 185 74v94q-84 41 -176 41q-68 0 -110 -28t-42 -76
q0 -46 39 -75.5t104 -29.5z" />
    <glyph glyph-name="guillemotleft" unicode="&#xab;" horiz-adv-x="1085" 
d="M860 61l-379 447v8l385 442l107 -94l-303 -352l301 -354zM471 61l-379 447v8l385 442l107 -94l-303 -352l301 -354z" />
    <glyph glyph-name="logicalnot" unicode="&#xac;" 
d="M121 666v143h971v-412h-144v269h-827z" />
    <glyph glyph-name="uni00AD" unicode="&#xad;" horiz-adv-x="796" 
d="M154 481v154h489v-154h-489z" />
    <glyph glyph-name="registered" unicode="&#xae;" horiz-adv-x="1265" 
d="M102 1018q0 143 70.5 264.5t193.5 192.5t269 71q143 0 264.5 -71t192.5 -192.5t71 -264.5q0 -146 -71 -269.5t-192.5 -194.5t-264.5 -71q-146 0 -268.5 71.5t-193.5 194.5t-71 269zM236 1016q0 -164 116.5 -281t280.5 -117t280.5 117t116.5 281t-116.5 280.5
t-280.5 116.5t-280.5 -116.5t-116.5 -280.5zM545 737h-113v574h201q115 0 168 -48.5t53 -129.5q0 -59 -35 -105t-88 -61l152 -230h-133l-129 207h-76v-207zM618 1229h-73v-203h80q50 0 83 29.5t33 74.5t-32 72t-91 27z" />
    <glyph glyph-name="macron" unicode="&#xaf;" horiz-adv-x="786" 
d="M123 1188v133h541v-133h-541z" />
    <glyph glyph-name="degree" unicode="&#xb0;" horiz-adv-x="839" 
d="M102 1165q0 134 92.5 227t223.5 93q134 0 226.5 -89.5t92.5 -224.5q0 -133 -93.5 -227t-225.5 -94q-131 0 -223.5 91t-92.5 224zM246 1167q0 -72 51 -123t123 -51q71 0 122.5 51t51.5 123q0 71 -52 122.5t-122 51.5q-72 0 -123 -51.5t-51 -122.5z" />
    <glyph glyph-name="plusminus" unicode="&#xb1;" 
d="M141 840v143h385v391h154v-391h391v-143h-391v-252h-154v252h-385zM141 338v143h930v-143h-930z" />
    <glyph glyph-name="twosuperior" unicode="&#xb2;" horiz-adv-x="714" 
d="M72 717v104q7 5 51 34t59 39.5t56 39t59.5 44t51 43t48.5 47.5t34.5 45t26 48t7.5 45q0 49 -33 81t-92 32q-51 0 -92.5 -34t-48.5 -85l-121 43q15 92 91 145.5t185 53.5q127 0 194.5 -61t67.5 -158q0 -54 -29 -108.5t-69 -95t-93.5 -80t-91 -61t-73.5 -38.5h393v-123
h-581z" />
    <glyph glyph-name="threesuperior" unicode="&#xb3;" horiz-adv-x="716" 
d="M346 705q-98 0 -177.5 36t-117.5 107l84 78q24 -46 77.5 -74.5t111.5 -28.5q74 0 115.5 30.5t41.5 78.5q0 43 -38 69.5t-107 26.5h-70v102h62q54 0 90.5 30.5t36.5 74.5q0 43 -35 67.5t-94 24.5q-118 0 -183 -92l-69 78q33 59 104 95t176 36q115 0 184.5 -48t69.5 -132
q0 -63 -40 -108t-111 -64v-2q84 -6 131 -54.5t47 -115.5q0 -97 -83.5 -156t-205.5 -59z" />
    <glyph glyph-name="acute" unicode="&#xb4;" horiz-adv-x="589" 
d="M467 1380l-246 -293l-98 70l217 322z" />
    <glyph glyph-name="mu" unicode="&#xb5;" horiz-adv-x="1116" 
d="M967 922v-922h-164v131q-52 -64 -138 -107.5t-188 -43.5q-103 0 -176 40v-430h-164v1332h164v-512q0 -277 238 -277q76 0 147.5 39t116.5 98v652h164z" />
    <glyph glyph-name="mu" unicode="&#x3bc;" horiz-adv-x="1116" 
d="M967 922v-922h-164v131q-52 -64 -138 -107.5t-188 -43.5q-103 0 -176 40v-430h-164v1332h164v-512q0 -277 238 -277q76 0 147.5 39t116.5 98v652h164z" />
    <glyph glyph-name="paragraph" unicode="&#xb6;" horiz-adv-x="944" 
d="M92 985q0 207 120.5 328t317.5 121h353v-154h-193v-1307q0 -399 -338 -399q-68 0 -132 24.5t-101 59.5l67 119q65 -49 154 -49q45 0 78.5 13t53.5 35t32.5 55.5t17 68.5t4.5 80v559q-118 1 -215.5 52.5t-158 154.5t-60.5 239z" />
    <glyph glyph-name="periodcentered" unicode="&#xb7;" horiz-adv-x="460" 
d="M117 612q0 42 32.5 75.5t83.5 33.5q46 0 77.5 -33.5t31.5 -75.5q0 -47 -31.5 -81.5t-77.5 -34.5q-52 0 -84 34t-32 82z" />
    <glyph glyph-name="cedilla" unicode="&#xb8;" horiz-adv-x="718" 
d="M123 -350l49 80q71 -47 145 -47q51 0 83 19.5t32 53.5q0 80 -119 80h-12v164h88v-88q103 -6 155 -48.5t52 -115.5q0 -75 -68 -121.5t-190 -46.5q-48 0 -91.5 11.5t-68 24.5t-55.5 34z" />
    <glyph glyph-name="onesuperior" unicode="&#xb9;" horiz-adv-x="516" 
d="M45 1290l215 146h102v-719h-143v551l-119 -76z" />
    <glyph glyph-name="ordmasculine" unicode="&#xba;" horiz-adv-x="974" 
d="M113 1001q0 154 105.5 250.5t268.5 96.5t269 -96.5t106 -250.5t-106 -251t-269 -97t-268.5 97t-105.5 251zM266 1001q0 -95 65 -155t156 -60q93 0 157.5 59.5t64.5 155.5q0 94 -65 153.5t-157 59.5q-93 0 -157 -59t-64 -154z" />
    <glyph glyph-name="guillemotright" unicode="&#xbb;" horiz-adv-x="1085" 
d="M993 508l-379 -447l-110 97l301 354l-303 352l106 94l385 -442v-8zM604 508l-379 -447l-110 97l301 354l-303 352l106 94l385 -442v-8z" />
    <glyph glyph-name="onequarter" unicode="&#xbc;" horiz-adv-x="1378" 
d="M66 1290l215 146h102v-719h-143v551l-119 -76zM102 47l1053 1407l94 -70l-1050 -1404zM1083 0v162h-397v94l344 461h137l-333 -443h249v187h134v-187h120v-112h-120v-162h-134z" />
    <glyph glyph-name="onehalf" unicode="&#xbd;" horiz-adv-x="1411" 
d="M66 1290l215 146h102v-719h-143v551l-119 -76zM61 47l1053 1407l94 -70l-1050 -1404zM748 0v104q7 5 51 34t59 39.5t56 39t59.5 44t51 43t48.5 47.5t34.5 45t26 48t7.5 45q0 49 -33 81t-92 32q-51 0 -93 -34t-49 -85l-120 43q15 92 91 145.5t185 53.5q127 0 194.5 -61
t67.5 -158q0 -54 -29 -108.5t-69 -95t-93.5 -80t-91 -61t-73.5 -38.5h393v-123h-581z" />
    <glyph glyph-name="threequarters" unicode="&#xbe;" horiz-adv-x="1480" 
d="M225 47l1053 1407l94 -70l-1050 -1404zM1186 0v162h-398v94l345 461h137l-334 -443h250v187h133v-187h121v-112h-121v-162h-133zM356 705q-98 0 -177.5 36t-117.5 107l84 78q24 -46 77.5 -74.5t111.5 -28.5q74 0 116 31t42 78q0 43 -38.5 69.5t-107.5 26.5h-70v102h62
q54 0 90.5 30.5t36.5 74.5q0 43 -35 67.5t-94 24.5q-117 0 -182 -92l-70 78q33 59 104.5 95t176.5 36q115 0 184 -48t69 -132q0 -63 -40 -108t-111 -64v-2q84 -6 131 -54.5t47 -115.5q0 -97 -83.5 -156t-205.5 -59z" />
    <glyph glyph-name="questiondown" unicode="&#xbf;" horiz-adv-x="954" 
d="M238 -129q0 -95 70.5 -160t178.5 -65q176 0 287 151l98 -108q-57 -92 -162.5 -149.5t-232.5 -57.5q-192 0 -304 101.5t-112 252.5q0 82 25 149t63.5 110.5t84.5 81.5t90 71.5t78 70t49.5 87.5t3.5 114l147 2q12 -65 7 -112.5t-23.5 -87.5t-45 -69t-59.5 -57t-66.5 -51
t-65.5 -52t-56.5 -58.5t-39.5 -72t-15 -91.5zM643 825q0 -42 -33 -75t-86 -33q-46 0 -77 33t-31 75q0 47 31 82t77 35q53 0 86 -34.5t33 -82.5z" />
    <glyph glyph-name="Agrave" unicode="&#xc0;" horiz-adv-x="1443" 
d="M31 0l616 1442h150l616 -1442h-186l-185 434h-653l-182 -434h-176zM717 1210l-258 -612h516zM809 1505l-414 172l62 140l399 -213z" />
    <glyph glyph-name="Aacute" unicode="&#xc1;" horiz-adv-x="1443" 
d="M31 0l616 1442h150l616 -1442h-186l-185 434h-653l-182 -434h-176zM717 1210l-258 -612h516zM1051 1677l-414 -172l-47 99l399 213z" />
    <glyph glyph-name="Acircumflex" unicode="&#xc2;" horiz-adv-x="1443" 
d="M31 0l616 1442h150l616 -1442h-186l-185 434h-653l-182 -434h-176zM717 1210l-258 -612h516zM362 1593l351 213h8l356 -211l-67 -94l-293 156l-295 -156z" />
    <glyph glyph-name="Atilde" unicode="&#xc3;" horiz-adv-x="1443" 
d="M31 0l616 1442h150l616 -1442h-186l-185 434h-653l-182 -434h-176zM717 1210l-258 -612h516zM418 1559l-53 102q42 45 96.5 70.5t107.5 25.5q63 0 158.5 -41t149.5 -41q92 0 153 66l45 -103q-79 -106 -209 -106q-55 0 -154.5 41t-158.5 41q-69 0 -135 -55z" />
    <glyph glyph-name="Adieresis" unicode="&#xc4;" horiz-adv-x="1443" 
d="M31 0l616 1442h150l616 -1442h-186l-185 434h-653l-182 -434h-176zM717 1210l-258 -612h516zM373 1665q0 42 32.5 67t79.5 25q42 0 74.5 -25.5t32.5 -66.5q0 -45 -32 -71.5t-75 -26.5q-48 0 -80 26t-32 72zM848 1665q0 41 33.5 66.5t81.5 25.5q42 0 73 -25t31 -67
q0 -45 -31 -71.5t-73 -26.5q-48 0 -81.5 26.5t-33.5 71.5z" />
    <glyph glyph-name="Aring" unicode="&#xc5;" horiz-adv-x="1443" 
d="M465 1622q0 98 71.5 147.5t182.5 49.5q114 0 186 -49.5t72 -147.5q0 -77 -47.5 -128t-126.5 -69l610 -1425h-186l-185 434h-653l-182 -434h-176l608 1425q-78 16 -126 67t-48 130zM717 1210l-258 -612h516zM588 1622q0 -55 36.5 -84t96.5 -29q58 0 95.5 29t37.5 84
q0 53 -36.5 78.5t-96.5 25.5q-61 0 -97 -25.5t-36 -78.5z" />
    <glyph glyph-name="AE" unicode="&#xc6;" horiz-adv-x="1957" 
d="M1804 1434v-164h-635v-463h574v-164h-574v-479h656v-164h-830v442h-512l-311 -442h-203l1030 1434h805zM995 1169l-397 -563h397v563z" />
    <glyph glyph-name="Ccedilla" unicode="&#xc7;" horiz-adv-x="1343" 
d="M565 -346l53 86q81 -57 152 -57q51 0 83 19.5t32 53.5q0 80 -119 80h-12v148q-294 23 -473 221.5t-179 511.5q0 207 84 373t248 265t383 99q275 0 436 -139l-79 -131q-142 106 -355 106q-234 0 -383 -159.5t-149 -413.5q0 -256 155 -415t404 -159q210 0 366 127l70 -131
q-70 -71 -189 -113.5t-251 -45.5v-68q217 -11 217 -164q0 -75 -67.5 -121.5t-184.5 -46.5q-132 0 -242 74z" />
    <glyph glyph-name="Egrave" unicode="&#xc8;" horiz-adv-x="1177" 
d="M215 0v1434h809v-164h-635v-463h574v-164h-574v-479h655v-164h-829zM737 1505l-413 172l61 140l399 -213z" />
    <glyph glyph-name="Eacute" unicode="&#xc9;" horiz-adv-x="1177" 
d="M215 0v1434h809v-164h-635v-463h574v-164h-574v-479h655v-164h-829zM928 1677l-414 -172l-47 99l399 213z" />
    <glyph glyph-name="Ecircumflex" unicode="&#xca;" horiz-adv-x="1177" 
d="M215 0v1434h809v-164h-635v-463h574v-164h-574v-479h655v-164h-829zM264 1593l350 213h9l356 -211l-68 -94l-293 156l-294 -156z" />
    <glyph glyph-name="Edieresis" unicode="&#xcb;" horiz-adv-x="1177" 
d="M215 0v1434h809v-164h-635v-463h574v-164h-574v-479h655v-164h-829zM279 1665q0 42 32.5 67t79.5 25q42 0 74.5 -25.5t32.5 -66.5q0 -45 -32 -71.5t-75 -26.5q-48 0 -80 26t-32 72zM754 1665q0 41 33.5 66.5t80.5 25.5q42 0 73.5 -25t31.5 -67q0 -45 -31.5 -71.5
t-73.5 -26.5q-48 0 -81 26.5t-33 71.5z" />
    <glyph glyph-name="Igrave" unicode="&#xcc;" horiz-adv-x="686" 
d="M256 0v1434h174v-1434h-174zM410 1505l-414 172l61 140l400 -213z" />
    <glyph glyph-name="Iacute" unicode="&#xcd;" horiz-adv-x="686" 
d="M256 0v1434h174v-1434h-174zM692 1677l-413 -172l-48 99l400 213z" />
    <glyph glyph-name="Icircumflex" unicode="&#xce;" horiz-adv-x="686" 
d="M256 0v1434h174v-1434h-174zM-14 1593l350 213h8l356 -211l-67 -94l-293 156l-295 -156z" />
    <glyph glyph-name="Idieresis" unicode="&#xcf;" horiz-adv-x="686" 
d="M256 0v1434h174v-1434h-174zM-4 1665q0 41 33 66.5t80 25.5q42 0 74 -25.5t32 -66.5q0 -45 -31.5 -71.5t-74.5 -26.5q-48 0 -80.5 26t-32.5 72zM471 1665q0 41 33.5 66.5t81.5 25.5q42 0 73 -25t31 -67q0 -45 -31 -71.5t-73 -26.5q-48 0 -81.5 26.5t-33.5 71.5z" />
    <glyph glyph-name="Eth" unicode="&#xd0;" horiz-adv-x="1544" 
d="M20 647v154h226v633h24q44 0 175 3t192 3q167 0 303 -37.5t228.5 -102.5t155 -155t90.5 -192.5t28 -217.5q0 -155 -52.5 -288t-152 -234t-258 -159t-358.5 -58q-45 0 -167 2t-186 2h-22v647h-226zM633 1276q-38 0 -73.5 -1t-75.5 -2.5t-64 -2.5v-469h385v-154h-385v-483
q188 -4 207 -4q151 0 271 43t198 119.5t119.5 181.5t41.5 231q0 118 -39.5 216t-116 171t-196 113.5t-272.5 40.5z" />
    <glyph glyph-name="Ntilde" unicode="&#xd1;" horiz-adv-x="1628" 
d="M1413 0h-139l-895 1126v-1126h-164v1434h139l895 -1131v1131h164v-1434zM524 1559l-53 102q42 45 97 70.5t108 25.5q63 0 158 -41t149 -41q93 0 154 66l45 -103q-80 -106 -209 -106q-55 0 -155 41t-159 41q-69 0 -135 -55z" />
    <glyph glyph-name="Ograve" unicode="&#xd2;" horiz-adv-x="1667" 
d="M102 717q0 206 93.5 374.5t261.5 265.5t377 97q154 0 289 -54.5t232.5 -150t153.5 -233.5t56 -299q0 -157 -56 -294.5t-153 -234.5t-232.5 -152.5t-289.5 -55.5q-207 0 -373.5 92.5t-262.5 261.5t-96 383zM287 717q0 -160 72.5 -292t198 -207t276.5 -75q161 0 286 76
t192.5 206.5t67.5 291.5q0 248 -157 410.5t-389 162.5q-154 0 -279 -73t-196.5 -204.5t-71.5 -295.5zM983 1505l-414 172l62 140l399 -213z" />
    <glyph glyph-name="Oacute" unicode="&#xd3;" horiz-adv-x="1667" 
d="M102 717q0 206 93.5 374.5t261.5 265.5t377 97q154 0 289 -54.5t232.5 -150t153.5 -233.5t56 -299q0 -157 -56 -294.5t-153 -234.5t-232.5 -152.5t-289.5 -55.5q-207 0 -373.5 92.5t-262.5 261.5t-96 383zM287 717q0 -160 72.5 -292t198 -207t276.5 -75q161 0 286 76
t192.5 206.5t67.5 291.5q0 248 -157 410.5t-389 162.5q-154 0 -279 -73t-196.5 -204.5t-71.5 -295.5zM1153 1677l-414 -172l-47 99l400 213z" />
    <glyph glyph-name="Ocircumflex" unicode="&#xd4;" horiz-adv-x="1667" 
d="M102 717q0 206 93.5 374.5t261.5 265.5t377 97q154 0 289 -54.5t232.5 -150t153.5 -233.5t56 -299q0 -157 -56 -294.5t-153 -234.5t-232.5 -152.5t-289.5 -55.5q-207 0 -373.5 92.5t-262.5 261.5t-96 383zM287 717q0 -160 72.5 -292t198 -207t276.5 -75q161 0 286 76
t192.5 206.5t67.5 291.5q0 248 -157 410.5t-389 162.5q-154 0 -279 -73t-196.5 -204.5t-71.5 -295.5zM483 1593l351 213h8l356 -211l-68 -94l-292 156l-295 -156z" />
    <glyph glyph-name="Otilde" unicode="&#xd5;" horiz-adv-x="1667" 
d="M102 717q0 206 93.5 374.5t261.5 265.5t377 97q154 0 289 -54.5t232.5 -150t153.5 -233.5t56 -299q0 -157 -56 -294.5t-153 -234.5t-232.5 -152.5t-289.5 -55.5q-207 0 -373.5 92.5t-262.5 261.5t-96 383zM287 717q0 -160 72.5 -292t198 -207t276.5 -75q161 0 286 76
t192.5 206.5t67.5 291.5q0 248 -157 410.5t-389 162.5q-154 0 -279 -73t-196.5 -204.5t-71.5 -295.5zM528 1559l-53 102q42 45 97 70.5t108 25.5q63 0 158 -41t149 -41q93 0 154 66l45 -103q-80 -106 -209 -106q-55 0 -154.5 41t-158.5 41q-70 0 -136 -55z" />
    <glyph glyph-name="Odieresis" unicode="&#xd6;" horiz-adv-x="1667" 
d="M102 717q0 206 93.5 374.5t261.5 265.5t377 97q154 0 289 -54.5t232.5 -150t153.5 -233.5t56 -299q0 -157 -56 -294.5t-153 -234.5t-232.5 -152.5t-289.5 -55.5q-207 0 -373.5 92.5t-262.5 261.5t-96 383zM287 717q0 -160 72.5 -292t198 -207t276.5 -75q161 0 286 76
t192.5 206.5t67.5 291.5q0 248 -157 410.5t-389 162.5q-154 0 -279 -73t-196.5 -204.5t-71.5 -295.5zM483 1665q0 41 33 66.5t80 25.5q42 0 74 -25.5t32 -66.5q0 -45 -31.5 -71.5t-74.5 -26.5q-48 0 -80.5 26t-32.5 72zM958 1665q0 41 33.5 66.5t81.5 25.5q42 0 73.5 -25
t31.5 -67q0 -45 -31.5 -71.5t-73.5 -26.5q-48 0 -81.5 26.5t-33.5 71.5z" />
    <glyph glyph-name="multiply" unicode="&#xd7;" 
d="M227 1014l103 102l276 -278l277 278l100 -102l-276 -277l280 -278l-102 -103l-279 279l-280 -279l-101 103l279 278z" />
    <glyph glyph-name="Oslash" unicode="&#xd8;" horiz-adv-x="1667" 
d="M102 717q0 206 93.5 374.5t261.5 265.5t377 97q276 0 473 -164l90 88l94 -96l-88 -86q162 -199 162 -479q0 -157 -56 -294.5t-153 -234.5t-232.5 -152.5t-289.5 -55.5q-292 0 -492 178l-92 -90l-96 98l94 92q-146 192 -146 459zM1380 717q0 201 -108 350l-803 -784
q153 -140 365 -140q161 0 286 76t192.5 206.5t67.5 291.5zM287 717q0 -183 94 -330l799 780q-145 123 -346 123q-154 0 -279 -73t-196.5 -204.5t-71.5 -295.5z" />
    <glyph glyph-name="Ugrave" unicode="&#xd9;" horiz-adv-x="1538" 
d="M1343 1434v-836q0 -159 -45 -280t-123.5 -193t-176 -107.5t-210.5 -35.5q-130 0 -238 40t-187.5 117t-123.5 198t-44 275v822h174v-789q0 -235 109.5 -367.5t309.5 -132.5q180 0 280.5 124t100.5 364v801h174zM891 1505l-414 172l62 140l399 -213z" />
    <glyph glyph-name="Uacute" unicode="&#xda;" horiz-adv-x="1538" 
d="M1343 1434v-836q0 -159 -45 -280t-123.5 -193t-176 -107.5t-210.5 -35.5q-130 0 -238 40t-187.5 117t-123.5 198t-44 275v822h174v-789q0 -235 109.5 -367.5t309.5 -132.5q180 0 280.5 124t100.5 364v801h174zM1081 1677l-413 -172l-47 99l399 213z" />
    <glyph glyph-name="Ucircumflex" unicode="&#xdb;" horiz-adv-x="1538" 
d="M1343 1434v-836q0 -159 -45 -280t-123.5 -193t-176 -107.5t-210.5 -35.5q-130 0 -238 40t-187.5 117t-123.5 198t-44 275v822h174v-789q0 -235 109.5 -367.5t309.5 -132.5q180 0 280.5 124t100.5 364v801h174zM410 1593l350 213h8l356 -211l-67 -94l-293 156l-295 -156z
" />
    <glyph glyph-name="Udieresis" unicode="&#xdc;" horiz-adv-x="1538" 
d="M1343 1434v-836q0 -159 -45 -280t-123.5 -193t-176 -107.5t-210.5 -35.5q-130 0 -238 40t-187.5 117t-123.5 198t-44 275v822h174v-789q0 -235 109.5 -367.5t309.5 -132.5q180 0 280.5 124t100.5 364v801h174zM412 1665q0 42 32.5 67t79.5 25q42 0 74.5 -25.5t32.5 -66.5
q0 -45 -32 -71.5t-75 -26.5q-48 0 -80 26t-32 72zM887 1665q0 41 33.5 66.5t80.5 25.5q42 0 73.5 -25t31.5 -67q0 -45 -31.5 -71.5t-73.5 -26.5q-48 0 -81 26.5t-33 71.5z" />
    <glyph glyph-name="Yacute" unicode="&#xdd;" horiz-adv-x="1236" 
d="M1217 1434l-515 -820v-614h-174v614l-508 820h201l402 -656l403 656h191zM938 1677l-414 -172l-47 99l400 213z" />
    <glyph glyph-name="Thorn" unicode="&#xde;" horiz-adv-x="1222" 
d="M389 0h-174v1434h174v-215q27 0 104 2t97 2q119 0 212 -25t152 -67t97 -100.5t53.5 -120.5t15.5 -132q0 -89 -32 -169t-94 -143.5t-162.5 -100.5t-227.5 -37q-119 0 -215 8v-336zM592 1059q-62 0 -203 -6v-551q117 -10 209 -10q158 0 248 76.5t90 211.5q0 132 -86 205.5
t-258 73.5z" />
    <glyph glyph-name="germandbls" unicode="&#xdf;" horiz-adv-x="1118" 
d="M862 315q0 45 -20.5 83t-54 66.5t-73.5 55.5t-79.5 54.5t-73 57.5t-54 72t-20.5 91q0 55 20 100t48.5 75.5t56.5 58.5t48 62.5t20 73.5q0 59 -48 97t-116 38q-103 0 -151 -67t-48 -213v-1024h-163v1044q0 414 385 414q135 0 225 -74.5t90 -185.5q0 -56 -20 -100.5
t-48 -74.5t-56 -57.5t-48 -62t-20 -74.5q0 -43 20.5 -78.5t53.5 -61.5t73 -51t80 -54.5t73 -64t53.5 -87t20.5 -117.5q0 -140 -89.5 -235.5t-225.5 -95.5q-99 0 -174.5 38t-118.5 95l55 125q89 -105 199 -105q74 0 127 49t53 133z" />
    <glyph glyph-name="agrave" unicode="&#xe0;" horiz-adv-x="942" 
d="M197 727l-43 131q135 84 307 84q190 0 272 -94.5t82 -282.5v-565h-156v119q-105 -133 -294 -133q-128 0 -205.5 76t-77.5 208q0 137 97 215t251 78q149 0 229 -59q0 57 -4 97t-17 79t-35 62.5t-60.5 38t-91.5 14.5q-78 0 -133.5 -17t-120.5 -51zM422 133q81 0 136.5 33
t100.5 86v117q-85 61 -206 61q-81 0 -139 -38.5t-58 -112.5q0 -67 44 -106.5t122 -39.5zM514 1087l-248 291l129 99l219 -320z" />
    <glyph glyph-name="aacute" unicode="&#xe1;" horiz-adv-x="942" 
d="M197 727l-43 131q135 84 307 84q190 0 272 -94.5t82 -282.5v-565h-156v119q-105 -133 -294 -133q-128 0 -205.5 76t-77.5 208q0 137 97 215t251 78q149 0 229 -59q0 57 -4 97t-17 79t-35 62.5t-60.5 38t-91.5 14.5q-78 0 -133.5 -17t-120.5 -51zM422 133q81 0 136.5 33
t100.5 86v117q-85 61 -206 61q-81 0 -139 -38.5t-58 -112.5q0 -67 44 -106.5t122 -39.5zM686 1380l-246 -293l-98 70l217 322z" />
    <glyph glyph-name="acircumflex" unicode="&#xe2;" horiz-adv-x="942" 
d="M197 727l-43 131q135 84 307 84q190 0 272 -94.5t82 -282.5v-565h-156v119q-105 -133 -294 -133q-128 0 -205.5 76t-77.5 208q0 137 97 215t251 78q149 0 229 -59q0 57 -4 97t-17 79t-35 62.5t-60.5 38t-91.5 14.5q-78 0 -133.5 -17t-120.5 -51zM422 133q81 0 136.5 33
t100.5 86v117q-85 61 -206 61q-81 0 -139 -38.5t-58 -112.5q0 -67 44 -106.5t122 -39.5zM475 1448l285 -272l-78 -99l-213 187l-213 -185l-78 97l289 272h8z" />
    <glyph glyph-name="atilde" unicode="&#xe3;" horiz-adv-x="942" 
d="M197 727l-43 131q135 84 307 84q190 0 272 -94.5t82 -282.5v-565h-156v119q-105 -133 -294 -133q-128 0 -205.5 76t-77.5 208q0 137 97 215t251 78q149 0 229 -59q0 57 -4 97t-17 79t-35 62.5t-60.5 38t-91.5 14.5q-78 0 -133.5 -17t-120.5 -51zM422 133q81 0 136.5 33
t100.5 86v117q-85 61 -206 61q-81 0 -139 -38.5t-58 -112.5q0 -67 44 -106.5t122 -39.5zM203 1141l-68 76q108 122 225 122q40 0 80.5 -22.5t78.5 -45t73 -22.5q37 0 66.5 15.5t78.5 56.5l58 -84q-115 -121 -217 -121q-45 0 -116.5 45t-117.5 45q-56 0 -141 -65z" />
    <glyph glyph-name="adieresis" unicode="&#xe4;" horiz-adv-x="942" 
d="M197 727l-43 131q135 84 307 84q190 0 272 -94.5t82 -282.5v-565h-156v119q-105 -133 -294 -133q-128 0 -205.5 76t-77.5 208q0 137 97 215t251 78q149 0 229 -59q0 57 -4 97t-17 79t-35 62.5t-60.5 38t-91.5 14.5q-78 0 -133.5 -17t-120.5 -51zM422 133q81 0 136.5 33
t100.5 86v117q-85 61 -206 61q-81 0 -139 -38.5t-58 -112.5q0 -67 44 -106.5t122 -39.5zM170 1249q0 42 27.5 68t68.5 26q35 0 62.5 -26.5t27.5 -67.5q0 -47 -27 -74.5t-63 -27.5q-41 0 -68.5 27t-27.5 75zM586 1249q0 42 28.5 68t69.5 26q35 0 62.5 -26.5t27.5 -67.5
q0 -47 -27 -74.5t-63 -27.5q-42 0 -70 27t-28 75z" />
    <glyph glyph-name="aring" unicode="&#xe5;" horiz-adv-x="942" 
d="M197 727l-43 131q135 84 307 84q190 0 272 -94.5t82 -282.5v-565h-156v119q-105 -133 -294 -133q-128 0 -205.5 76t-77.5 208q0 137 97 215t251 78q149 0 229 -59q0 57 -4 97t-17 79t-35 62.5t-60.5 38t-91.5 14.5q-78 0 -133.5 -17t-120.5 -51zM422 133q81 0 136.5 33
t100.5 86v117q-85 61 -206 61q-81 0 -139 -38.5t-58 -112.5q0 -67 44 -106.5t122 -39.5zM238 1255q0 95 67 161.5t166 66.5q100 0 169 -66.5t69 -161.5q0 -94 -68.5 -159.5t-169.5 -65.5q-99 0 -166 65.5t-67 159.5zM344 1257q0 -57 37 -96t92 -39t92 39t37 96q0 56 -37 95
t-92 39t-92 -39t-37 -95z" />
    <glyph glyph-name="ae" unicode="&#xe6;" horiz-adv-x="1587" 
d="M461 942q209 0 291 -121q131 121 331 121q182 0 305 -117.5t123 -304.5q0 -62 -10 -110h-686v-127q91 -150 299 -150q86 0 161.5 26.5t121.5 69.5l51 -129q-65 -59 -157 -89.5t-189 -30.5q-234 0 -371 143q-151 -137 -334 -137q-150 0 -232.5 75t-82.5 209q0 137 97 215
t251 78q53 0 119.5 -8.5t101.5 -19.5q6 128 -39 190.5t-161 62.5q-78 0 -134 -16.5t-120 -50.5l-43 137q135 84 307 84zM815 565v-22h526q-6 115 -76.5 180t-189.5 65q-86 0 -154.5 -36.5t-109.5 -104.5q4 -50 4 -82zM422 139q81 0 132.5 30.5t96.5 82.5v149
q-110 29 -198 29q-81 0 -139 -38.5t-58 -112.5q0 -64 47 -102t119 -38z" />
    <glyph glyph-name="ccedilla" unicode="&#xe7;" horiz-adv-x="999" 
d="M326 -350l49 80q71 -47 145 -47q51 0 83 19.5t32 53.5q0 80 -119 80h-12v148q-190 22 -304 150.5t-114 326.5q0 133 60 243t167.5 174t239.5 64q241 0 362 -121l-75 -129q-104 96 -265 96q-128 0 -221.5 -92.5t-93.5 -234.5q0 -148 95.5 -238t236.5 -90q160 0 264 119
l78 -119q-56 -72 -146 -111t-196 -42v-68q103 -6 155 -48.5t52 -115.5q0 -75 -68 -121.5t-190 -46.5q-48 0 -91.5 11.5t-68 24.5t-55.5 34z" />
    <glyph glyph-name="egrave" unicode="&#xe8;" horiz-adv-x="1064" 
d="M874 229l52 -129q-65 -59 -157 -89.5t-189 -30.5q-224 0 -359 131.5t-135 349.5q0 135 54.5 243t164 173t256.5 65q182 0 305 -117.5t123 -304.5q0 -62 -10 -110h-709q10 -129 97.5 -203t224.5 -74q86 0 161 26.5t121 69.5zM553 788q-123 0 -201 -68t-92 -177h559
q-6 115 -76.5 180t-189.5 65zM586 1087l-248 291l129 99l219 -320z" />
    <glyph glyph-name="eacute" unicode="&#xe9;" horiz-adv-x="1064" 
d="M874 229l52 -129q-65 -59 -157 -89.5t-189 -30.5q-224 0 -359 131.5t-135 349.5q0 135 54.5 243t164 173t256.5 65q182 0 305 -117.5t123 -304.5q0 -62 -10 -110h-709q10 -129 97.5 -203t224.5 -74q86 0 161 26.5t121 69.5zM553 788q-123 0 -201 -68t-92 -177h559
q-6 115 -76.5 180t-189.5 65zM799 1380l-246 -293l-98 70l217 322z" />
    <glyph glyph-name="ecircumflex" unicode="&#xea;" horiz-adv-x="1064" 
d="M874 229l52 -129q-65 -59 -157 -89.5t-189 -30.5q-224 0 -359 131.5t-135 349.5q0 135 54.5 243t164 173t256.5 65q182 0 305 -117.5t123 -304.5q0 -62 -10 -110h-709q10 -129 97.5 -203t224.5 -74q86 0 161 26.5t121 69.5zM553 788q-123 0 -201 -68t-92 -177h559
q-6 115 -76.5 180t-189.5 65zM557 1448l285 -272l-78 -99l-213 187l-213 -185l-78 97l289 272h8z" />
    <glyph glyph-name="edieresis" unicode="&#xeb;" horiz-adv-x="1064" 
d="M874 229l52 -129q-65 -59 -157 -89.5t-189 -30.5q-224 0 -359 131.5t-135 349.5q0 135 54.5 243t164 173t256.5 65q182 0 305 -117.5t123 -304.5q0 -62 -10 -110h-709q10 -129 97.5 -203t224.5 -74q86 0 161 26.5t121 69.5zM553 788q-123 0 -201 -68t-92 -177h559
q-6 115 -76.5 180t-189.5 65zM244 1249q0 42 27.5 68t68.5 26q35 0 62.5 -26.5t27.5 -67.5q0 -47 -27 -74.5t-63 -27.5q-41 0 -68.5 27t-27.5 75zM659 1249q0 42 29 68t70 26q35 0 62.5 -26.5t27.5 -67.5q0 -47 -27 -74.5t-63 -27.5q-42 0 -70.5 27t-28.5 75z" />
    <glyph glyph-name="igrave" unicode="&#xec;" horiz-adv-x="548" 
d="M193 0v922h163v-922h-163zM260 1087l-248 291l129 99l219 -320z" />
    <glyph glyph-name="iacute" unicode="&#xed;" horiz-adv-x="548" 
d="M193 0v922h163v-922h-163zM504 1380l-246 -293l-98 70l217 322z" />
    <glyph glyph-name="icircumflex" unicode="&#xee;" horiz-adv-x="548" 
d="M193 0v922h163v-922h-163zM281 1448l284 -272l-78 -99l-213 187l-213 -185l-77 97l288 272h9z" />
    <glyph glyph-name="idieresis" unicode="&#xef;" horiz-adv-x="548" 
d="M193 0v922h163v-922h-163zM-27 1249q0 42 28 68t69 26q35 0 62.5 -26.5t27.5 -67.5q0 -47 -27 -74.5t-63 -27.5q-42 0 -69.5 27t-27.5 75zM389 1249q0 42 28.5 68t69.5 26q36 0 63.5 -26.5t27.5 -67.5q0 -47 -27.5 -74.5t-63.5 -27.5q-42 0 -70 27t-28 75z" />
    <glyph glyph-name="eth" unicode="&#xf0;" horiz-adv-x="1157" 
d="M401 1049l-47 145l197 82q-105 91 -211 147l184 31q94 -51 172 -117l215 93l47 -146l-147 -61q123 -146 190.5 -329t67.5 -362q0 -257 -133.5 -404.5t-357.5 -147.5q-219 0 -355.5 136t-136.5 345t136.5 345t355.5 136q88 0 162 -44t114 -118q-49 208 -190 379zM260 461
q0 -144 89.5 -236t228.5 -92q147 0 235.5 111t81.5 299q-22 101 -107.5 173t-209.5 72q-137 0 -227.5 -91t-90.5 -236z" />
    <glyph glyph-name="ntilde" unicode="&#xf1;" horiz-adv-x="1124" 
d="M147 0v922h164v-113q50 55 132 92t169 37q383 0 383 -406v-532h-164v502q0 282 -260 282q-76 0 -145 -32.5t-115 -85.5v-666h-164zM295 1141l-68 76q108 122 226 122q40 0 80.5 -22.5t78 -45t72.5 -22.5q37 0 66.5 15.5t78.5 56.5l58 -84q-115 -121 -217 -121
q-45 0 -116.5 45t-117.5 45q-56 0 -141 -65z" />
    <glyph glyph-name="ograve" unicode="&#xf2;" horiz-adv-x="1157" 
d="M86 461q0 209 136.5 345t355.5 136t355 -136t136 -345t-136 -345t-355 -136t-355.5 136t-136.5 345zM260 461q0 -144 89.5 -236t228.5 -92t228 90.5t89 237.5q0 144 -89 235.5t-228 91.5q-137 0 -227.5 -91t-90.5 -236zM594 1087l-248 291l129 99l219 -320z" />
    <glyph glyph-name="oacute" unicode="&#xf3;" horiz-adv-x="1157" 
d="M86 461q0 209 136.5 345t355.5 136t355 -136t136 -345t-136 -345t-355 -136t-355.5 136t-136.5 345zM260 461q0 -144 89.5 -236t228.5 -92t228 90.5t89 237.5q0 144 -89 235.5t-228 91.5q-137 0 -227.5 -91t-90.5 -236zM807 1380l-246 -293l-98 70l217 322z" />
    <glyph glyph-name="ocircumflex" unicode="&#xf4;" horiz-adv-x="1157" 
d="M86 461q0 209 136.5 345t355.5 136t355 -136t136 -345t-136 -345t-355 -136t-355.5 136t-136.5 345zM260 461q0 -144 89.5 -236t228.5 -92t228 90.5t89 237.5q0 144 -89 235.5t-228 91.5q-137 0 -227.5 -91t-90.5 -236zM584 1448l284 -272l-77 -99l-213 187l-213 -185
l-78 97l288 272h9z" />
    <glyph glyph-name="otilde" unicode="&#xf5;" horiz-adv-x="1157" 
d="M86 461q0 209 136.5 345t355.5 136t355 -136t136 -345t-136 -345t-355 -136t-355.5 136t-136.5 345zM260 461q0 -144 89.5 -236t228.5 -92t228 90.5t89 237.5q0 144 -89 235.5t-228 91.5q-137 0 -227.5 -91t-90.5 -236zM311 1141l-67 76q108 122 225 122q40 0 80.5 -22.5
t78 -45t72.5 -22.5q37 0 67.5 16t78.5 56l57 -84q-115 -121 -217 -121q-45 0 -116 45t-117 45q-57 0 -142 -65z" />
    <glyph glyph-name="odieresis" unicode="&#xf6;" horiz-adv-x="1157" 
d="M86 461q0 209 136.5 345t355.5 136t355 -136t136 -345t-136 -345t-355 -136t-355.5 136t-136.5 345zM260 461q0 -144 89.5 -236t228.5 -92t228 90.5t89 237.5q0 144 -89 235.5t-228 91.5q-137 0 -227.5 -91t-90.5 -236zM285 1249q0 42 27.5 68t68.5 26q35 0 62.5 -26.5
t27.5 -67.5q0 -47 -27 -74.5t-63 -27.5q-41 0 -68.5 27t-27.5 75zM700 1249q0 42 29 68t70 26q35 0 62.5 -26.5t27.5 -67.5q0 -47 -27 -74.5t-63 -27.5q-42 0 -70.5 27t-28.5 75z" />
    <glyph glyph-name="divide" unicode="&#xf7;" 
d="M504 1155q0 38 27.5 68t74.5 30q44 0 72.5 -30.5t28.5 -67.5q0 -42 -28.5 -73t-72.5 -31q-47 0 -74.5 31t-27.5 73zM504 322q0 37 27.5 66.5t74.5 29.5q42 0 71.5 -30t29.5 -66q0 -43 -28.5 -74t-72.5 -31q-47 0 -74.5 30.5t-27.5 74.5zM141 666v143h930v-143h-930z" />
    <glyph glyph-name="oslash" unicode="&#xf8;" horiz-adv-x="1157" 
d="M86 461q0 209 136.5 345t355.5 136q183 0 313 -100l94 90l90 -101l-92 -88q86 -122 86 -282q0 -209 -136 -345t-355 -136q-171 0 -299 88l-103 -97l-92 105l94 90q-92 125 -92 295zM260 461q0 -103 43 -176l467 442q-83 61 -192 61q-137 0 -227.5 -91t-90.5 -236z
M895 461q0 86 -37 162l-459 -439q76 -51 179 -51q139 0 228 90.5t89 237.5z" />
    <glyph glyph-name="ugrave" unicode="&#xf9;" horiz-adv-x="1105" 
d="M956 922v-922h-163v131q-52 -64 -138 -107.5t-188 -43.5q-159 0 -249.5 98t-90.5 295v549h164v-512q0 -277 237 -277q76 0 148 39t117 98v652h163zM563 1087l-248 291l129 99l220 -320z" />
    <glyph glyph-name="uacute" unicode="&#xfa;" horiz-adv-x="1105" 
d="M956 922v-922h-163v131q-52 -64 -138 -107.5t-188 -43.5q-159 0 -249.5 98t-90.5 295v549h164v-512q0 -277 237 -277q76 0 148 39t117 98v652h163zM786 1380l-245 -293l-99 70l217 322z" />
    <glyph glyph-name="ucircumflex" unicode="&#xfb;" horiz-adv-x="1105" 
d="M956 922v-922h-163v131q-52 -64 -138 -107.5t-188 -43.5q-159 0 -249.5 98t-90.5 295v549h164v-512q0 -277 237 -277q76 0 148 39t117 98v652h163zM551 1448l285 -272l-78 -99l-213 187l-213 -185l-78 97l289 272h8z" />
    <glyph glyph-name="udieresis" unicode="&#xfc;" horiz-adv-x="1105" 
d="M956 922v-922h-163v131q-52 -64 -138 -107.5t-188 -43.5q-159 0 -249.5 98t-90.5 295v549h164v-512q0 -277 237 -277q76 0 148 39t117 98v652h163zM248 1249q0 42 27.5 68t68.5 26q35 0 62.5 -26.5t27.5 -67.5q0 -47 -27 -74.5t-63 -27.5q-41 0 -68.5 27t-27.5 75z
M664 1249q0 42 28.5 68t69.5 26q35 0 62.5 -26.5t27.5 -67.5q0 -47 -27 -74.5t-63 -27.5q-42 0 -70 27t-28 75z" />
    <glyph glyph-name="yacute" unicode="&#xfd;" horiz-adv-x="1005" 
d="M985 922l-369 -922q-67 -164 -123 -253.5t-108 -123t-121 -33.5q-88 0 -174 58l53 125q69 -31 103 -31q58 0 104 49t92 160l21 49l-443 922h197l270 -586q28 -65 56 -139q14 51 43 141l213 584h186zM727 1380l-246 -293l-98 70l217 322z" />
    <glyph glyph-name="thorn" unicode="&#xfe;" horiz-adv-x="1138" 
d="M147 -410v1844h164v-611q55 53 138 86t176 33q194 0 310 -130t116 -337q0 -214 -133 -354.5t-347 -140.5q-163 0 -260 63v-453h-164zM578 788q-79 0 -151 -35t-116 -91v-457q107 -72 246 -72q146 0 233 94t87 242q0 143 -79.5 231t-219.5 88z" />
    <glyph glyph-name="ydieresis" unicode="&#xff;" horiz-adv-x="1005" 
d="M985 922l-369 -922q-67 -164 -123 -253.5t-108 -123t-121 -33.5q-88 0 -174 58l53 125q69 -31 103 -31q58 0 104 49t92 160l21 49l-443 922h197l270 -586q28 -65 56 -139q14 51 43 141l213 584h186zM211 1249q0 42 27.5 68t68.5 26q35 0 62.5 -26.5t27.5 -67.5
q0 -47 -27 -74.5t-63 -27.5q-41 0 -68.5 27t-27.5 75zM627 1249q0 42 28.5 68t69.5 26q35 0 62.5 -26.5t27.5 -67.5q0 -47 -27 -74.5t-63 -27.5q-42 0 -70 27t-28 75z" />
    <glyph glyph-name="Amacron" unicode="&#x100;" horiz-adv-x="1443" 
d="M31 0l616 1442h150l616 -1442h-186l-185 434h-653l-182 -434h-176zM717 1210l-258 -612h516zM410 1577v133h622v-133h-622z" />
    <glyph glyph-name="amacron" unicode="&#x101;" horiz-adv-x="942" 
d="M197 727l-43 131q135 84 307 84q190 0 272 -94.5t82 -282.5v-565h-156v119q-105 -133 -294 -133q-128 0 -205.5 76t-77.5 208q0 137 97 215t251 78q149 0 229 -59q0 57 -4 97t-17 79t-35 62.5t-60.5 38t-91.5 14.5q-78 0 -133.5 -17t-120.5 -51zM422 133q81 0 136.5 33
t100.5 86v117q-85 61 -206 61q-81 0 -139 -38.5t-58 -112.5q0 -67 44 -106.5t122 -39.5zM207 1188v133h541v-133h-541z" />
    <glyph glyph-name="Abreve" unicode="&#x102;" horiz-adv-x="1443" 
d="M31 0l616 1442h150l616 -1442h-186l-185 434h-653l-182 -434h-176zM717 1210l-258 -612h516zM362 1716l74 86q118 -133 293 -133q93 0 166.5 38t120.5 95l63 -86q-51 -80 -144.5 -135t-205.5 -55q-124 0 -222.5 59t-144.5 131z" />
    <glyph glyph-name="abreve" unicode="&#x103;" horiz-adv-x="942" 
d="M197 727l-43 131q135 84 307 84q190 0 272 -94.5t82 -282.5v-565h-156v119q-105 -133 -294 -133q-128 0 -205.5 76t-77.5 208q0 137 97 215t251 78q149 0 229 -59q0 57 -4 97t-17 79t-35 62.5t-60.5 38t-91.5 14.5q-78 0 -133.5 -17t-120.5 -51zM422 133q81 0 136.5 33
t100.5 86v117q-85 61 -206 61q-81 0 -139 -38.5t-58 -112.5q0 -67 44 -106.5t122 -39.5zM162 1311l76 84q20 -24 37.5 -41t47 -39t67.5 -33.5t81 -11.5q134 0 236 123l59 -80q-25 -36 -50 -62.5t-61.5 -54.5t-85 -43.5t-104.5 -15.5q-60 0 -112.5 18t-90 48.5t-60 55.5
t-40.5 52z" />
    <glyph glyph-name="Aogonek" unicode="&#x104;" horiz-adv-x="1443" 
d="M1354 -258l49 -100q-27 -22 -76 -37t-100 -15q-65 0 -118.5 17t-92.5 61t-39 111q0 87 68 146.5t176 86.5l-179 422h-653l-182 -434h-176l616 1442h150l616 -1442h-39q-94 -3 -163.5 -52t-69.5 -116q0 -40 22 -65.5t47.5 -34t53.5 -8.5q51 0 90 18zM717 1210l-258 -612
h516z" />
    <glyph glyph-name="aogonek" unicode="&#x105;" horiz-adv-x="942" 
d="M784 -258l50 -100q-27 -22 -76.5 -37t-100.5 -15q-65 0 -118.5 17t-92 61t-38.5 111q0 89 70 148.5t181 86.5v105q-105 -133 -294 -133q-128 0 -205.5 76t-77.5 208q0 137 97 215t251 78q149 0 229 -59q0 57 -4 97t-17 79t-35 62.5t-60.5 38t-91.5 14.5q-78 0 -133.5 -17
t-120.5 -51l-43 131q135 84 307 84q190 0 272 -94.5t82 -282.5v-565q-96 0 -170 -50t-74 -118q0 -40 22 -65.5t47.5 -34t53.5 -8.5q51 0 90 18zM422 133q81 0 136.5 33t100.5 86v117q-85 61 -206 61q-81 0 -139 -38.5t-58 -112.5q0 -67 44 -106.5t122 -39.5z" />
    <glyph glyph-name="Cacute" unicode="&#x106;" horiz-adv-x="1343" 
d="M1212 270l70 -131q-72 -73 -195.5 -116t-257.5 -43q-213 0 -378 90.5t-257 258.5t-92 388q0 207 84 373t248 265t383 99q275 0 436 -139l-79 -131q-142 106 -355 106q-234 0 -383 -159.5t-149 -413.5q0 -256 155 -415t404 -159q210 0 366 127zM1102 1677l-414 -172
l-47 99l399 213z" />
    <glyph glyph-name="cacute" unicode="&#x107;" horiz-adv-x="999" 
d="M856 252l78 -119q-57 -74 -151.5 -113.5t-202.5 -39.5q-221 0 -357.5 132t-136.5 349q0 133 60 243t167.5 174t239.5 64q241 0 362 -121l-75 -129q-104 96 -265 96q-128 0 -221.5 -92.5t-93.5 -234.5q0 -148 95.5 -238t236.5 -90q160 0 264 119zM782 1380l-245 -293
l-99 70l217 322z" />
    <glyph glyph-name="Ccircumflex" unicode="&#x108;" horiz-adv-x="1343" 
d="M1212 270l70 -131q-72 -73 -195.5 -116t-257.5 -43q-213 0 -378 90.5t-257 258.5t-92 388q0 207 84 373t248 265t383 99q275 0 436 -139l-79 -131q-142 106 -355 106q-234 0 -383 -159.5t-149 -413.5q0 -256 155 -415t404 -159q210 0 366 127zM442 1593l351 213h8
l356 -211l-67 -94l-293 156l-295 -156z" />
    <glyph glyph-name="ccircumflex" unicode="&#x109;" horiz-adv-x="999" 
d="M856 252l78 -119q-57 -74 -151.5 -113.5t-202.5 -39.5q-221 0 -357.5 132t-136.5 349q0 133 60 243t167.5 174t239.5 64q241 0 362 -121l-75 -129q-104 96 -265 96q-128 0 -221.5 -92.5t-93.5 -234.5q0 -148 95.5 -238t236.5 -90q160 0 264 119zM571 1448l285 -272
l-78 -99l-213 187l-213 -185l-78 97l289 272h8z" />
    <glyph glyph-name="Cdotaccent" unicode="&#x10a;" horiz-adv-x="1343" 
d="M1212 270l70 -131q-72 -73 -195.5 -116t-257.5 -43q-213 0 -378 90.5t-257 258.5t-92 388q0 207 84 373t248 265t383 99q275 0 436 -139l-79 -131q-142 106 -355 106q-234 0 -383 -159.5t-149 -413.5q0 -256 155 -415t404 -159q210 0 366 127zM666 1673q0 48 34 76.5
t82 28.5q45 0 78 -29t33 -76q0 -51 -32.5 -80.5t-78.5 -29.5q-49 0 -82.5 29t-33.5 81z" />
    <glyph glyph-name="cdotaccent" unicode="&#x10b;" horiz-adv-x="999" 
d="M856 252l78 -119q-57 -74 -151.5 -113.5t-202.5 -39.5q-221 0 -357.5 132t-136.5 349q0 133 60 243t167.5 174t239.5 64q241 0 362 -121l-75 -129q-104 96 -265 96q-128 0 -221.5 -92.5t-93.5 -234.5q0 -148 95.5 -238t236.5 -90q160 0 264 119zM463 1268q0 43 31 70.5
t75 27.5q40 0 70.5 -27.5t30.5 -70.5q0 -49 -30 -78t-71 -29q-45 0 -75.5 29t-30.5 78z" />
    <glyph glyph-name="Ccaron" unicode="&#x10c;" horiz-adv-x="1343" 
d="M1212 270l70 -131q-72 -73 -195.5 -116t-257.5 -43q-213 0 -378 90.5t-257 258.5t-92 388q0 207 84 373t248 265t383 99q275 0 436 -139l-79 -131q-142 106 -355 106q-234 0 -383 -159.5t-149 -413.5q0 -256 155 -415t404 -159q210 0 366 127zM799 1511l-359 211l68 95
l295 -166l293 166l61 -93l-350 -213h-8z" />
    <glyph glyph-name="ccaron" unicode="&#x10d;" horiz-adv-x="999" 
d="M856 252l78 -119q-57 -74 -151.5 -113.5t-202.5 -39.5q-221 0 -357.5 132t-136.5 349q0 133 60 243t167.5 174t239.5 64q241 0 362 -121l-75 -129q-104 96 -265 96q-128 0 -221.5 -92.5t-93.5 -234.5q0 -148 95.5 -238t236.5 -90q160 0 264 119zM559 1083l-287 273l80 98
l213 -211l213 209l76 -96l-287 -273h-8z" />
    <glyph glyph-name="Dcaron" unicode="&#x10e;" horiz-adv-x="1513" 
d="M215 0v1434h25q44 0 174.5 3t191.5 3q167 0 303 -37.5t228.5 -102.5t155 -155t90.5 -192.5t28 -217.5q0 -155 -52.5 -288t-152 -234t-258 -159t-358.5 -58q-45 0 -166.5 2t-185.5 2h-23zM602 1276q-38 0 -73.5 -1t-75.5 -2.5t-64 -2.5v-1106q188 -4 207 -4q151 0 271 43
t198.5 119.5t120 181.5t41.5 231q0 242 -161.5 391.5t-463.5 149.5zM686 1511l-358 211l67 95l295 -166l293 166l61 -93l-350 -213h-8z" />
    <glyph glyph-name="dcaron" unicode="&#x10f;" horiz-adv-x="1134" 
d="M823 0v117q-122 -133 -293 -133q-202 0 -323 128.5t-121 342.5t142.5 350.5t361.5 136.5q142 0 233 -65v557h164v-1434h-164zM561 137q75 0 145 35.5t117 87.5v457q-113 71 -227 71q-141 0 -238.5 -90.5t-97.5 -238.5q0 -149 84.5 -235.5t216.5 -86.5zM1169 1434h160
q17 -34 17 -78q0 -115 -51.5 -195t-125.5 -119l-73 72q44 38 70 97t26 126q0 53 -23 97z" />
    <glyph glyph-name="Dcroat" unicode="&#x110;" horiz-adv-x="1544" 
d="M20 647v154h226v633h24q44 0 175 3t192 3q167 0 303 -37.5t228.5 -102.5t155 -155t90.5 -192.5t28 -217.5q0 -155 -52.5 -288t-152 -234t-258 -159t-358.5 -58q-45 0 -167 2t-186 2h-22v647h-226zM633 1276q-38 0 -73.5 -1t-75.5 -2.5t-64 -2.5v-469h385v-154h-385v-483
q188 -4 207 -4q151 0 271 43t198 119.5t119.5 181.5t41.5 231q0 118 -39.5 216t-116 171t-196 113.5t-272.5 40.5z" />
    <glyph glyph-name="dcroat" unicode="&#x111;" horiz-adv-x="1134" 
d="M502 1094v133h321v207h164v-207h189v-133h-189v-1094h-164v117q-122 -133 -293 -133q-202 0 -323 128.5t-121 342.5t142.5 350.5t361.5 136.5q142 0 233 -65v217h-321zM561 137q75 0 145 35.5t117 87.5v457q-113 71 -227 71q-141 0 -238.5 -90.5t-97.5 -238.5
q0 -149 84.5 -235.5t216.5 -86.5z" />
    <glyph glyph-name="Emacron" unicode="&#x112;" horiz-adv-x="1177" 
d="M215 0v1434h809v-164h-635v-463h574v-164h-574v-479h655v-164h-829zM307 1577v133h623v-133h-623z" />
    <glyph glyph-name="emacron" unicode="&#x113;" horiz-adv-x="1064" 
d="M874 229l52 -129q-65 -59 -157 -89.5t-189 -30.5q-224 0 -359 131.5t-135 349.5q0 135 54.5 243t164 173t256.5 65q182 0 305 -117.5t123 -304.5q0 -62 -10 -110h-709q10 -129 97.5 -203t224.5 -74q86 0 161 26.5t121 69.5zM553 788q-123 0 -201 -68t-92 -177h559
q-6 115 -76.5 180t-189.5 65zM270 1188v133h541v-133h-541z" />
    <glyph glyph-name="Edotaccent" unicode="&#x116;" horiz-adv-x="1177" 
d="M215 0v1434h809v-164h-635v-463h574v-164h-574v-479h655v-164h-829zM512 1673q0 48 34.5 76.5t82.5 28.5q45 0 77.5 -28.5t32.5 -76.5q0 -51 -32 -80.5t-78 -29.5q-49 0 -83 29t-34 81z" />
    <glyph glyph-name="edotaccent" unicode="&#x117;" horiz-adv-x="1064" 
d="M874 229l52 -129q-65 -59 -157 -89.5t-189 -30.5q-224 0 -359 131.5t-135 349.5q0 135 54.5 243t164 173t256.5 65q182 0 305 -117.5t123 -304.5q0 -62 -10 -110h-709q10 -129 97.5 -203t224.5 -74q86 0 161 26.5t121 69.5zM553 788q-123 0 -201 -68t-92 -177h559
q-6 115 -76.5 180t-189.5 65zM440 1268q0 43 31.5 70.5t75.5 27.5q40 0 70 -27.5t30 -70.5q0 -49 -29.5 -78t-70.5 -29q-45 0 -76 29t-31 78z" />
    <glyph glyph-name="Eogonek" unicode="&#x118;" horiz-adv-x="1177" 
d="M215 0v1434h809v-164h-635v-463h574v-164h-574v-479h655v-164h-10q-94 -3 -163.5 -52t-69.5 -116q0 -40 22 -65.5t47.5 -34t53.5 -8.5q51 0 90 18l49 -100q-27 -22 -76 -37t-100 -15q-65 0 -118.5 17t-92.5 61t-39 111q0 78 55 134t146 87h-623z" />
    <glyph glyph-name="eogonek" unicode="&#x119;" horiz-adv-x="1064" 
d="M874 229l52 -129q-66 -60 -152 -88q-137 -89 -137 -180q0 -40 22.5 -65.5t48.5 -34t54 -8.5q51 0 90 18l49 -100q-27 -22 -76 -37t-100 -15q-65 0 -119 17t-93.5 61t-39.5 111q0 116 148 203q-7 0 -20.5 -1t-20.5 -1q-224 0 -359 131.5t-135 349.5q0 135 54.5 243
t164 173t256.5 65q182 0 305 -117.5t123 -304.5q0 -62 -10 -110h-709q10 -129 97.5 -203t224.5 -74q86 0 161 26.5t121 69.5zM553 788q-123 0 -201 -68t-92 -177h559q-6 115 -76.5 180t-189.5 65z" />
    <glyph glyph-name="Ecaron" unicode="&#x11a;" horiz-adv-x="1177" 
d="M215 0v1434h809v-164h-635v-463h574v-164h-574v-479h655v-164h-829zM635 1511l-359 211l68 95l295 -166l293 166l61 -93l-350 -213h-8z" />
    <glyph glyph-name="ecaron" unicode="&#x11b;" horiz-adv-x="1064" 
d="M874 229l52 -129q-65 -59 -157 -89.5t-189 -30.5q-224 0 -359 131.5t-135 349.5q0 135 54.5 243t164 173t256.5 65q182 0 305 -117.5t123 -304.5q0 -62 -10 -110h-709q10 -129 97.5 -203t224.5 -74q86 0 161 26.5t121 69.5zM553 788q-123 0 -201 -68t-92 -177h559
q-6 115 -76.5 180t-189.5 65zM555 1083l-287 273l80 98l213 -211l213 209l76 -96l-287 -273h-8z" />
    <glyph glyph-name="Gcircumflex" unicode="&#x11c;" horiz-adv-x="1488" 
d="M815 565v164h551v-551q-91 -91 -243.5 -144.5t-293.5 -53.5q-333 0 -530 200.5t-197 536.5q0 206 86 373t248 265.5t371 98.5q273 0 450 -139l-75 -139q-61 56 -155 85t-200 29q-241 0 -390.5 -157.5t-149.5 -415.5q0 -260 150.5 -417t396.5 -157q102 0 206.5 36
t161.5 91v295h-387zM442 1593l351 213h8l356 -211l-67 -94l-293 156l-295 -156z" />
    <glyph glyph-name="gcircumflex" unicode="&#x11d;" horiz-adv-x="1011" 
d="M20 -133q0 109 79 180t216 100q-22 28 -22 76t24 78q-97 39 -151.5 120t-54.5 183q0 142 103.5 240t272.5 98q134 0 234 -68l270 66l4 -133l-174 -43q43 -70 43 -160q0 -141 -105 -236.5t-272 -95.5q-41 0 -61 2q-10 -20 -10 -51q0 -37 18 -61q9 0 27.5 1t27.5 1
q210 0 339.5 -76t129.5 -221q0 -96 -62 -163t-166 -98.5t-241 -31.5q-138 0 -241 30.5t-165.5 98t-62.5 164.5zM174 -133q0 -76 85.5 -118t229.5 -42q145 0 230.5 41.5t85.5 118.5t-84 120.5t-232 43.5t-231.5 -43.5t-83.5 -120.5zM264 604q0 -87 61.5 -142.5t161.5 -55.5
q98 0 161 55t63 143t-61.5 146.5t-162.5 58.5q-100 0 -161.5 -58.5t-61.5 -146.5zM502 1448l284 -272l-77 -99l-213 187l-213 -185l-78 97l289 272h8z" />
    <glyph glyph-name="Gbreve" unicode="&#x11e;" horiz-adv-x="1488" 
d="M815 565v164h551v-551q-91 -91 -243.5 -144.5t-293.5 -53.5q-333 0 -530 200.5t-197 536.5q0 206 86 373t248 265.5t371 98.5q273 0 450 -139l-75 -139q-61 56 -155 85t-200 29q-241 0 -390.5 -157.5t-149.5 -415.5q0 -260 150.5 -417t396.5 -157q102 0 206.5 36
t161.5 91v295h-387zM463 1716l74 86q118 -133 292 -133q93 0 166.5 38t120.5 95l64 -86q-51 -80 -145 -135t-206 -55q-124 0 -222 59t-144 131z" />
    <glyph glyph-name="gbreve" unicode="&#x11f;" horiz-adv-x="1011" 
d="M20 -133q0 109 79 180t216 100q-22 28 -22 76t24 78q-97 39 -151.5 120t-54.5 183q0 142 103.5 240t272.5 98q134 0 234 -68l270 66l4 -133l-174 -43q43 -70 43 -160q0 -141 -105 -236.5t-272 -95.5q-41 0 -61 2q-10 -20 -10 -51q0 -37 18 -61q9 0 27.5 1t27.5 1
q210 0 339.5 -76t129.5 -221q0 -96 -62 -163t-166 -98.5t-241 -31.5q-138 0 -241 30.5t-165.5 98t-62.5 164.5zM174 -133q0 -76 85.5 -118t229.5 -42q145 0 230.5 41.5t85.5 118.5t-84 120.5t-232 43.5t-231.5 -43.5t-83.5 -120.5zM264 604q0 -87 61.5 -142.5t161.5 -55.5
q98 0 161 55t63 143t-61.5 146.5t-162.5 58.5q-100 0 -161.5 -58.5t-61.5 -146.5zM188 1311l76 84q28 -33 52.5 -56t74.5 -46t107 -23q133 0 235 123l60 -80q-25 -36 -50 -62.5t-61.5 -54.5t-85 -43.5t-104.5 -15.5q-60 0 -113 18.5t-90.5 48.5t-60.5 55t-40 52z" />
    <glyph glyph-name="Gdotaccent" unicode="&#x120;" horiz-adv-x="1488" 
d="M815 565v164h551v-551q-91 -91 -243.5 -144.5t-293.5 -53.5q-333 0 -530 200.5t-197 536.5q0 206 86 373t248 265.5t371 98.5q273 0 450 -139l-75 -139q-61 56 -155 85t-200 29q-241 0 -390.5 -157.5t-149.5 -415.5q0 -260 150.5 -417t396.5 -157q102 0 206.5 36
t161.5 91v295h-387zM666 1673q0 48 34 76.5t82 28.5q45 0 78 -29t33 -76q0 -51 -32.5 -80.5t-78.5 -29.5q-49 0 -82.5 29t-33.5 81z" />
    <glyph glyph-name="gdotaccent" unicode="&#x121;" horiz-adv-x="1011" 
d="M20 -133q0 109 79 180t216 100q-22 28 -22 76t24 78q-97 39 -151.5 120t-54.5 183q0 142 103.5 240t272.5 98q134 0 234 -68l270 66l4 -133l-174 -43q43 -70 43 -160q0 -141 -105 -236.5t-272 -95.5q-41 0 -61 2q-10 -20 -10 -51q0 -37 18 -61q9 0 27.5 1t27.5 1
q210 0 339.5 -76t129.5 -221q0 -96 -62 -163t-166 -98.5t-241 -31.5q-138 0 -241 30.5t-165.5 98t-62.5 164.5zM174 -133q0 -76 85.5 -118t229.5 -42q145 0 230.5 41.5t85.5 118.5t-84 120.5t-232 43.5t-231.5 -43.5t-83.5 -120.5zM264 604q0 -87 61.5 -142.5t161.5 -55.5
q98 0 161 55t63 143t-61.5 146.5t-162.5 58.5q-100 0 -161.5 -58.5t-61.5 -146.5zM387 1268q0 43 31.5 70.5t75.5 27.5q40 0 70 -27.5t30 -70.5q0 -49 -29.5 -78t-70.5 -29q-45 0 -76 29t-31 78z" />
    <glyph glyph-name="uni0122" unicode="&#x122;" horiz-adv-x="1488" 
d="M815 565v164h551v-551q-91 -91 -243.5 -144.5t-293.5 -53.5q-333 0 -530 200.5t-197 536.5q0 206 86 373t248 265.5t371 98.5q273 0 450 -139l-75 -139q-61 56 -155 85t-200 29q-241 0 -390.5 -157.5t-149.5 -415.5q0 -260 150.5 -417t396.5 -157q102 0 206.5 36
t161.5 91v295h-387zM719 -133l153 39q26 -6 43 -33t17 -68q0 -90 -61.5 -147t-149.5 -76l-47 74q94 37 94 127q0 64 -49 84z" />
    <glyph glyph-name="uni0123" unicode="&#x123;" horiz-adv-x="1011" 
d="M20 -133q0 109 79 180t216 100q-22 28 -22 76t24 78q-97 39 -151.5 120t-54.5 183q0 142 103.5 240t272.5 98q134 0 234 -68l270 66l4 -133l-174 -43q43 -70 43 -160q0 -141 -105 -236.5t-272 -95.5q-41 0 -61 2q-10 -20 -10 -51q0 -37 18 -61q9 0 27.5 1t27.5 1
q210 0 339.5 -76t129.5 -221q0 -96 -62 -163t-166 -98.5t-241 -31.5q-138 0 -241 30.5t-165.5 98t-62.5 164.5zM174 -133q0 -76 85.5 -118t229.5 -42q145 0 230.5 41.5t85.5 118.5t-84 120.5t-232 43.5t-231.5 -43.5t-83.5 -120.5zM264 604q0 -87 61.5 -142.5t161.5 -55.5
q98 0 161 55t63 143t-61.5 146.5t-162.5 58.5q-100 0 -161.5 -58.5t-61.5 -146.5zM584 1151l-154 -39q-26 6 -42.5 32.5t-16.5 67.5q0 90 61.5 147.5t149.5 76.5l47 -74q-94 -37 -94 -127q0 -64 49 -84z" />
    <glyph glyph-name="Hcircumflex" unicode="&#x124;" horiz-adv-x="1566" 
d="M1178 0v649h-789v-649h-174v1434h174v-621h789v621h174v-1434h-174zM428 1593l350 213h8l357 -211l-68 -94l-293 156l-295 -156z" />
    <glyph glyph-name="hcircumflex" unicode="&#x125;" horiz-adv-x="1124" 
d="M147 0v1434h164v-619q53 54 134.5 88.5t166.5 34.5q383 0 383 -410v-528h-164v506q0 278 -258 278q-75 0 -146.5 -32.5t-115.5 -83.5v-668h-164zM-35 1593l350 213h9l356 -211l-68 -94l-293 156l-294 -156z" />
    <glyph glyph-name="Hbar" unicode="&#x126;" horiz-adv-x="1587" 
d="M51 1053v153h174v228h174v-228h789v228h174v-228h174v-153h-174v-1053h-174v649h-789v-649h-174v1053h-174zM399 813h789v240h-789v-240z" />
    <glyph glyph-name="hbar" unicode="&#x127;" horiz-adv-x="1175" 
d="M-41 1065v154h240v215h163v-215h332v-154h-332v-250q53 54 135 88.5t167 34.5q383 0 383 -410v-528h-164v506q0 278 -258 278q-75 0 -147 -32.5t-116 -83.5v-668h-163v1065h-240z" />
    <glyph glyph-name="Imacron" unicode="&#x12a;" horiz-adv-x="686" 
d="M256 0v1434h174v-1434h-174zM37 1577v133h622v-133h-622z" />
    <glyph glyph-name="imacron" unicode="&#x12b;" horiz-adv-x="548" 
d="M193 0v922h163v-922h-163zM4 1188v133h541v-133h-541z" />
    <glyph glyph-name="Iogonek" unicode="&#x12e;" horiz-adv-x="686" 
d="M399 -258l50 -100q-27 -22 -76.5 -37t-100.5 -15q-65 0 -118.5 17t-92 61t-38.5 111q0 85 64.5 144t168.5 87v1424h174v-1434h-10q-94 -3 -164 -52t-70 -116q0 -40 22 -65.5t47.5 -34t53.5 -8.5q51 0 90 18z" />
    <glyph glyph-name="iogonek" unicode="&#x12f;" horiz-adv-x="548" 
d="M324 -258l49 -100q-27 -22 -76 -37t-100 -15q-65 0 -118.5 17t-92.5 61t-39 111q0 87 69 146.5t177 86.5v910h163v-922h-12q-94 -3 -163.5 -52t-69.5 -116q0 -40 21.5 -65.5t47 -34t53.5 -8.5q52 0 91 18zM166 1268q0 43 31 70.5t75 27.5q40 0 70.5 -27.5t30.5 -70.5
q0 -49 -30 -78t-71 -29q-45 0 -75.5 29t-30.5 78z" />
    <glyph glyph-name="Idotaccent" unicode="&#x130;" horiz-adv-x="686" 
d="M256 0v1434h174v-1434h-174zM229 1673q0 48 34.5 76.5t82.5 28.5q45 0 78 -29t33 -76q0 -51 -32.5 -80.5t-78.5 -29.5q-49 0 -83 29t-34 81z" />
    <glyph glyph-name="dotlessi" unicode="&#x131;" horiz-adv-x="548" 
d="M193 0v922h163v-922h-163z" />
    <glyph glyph-name="Jcircumflex" unicode="&#x134;" horiz-adv-x="765" 
d="M551 1434v-1108q0 -346 -313 -346q-68 0 -128 22.5t-90 52.5l60 133q59 -45 135 -45q88 0 125 55.5t37 155.5v1080h174zM96 1593l350 213h9l356 -211l-68 -94l-292 156l-295 -156z" />
    <glyph glyph-name="jcircumflex" unicode="&#x135;" horiz-adv-x="544" 
d="M365 922v-990q0 -358 -289 -358q-63 0 -118.5 17t-86.5 42l47 131q59 -36 121 -36q162 0 162 217v977h164zM289 1448l284 -272l-77 -99l-213 187l-213 -185l-78 97l289 272h8z" />
    <glyph glyph-name="uni0136" unicode="&#x136;" horiz-adv-x="1337" 
d="M1264 1434l-639 -674l671 -760h-223l-649 748l629 686h211zM215 0v1434h174v-1434h-174zM555 -133l154 39q26 -6 42.5 -33t16.5 -68q0 -90 -61.5 -147t-149.5 -76l-47 74q94 37 94 127q0 64 -49 84z" />
    <glyph glyph-name="uni0137" unicode="&#x137;" horiz-adv-x="1005" 
d="M936 922l-391 -428l440 -494h-223l-416 481l381 441h209zM147 0v1434h164v-1434h-164zM379 -133l153 39q26 -6 43 -33t17 -68q0 -90 -61.5 -147t-149.5 -76l-47 74q94 37 94 127q0 64 -49 84z" />
    <glyph glyph-name="Lacute" unicode="&#x139;" horiz-adv-x="1126" 
d="M215 0v1434h174v-1270h707v-164h-881zM897 1677l-414 -172l-47 99l400 213z" />
    <glyph glyph-name="lacute" unicode="&#x13a;" horiz-adv-x="593" 
d="M147 246v1188h164v-1115q0 -95 25.5 -138.5t83.5 -43.5q53 0 117 41l36 -125q-87 -69 -217 -69q-209 0 -209 262zM604 1677l-414 -172l-47 99l400 213z" />
    <glyph glyph-name="uni013B" unicode="&#x13b;" horiz-adv-x="1126" 
d="M215 0v1434h174v-1270h707v-164h-881zM535 -133l153 39q26 -6 43 -33t17 -68q0 -90 -61.5 -147t-149.5 -76l-48 74q95 38 95 127q0 64 -49 84z" />
    <glyph glyph-name="uni013C" unicode="&#x13c;" horiz-adv-x="593" 
d="M147 246v1188h164v-1115q0 -95 25.5 -138.5t83.5 -43.5q53 0 117 41l36 -125q-87 -69 -217 -69q-209 0 -209 262zM242 -133l153 39q26 -6 43 -33t17 -68q0 -90 -61.5 -147t-149.5 -76l-47 74q94 37 94 127q0 64 -49 84z" />
    <glyph glyph-name="Lcaron" unicode="&#x13d;" horiz-adv-x="1126" 
d="M215 0v1434h174v-1270h707v-164h-881zM729 1434h160q16 -32 16 -78q0 -115 -51 -195t-125 -119l-74 72q44 38 70.5 97t26.5 126q0 53 -23 97z" />
    <glyph glyph-name="lcaron" unicode="&#x13e;" horiz-adv-x="593" 
d="M147 246v1188h164v-1115q0 -95 25.5 -138.5t83.5 -43.5q53 0 117 41l36 -125q-87 -69 -217 -69q-209 0 -209 262zM504 1434h160q16 -32 16 -78q0 -115 -51 -195t-125 -119l-74 72q44 38 70 97t26 126q0 55 -22 97z" />
    <glyph glyph-name="Ldot" unicode="&#x13f;" horiz-adv-x="1126" 
d="M215 0v1434h174v-1270h707v-164h-881zM754 766q0 42 32 75t84 33q46 0 77.5 -33.5t31.5 -74.5q0 -47 -31.5 -82t-77.5 -35q-52 0 -84 34.5t-32 82.5z" />
    <glyph glyph-name="ldot" unicode="&#x140;" horiz-adv-x="663" 
d="M147 246v1188h164v-1115q0 -95 25.5 -138.5t83.5 -43.5q53 0 117 41l36 -125q-87 -69 -217 -69q-209 0 -209 262zM463 668q0 43 31 70.5t75 27.5q40 0 70.5 -27.5t30.5 -70.5q0 -49 -30 -78t-71 -29q-45 0 -75.5 29t-30.5 78z" />
    <glyph glyph-name="Lslash" unicode="&#x141;" horiz-adv-x="1146" 
d="M51 449v169l185 89v727h174v-643l360 176v-168l-360 -176v-459h706v-164h-880v539z" />
    <glyph glyph-name="lslash" unicode="&#x142;" horiz-adv-x="655" 
d="M31 455v170l157 75v734h164v-656l215 105v-168l-215 -105v-291q0 -95 25.5 -138.5t83.5 -43.5q53 0 117 41l36 -125q-87 -69 -217 -69q-209 0 -209 262v284z" />
    <glyph glyph-name="Nacute" unicode="&#x143;" horiz-adv-x="1628" 
d="M1413 0h-139l-895 1126v-1126h-164v1434h139l895 -1131v1131h164v-1434zM1153 1677l-414 -172l-47 99l400 213z" />
    <glyph glyph-name="nacute" unicode="&#x144;" horiz-adv-x="1124" 
d="M147 0v922h164v-113q50 55 132 92t169 37q383 0 383 -406v-532h-164v502q0 282 -260 282q-76 0 -145 -32.5t-115 -85.5v-666h-164zM801 1380l-246 -293l-98 70l217 322z" />
    <glyph glyph-name="uni0145" unicode="&#x145;" horiz-adv-x="1628" 
d="M1413 0h-139l-895 1126v-1126h-164v1434h139l895 -1131v1131h164v-1434zM709 -133l153 39q26 -6 43 -33t17 -68q0 -90 -61.5 -147t-149.5 -76l-47 74q94 37 94 127q0 64 -49 84z" />
    <glyph glyph-name="uni0146" unicode="&#x146;" horiz-adv-x="1124" 
d="M147 0v922h164v-113q50 55 132 92t169 37q383 0 383 -406v-532h-164v502q0 282 -260 282q-76 0 -145 -32.5t-115 -85.5v-666h-164zM459 -133l153 39q26 -6 43 -33t17 -68q0 -90 -61.5 -147t-149.5 -76l-47 74q94 37 94 127q0 64 -49 84z" />
    <glyph glyph-name="Ncaron" unicode="&#x147;" horiz-adv-x="1628" 
d="M1413 0h-139l-895 1126v-1126h-164v1434h139l895 -1131v1131h164v-1434zM813 1511l-358 211l67 95l295 -166l293 166l61 -93l-350 -213h-8z" />
    <glyph glyph-name="ncaron" unicode="&#x148;" horiz-adv-x="1124" 
d="M147 0v922h164v-113q50 55 132 92t169 37q383 0 383 -406v-532h-164v502q0 282 -260 282q-76 0 -145 -32.5t-115 -85.5v-666h-164zM555 1083l-287 273l80 98l213 -211l213 209l76 -96l-287 -273h-8z" />
    <glyph glyph-name="Eng" unicode="&#x14a;" horiz-adv-x="1628" 
d="M1413 -80q0 -346 -313 -346q-67 0 -126.5 22.5t-90.5 53.5l59 133q59 -45 135 -45q172 0 172 211v49l-870 1128v-1126h-164v1434h139l895 -1166v1166h164v-1514z" />
    <glyph glyph-name="eng" unicode="&#x14b;" horiz-adv-x="1155" 
d="M147 0v922h164v-113q50 55 132 92t169 37q383 0 383 -406v-600q0 -358 -288 -358q-63 0 -118.5 17t-86.5 42l47 131q59 -36 121 -36q161 0 161 217v557q0 282 -260 282q-76 0 -145 -32.5t-115 -85.5v-666h-164z" />
    <glyph glyph-name="Omacron" unicode="&#x14c;" horiz-adv-x="1667" 
d="M102 717q0 206 93.5 374.5t261.5 265.5t377 97q154 0 289 -54.5t232.5 -150t153.5 -233.5t56 -299q0 -157 -56 -294.5t-153 -234.5t-232.5 -152.5t-289.5 -55.5q-207 0 -373.5 92.5t-262.5 261.5t-96 383zM287 717q0 -160 72.5 -292t198 -207t276.5 -75q161 0 286 76
t192.5 206.5t67.5 291.5q0 248 -157 410.5t-389 162.5q-154 0 -279 -73t-196.5 -204.5t-71.5 -295.5zM532 1577v133h623v-133h-623z" />
    <glyph glyph-name="omacron" unicode="&#x14d;" horiz-adv-x="1157" 
d="M86 461q0 209 136.5 345t355.5 136t355 -136t136 -345t-136 -345t-355 -136t-355.5 136t-136.5 345zM260 461q0 -144 89.5 -236t228.5 -92t228 90.5t89 237.5q0 144 -89 235.5t-228 91.5q-137 0 -227.5 -91t-90.5 -236zM317 1188v133h541v-133h-541z" />
    <glyph glyph-name="Ohungarumlaut" unicode="&#x150;" horiz-adv-x="1667" 
d="M102 717q0 206 93.5 374.5t261.5 265.5t377 97q154 0 289 -54.5t232.5 -150t153.5 -233.5t56 -299q0 -157 -56 -294.5t-153 -234.5t-232.5 -152.5t-289.5 -55.5q-207 0 -373.5 92.5t-262.5 261.5t-96 383zM287 717q0 -160 72.5 -292t198 -207t276.5 -75q161 0 286 76
t192.5 206.5t67.5 291.5q0 248 -157 410.5t-389 162.5q-154 0 -279 -73t-196.5 -204.5t-71.5 -295.5zM1356 1712l-367 -207l-67 72l321 240zM956 1743l-329 -238l-70 66l262 246z" />
    <glyph glyph-name="ohungarumlaut" unicode="&#x151;" horiz-adv-x="1157" 
d="M86 461q0 209 136.5 345t355.5 136t355 -136t136 -345t-136 -345t-355 -136t-355.5 136t-136.5 345zM260 461q0 -144 89.5 -236t228.5 -92t228 90.5t89 237.5q0 144 -89 235.5t-228 91.5q-137 0 -227.5 -91t-90.5 -236zM993 1374l-256 -287l-98 70l233 309zM651 1393
l-231 -306l-98 70l210 324z" />
    <glyph glyph-name="OE" unicode="&#x152;" horiz-adv-x="2134" 
d="M1171 0v57q-145 -77 -342 -77q-213 0 -378 90.5t-257 258.5t-92 388q0 207 84 373t248 265t383 99q203 0 354 -82v62h809v-164h-634v-463h573v-164h-573v-479h655v-164h-830zM846 143q182 0 325 95v946q-142 106 -352 106q-234 0 -383 -159.5t-149 -413.5
q0 -256 155 -415t404 -159z" />
    <glyph glyph-name="oe" unicode="&#x153;" horiz-adv-x="1714" 
d="M1524 229l51 -129q-63 -59 -155 -89.5t-189 -30.5q-202 0 -330 104q-128 -104 -323 -104q-219 0 -355.5 136t-136.5 345t136.5 345t355.5 136q191 0 319 -106q128 106 315 106q182 0 304 -117.5t122 -304.5q0 -62 -10 -110h-706q9 -129 96 -203t225 -74q86 0 160.5 26.5
t120.5 69.5zM578 133q133 0 219 76q-60 108 -60 252q0 138 60 252q-88 75 -219 75q-138 0 -228 -91t-90 -236q0 -144 89.5 -236t228.5 -92zM1202 788q-123 0 -200 -68t-91 -177h559q-8 115 -78.5 180t-189.5 65z" />
    <glyph glyph-name="Racute" unicode="&#x154;" horiz-adv-x="1316" 
d="M389 0h-174v1434q45 0 207 2t178 2q114 0 203 -22.5t146 -60.5t94 -93.5t52 -116.5t15 -133q0 -81 -26 -151.5t-70.5 -120.5t-99 -84t-115.5 -50l477 -606h-213l-440 573h-234v-573zM590 1274q-65 0 -201 -4v-533h211q131 0 228.5 75.5t97.5 197.5q0 121 -78.5 192.5
t-257.5 71.5zM887 1677l-414 -172l-47 99l399 213z" />
    <glyph glyph-name="racute" unicode="&#x155;" horiz-adv-x="696" 
d="M147 0v922h164v-109q84 125 232 125q96 0 143 -35l-57 -153q-34 20 -59 27t-66 7q-126 0 -193 -131v-653h-164zM625 1380l-246 -293l-98 70l217 322z" />
    <glyph glyph-name="uni0156" unicode="&#x156;" horiz-adv-x="1316" 
d="M389 0h-174v1434q45 0 207 2t178 2q114 0 203 -22.5t146 -60.5t94 -93.5t52 -116.5t15 -133q0 -81 -26 -151.5t-70.5 -120.5t-99 -84t-115.5 -50l477 -606h-213l-440 573h-234v-573zM590 1274q-65 0 -201 -4v-533h211q131 0 228.5 75.5t97.5 197.5q0 121 -78.5 192.5
t-257.5 71.5zM545 -133l153 39q26 -6 43 -33t17 -68q0 -90 -61.5 -147t-149.5 -76l-47 74q94 37 94 127q0 64 -49 84z" />
    <glyph glyph-name="uni0157" unicode="&#x157;" horiz-adv-x="696" 
d="M147 0v922h164v-109q84 125 232 125q96 0 143 -35l-57 -153q-34 20 -59 27t-66 7q-126 0 -193 -131v-653h-164zM223 -133l154 39q26 -6 42.5 -33t16.5 -68q0 -90 -61.5 -147t-149.5 -76l-47 74q94 37 94 127q0 64 -49 84z" />
    <glyph glyph-name="Rcaron" unicode="&#x158;" horiz-adv-x="1316" 
d="M389 0h-174v1434q45 0 207 2t178 2q114 0 203 -22.5t146 -60.5t94 -93.5t52 -116.5t15 -133q0 -81 -26 -151.5t-70.5 -120.5t-99 -84t-115.5 -50l477 -606h-213l-440 573h-234v-573zM590 1274q-65 0 -201 -4v-533h211q131 0 228.5 75.5t97.5 197.5q0 121 -78.5 192.5
t-257.5 71.5zM594 1511l-358 211l67 95l295 -166l293 166l61 -93l-350 -213h-8z" />
    <glyph glyph-name="rcaron" unicode="&#x159;" horiz-adv-x="696" 
d="M147 0v922h164v-109q84 125 232 125q96 0 143 -35l-57 -153q-34 20 -59 27t-66 7q-126 0 -193 -131v-653h-164zM391 1083l-287 273l80 98l213 -211l213 209l76 -96l-287 -273h-8z" />
    <glyph glyph-name="Sacute" unicode="&#x15a;" horiz-adv-x="1124" 
d="M838 367q0 56 -24 100.5t-64.5 76t-93 58t-111 50.5t-116.5 49.5t-110.5 60t-93 76.5t-64.5 103.5t-24 137.5q0 161 117 268t315 107q123 0 228.5 -40.5t167.5 -108.5l-95 -131q-116 116 -290 116q-119 0 -188.5 -57.5t-69.5 -153.5q0 -56 24 -101t64.5 -75.5t93 -56
t110.5 -48.5t116 -48t110.5 -58.5t93 -76t64.5 -105.5t24 -141q0 -115 -62.5 -204.5t-168.5 -137t-236 -47.5q-139 0 -270 59t-183 156l101 118q60 -80 159 -125t195 -45q118 0 199.5 60t81.5 164zM903 1677l-414 -172l-47 99l400 213z" />
    <glyph glyph-name="sacute" unicode="&#x15b;" horiz-adv-x="880" 
d="M614 250q0 33 -21.5 58t-56.5 40t-79.5 31t-91 30t-91 37t-79.5 52t-56.5 76t-21.5 108q0 120 87 190t226 70q106 0 188.5 -31.5t129.5 -76.5l-78 -125q-101 90 -232 90q-67 0 -107 -33.5t-40 -81.5q0 -39 27.5 -67.5t71 -46t96.5 -33.5t106.5 -37t97 -49.5t71 -77.5
t27.5 -115q0 -71 -29.5 -125.5t-80 -87t-113 -49t-133.5 -16.5q-107 0 -206 45t-134 98l92 117q40 -46 119.5 -81.5t147.5 -35.5q69 0 116 33.5t47 93.5zM668 1380l-246 -293l-98 70l217 322z" />
    <glyph glyph-name="Scircumflex" unicode="&#x15c;" horiz-adv-x="1124" 
d="M838 367q0 56 -24 100.5t-64.5 76t-93 58t-111 50.5t-116.5 49.5t-110.5 60t-93 76.5t-64.5 103.5t-24 137.5q0 161 117 268t315 107q123 0 228.5 -40.5t167.5 -108.5l-95 -131q-116 116 -290 116q-119 0 -188.5 -57.5t-69.5 -153.5q0 -56 24 -101t64.5 -75.5t93 -56
t110.5 -48.5t116 -48t110.5 -58.5t93 -76t64.5 -105.5t24 -141q0 -115 -62.5 -204.5t-168.5 -137t-236 -47.5q-139 0 -270 59t-183 156l101 118q60 -80 159 -125t195 -45q118 0 199.5 60t81.5 164zM203 1593l350 213h8l357 -211l-68 -94l-293 156l-295 -156z" />
    <glyph glyph-name="scircumflex" unicode="&#x15d;" horiz-adv-x="880" 
d="M614 250q0 33 -21.5 58t-56.5 40t-79.5 31t-91 30t-91 37t-79.5 52t-56.5 76t-21.5 108q0 120 87 190t226 70q106 0 188.5 -31.5t129.5 -76.5l-78 -125q-101 90 -232 90q-67 0 -107 -33.5t-40 -81.5q0 -39 27.5 -67.5t71 -46t96.5 -33.5t106.5 -37t97 -49.5t71 -77.5
t27.5 -115q0 -71 -29.5 -125.5t-80 -87t-113 -49t-133.5 -16.5q-107 0 -206 45t-134 98l92 117q40 -46 119.5 -81.5t147.5 -35.5q69 0 116 33.5t47 93.5zM449 1448l284 -272l-78 -99l-213 187l-213 -185l-77 97l288 272h9z" />
    <glyph glyph-name="Scedilla" unicode="&#x15e;" horiz-adv-x="1124" 
d="M311 -346l54 86q81 -57 151 -57q51 0 83 19.5t32 53.5q0 80 -119 80h-12v146q-128 11 -240.5 68.5t-157.5 144.5l101 118q60 -80 159 -125t195 -45q118 0 199.5 60t81.5 164q0 56 -24 100.5t-64.5 76t-93 58t-111 50.5t-116.5 49.5t-110.5 60t-93 76.5t-64.5 103.5
t-24 137.5q0 161 117 268t315 107q123 0 228.5 -40.5t167.5 -108.5l-95 -131q-116 116 -290 116q-119 0 -188.5 -57.5t-69.5 -153.5q0 -56 24 -101t64.5 -75.5t93 -56t110.5 -48.5t116 -48t110.5 -58.5t93 -76t64.5 -105.5t24 -141q0 -165 -123.5 -271.5t-310.5 -115.5v-70
q217 -11 217 -164q0 -75 -67.5 -121.5t-184.5 -46.5q-132 0 -242 74z" />
    <glyph glyph-name="scedilla" unicode="&#x15f;" horiz-adv-x="880" 
d="M193 -350l49 80q71 -47 145 -47q51 0 83 19.5t32 53.5q0 80 -119 80h-12v148q-91 12 -170.5 53t-108.5 86l92 117q40 -46 119.5 -81.5t147.5 -35.5q69 0 116 33.5t47 93.5q0 33 -21.5 58t-56.5 40t-79.5 31t-91 30t-91 37t-79.5 52t-56.5 76t-21.5 108q0 120 87 190
t226 70q106 0 188.5 -31.5t129.5 -76.5l-78 -125q-101 90 -232 90q-67 0 -107 -33.5t-40 -81.5q0 -39 27.5 -67.5t71 -46t96.5 -33.5t106.5 -37t97 -49.5t71 -77.5t27.5 -115q0 -67 -26.5 -120t-73 -86t-104.5 -51t-125 -21v-68q103 -6 155 -48.5t52 -115.5
q0 -75 -68 -121.5t-190 -46.5q-48 0 -91.5 11.5t-68 24.5t-55.5 34z" />
    <glyph glyph-name="Scaron" unicode="&#x160;" horiz-adv-x="1124" 
d="M838 367q0 56 -24 100.5t-64.5 76t-93 58t-111 50.5t-116.5 49.5t-110.5 60t-93 76.5t-64.5 103.5t-24 137.5q0 161 117 268t315 107q123 0 228.5 -40.5t167.5 -108.5l-95 -131q-116 116 -290 116q-119 0 -188.5 -57.5t-69.5 -153.5q0 -56 24 -101t64.5 -75.5t93 -56
t110.5 -48.5t116 -48t110.5 -58.5t93 -76t64.5 -105.5t24 -141q0 -115 -62.5 -204.5t-168.5 -137t-236 -47.5q-139 0 -270 59t-183 156l101 118q60 -80 159 -125t195 -45q118 0 199.5 60t81.5 164zM569 1511l-358 211l68 95l294 -166l293 166l62 -93l-350 -213h-9z" />
    <glyph glyph-name="scaron" unicode="&#x161;" horiz-adv-x="880" 
d="M614 250q0 33 -21.5 58t-56.5 40t-79.5 31t-91 30t-91 37t-79.5 52t-56.5 76t-21.5 108q0 120 87 190t226 70q106 0 188.5 -31.5t129.5 -76.5l-78 -125q-101 90 -232 90q-67 0 -107 -33.5t-40 -81.5q0 -39 27.5 -67.5t71 -46t96.5 -33.5t106.5 -37t97 -49.5t71 -77.5
t27.5 -115q0 -71 -29.5 -125.5t-80 -87t-113 -49t-133.5 -16.5q-107 0 -206 45t-134 98l92 117q40 -46 119.5 -81.5t147.5 -35.5q69 0 116 33.5t47 93.5zM434 1083l-287 273l80 98l213 -211l213 209l76 -96l-287 -273h-8z" />
    <glyph glyph-name="uni0162" unicode="&#x162;" horiz-adv-x="1218" 
d="M377 -346l53 86q81 -57 152 -57q51 0 82.5 19.5t31.5 53.5q0 80 -118 80h-13v164h-43v1270h-502v164h1178v-164h-502v-1270h-43v-88q217 -11 217 -164q0 -75 -67.5 -121.5t-184.5 -46.5q-131 0 -241 74z" />
    <glyph glyph-name="uni0163" unicode="&#x163;" horiz-adv-x="722" 
d="M137 -350l49 80q71 -47 146 -47q51 0 82.5 19.5t31.5 53.5q0 80 -118 80h-13v162q-188 52 -188 352v828h164v-256h338v-154h-338v-401q0 -230 164 -230q78 0 145 51l51 -127q-92 -77 -235 -77h-13v-72q103 -6 155 -48.5t52 -115.5q0 -75 -68 -121.5t-190 -46.5
q-48 0 -91.5 11.5t-68 24.5t-55.5 34z" />
    <glyph glyph-name="Tcaron" unicode="&#x164;" horiz-adv-x="1218" 
d="M20 1270v164h1178v-164h-502v-1270h-174v1270h-502zM602 1511l-358 211l67 95l295 -166l293 166l62 -93l-351 -213h-8z" />
    <glyph glyph-name="tcaron" unicode="&#x165;" horiz-adv-x="722" 
d="M127 350v828h164v-256h338v-154h-338v-401q0 -230 164 -230q78 0 145 51l51 -127q-92 -77 -235 -77q-151 0 -220 92t-69 274zM504 1434h160q16 -32 16 -78q0 -115 -51 -195t-125 -119l-74 72q44 38 70 97t26 126q0 55 -22 97z" />
    <glyph glyph-name="Umacron" unicode="&#x16a;" horiz-adv-x="1538" 
d="M1343 1434v-836q0 -159 -45 -280t-123.5 -193t-176 -107.5t-210.5 -35.5q-130 0 -238 40t-187.5 117t-123.5 198t-44 275v822h174v-789q0 -235 109.5 -367.5t309.5 -132.5q180 0 280.5 124t100.5 364v801h174zM467 1577v133h623v-133h-623z" />
    <glyph glyph-name="umacron" unicode="&#x16b;" horiz-adv-x="1105" 
d="M956 922v-922h-163v131q-52 -64 -138 -107.5t-188 -43.5q-159 0 -249.5 98t-90.5 295v549h164v-512q0 -277 237 -277q76 0 148 39t117 98v652h163zM276 1188v133h541v-133h-541z" />
    <glyph glyph-name="Ubreve" unicode="&#x16c;" horiz-adv-x="1538" 
d="M1343 1434v-836q0 -159 -45 -280t-123.5 -193t-176 -107.5t-210.5 -35.5q-130 0 -238 40t-187.5 117t-123.5 198t-44 275v822h174v-789q0 -235 109.5 -367.5t309.5 -132.5q180 0 280.5 124t100.5 364v801h174zM406 1716l73 86q118 -133 293 -133q93 0 166.5 38t120.5 95
l63 -86q-51 -80 -144.5 -135t-205.5 -55q-124 0 -222 59t-144 131z" />
    <glyph glyph-name="ubreve" unicode="&#x16d;" horiz-adv-x="1105" 
d="M956 922v-922h-163v131q-52 -64 -138 -107.5t-188 -43.5q-159 0 -249.5 98t-90.5 295v549h164v-512q0 -277 237 -277q76 0 148 39t117 98v652h163zM244 1311l75 84q28 -33 52.5 -56t74.5 -46t107 -23q133 0 235 123l60 -80q-25 -36 -50 -62.5t-61.5 -54.5t-85 -43.5
t-104.5 -15.5q-60 0 -112.5 18t-90 48.5t-60 55.5t-40.5 52z" />
    <glyph glyph-name="Uring" unicode="&#x16e;" horiz-adv-x="1538" 
d="M1343 1434v-836q0 -159 -45 -280t-123.5 -193t-176 -107.5t-210.5 -35.5q-130 0 -238 40t-187.5 117t-123.5 198t-44 275v822h174v-789q0 -235 109.5 -367.5t309.5 -132.5q180 0 280.5 124t100.5 364v801h174zM514 1622q0 98 71.5 147.5t182.5 49.5q114 0 186 -49.5
t72 -147.5t-73 -151.5t-185 -53.5q-110 0 -182 54t-72 151zM637 1622q0 -55 36.5 -84t96.5 -29q58 0 95.5 29t37.5 84q0 53 -36.5 78.5t-96.5 25.5q-61 0 -97 -25.5t-36 -78.5z" />
    <glyph glyph-name="uring" unicode="&#x16f;" horiz-adv-x="1105" 
d="M956 922v-922h-163v131q-52 -64 -138 -107.5t-188 -43.5q-159 0 -249.5 98t-90.5 295v549h164v-512q0 -277 237 -277q76 0 148 39t117 98v652h163zM311 1255q0 95 67.5 161.5t166.5 66.5q100 0 168.5 -66.5t68.5 -161.5q0 -94 -68 -159.5t-169 -65.5q-99 0 -166.5 65.5
t-67.5 159.5zM418 1257q0 -57 37 -96t92 -39t92 39t37 96q0 56 -37 95t-92 39t-92 -39t-37 -95z" />
    <glyph glyph-name="Uhungarumlaut" unicode="&#x170;" horiz-adv-x="1538" 
d="M1343 1434v-836q0 -159 -45 -280t-123.5 -193t-176 -107.5t-210.5 -35.5q-130 0 -238 40t-187.5 117t-123.5 198t-44 275v822h174v-789q0 -235 109.5 -367.5t309.5 -132.5q180 0 280.5 124t100.5 364v801h174zM1264 1712l-367 -207l-68 72l322 240zM864 1743l-329 -238
l-70 66l262 246z" />
    <glyph glyph-name="uhungarumlaut" unicode="&#x171;" horiz-adv-x="1105" 
d="M956 922v-922h-163v131q-52 -64 -138 -107.5t-188 -43.5q-159 0 -249.5 98t-90.5 295v549h164v-512q0 -277 237 -277q76 0 148 39t117 98v652h163zM963 1374l-256 -287l-99 70l234 309zM621 1393l-232 -306l-98 70l211 324z" />
    <glyph glyph-name="Uogonek" unicode="&#x172;" horiz-adv-x="1538" 
d="M1343 1434v-836q0 -255 -110.5 -405.5t-290.5 -192.5q-74 -36 -115 -76t-41 -92q0 -40 22 -65.5t47.5 -34t53.5 -8.5q51 0 90 18l50 -100q-27 -22 -76.5 -37t-100.5 -15q-65 0 -118.5 17t-92 61t-38.5 111q0 125 163 203q-129 0 -236.5 40t-187 117t-123.5 198t-44 275
v822h174v-789q0 -235 109.5 -367.5t309.5 -132.5q180 0 280.5 124t100.5 364v801h174z" />
    <glyph glyph-name="uogonek" unicode="&#x173;" horiz-adv-x="1105" 
d="M926 -258l49 -100q-27 -22 -76 -37t-100 -15q-65 0 -118.5 17t-92.5 61t-39 111q0 86 68.5 146t175.5 87v119q-52 -64 -138 -107.5t-188 -43.5q-159 0 -249.5 98t-90.5 295v549h164v-512q0 -277 237 -277q76 0 148 39t117 98v652h163v-922h-10q-94 -3 -163.5 -52
t-69.5 -116q0 -40 22 -65.5t47.5 -34t53.5 -8.5q51 0 90 18z" />
    <glyph glyph-name="Ydieresis" unicode="&#x178;" horiz-adv-x="1236" 
d="M1217 1434l-515 -820v-614h-174v614l-508 820h201l402 -656l403 656h191zM270 1665q0 41 33 66.5t80 25.5q42 0 74 -25.5t32 -66.5q0 -45 -31.5 -71.5t-74.5 -26.5q-48 0 -80.5 26t-32.5 72zM745 1665q0 41 33.5 66.5t81.5 25.5q42 0 73.5 -25t31.5 -67
q0 -45 -31.5 -71.5t-73.5 -26.5q-48 0 -81.5 26.5t-33.5 71.5z" />
    <glyph glyph-name="Zacute" unicode="&#x179;" horiz-adv-x="1300" 
d="M123 1270v164h1075v-117l-881 -1153h902v-164h-1137v117l876 1153h-835zM979 1677l-414 -172l-47 99l400 213z" />
    <glyph glyph-name="zacute" unicode="&#x17a;" horiz-adv-x="993" 
d="M123 768v154h778v-115l-577 -653h567v-154h-799v115l576 653h-545zM735 1380l-246 -293l-98 70l217 322z" />
    <glyph glyph-name="Zdotaccent" unicode="&#x17b;" horiz-adv-x="1300" 
d="M123 1270v164h1075v-117l-881 -1153h902v-164h-1137v117l876 1153h-835zM532 1673q0 48 34.5 76.5t82.5 28.5q45 0 78 -29t33 -76q0 -51 -32.5 -80.5t-78.5 -29.5q-49 0 -83 29t-34 81z" />
    <glyph glyph-name="zdotaccent" unicode="&#x17c;" horiz-adv-x="993" 
d="M123 768v154h778v-115l-577 -653h567v-154h-799v115l576 653h-545zM387 1268q0 43 31.5 70.5t75.5 27.5q40 0 70 -27.5t30 -70.5q0 -49 -29.5 -78t-70.5 -29q-45 0 -76 29t-31 78z" />
    <glyph glyph-name="Zcaron" unicode="&#x17d;" horiz-adv-x="1300" 
d="M123 1270v164h1075v-117l-881 -1153h902v-164h-1137v117l876 1153h-835zM655 1511l-358 211l68 95l294 -166l293 166l62 -93l-350 -213h-9z" />
    <glyph glyph-name="zcaron" unicode="&#x17e;" horiz-adv-x="993" 
d="M123 768v154h778v-115l-577 -653h567v-154h-799v115l576 653h-545zM502 1083l-287 273l80 98l213 -211l213 209l76 -96l-287 -273h-8z" />
    <glyph glyph-name="longs" unicode="&#x17f;" horiz-adv-x="522" 
d="M168 0v1071q0 190 84 286.5t240 96.5q79 0 143 -23t102 -59l-57 -125q-63 53 -162 53q-186 0 -186 -247v-1053h-164z" />
    <glyph glyph-name="uni018F" unicode="&#x18f;" horiz-adv-x="1595" 
d="M98 813h1207q-26 222 -179 349.5t-391 127.5q-215 0 -362 -116l-70 131q80 69 203.5 109t267.5 40q159 0 292.5 -52t227.5 -146.5t146.5 -232t52.5 -302.5q0 -217 -86.5 -385t-248.5 -262t-376 -94q-161 0 -294 60t-224 167.5t-135.5 264t-30.5 341.5zM780 143
q227 0 368 137.5t163 368.5h-1032q6 -140 66 -253.5t173.5 -183t261.5 -69.5z" />
    <glyph glyph-name="florin" unicode="&#x192;" 
d="M772 1053l-24 -131h294v-154h-321l-148 -836q-33 -183 -104 -270.5t-217 -87.5q-63 0 -119.5 17t-85.5 42l45 131q59 -36 121 -36q86 0 131.5 55.5t65.5 165.5l145 819h-285v154h312l26 149q38 200 117 291.5t229 91.5q79 0 145 -23t103 -59l-57 -125q-63 53 -162 53
q-87 0 -136.5 -58t-74.5 -189z" />
    <glyph glyph-name="uni01DD" unicode="&#x1dd;" horiz-adv-x="1064" 
d="M201 692l-51 127q65 59 162 91t194 32q222 0 347.5 -130t125.5 -351q0 -135 -54.5 -243.5t-162.5 -173t-252 -64.5q-187 0 -310.5 116t-123.5 305q0 73 10 121h709q-6 117 -87.5 191.5t-213.5 74.5q-87 0 -167.5 -27t-125.5 -69zM518 133q120 0 199 72t88 184h-559
q4 -124 75.5 -190t196.5 -66z" />
    <glyph glyph-name="uni0218" unicode="&#x218;" horiz-adv-x="1124" 
d="M838 367q0 56 -24 100.5t-64.5 76t-93 58t-111 50.5t-116.5 49.5t-110.5 60t-93 76.5t-64.5 103.5t-24 137.5q0 161 117 268t315 107q123 0 228.5 -40.5t167.5 -108.5l-95 -131q-116 116 -290 116q-119 0 -188.5 -57.5t-69.5 -153.5q0 -56 24 -101t64.5 -75.5t93 -56
t110.5 -48.5t116 -48t110.5 -58.5t93 -76t64.5 -105.5t24 -141q0 -115 -62.5 -204.5t-168.5 -137t-236 -47.5q-139 0 -270 59t-183 156l101 118q60 -80 159 -125t195 -45q118 0 199.5 60t81.5 164zM469 -133l154 39q26 -6 42.5 -33t16.5 -68q0 -90 -61.5 -147t-149.5 -76
l-47 74q94 37 94 127q0 64 -49 84z" />
    <glyph glyph-name="uni0219" unicode="&#x219;" horiz-adv-x="880" 
d="M614 250q0 33 -21.5 58t-56.5 40t-79.5 31t-91 30t-91 37t-79.5 52t-56.5 76t-21.5 108q0 120 87 190t226 70q106 0 188.5 -31.5t129.5 -76.5l-78 -125q-101 90 -232 90q-67 0 -107 -33.5t-40 -81.5q0 -39 27.5 -67.5t71 -46t96.5 -33.5t106.5 -37t97 -49.5t71 -77.5
t27.5 -115q0 -71 -29.5 -125.5t-80 -87t-113 -49t-133.5 -16.5q-107 0 -206 45t-134 98l92 117q40 -46 119.5 -81.5t147.5 -35.5q69 0 116 33.5t47 93.5zM348 -133l154 39q26 -6 42.5 -33t16.5 -68q0 -90 -61.5 -147t-149.5 -76l-47 74q94 37 94 127q0 64 -49 84z" />
    <glyph glyph-name="uni021A" unicode="&#x21a;" horiz-adv-x="1218" 
d="M20 1270v164h1178v-164h-502v-1270h-174v1270h-502zM504 -133l153 39q26 -6 43 -33t17 -68q0 -90 -61.5 -147t-149.5 -76l-47 74q94 37 94 127q0 64 -49 84z" />
    <glyph glyph-name="uni021B" unicode="&#x21b;" horiz-adv-x="722" 
d="M127 350v828h164v-256h338v-154h-338v-401q0 -230 164 -230q78 0 145 51l51 -127q-92 -77 -235 -77q-151 0 -220 92t-69 274zM272 -133l154 39q26 -6 42.5 -33t16.5 -68q0 -90 -61.5 -147t-149.5 -76l-47 74q95 38 95 127q0 63 -50 84z" />
    <glyph glyph-name="uni0237" unicode="&#x237;" horiz-adv-x="544" 
d="M365 922v-990q0 -358 -289 -358q-63 0 -118.5 17t-86.5 42l47 131q59 -36 121 -36q162 0 162 217v977h164z" />
    <glyph glyph-name="uni0259" unicode="&#x259;" horiz-adv-x="1064" 
d="M201 692l-51 127q65 59 162 91t194 32q222 0 347.5 -130t125.5 -351q0 -135 -54.5 -243.5t-162.5 -173t-252 -64.5q-187 0 -310.5 116t-123.5 305q0 73 10 121h709q-6 117 -87.5 191.5t-213.5 74.5q-87 0 -167.5 -27t-125.5 -69zM518 133q120 0 199 72t88 184h-559
q4 -124 75.5 -190t196.5 -66z" />
    <glyph glyph-name="uni02BC" unicode="&#x2bc;" horiz-adv-x="495" 
d="M176 1290l137 82q27 -28 43.5 -73.5t16.5 -94.5q0 -111 -50 -187.5t-124 -117.5l-76 72q96 69 96 198q0 78 -43 121z" />
    <glyph glyph-name="circumflex" unicode="&#x2c6;" horiz-adv-x="827" 
d="M420 1448l285 -272l-78 -99l-213 187l-213 -185l-78 97l289 272h8z" />
    <glyph glyph-name="caron" unicode="&#x2c7;" horiz-adv-x="827" 
d="M410 1083l-287 273l80 98l213 -211l213 209l76 -96l-287 -273h-8z" />
    <glyph glyph-name="breve" unicode="&#x2d8;" horiz-adv-x="849" 
d="M123 1311l76 84q20 -24 37.5 -41t47 -39t67.5 -33.5t81 -11.5q134 0 236 123l59 -80q-25 -36 -50 -62.5t-61.5 -54.5t-85 -43.5t-104.5 -15.5q-60 0 -112.5 18t-90 48.5t-60 55.5t-40.5 52z" />
    <glyph glyph-name="dotaccent" unicode="&#x2d9;" horiz-adv-x="452" 
d="M123 1268q0 43 31 70.5t75 27.5q40 0 70.5 -27.5t30.5 -70.5q0 -49 -30 -78t-71 -29q-45 0 -75.5 29t-30.5 78z" />
    <glyph glyph-name="ring" unicode="&#x2da;" horiz-adv-x="716" 
d="M123 1255q0 95 67 161.5t166 66.5q100 0 169 -66.5t69 -161.5q0 -94 -68.5 -159.5t-169.5 -65.5q-99 0 -166 65.5t-67 159.5zM229 1257q0 -57 37 -96t92 -39t92 39t37 96q0 56 -37 95t-92 39t-92 -39t-37 -95z" />
    <glyph glyph-name="ogonek" unicode="&#x2db;" horiz-adv-x="671" 
d="M500 -258l49 -100q-27 -22 -76 -37t-100 -15q-65 0 -118.5 17t-92.5 61t-39 111q0 81 63.5 141t154.5 87t189 26v-33q-96 0 -169.5 -50t-73.5 -118q0 -40 22 -65.5t47.5 -34t53.5 -8.5q51 0 90 18z" />
    <glyph glyph-name="tilde" unicode="&#x2dc;" horiz-adv-x="905" 
d="M190 1141l-67 76q108 122 225 122q40 0 80.5 -22.5t78.5 -45t73 -22.5q37 0 66.5 15.5t78.5 56.5l57 -84q-115 -121 -217 -121q-45 0 -116 45t-117 45q-57 0 -142 -65z" />
    <glyph glyph-name="hungarumlaut" unicode="&#x2dd;" horiz-adv-x="917" 
d="M795 1374l-256 -287l-99 70l234 309zM453 1393l-232 -306l-98 70l211 324z" />
    <glyph glyph-name="gravecomb" unicode="&#x300;" horiz-adv-x="0" 
d="M-551 1087l-248 291l129 99l219 -320z" />
    <glyph glyph-name="acutecomb" unicode="&#x301;" horiz-adv-x="0" 
d="M-313 1380l-246 -293l-98 70l217 322z" />
    <glyph glyph-name="Delta" unicode="&#x394;" horiz-adv-x="1486" 
d="M61 0l621 1450h109l634 -1450h-1364zM731 1155l-418 -991h852z" />
    <glyph glyph-name="Delta" unicode="&#x2206;" horiz-adv-x="1486" 
d="M61 0l621 1450h109l634 -1450h-1364zM731 1155l-418 -991h852z" />
    <glyph glyph-name="uni03A9" unicode="&#x3a9;" horiz-adv-x="1671" 
d="M139 0v164h346q-97 32 -180 114t-136.5 209t-53.5 271q0 153 56 284t153 220.5t229.5 140.5t282.5 51q204 0 367.5 -86.5t258 -246t94.5 -363.5q0 -113 -31.5 -214.5t-84 -176t-118.5 -127t-138 -76.5h346v-164h-586v164q193 49 310.5 207t117.5 358q0 153 -65.5 280
t-189 204t-281.5 77q-160 0 -284 -77t-188.5 -204.5t-64.5 -281.5q0 -125 51 -241.5t149.5 -204t225.5 -117.5v-164h-586z" />
    <glyph glyph-name="uni03A9" unicode="&#x2126;" horiz-adv-x="1671" 
d="M139 0v164h346q-97 32 -180 114t-136.5 209t-53.5 271q0 153 56 284t153 220.5t229.5 140.5t282.5 51q204 0 367.5 -86.5t258 -246t94.5 -363.5q0 -113 -31.5 -214.5t-84 -176t-118.5 -127t-138 -76.5h346v-164h-586v164q193 49 310.5 207t117.5 358q0 153 -65.5 280
t-189 204t-281.5 77q-160 0 -284 -77t-188.5 -204.5t-64.5 -281.5q0 -125 51 -241.5t149.5 -204t225.5 -117.5v-164h-586z" />
    <glyph glyph-name="pi" unicode="&#x3c0;" horiz-adv-x="1300" 
d="M94 768v154h1098v-154h-184v-469q0 -88 18.5 -125t65.5 -37q46 0 110 41l37 -125q-87 -69 -211 -69q-92 0 -138 58.5t-46 182.5v543h-393v-125q0 -196 -24 -326t-75 -201.5t-116.5 -99.5t-161.5 -28l-13 159q38 -1 69.5 10.5t60.5 43t48.5 83t32 134.5t13.5 194l2 156
h-193z" />
    <glyph glyph-name="uni0401" unicode="&#x401;" horiz-adv-x="1177" 
d="M215 0v1434h809v-164h-635v-463h574v-164h-574v-479h655v-164h-829zM285 1665q0 42 32.5 67t79.5 25q42 0 74.5 -25.5t32.5 -66.5q0 -45 -32 -71.5t-75 -26.5q-48 0 -80 26t-32 72zM760 1665q0 41 33.5 66.5t80.5 25.5q42 0 73.5 -25t31.5 -67q0 -45 -31.5 -71.5
t-73.5 -26.5q-48 0 -81 26.5t-33 71.5z" />
    <glyph glyph-name="uni0402" unicode="&#x402;" horiz-adv-x="1560" 
d="M1458 418q0 -222 -95 -330t-261 -108q-67 0 -129.5 24.5t-85.5 50.5l59 133q59 -45 135 -45q95 0 149 66t54 205q0 150 -72.5 219t-214.5 69q-51 0 -95.5 -8t-85.5 -26t-61.5 -29t-58.5 -35v-604h-174v1270h-502v164h1178v-164h-502v-506q154 102 334 102q428 0 428 -448
z" />
    <glyph glyph-name="uni0403" unicode="&#x403;" horiz-adv-x="1034" 
d="M215 0v1434h799v-164h-625v-1270h-174zM989 1677l-414 -172l-47 99l400 213z" />
    <glyph glyph-name="uni0404" unicode="&#x404;" horiz-adv-x="1386" 
d="M989 813v-164h-710q23 -238 184 -372t397 -134q213 0 387 131l68 -145q-186 -149 -469 -149q-166 0 -304 52t-235 147t-151 233t-54 305q0 214 90 381.5t254 261.5t375 94q144 0 267.5 -40t203.5 -109l-80 -131q-147 116 -362 116q-236 0 -387.5 -128.5t-179.5 -348.5
h706z" />
    <glyph glyph-name="uni0405" unicode="&#x405;" horiz-adv-x="1124" 
d="M838 367q0 56 -24 100.5t-64.5 76t-93 58t-111 50.5t-116.5 49.5t-110.5 60t-93 76.5t-64.5 103.5t-24 137.5q0 161 117 268t315 107q123 0 228.5 -40.5t167.5 -108.5l-95 -131q-116 116 -290 116q-119 0 -188.5 -57.5t-69.5 -153.5q0 -56 24 -101t64.5 -75.5t93 -56
t110.5 -48.5t116 -48t110.5 -58.5t93 -76t64.5 -105.5t24 -141q0 -115 -62.5 -204.5t-168.5 -137t-236 -47.5q-139 0 -270 59t-183 156l101 118q60 -80 159 -125t195 -45q118 0 199.5 60t81.5 164z" />
    <glyph glyph-name="uni0406" unicode="&#x406;" horiz-adv-x="686" 
d="M256 0v1434h174v-1434h-174z" />
    <glyph glyph-name="uni0407" unicode="&#x407;" horiz-adv-x="686" 
d="M88 1665q0 42 28.5 67t69.5 25q39 0 67 -25.5t28 -66.5q0 -45 -28 -71.5t-67 -26.5q-42 0 -70 26t-28 72zM408 1665q0 42 28.5 67t69.5 25q38 0 66 -25.5t28 -66.5q0 -45 -27.5 -71.5t-66.5 -26.5q-42 0 -70 26t-28 72zM256 0v1434h174v-1434h-174z" />
    <glyph glyph-name="uni0408" unicode="&#x408;" horiz-adv-x="765" 
d="M551 1434v-1108q0 -346 -313 -346q-68 0 -128 22.5t-90 52.5l60 133q59 -45 135 -45q88 0 125 55.5t37 155.5v1080h174z" />
    <glyph glyph-name="uni0409" unicode="&#x409;" horiz-adv-x="2095" 
d="M1098 0v1270h-520l-25 -271q-15 -168 -36 -305.5t-46 -239t-54.5 -180t-61.5 -127.5t-68 -83.5t-74 -47.5t-79 -18.5t-83 2.5l2 174q26 -3 48 1t52.5 25t55.5 59t54 111t52 174t43.5 255.5t34.5 347.5l21 287h858v-533q130 10 190 10q264 0 397.5 -117t133.5 -325
q0 -226 -150.5 -349.5t-419.5 -123.5q-66 0 -177 2t-148 2zM1450 748q-61 0 -178 -13v-569q165 -6 172 -6q178 0 271 77t93 228q0 137 -92.5 210t-265.5 73z" />
    <glyph glyph-name="uni040A" unicode="&#x40a;" horiz-adv-x="2154" 
d="M215 0v1434h174v-572h768v572h174v-564q143 11 191 11q263 0 396.5 -113.5t133.5 -314.5q0 -216 -150.5 -336.5t-418.5 -120.5q-51 0 -144 2t-129 2h-53v698h-768v-698h-174zM1331 705v-539q165 -6 172 -6q178 0 271.5 73.5t93.5 217.5q0 128 -93 197t-266 69
q-70 0 -178 -12z" />
    <glyph glyph-name="uni040B" unicode="&#x40b;" horiz-adv-x="1560" 
d="M20 1270v164h1178v-164h-502v-506q144 102 344 102q88 0 161 -25.5t132 -78t92 -143t33 -211.5v-408h-174v362q0 340 -291 340q-147 0 -297 -98v-604h-174v1270h-502z" />
    <glyph glyph-name="uni040C" unicode="&#x40c;" horiz-adv-x="1337" 
d="M1264 1434l-639 -674l671 -760h-223l-649 748l629 686h211zM215 0v1434h174v-1434h-174zM1051 1677l-414 -172l-47 99l399 213z" />
    <glyph glyph-name="uni040E" unicode="&#x40e;" horiz-adv-x="1363" 
d="M1333 1434l-495 -1106q-76 -170 -159 -249t-198 -79q-48 0 -96.5 14t-77.5 37l62 148q53 -37 110 -37q107 0 176 145l25 53l-649 1074h196l537 -899l393 899h176zM326 1761h163q49 -133 220 -133q83 0 139.5 34t71.5 99h163q-13 -114 -118.5 -185t-255.5 -71
q-158 0 -261 70.5t-122 185.5z" />
    <glyph glyph-name="uni040F" unicode="&#x40f;" horiz-adv-x="1536" 
d="M215 0v1434h174v-1270h758v1270h174v-1434h-473v-317h-164v317h-469z" />
    <glyph glyph-name="uni0410" unicode="&#x410;" horiz-adv-x="1443" 
d="M31 0l616 1442h150l616 -1442h-186l-185 434h-653l-182 -434h-176zM717 1210l-258 -612h516z" />
    <glyph glyph-name="uni0411" unicode="&#x411;" horiz-adv-x="1253" 
d="M215 0v1434h811v-164h-637v-412q108 12 219 12q239 0 370.5 -112.5t131.5 -308.5q0 -221 -145 -339t-406 -118q-80 0 -195 4t-149 4zM598 707q-86 0 -209 -13v-530q126 -8 197 -8q174 0 262 73.5t88 206.5q0 124 -85.5 197.5t-252.5 73.5z" />
    <glyph glyph-name="uni0412" unicode="&#x412;" horiz-adv-x="1263" 
d="M215 2v1430q320 8 393 8q124 0 215.5 -27t144 -76.5t77 -111.5t24.5 -140q0 -128 -67.5 -211.5t-178.5 -119.5v-4q138 -22 217.5 -109t79.5 -231q0 -106 -39 -187t-110 -130.5t-164 -74t-207 -24.5q-217 0 -385 8zM621 653h-232v-487q94 -8 221 -8q161 0 248.5 66
t87.5 196q0 113 -84.5 173t-240.5 60zM604 1276q-62 0 -215 -6v-463h229q119 0 198 63.5t79 176.5q0 112 -74 170.5t-217 58.5z" />
    <glyph glyph-name="uni0413" unicode="&#x413;" horiz-adv-x="1034" 
d="M215 0v1434h799v-164h-625v-1270h-174z" />
    <glyph glyph-name="uni0414" unicode="&#x414;" horiz-adv-x="1533" 
d="M31 -266v430h153q26 33 58 103.5t69.5 187t67.5 299t41 393.5l14 287h844v-1270h195v-430h-164v266h-1114v-266h-164zM584 1014q-16 -227 -57.5 -421.5t-80 -292t-69.5 -136.5h727v1106h-502z" />
    <glyph glyph-name="uni0415" unicode="&#x415;" horiz-adv-x="1177" 
d="M215 0v1434h809v-164h-635v-463h574v-164h-574v-479h655v-164h-829z" />
    <glyph glyph-name="uni0416" unicode="&#x416;" horiz-adv-x="1912" 
d="M1849 1434l-579 -684l602 -750h-203l-590 748l568 686h202zM868 0v1434h174v-1434h-174zM643 748l-580 686h203l568 -686l-590 -748h-203z" />
    <glyph glyph-name="uni0417" unicode="&#x417;" horiz-adv-x="1183" 
d="M551 -20q-155 0 -281 65.5t-188 159.5l96 117q68 -80 170.5 -129.5t192.5 -49.5q144 0 234.5 72.5t90.5 202.5q0 107 -74 170t-206 63h-166v164h153q94 0 166 69t72 173q0 113 -72.5 173t-187.5 60q-102 0 -180.5 -40t-145.5 -120l-102 115q74 96 191.5 152.5t254.5 56.5
q189 0 302.5 -100.5t113.5 -280.5q0 -96 -53.5 -186t-153.5 -142v-6q126 -24 194 -117t68 -221q0 -96 -39.5 -176.5t-107 -133.5t-155.5 -82t-187 -29z" />
    <glyph glyph-name="uni0418" unicode="&#x418;" horiz-adv-x="1628" 
d="M369 0h-154v1434h174v-1147l871 1147h153v-1434h-174v1147z" />
    <glyph glyph-name="uni0419" unicode="&#x419;" horiz-adv-x="1628" 
d="M369 0h-154v1434h174v-1147l871 1147h153v-1434h-174v1147zM444 1761h164q49 -133 219 -133q83 0 139.5 34t71.5 99h164q-13 -114 -119 -185t-256 -71q-158 0 -261 70.5t-122 185.5z" />
    <glyph glyph-name="uni041A" unicode="&#x41a;" horiz-adv-x="1337" 
d="M1264 1434l-639 -674l671 -760h-223l-649 748l629 686h211zM215 0v1434h174v-1434h-174z" />
    <glyph glyph-name="uni041B" unicode="&#x41b;" horiz-adv-x="1486" 
d="M1098 0v1270h-520l-25 -271q-15 -168 -36 -305.5t-46 -239t-54.5 -180t-61.5 -127.5t-68 -83.5t-74 -47.5t-79 -18.5t-83 2.5l2 174q26 -3 48 1t52.5 25t55.5 59t54 111t52 174t43.5 255.5t34.5 347.5l21 287h858v-1434h-174z" />
    <glyph glyph-name="uni041C" unicode="&#x41c;" horiz-adv-x="1826" 
d="M215 0v1434h176l539 -736l516 736h166v-1434h-174v1159l-508 -713h-27l-514 707v-1153h-174z" />
    <glyph glyph-name="uni041D" unicode="&#x41d;" horiz-adv-x="1566" 
d="M1178 0v649h-789v-649h-174v1434h174v-621h789v621h174v-1434h-174z" />
    <glyph glyph-name="uni041E" unicode="&#x41e;" horiz-adv-x="1667" 
d="M102 717q0 206 93.5 374.5t261.5 265.5t377 97q154 0 289 -54.5t232.5 -150t153.5 -233.5t56 -299q0 -157 -56 -294.5t-153 -234.5t-232.5 -152.5t-289.5 -55.5q-207 0 -373.5 92.5t-262.5 261.5t-96 383zM287 717q0 -160 72.5 -292t198 -207t276.5 -75q161 0 286 76
t192.5 206.5t67.5 291.5q0 248 -157 410.5t-389 162.5q-154 0 -279 -73t-196.5 -204.5t-71.5 -295.5z" />
    <glyph glyph-name="uni041F" unicode="&#x41f;" horiz-adv-x="1556" 
d="M1167 0v1270h-778v-1270h-174v1434h1126v-1434h-174z" />
    <glyph glyph-name="uni0420" unicode="&#x420;" horiz-adv-x="1222" 
d="M389 0h-174v1434q39 0 184 2t191 2q119 0 212 -25t152 -67t97 -100.5t53.5 -120.5t15.5 -132q0 -89 -32 -169t-94 -143.5t-162.5 -100.5t-227.5 -37q-119 0 -215 8v-551zM606 1274q-81 0 -217 -4v-553q117 -10 209 -10q158 0 248 76.5t90 211.5q0 132 -82 205.5
t-248 73.5z" />
    <glyph glyph-name="uni0421" unicode="&#x421;" horiz-adv-x="1343" 
d="M1212 270l70 -131q-72 -73 -195.5 -116t-257.5 -43q-213 0 -378 90.5t-257 258.5t-92 388q0 207 84 373t248 265t383 99q275 0 436 -139l-79 -131q-142 106 -355 106q-234 0 -383 -159.5t-149 -413.5q0 -256 155 -415t404 -159q210 0 366 127z" />
    <glyph glyph-name="uni0422" unicode="&#x422;" horiz-adv-x="1218" 
d="M20 1270v164h1178v-164h-502v-1270h-174v1270h-502z" />
    <glyph glyph-name="uni0423" unicode="&#x423;" horiz-adv-x="1363" 
d="M1333 1434l-495 -1106q-76 -170 -159 -249t-198 -79q-48 0 -96.5 14t-77.5 37l62 148q53 -37 110 -37q107 0 176 145l25 53l-649 1074h196l537 -899l393 899h176z" />
    <glyph glyph-name="uni0424" unicode="&#x424;" horiz-adv-x="1708" 
d="M764 -16v188h-2q-202 0 -354.5 65t-239 193.5t-86.5 306.5q0 266 185 415t497 151v147h174v-147q314 -2 501 -152t187 -414q0 -177 -87 -305.5t-240.5 -194t-354.5 -65.5h-6v-188h-174zM940 1141h-2v-809h4q235 0 367.5 103.5t132.5 301.5q0 190 -132 297t-370 107z
M266 737q0 -196 133 -300.5t363 -104.5h2v809q-233 0 -365.5 -107.5t-132.5 -296.5z" />
    <glyph glyph-name="uni0425" unicode="&#x425;" horiz-adv-x="1359" 
d="M1300 1434l-507 -705l526 -729h-207l-434 596l-432 -596h-205l526 729l-504 705h205l416 -574l410 574h206z" />
    <glyph glyph-name="uni0426" unicode="&#x426;" horiz-adv-x="1587" 
d="M215 0v1434h174v-1270h768v1270h174v-1270h195v-430h-164v266h-1147z" />
    <glyph glyph-name="uni0427" unicode="&#x427;" horiz-adv-x="1331" 
d="M1116 1434v-1434h-174v627q-64 -46 -164 -78.5t-215 -32.5q-89 0 -163.5 25t-136 77.5t-96 143t-34.5 211.5v461h174v-414q0 -177 81 -258.5t220 -81.5q173 0 334 108v646h174z" />
    <glyph glyph-name="uni0428" unicode="&#x428;" horiz-adv-x="2037" 
d="M215 0v1434h174v-1270h543v1270h174v-1270h543v1270h174v-1434h-1608z" />
    <glyph glyph-name="uni0429" unicode="&#x429;" horiz-adv-x="2078" 
d="M215 0v1434h174v-1270h543v1270h174v-1270h543v1270h174v-1270h194v-430h-164v266h-1638z" />
    <glyph glyph-name="uni042A" unicode="&#x42a;" horiz-adv-x="1370" 
d="M10 1270v164h516v-533q130 10 201 10q271 0 406 -116.5t135 -325.5q0 -225 -152 -349t-428 -124q-66 0 -182.5 2t-153.5 2v1270h-342zM715 748q-72 0 -189 -13v-569q165 -6 183 -6q180 0 277 76t97 229q0 138 -96.5 210.5t-271.5 72.5z" />
    <glyph glyph-name="uni042B" unicode="&#x42b;" horiz-adv-x="1730" 
d="M1341 0v1434h175v-1434h-175zM567 748q-61 0 -178 -13v-569q165 -6 172 -6q178 0 271.5 77t93.5 228q0 137 -93 210t-266 73zM389 1434v-533q130 10 191 10q263 0 396.5 -117t133.5 -325q0 -225 -150.5 -349t-418.5 -124q-66 0 -177.5 2t-148.5 2v1434h174z" />
    <glyph glyph-name="uni042C" unicode="&#x42c;" horiz-adv-x="1232" 
d="M578 748q-72 0 -189 -13v-569q165 -6 182 -6q181 0 278 76t97 229q0 138 -96.5 210.5t-271.5 72.5zM389 1434v-533q130 10 201 10q271 0 405.5 -116.5t134.5 -325.5q0 -226 -151.5 -349.5t-427.5 -123.5q-66 0 -182.5 2t-153.5 2v1434h174z" />
    <glyph glyph-name="uni042D" unicode="&#x42d;" horiz-adv-x="1386" 
d="M395 649v164h709q-28 223 -183.5 350t-396.5 127q-212 0 -362 -116l-68 131q78 69 202.5 109t268.5 40q322 0 520.5 -200.5t198.5 -532.5q0 -217 -89.5 -385t-257 -262t-388.5 -94q-141 0 -265.5 39.5t-211.5 109.5l75 145q174 -131 398 -131q230 0 384 136t177 370h-711
z" />
    <glyph glyph-name="uni042E" unicode="&#x42e;" horiz-adv-x="2207" 
d="M215 0v1434h174v-621h309q15 138 72.5 256t147 203t213 133.5t264.5 48.5q206 0 367.5 -92.5t252 -261t90.5 -383.5q0 -211 -90 -379t-252.5 -263t-367.5 -95q-284 0 -480.5 186t-218.5 483h-307v-649h-174zM879 717q0 -245 149 -409.5t371 -164.5q161 0 281 76.5
t180.5 205.5t60.5 292q0 251 -145.5 412t-376.5 161q-226 0 -373 -161.5t-147 -411.5z" />
    <glyph glyph-name="uni042F" unicode="&#x42f;" horiz-adv-x="1275" 
d="M887 0v532h-269l-370 -532h-197l398 563q-121 48 -202 153t-81 249q0 99 33.5 183.5t100 150.5t175.5 103.5t250 37.5q49 0 172 -3t164 -3v-1434h-174zM598 696h289v574q-141 6 -195 6q-162 0 -252 -84.5t-90 -216.5q0 -109 74 -186t174 -93z" />
    <glyph glyph-name="uni0430" unicode="&#x430;" horiz-adv-x="942" 
d="M197 727l-43 131q135 84 307 84q190 0 272 -94.5t82 -282.5v-565h-156v119q-105 -133 -294 -133q-128 0 -205.5 76t-77.5 208q0 137 97 215t251 78q149 0 229 -59q0 57 -4 97t-17 79t-35 62.5t-60.5 38t-91.5 14.5q-78 0 -133.5 -17t-120.5 -51zM422 133q81 0 136.5 33
t100.5 86v117q-85 61 -206 61q-81 0 -139 -38.5t-58 -112.5q0 -67 44 -106.5t122 -39.5z" />
    <glyph glyph-name="uni0431" unicode="&#x431;" horiz-adv-x="1130" 
d="M860 1454l88 -129q-39 -52 -94 -80t-105.5 -34.5t-128 -23.5t-141.5 -46q-209 -95 -233 -445h4q44 96 145 155.5t219 59.5q197 0 312.5 -125t115.5 -333q0 -129 -59 -236.5t-168 -172t-246 -64.5q-225 0 -356 154t-131 419q0 599 342 743q69 29 144 46t120.5 22
t92.5 26.5t79 63.5zM256 522q0 -177 85.5 -283t223.5 -106q133 0 218 90t85 221q0 139 -78 226.5t-217 87.5q-123 0 -208 -69.5t-109 -166.5z" />
    <glyph glyph-name="uni0432" unicode="&#x432;" horiz-adv-x="1011" 
d="M147 0v922q33 0 147 4t187 4q398 0 398 -238q0 -82 -51 -140.5t-134 -70.5v-4q215 -39 215 -217q0 -268 -424 -268q-61 0 -180.5 4t-157.5 4zM508 414h-197v-283q147 -6 189 -6q114 0 174.5 37.5t60.5 109.5q0 142 -227 142zM494 797q-60 0 -183 -6v-275h207
q83 0 135 38.5t52 104.5q0 71 -57.5 104.5t-153.5 33.5z" />
    <glyph glyph-name="uni0433" unicode="&#x433;" horiz-adv-x="741" 
d="M147 0v922h584v-154h-420v-768h-164z" />
    <glyph glyph-name="uni0434" unicode="&#x434;" horiz-adv-x="1103" 
d="M20 -225v379h115q49 63 89.5 204t51.5 320l15 244h629v-768h153v-379h-153v225h-746v-225h-154zM434 614q-14 -163 -51 -287t-74 -173h447v614h-312z" />
    <glyph glyph-name="uni0435" unicode="&#x435;" horiz-adv-x="1064" 
d="M874 229l52 -129q-65 -59 -157 -89.5t-189 -30.5q-224 0 -359 131.5t-135 349.5q0 135 54.5 243t164 173t256.5 65q182 0 305 -117.5t123 -304.5q0 -62 -10 -110h-709q10 -129 97.5 -203t224.5 -74q86 0 161 26.5t121 69.5zM553 788q-123 0 -201 -68t-92 -177h559
q-6 115 -76.5 180t-189.5 65z" />
    <glyph glyph-name="uni0436" unicode="&#x436;" horiz-adv-x="1390" 
d="M1335 922l-334 -445l359 -477h-203l-342 477l318 445h202zM610 0v922h164v-922h-164zM383 477l-334 445h205l315 -445l-338 -477h-200z" />
    <glyph glyph-name="uni0437" unicode="&#x437;" horiz-adv-x="946" 
d="M453 -20q-107 0 -222 35.5t-159 88.5l84 123q57 -46 133.5 -73t138.5 -27q106 0 174 42t68 110q0 57 -48 87.5t-133 30.5h-155v133h145q69 0 114.5 38t45.5 94q0 62 -53.5 97.5t-143.5 35.5q-148 0 -276 -103l-64 127q56 58 155 90.5t210 32.5q166 0 256 -66t90 -182
q0 -73 -39.5 -130.5t-122.5 -86.5v-4q93 -10 143 -71.5t50 -145.5q0 -127 -109 -201.5t-282 -74.5z" />
    <glyph glyph-name="uni0438" unicode="&#x438;" horiz-adv-x="1157" 
d="M311 0h-164v922h164v-686l533 686h164v-922h-164v686z" />
    <glyph glyph-name="uni0439" unicode="&#x439;" horiz-adv-x="1157" 
d="M311 0h-164v922h164v-686l533 686h164v-922h-164v686zM279 1393h153q6 -83 45 -122.5t113 -39.5q137 0 149 162h154q0 -124 -83.5 -205.5t-219.5 -81.5q-147 0 -229 80.5t-82 206.5z" />
    <glyph glyph-name="uni043A" unicode="&#x43a;" horiz-adv-x="1019" 
d="M954 922l-403 -441l442 -481h-227l-416 471l389 451h215zM147 0v922h164v-922h-164z" />
    <glyph glyph-name="uni043B" unicode="&#x43b;" horiz-adv-x="1089" 
d="M778 0v758h-323l-11 -156q-12 -154 -36.5 -265t-56 -178t-77.5 -105.5t-92 -52t-108 -13.5l-13 159q24 -2 48.5 7t54 40t53 82.5t42.5 144t26 214.5l16 287h641v-922h-164z" />
    <glyph glyph-name="uni043C" unicode="&#x43c;" horiz-adv-x="1282" 
d="M147 0v922h150l354 -457l336 457h146v-922h-164v672l-320 -428h-6l-332 428v-672h-164z" />
    <glyph glyph-name="uni043D" unicode="&#x43d;" horiz-adv-x="1136" 
d="M823 0v389h-512v-389h-164v922h164v-379h512v379h164v-922h-164z" />
    <glyph glyph-name="uni043E" unicode="&#x43e;" horiz-adv-x="1157" 
d="M86 461q0 209 136.5 345t355.5 136t355 -136t136 -345t-136 -345t-355 -136t-355.5 136t-136.5 345zM260 461q0 -144 89.5 -236t228.5 -92t228 90.5t89 237.5q0 144 -89 235.5t-228 91.5q-137 0 -227.5 -91t-90.5 -236z" />
    <glyph glyph-name="uni043F" unicode="&#x43f;" horiz-adv-x="1126" 
d="M813 0v768h-502v-768h-164v922h830v-922h-164z" />
    <glyph glyph-name="uni0440" unicode="&#x440;" horiz-adv-x="1138" 
d="M147 -410v1332h164v-109q48 57 134 93t180 36q194 0 310 -130t116 -337q0 -214 -133 -354.5t-347 -140.5q-163 0 -260 63v-453h-164zM578 788q-79 0 -151 -35t-116 -91v-457q107 -72 246 -72q146 0 233 94t87 242q0 143 -79.5 231t-219.5 88z" />
    <glyph glyph-name="uni0441" unicode="&#x441;" horiz-adv-x="999" 
d="M856 252l78 -119q-57 -74 -151.5 -113.5t-202.5 -39.5q-221 0 -357.5 132t-136.5 349q0 133 60 243t167.5 174t239.5 64q241 0 362 -121l-75 -129q-104 96 -265 96q-128 0 -221.5 -92.5t-93.5 -234.5q0 -148 95.5 -238t236.5 -90q160 0 264 119z" />
    <glyph glyph-name="uni0442" unicode="&#x442;" horiz-adv-x="901" 
d="M31 758v164h839v-164h-338v-758h-163v758h-338z" />
    <glyph glyph-name="uni0443" unicode="&#x443;" horiz-adv-x="1005" 
d="M985 922l-369 -922q-67 -164 -123 -253.5t-108 -123t-121 -33.5q-88 0 -174 58l53 125q69 -31 103 -31q58 0 104 49t92 160l21 49l-443 922h197l270 -586q28 -65 56 -139q14 51 43 141l213 584h186z" />
    <glyph glyph-name="uni0444" unicode="&#x444;" horiz-adv-x="1382" 
d="M608 -410v390h-22q-232 0 -366 135t-134 346q0 127 57 235t172.5 177t268.5 69h24v492h164v-492h27q225 0 360 -136.5t135 -344.5q0 -103 -32 -190.5t-93.5 -152.5t-156 -101.5t-213.5 -36.5h-27v-390h-164zM260 461q0 -146 88 -237t244 -91h16v655h-26
q-152 0 -237 -93.5t-85 -233.5zM799 788h-27v-655h19q157 0 243 89.5t86 238.5q0 135 -85.5 231t-235.5 96z" />
    <glyph glyph-name="uni0445" unicode="&#x445;" horiz-adv-x="1038" 
d="M967 922l-330 -445l350 -477h-201l-270 373l-274 -373h-191l348 469l-327 453h200l250 -349l254 349h191z" />
    <glyph glyph-name="uni0446" unicode="&#x446;" horiz-adv-x="1150" 
d="M147 0v922h164v-768h492v768h164v-768h153v-379h-153v225h-820z" />
    <glyph glyph-name="uni0447" unicode="&#x447;" horiz-adv-x="987" 
d="M840 922v-922h-164v358q-105 -67 -256 -67q-166 0 -247 87t-81 265v279h174v-260q0 -108 52 -163t147 -55q64 0 120.5 17t90.5 41v420h164z" />
    <glyph glyph-name="uni0448" unicode="&#x448;" horiz-adv-x="1464" 
d="M147 0v922h164v-768h338v768h164v-768h338v768h164v-922h-1168z" />
    <glyph glyph-name="uni0449" unicode="&#x449;" horiz-adv-x="1499" 
d="M147 0v922h164v-768h338v768h164v-768h338v768h164v-768h153v-379h-153v225h-1168z" />
    <glyph glyph-name="uni044A" unicode="&#x44a;" horiz-adv-x="1042" 
d="M10 768v154h428v-277h168q82 0 146 -17.5t105 -46.5t67 -70.5t36.5 -86t10.5 -96.5q0 -64 -20 -120t-62.5 -104t-120 -76t-182.5 -28h-312v768h-264zM575 492h-137v-338h135q118 0 171 42t53 126q0 85 -53 127.5t-169 42.5z" />
    <glyph glyph-name="uni044B" unicode="&#x44b;" horiz-adv-x="1314" 
d="M147 0v922h164v-277h152q82 0 146 -17.5t104.5 -46.5t66.5 -70.5t36.5 -86t10.5 -96.5q0 -64 -20 -120t-62.5 -104t-119.5 -76t-181 -28h-297zM1004 0v922h163v-922h-163zM432 492h-121v-338h119q119 0 171 41.5t52 126.5t-52.5 127.5t-168.5 42.5z" />
    <glyph glyph-name="uni044C" unicode="&#x44c;" horiz-adv-x="915" 
d="M147 0v922h164v-277h168q82 0 146 -17.5t105 -46.5t67 -70.5t36.5 -86t10.5 -96.5q0 -64 -20 -120t-62.5 -104t-120 -76t-182.5 -28h-312zM449 492h-138v-338h135q118 0 171 42t53 126q0 85 -52.5 127.5t-168.5 42.5z" />
    <glyph glyph-name="uni044D" unicode="&#x44d;" horiz-adv-x="1001" 
d="M291 401v134h452q-20 124 -105 188.5t-214 64.5q-169 0 -283 -100l-69 123q62 61 159.5 96t190.5 35q220 0 355.5 -131.5t135.5 -349.5q0 -133 -60 -243t-167.5 -174t-239.5 -64q-251 0 -370 116l78 121q45 -41 122 -62.5t160 -21.5q128 0 210 70.5t99 197.5h-454z" />
    <glyph glyph-name="uni044E" unicode="&#x44e;" horiz-adv-x="1556" 
d="M147 0v922h175v-369h200q28 173 153.5 281t311.5 108q214 0 347.5 -136t133.5 -345t-134.5 -345t-346.5 -136q-192 0 -318.5 113t-148.5 296h-198v-389h-175zM700 461q0 -144 82 -231t211 -87t210 87.5t81 230.5q0 142 -80 229.5t-211 87.5q-130 0 -211.5 -87.5
t-81.5 -229.5z" />
    <glyph glyph-name="uni044F" unicode="&#x44f;" horiz-adv-x="987" 
d="M551 922h287v-922h-164v307h-178l-226 -307h-198l266 348q-79 19 -139 89.5t-60 176.5q0 62 22 115t68 97.5t128.5 70t193.5 25.5zM313 610q0 -67 53 -108t119 -41h189v307h-150q-109 0 -160 -44t-51 -114z" />
    <glyph glyph-name="uni0451" unicode="&#x451;" horiz-adv-x="1064" 
d="M874 229l52 -129q-65 -59 -157 -89.5t-189 -30.5q-224 0 -359 131.5t-135 349.5q0 135 54.5 243t164 173t256.5 65q182 0 305 -117.5t123 -304.5q0 -62 -10 -110h-709q10 -129 97.5 -203t224.5 -74q86 0 161 26.5t121 69.5zM553 788q-123 0 -201 -68t-92 -177h559
q-6 115 -76.5 180t-189.5 65zM248 1249q0 42 27.5 68t68.5 26q35 0 62.5 -26.5t27.5 -67.5q0 -47 -27 -74.5t-63 -27.5q-41 0 -68.5 27t-27.5 75zM664 1249q0 42 28.5 68t69.5 26q35 0 62.5 -26.5t27.5 -67.5q0 -47 -27 -74.5t-63 -27.5q-42 0 -70 27t-28 75z" />
    <glyph glyph-name="uni0452" unicode="&#x452;" horiz-adv-x="1220" 
d="M10 942v133h266v359h164v-359h369v-133h-369v-311q53 54 134.5 88.5t166.5 34.5q383 0 383 -404q0 -247 -94.5 -451.5t-259.5 -308.5h-178q184 130 275 322t91 397q0 291 -258 291q-75 0 -145.5 -32.5t-114.5 -84.5v-483h-164v942h-266z" />
    <glyph glyph-name="uni0453" unicode="&#x453;" horiz-adv-x="741" 
d="M147 0v922h584v-154h-420v-768h-164zM705 1380l-246 -293l-99 70l218 322z" />
    <glyph glyph-name="uni0454" unicode="&#x454;" horiz-adv-x="1001" 
d="M709 535v-134h-455q18 -130 110 -199t224 -69q74 0 149.5 22t120.5 62l68 -121q-122 -116 -361 -116q-211 0 -345 136.5t-134 344.5q0 218 136.5 349.5t357.5 131.5q93 0 190 -35t158 -96l-68 -123q-114 100 -285 100q-126 0 -213 -64.5t-108 -188.5h455z" />
    <glyph glyph-name="uni0455" unicode="&#x455;" horiz-adv-x="880" 
d="M614 250q0 33 -21.5 58t-56.5 40t-79.5 31t-91 30t-91 37t-79.5 52t-56.5 76t-21.5 108q0 120 87 190t226 70q106 0 188.5 -31.5t129.5 -76.5l-78 -125q-101 90 -232 90q-67 0 -107 -33.5t-40 -81.5q0 -39 27.5 -67.5t71 -46t96.5 -33.5t106.5 -37t97 -49.5t71 -77.5
t27.5 -115q0 -71 -29.5 -125.5t-80 -87t-113 -49t-133.5 -16.5q-107 0 -206 45t-134 98l92 117q40 -46 119.5 -81.5t147.5 -35.5q69 0 116 33.5t47 93.5z" />
    <glyph glyph-name="uni0456" unicode="&#x456;" horiz-adv-x="548" 
d="M193 0v922h163v-922h-163zM172 1268q0 43 31.5 70.5t75.5 27.5q40 0 70 -27.5t30 -70.5q0 -49 -29.5 -78t-70.5 -29q-45 0 -76 29t-31 78z" />
    <glyph glyph-name="uni0457" unicode="&#x457;" horiz-adv-x="600" 
d="M72 1245q0 38 26 62t64 24q32 0 57 -24.5t25 -61.5q0 -40 -25 -65t-57 -25q-38 0 -64 25t-26 65zM358 1245q0 37 26 61.5t62 24.5q33 0 57.5 -24.5t24.5 -61.5q0 -40 -24 -65t-58 -25q-36 0 -62 25t-26 65zM217 0v922h164v-922h-164z" />
    <glyph glyph-name="uni0458" unicode="&#x458;" horiz-adv-x="559" 
d="M365 922v-990q0 -358 -289 -358q-63 0 -118.5 17t-86.5 42l47 131q59 -36 121 -36q162 0 162 217v977h164zM178 1268q0 43 31.5 70.5t75.5 27.5q40 0 70 -27.5t30 -70.5q0 -49 -29.5 -78t-70.5 -29q-45 0 -76 29t-31 78z" />
    <glyph glyph-name="uni0459" unicode="&#x459;" horiz-adv-x="1519" 
d="M778 0v758h-323l-11 -156q-12 -154 -36.5 -265t-56 -178t-77.5 -105.5t-92 -52t-108 -13.5l-13 159q24 -2 48.5 7t54 40t53 82.5t42.5 144t26 214.5l16 287h641v-277h141q82 0 146 -17.5t105 -46.5t67 -70.5t36.5 -86t10.5 -96.5q0 -64 -20 -120t-62.5 -104t-120 -76
t-182.5 -28h-285zM1053 492h-111v-338h109q118 0 170.5 42t52.5 126q0 85 -52.5 127.5t-168.5 42.5z" />
    <glyph glyph-name="uni045A" unicode="&#x45a;" horiz-adv-x="1564" 
d="M147 0v922h164v-359h512v359h164v-297h141q102 0 175.5 -24.5t113.5 -68.5t58 -97t18 -118q0 -64 -20 -118.5t-62.5 -100.5t-119.5 -72t-181 -26h-287v410h-512v-410h-164zM1098 471h-111v-317h109q121 0 172 37t51 120q0 84 -51.5 122t-169.5 38z" />
    <glyph glyph-name="uni045B" unicode="&#x45b;" horiz-adv-x="1220" 
d="M10 942v133h266v359h164v-359h369v-133h-369v-311q53 54 134.5 88.5t166.5 34.5q383 0 383 -410v-344h-163v322q0 137 -66.5 207.5t-194.5 70.5q-75 0 -145.5 -32.5t-114.5 -84.5v-483h-164v942h-266z" />
    <glyph glyph-name="uni045C" unicode="&#x45c;" horiz-adv-x="1019" 
d="M954 922l-403 -441l442 -481h-227l-416 471l389 451h215zM147 0v922h164v-922h-164zM748 1380l-246 -293l-99 70l218 322z" />
    <glyph glyph-name="uni045E" unicode="&#x45e;" horiz-adv-x="1005" 
d="M985 922l-369 -922q-67 -164 -123 -253.5t-108 -123t-121 -33.5q-88 0 -174 58l53 125q69 -31 103 -31q58 0 104 49t92 160l21 49l-443 922h197l270 -586q28 -65 56 -139q14 51 43 141l213 584h186zM207 1393h153q6 -83 45 -122.5t113 -39.5q138 0 150 162h153
q0 -124 -83.5 -205.5t-219.5 -81.5q-147 0 -229 80.5t-82 206.5z" />
    <glyph glyph-name="uni045F" unicode="&#x45f;" horiz-adv-x="1105" 
d="M147 0v922h164v-768h482v768h163v-922h-327v-256h-154v256h-328z" />
    <glyph glyph-name="uni0462" unicode="&#x462;" horiz-adv-x="1308" 
d="M465 1434v-205h321v-164h-321v-205q130 10 201 10q540 0 540 -421q0 -223 -150 -338t-429 -115q-66 0 -182.5 2t-153.5 2v1065h-271v164h271v205h174zM653 707q-71 0 -188 -13v-528q165 -6 182 -6q184 0 279.5 67t95.5 217q0 263 -369 263z" />
    <glyph glyph-name="uni0463" unicode="&#x463;" horiz-adv-x="1036" 
d="M10 768v154h264v512h164v-512h307v-154h-307v-184h162q365 0 365 -299q0 -285 -383 -285h-308v768h-264zM598 430h-160v-276h160q105 0 149 35t44 104q0 66 -45 101.5t-148 35.5z" />
    <glyph glyph-name="uni0472" unicode="&#x472;" horiz-adv-x="1667" 
d="M102 717q0 206 93.5 374.5t261.5 265.5t377 97q154 0 289 -54.5t232.5 -150t153.5 -233.5t56 -299q0 -157 -56 -294.5t-153 -234.5t-232.5 -152.5t-289.5 -55.5q-207 0 -373.5 92.5t-262.5 261.5t-96 383zM588 731q-76 0 -156 -38.5t-135 -88.5q35 -202 185 -331.5
t352 -129.5q228 0 376 146t166 373q-64 -42 -139 -69.5t-141 -27.5q-72 0 -142 26t-118 57t-115 57t-133 26zM1108 719q65 0 139.5 32.5t122.5 75.5q-35 205 -184 334t-352 129q-220 0 -372.5 -143.5t-172.5 -370.5q70 49 149.5 79t151.5 30q60 0 116.5 -17t102 -41.5
t90 -49t99 -41.5t110.5 -17z" />
    <glyph glyph-name="uni0473" unicode="&#x473;" horiz-adv-x="1177" 
d="M86 461q0 210 138 345.5t364 135.5t364 -135.5t138 -345.5t-138 -345.5t-364 -135.5t-364 135.5t-138 345.5zM416 465q-89 0 -162 -76q21 -130 114 -203t220 -73q133 0 227.5 78.5t108.5 220.5q-82 -68 -168 -68q-46 0 -94.5 19t-83.5 41.5t-79.5 41.5t-82.5 19zM776 457
q84 0 146 65q-20 134 -113 210.5t-221 76.5q-132 0 -227.5 -80.5t-108.5 -222.5q87 72 172 72q47 0 98.5 -19t88.5 -41.5t82.5 -41.5t82.5 -19z" />
    <glyph glyph-name="uni0474" unicode="&#x474;" horiz-adv-x="1349" 
d="M1120 1032l-377 -1040h-129l-604 1442h187l487 -1178l303 874q30 88 59 146.5t62.5 98.5t75 56.5t91.5 16t116 -17.5l-27 -154q-32 12 -57 13t-46.5 -10.5t-38 -29t-34.5 -53t-32.5 -71t-35.5 -93.5z" />
    <glyph glyph-name="uni0475" unicode="&#x475;" horiz-adv-x="993" 
d="M805 590l-238 -598h-118l-439 930h193l233 -498q31 -67 76 -201q28 96 68 205l100 262q26 69 50 113.5t53 77t64.5 44.5t81 10t105.5 -20l-26 -151q-25 12 -45.5 14t-38.5 -7t-32 -22.5t-29.5 -40t-28 -52t-29.5 -66.5z" />
    <glyph glyph-name="uni0490" unicode="&#x490;" horiz-adv-x="1034" 
d="M215 0v1434h635v256h164v-420h-625v-1270h-174z" />
    <glyph glyph-name="uni0491" unicode="&#x491;" horiz-adv-x="741" 
d="M147 0v922h431v215h153v-369h-420v-768h-164z" />
    <glyph glyph-name="uni0492" unicode="&#x492;" horiz-adv-x="1067" 
d="M248 0v649h-228v164h228v621h799v-164h-625v-457h389v-164h-389v-649h-174z" />
    <glyph glyph-name="uni0493" unicode="&#x493;" horiz-adv-x="768" 
d="M174 0v360h-164v134h164v428h584v-154h-420v-274h256v-134h-256v-360h-164z" />
    <glyph glyph-name="uni0494" unicode="&#x494;" horiz-adv-x="1273" 
d="M215 0v1434h799v-164h-625v-506q154 102 334 102q224 0 326 -127.5t102 -371.5v-293q0 -64 -6.5 -120.5t-21 -114.5t-41.5 -104.5t-65 -83.5t-94.5 -57t-127.5 -20q-66 0 -129 24.5t-86 51.5l59 133q59 -45 135 -45q203 0 203 332v292q0 63 -8 113t-28 93.5t-52 72
t-82 45t-117 16.5q-51 0 -95.5 -8t-85.5 -26t-61.5 -29t-58.5 -35v-604h-174z" />
    <glyph glyph-name="uni0495" unicode="&#x495;" horiz-adv-x="1019" 
d="M147 0v922h584v-154h-420v-307q104 98 281 98q61 0 116 -18t105.5 -58t80.5 -114.5t30 -175.5q0 -183 -87 -349t-227 -254h-178q164 120 245 270t81 304q0 67 -18.5 116t-51 75.5t-70 38.5t-81.5 12q-71 0 -134 -28.5t-92 -64.5v-313h-164z" />
    <glyph glyph-name="uni0496" unicode="&#x496;" horiz-adv-x="1925" 
d="M1849 1434l-579 -684l471 -588v2h174v-430h-164v266h-82l-590 748l568 686h202zM643 748l-580 686h203l568 -686l-590 -748h-203zM868 0v1434h174v-1434h-174z" />
    <glyph glyph-name="uni0497" unicode="&#x497;" horiz-adv-x="1409" 
d="M1335 922l-334 -445l244 -325v2h144v-379h-154v225h-78l-342 477l318 445h202zM383 477l-334 445h205l315 -445l-338 -477h-200zM610 0v922h164v-922h-164z" />
    <glyph glyph-name="uni0498" unicode="&#x498;" horiz-adv-x="1183" 
d="M645 -317h-164v301q-132 14 -238 76.5t-161 144.5l96 117q68 -80 170.5 -129.5t192.5 -49.5q144 0 234.5 72.5t90.5 202.5q0 107 -74 170t-206 63h-166v164h153q94 0 166 69t72 173q0 113 -72.5 173t-187.5 60q-102 0 -180.5 -40t-145.5 -120l-102 115q74 96 191.5 152.5
t254.5 56.5q189 0 302.5 -100.5t113.5 -280.5q0 -96 -53.5 -186t-153.5 -142v-6q126 -24 194 -117t68 -221q0 -168 -112 -278.5t-283 -134.5v-305z" />
    <glyph glyph-name="uni0499" unicode="&#x499;" horiz-adv-x="946" 
d="M545 -256h-154v240q-100 10 -191 42.5t-128 77.5l84 123q57 -46 133.5 -73t138.5 -27q106 0 174 42t68 110q0 57 -48 87.5t-133 30.5h-155v133h145q69 0 114.5 38t45.5 94q0 62 -53.5 97.5t-143.5 35.5q-148 0 -276 -103l-64 127q56 58 155 90.5t210 32.5q166 0 256 -66
t90 -182q0 -73 -39.5 -130.5t-122.5 -86.5v-4q93 -10 143 -71.5t50 -145.5q0 -108 -81.5 -179.5t-217.5 -90.5v-242z" />
    <glyph glyph-name="uni049A" unicode="&#x49a;" horiz-adv-x="1335" 
d="M215 0v1434h174v-1434h-174zM1264 1434l-639 -674l526 -596h174v-430h-164v266h-88l-649 748l629 686h211z" />
    <glyph glyph-name="uni049B" unicode="&#x49b;" horiz-adv-x="1015" 
d="M954 922l-403 -441l301 -327h143v-379h-153v225h-76l-416 471l389 451h215zM147 0v922h164v-922h-164z" />
    <glyph glyph-name="uni049C" unicode="&#x49c;" horiz-adv-x="1386" 
d="M1323 1434l-633 -674l656 -760h-220l-501 590v-232h-154v758h154v-217l483 535h215zM215 0v1434h174v-1434h-174z" />
    <glyph glyph-name="uni049D" unicode="&#x49d;" horiz-adv-x="1064" 
d="M1020 922l-397 -441l415 -481h-211l-292 346v-186h-146v604h146v-172l280 330h205zM147 0v922h164v-922h-164z" />
    <glyph glyph-name="uni04A0" unicode="&#x4a0;" horiz-adv-x="1511" 
d="M389 0v1270h-379v164h553v-1434h-174zM1438 1434l-639 -674l671 -760h-223l-649 748l629 686h211z" />
    <glyph glyph-name="uni04A1" unicode="&#x4a1;" horiz-adv-x="1179" 
d="M307 0v758h-297v164h461v-922h-164zM1114 922l-403 -441l442 -481h-227l-416 471l389 451h215z" />
    <glyph glyph-name="uni04A2" unicode="&#x4a2;" horiz-adv-x="1607" 
d="M1178 0v649h-789v-649h-174v1434h174v-621h789v621h174v-1270h194v-430h-164v266h-204z" />
    <glyph glyph-name="uni04A3" unicode="&#x4a3;" horiz-adv-x="1171" 
d="M823 0v389h-512v-389h-164v922h164v-379h512v379h164v-768h154v-379h-154v225h-164z" />
    <glyph glyph-name="uni04A4" unicode="&#x4a4;" horiz-adv-x="1966" 
d="M1167 0v649h-778v-649h-174v1434h174v-621h778v621h779v-164h-605v-1270h-174z" />
    <glyph glyph-name="uni04A5" unicode="&#x4a5;" horiz-adv-x="1396" 
d="M813 0v389h-502v-389h-164v922h164v-379h502v379h573v-154h-409v-768h-164z" />
    <glyph glyph-name="uni04AA" unicode="&#x4aa;" horiz-adv-x="1343" 
d="M1212 270l70 -131q-61 -62 -159 -102.5t-212 -52.5v-301h-163v301q-292 27 -469 224.5t-177 508.5q0 207 84 373t248 265t383 99q275 0 436 -139l-79 -131q-142 106 -355 106q-234 0 -383 -159.5t-149 -413.5q0 -256 155 -415t404 -159q210 0 366 127z" />
    <glyph glyph-name="uni04AB" unicode="&#x4ab;" horiz-adv-x="999" 
d="M856 252l78 -119q-96 -124 -275 -147v-242h-153v240q-191 22 -305.5 150.5t-114.5 326.5q0 133 60 243t167.5 174t239.5 64q241 0 362 -121l-75 -129q-104 96 -265 96q-128 0 -221.5 -92.5t-93.5 -234.5q0 -148 95.5 -238t236.5 -90q160 0 264 119z" />
    <glyph glyph-name="uni04AE" unicode="&#x4ae;" horiz-adv-x="1236" 
d="M1217 1434l-515 -820v-614h-174v614l-508 820h201l402 -656l403 656h191z" />
    <glyph glyph-name="uni04AF" unicode="&#x4af;" horiz-adv-x="974" 
d="M416 -410v410l-406 922h193l225 -539q50 -117 76 -195q26 82 74 199l213 535h174l-385 -922v-410h-164z" />
    <glyph glyph-name="uni04B0" unicode="&#x4b0;" horiz-adv-x="1236" 
d="M1217 1434l-463 -738h286v-153h-338v-543h-174v543h-338v153h287l-457 738h201l402 -656l403 656h191z" />
    <glyph glyph-name="uni04B1" unicode="&#x4b1;" horiz-adv-x="974" 
d="M416 -410v410h-277v133h230l-359 789h193l225 -508q33 -78 76 -205q40 126 74 209l213 504h174l-342 -789h233v-133h-276v-410h-164z" />
    <glyph glyph-name="uni04B2" unicode="&#x4b2;" horiz-adv-x="1384" 
d="M1300 1434l-507 -705l407 -565h174v-430h-164v266h-98l-434 596l-432 -596h-205l526 729l-504 705h205l416 -574l410 574h206z" />
    <glyph glyph-name="uni04B3" unicode="&#x4b3;" horiz-adv-x="1038" 
d="M967 922l-330 -445l237 -323h144v-379h-154v225h-78l-270 373l-274 -373h-191l348 469l-327 453h200l250 -349l254 349h191z" />
    <glyph glyph-name="uni04B6" unicode="&#x4b6;" horiz-adv-x="1351" 
d="M1116 1434v-1270h174v-430h-164v266h-184v627q-64 -46 -164 -78.5t-215 -32.5q-89 0 -163.5 25t-136 77.5t-96 143t-34.5 211.5v461h174v-414q0 -177 81 -258.5t220 -81.5q173 0 334 108v646h174z" />
    <glyph glyph-name="uni04B7" unicode="&#x4b7;" horiz-adv-x="1013" 
d="M840 922v-768h143v-379h-154v225h-153v358q-105 -67 -256 -67q-166 0 -247 87t-81 265v279h174v-260q0 -108 52 -163t147 -55q64 0 120.5 17t90.5 41v420h164z" />
    <glyph glyph-name="uni04B8" unicode="&#x4b8;" horiz-adv-x="1331" 
d="M1116 1434v-1434h-174v627q-73 -55 -223 -80v-256h-164v246q-68 1 -127.5 14.5t-114.5 45.5t-94 80.5t-62.5 124t-23.5 171.5v461h174v-414q0 -159 65 -233t183 -85v306h164v-299q132 18 223 79v646h174z" />
    <glyph glyph-name="uni04B9" unicode="&#x4b9;" horiz-adv-x="987" 
d="M840 922v-922h-164v358q-51 -24 -127 -36v-195h-154v184q-158 3 -230.5 83t-72.5 249v279h174v-260q0 -96 31 -143.5t98 -59.5v221h154v-217q73 11 127 39v420h164z" />
    <glyph glyph-name="uni04BA" unicode="&#x4ba;" horiz-adv-x="1300" 
d="M215 0v1434h174v-670q81 56 167 79t212 23q71 0 132 -13.5t117 -46t95.5 -82t62.5 -126.5t23 -174v-424h-174v377q0 325 -305 325q-102 0 -168 -21t-162 -75v-606h-174z" />
    <glyph glyph-name="uni04BB" unicode="&#x4bb;" horiz-adv-x="1124" 
d="M147 0v1434h164v-619q53 54 134.5 88.5t166.5 34.5q383 0 383 -410v-528h-164v506q0 278 -258 278q-75 0 -146.5 -32.5t-115.5 -83.5v-668h-164z" />
    <glyph glyph-name="uni04C0" unicode="&#x4c0;" horiz-adv-x="460" 
d="M311 1434v-1434h-164v1434h164z" />
    <glyph glyph-name="uni04CB" unicode="&#x4cb;" horiz-adv-x="1331" 
d="M1116 1434v-1434h-184v-266h-164v430h174v463q-64 -46 -164 -78.5t-215 -32.5q-89 0 -163.5 25t-136 77.5t-96 143t-34.5 211.5v461h174v-414q0 -177 81 -258.5t220 -81.5q173 0 334 108v646h174z" />
    <glyph glyph-name="uni04CC" unicode="&#x4cc;" horiz-adv-x="987" 
d="M840 922v-922h-154v-225h-154v379h144v204q-105 -67 -256 -67q-166 0 -247 87t-81 265v279h174v-260q0 -108 52 -163t147 -55q64 0 120.5 17t90.5 41v420h164z" />
    <glyph glyph-name="uni04CF" unicode="&#x4cf;" horiz-adv-x="686" 
d="M256 0v1434h174v-1434h-174z" />
    <glyph glyph-name="uni04D0" unicode="&#x4d0;" horiz-adv-x="1443" 
d="M31 0l616 1442h150l616 -1442h-186l-185 434h-653l-182 -434h-176zM717 1210l-258 -612h516zM342 1761h164q49 -133 219 -133q83 0 139.5 34t71.5 99h164q-13 -114 -119 -185t-256 -71q-158 0 -261 70.5t-122 185.5z" />
    <glyph glyph-name="uni04D1" unicode="&#x4d1;" horiz-adv-x="942" 
d="M197 727l-43 131q135 84 307 84q190 0 272 -94.5t82 -282.5v-565h-156v119q-105 -133 -294 -133q-128 0 -205.5 76t-77.5 208q0 137 97 215t251 78q149 0 229 -59q0 57 -4 97t-17 79t-35 62.5t-60.5 38t-91.5 14.5q-78 0 -133.5 -17t-120.5 -51zM422 133q81 0 136.5 33
t100.5 86v117q-85 61 -206 61q-81 0 -139 -38.5t-58 -112.5q0 -67 44 -106.5t122 -39.5zM172 1393h154q6 -83 44.5 -122.5t112.5 -39.5q138 0 150 162h153q0 -124 -83.5 -205.5t-219.5 -81.5q-147 0 -229 80.5t-82 206.5z" />
    <glyph glyph-name="uni04D2" unicode="&#x4d2;" horiz-adv-x="1443" 
d="M31 0l616 1442h150l616 -1442h-186l-185 434h-653l-182 -434h-176zM717 1210l-258 -612h516zM375 1665q0 42 32.5 67t79.5 25q42 0 74.5 -25.5t32.5 -66.5q0 -45 -32 -71.5t-75 -26.5q-48 0 -80 26t-32 72zM850 1665q0 41 33.5 66.5t81.5 25.5q42 0 73 -25t31 -67
q0 -45 -31 -71.5t-73 -26.5q-48 0 -81.5 26.5t-33.5 71.5z" />
    <glyph glyph-name="uni04D3" unicode="&#x4d3;" horiz-adv-x="942" 
d="M197 727l-43 131q135 84 307 84q190 0 272 -94.5t82 -282.5v-565h-156v119q-105 -133 -294 -133q-128 0 -205.5 76t-77.5 208q0 137 97 215t251 78q149 0 229 -59q0 57 -4 97t-17 79t-35 62.5t-60.5 38t-91.5 14.5q-78 0 -133.5 -17t-120.5 -51zM422 133q81 0 136.5 33
t100.5 86v117q-85 61 -206 61q-81 0 -139 -38.5t-58 -112.5q0 -67 44 -106.5t122 -39.5zM168 1208q0 42 27.5 68.5t68.5 26.5q35 0 62.5 -27t27.5 -68q0 -47 -27 -74.5t-63 -27.5q-41 0 -68.5 27t-27.5 75zM584 1208q0 42 28.5 68.5t69.5 26.5q35 0 62.5 -27t27.5 -68
q0 -47 -27 -74.5t-63 -27.5q-42 0 -70 27t-28 75z" />
    <glyph glyph-name="uni04D4" unicode="&#x4d4;" horiz-adv-x="1957" 
d="M1804 1434v-164h-635v-463h574v-164h-574v-479h656v-164h-830v442h-512l-311 -442h-203l1030 1434h805zM995 1169l-397 -563h397v563z" />
    <glyph glyph-name="uni04D5" unicode="&#x4d5;" horiz-adv-x="1587" 
d="M461 942q209 0 291 -121q131 121 331 121q182 0 305 -117.5t123 -304.5q0 -62 -10 -110h-686v-127q91 -150 299 -150q86 0 161.5 26.5t121.5 69.5l51 -129q-65 -59 -157 -89.5t-189 -30.5q-234 0 -371 143q-151 -137 -334 -137q-150 0 -232.5 75t-82.5 209q0 137 97 215
t251 78q53 0 119.5 -8.5t101.5 -19.5q6 128 -39 190.5t-161 62.5q-78 0 -134 -16.5t-120 -50.5l-43 137q135 84 307 84zM815 565v-22h526q-6 115 -76.5 180t-189.5 65q-86 0 -154.5 -36.5t-109.5 -104.5q4 -50 4 -82zM422 139q81 0 132.5 30.5t96.5 82.5v149
q-110 29 -198 29q-81 0 -139 -38.5t-58 -112.5q0 -64 47 -102t119 -38z" />
    <glyph glyph-name="uni04D6" unicode="&#x4d6;" horiz-adv-x="1177" 
d="M215 0v1434h809v-164h-635v-463h574v-164h-574v-479h655v-164h-829zM262 1761h164q49 -133 219 -133q83 0 139.5 34t71.5 99h164q-13 -114 -119 -185t-256 -71q-158 0 -261 70.5t-122 185.5z" />
    <glyph glyph-name="uni04D7" unicode="&#x4d7;" horiz-adv-x="1064" 
d="M874 229l52 -129q-65 -59 -157 -89.5t-189 -30.5q-224 0 -359 131.5t-135 349.5q0 135 54.5 243t164 173t256.5 65q182 0 305 -117.5t123 -304.5q0 -62 -10 -110h-709q10 -129 97.5 -203t224.5 -74q86 0 161 26.5t121 69.5zM553 788q-123 0 -201 -68t-92 -177h559
q-6 115 -76.5 180t-189.5 65zM246 1393h153q6 -83 45 -122.5t113 -39.5q138 0 150 162h153q0 -124 -83.5 -205.5t-219.5 -81.5q-147 0 -229 80.5t-82 206.5z" />
    <glyph glyph-name="uni04D8" unicode="&#x4d8;" horiz-adv-x="1595" 
d="M98 813h1207q-26 222 -179 349.5t-391 127.5q-215 0 -362 -116l-70 131q80 69 203.5 109t267.5 40q159 0 292.5 -52t227.5 -146.5t146.5 -232t52.5 -302.5q0 -217 -86.5 -385t-248.5 -262t-376 -94q-161 0 -294 60t-224 167.5t-135.5 264t-30.5 341.5zM780 143
q227 0 368 137.5t163 368.5h-1032q6 -140 66 -253.5t173.5 -183t261.5 -69.5z" />
    <glyph glyph-name="uni04D9" unicode="&#x4d9;" horiz-adv-x="1064" 
d="M201 692l-51 127q65 59 162 91t194 32q222 0 347.5 -130t125.5 -351q0 -135 -54.5 -243.5t-162.5 -173t-252 -64.5q-187 0 -310.5 116t-123.5 305q0 73 10 121h709q-6 117 -87.5 191.5t-213.5 74.5q-87 0 -167.5 -27t-125.5 -69zM518 133q120 0 199 72t88 184h-559
q4 -124 75.5 -190t196.5 -66z" />
    <glyph glyph-name="uni04DC" unicode="&#x4dc;" horiz-adv-x="1912" 
d="M1849 1434l-579 -684l602 -750h-203l-590 748l568 686h202zM868 0v1434h174v-1434h-174zM643 748l-580 686h203l568 -686l-590 -748h-203zM610 1665q0 41 33 66.5t80 25.5q42 0 74 -25.5t32 -66.5q0 -45 -31.5 -71.5t-74.5 -26.5q-48 0 -80.5 26t-32.5 72zM1085 1665
q0 41 33.5 66.5t81.5 25.5q42 0 73.5 -25t31.5 -67q0 -45 -31.5 -71.5t-73.5 -26.5q-48 0 -81.5 26.5t-33.5 71.5z" />
    <glyph glyph-name="uni04DD" unicode="&#x4dd;" horiz-adv-x="1390" 
d="M1335 922l-334 -445l359 -477h-203l-342 477l318 445h202zM610 0v922h164v-922h-164zM383 477l-334 445h205l315 -445l-338 -477h-200zM393 1208q0 42 27.5 68.5t68.5 26.5q35 0 63 -27t28 -68q0 -47 -27.5 -74.5t-63.5 -27.5q-41 0 -68.5 27t-27.5 75zM809 1208
q0 42 28.5 68.5t69.5 26.5q35 0 62.5 -27t27.5 -68q0 -47 -27 -74.5t-63 -27.5q-42 0 -70 27t-28 75z" />
    <glyph glyph-name="uni04DE" unicode="&#x4de;" horiz-adv-x="1183" 
d="M551 -20q-155 0 -281 65.5t-188 159.5l96 117q68 -80 170.5 -129.5t192.5 -49.5q144 0 234.5 72.5t90.5 202.5q0 107 -74 170t-206 63h-166v164h153q94 0 166 69t72 173q0 113 -72.5 173t-187.5 60q-102 0 -180.5 -40t-145.5 -120l-102 115q74 96 191.5 152.5t254.5 56.5
q189 0 302.5 -100.5t113.5 -280.5q0 -96 -53.5 -186t-153.5 -142v-6q126 -24 194 -117t68 -221q0 -96 -39.5 -176.5t-107 -133.5t-155.5 -82t-187 -29zM197 1665q0 42 32.5 67t79.5 25q42 0 74.5 -25.5t32.5 -66.5q0 -45 -32 -71.5t-75 -26.5q-48 0 -80 26t-32 72zM672 1665
q0 41 33.5 66.5t80.5 25.5q42 0 73.5 -25t31.5 -67q0 -45 -31.5 -71.5t-73.5 -26.5q-48 0 -81 26.5t-33 71.5z" />
    <glyph glyph-name="uni04DF" unicode="&#x4df;" horiz-adv-x="946" 
d="M453 -20q-107 0 -222 35.5t-159 88.5l84 123q57 -46 133.5 -73t138.5 -27q106 0 174 42t68 110q0 57 -48 87.5t-133 30.5h-155v133h145q69 0 114.5 38t45.5 94q0 62 -53.5 97.5t-143.5 35.5q-148 0 -276 -103l-64 127q56 58 155 90.5t210 32.5q166 0 256 -66t90 -182
q0 -73 -39.5 -130.5t-122.5 -86.5v-4q93 -10 143 -71.5t50 -145.5q0 -127 -109 -201.5t-282 -74.5zM152 1208q0 42 27.5 68.5t68.5 26.5q35 0 62.5 -27t27.5 -68q0 -47 -27 -74.5t-63 -27.5q-41 0 -68.5 27t-27.5 75zM567 1208q0 42 29 68.5t70 26.5q35 0 62.5 -27t27.5 -68
q0 -47 -27 -74.5t-63 -27.5q-42 0 -70.5 27t-28.5 75z" />
    <glyph glyph-name="uni04E2" unicode="&#x4e2;" horiz-adv-x="1628" 
d="M369 0h-154v1434h174v-1147l871 1147h153v-1434h-174v1147zM502 1577v133h622v-133h-622z" />
    <glyph glyph-name="uni04E3" unicode="&#x4e3;" horiz-adv-x="1157" 
d="M311 0h-164v922h164v-686l533 686h164v-922h-164v686zM307 1188v133h541v-133h-541z" />
    <glyph glyph-name="uni04E4" unicode="&#x4e4;" horiz-adv-x="1628" 
d="M369 0h-154v1434h174v-1147l871 1147h153v-1434h-174v1147zM467 1665q0 41 33 66.5t80 25.5q42 0 74 -25.5t32 -66.5q0 -45 -31.5 -71.5t-74.5 -26.5q-48 0 -80.5 26t-32.5 72zM942 1665q0 41 33.5 66.5t81.5 25.5q42 0 73 -25t31 -67q0 -45 -31 -71.5t-73 -26.5
q-48 0 -81.5 26.5t-33.5 71.5z" />
    <glyph glyph-name="uni04E5" unicode="&#x4e5;" horiz-adv-x="1157" 
d="M311 0h-164v922h164v-686l533 686h164v-922h-164v686zM276 1208q0 42 28 68.5t69 26.5q35 0 62.5 -27t27.5 -68q0 -47 -27 -74.5t-63 -27.5q-42 0 -69.5 27t-27.5 75zM692 1208q0 42 29 68.5t70 26.5q35 0 62.5 -27t27.5 -68q0 -47 -27 -74.5t-63 -27.5q-42 0 -70.5 27
t-28.5 75z" />
    <glyph glyph-name="uni04E6" unicode="&#x4e6;" horiz-adv-x="1667" 
d="M102 717q0 206 93.5 374.5t261.5 265.5t377 97q154 0 289 -54.5t232.5 -150t153.5 -233.5t56 -299q0 -157 -56 -294.5t-153 -234.5t-232.5 -152.5t-289.5 -55.5q-207 0 -373.5 92.5t-262.5 261.5t-96 383zM287 717q0 -160 72.5 -292t198 -207t276.5 -75q161 0 286 76
t192.5 206.5t67.5 291.5q0 248 -157 410.5t-389 162.5q-154 0 -279 -73t-196.5 -204.5t-71.5 -295.5zM487 1665q0 41 33 66.5t80 25.5q42 0 74.5 -25.5t32.5 -66.5q0 -45 -32 -71.5t-75 -26.5q-48 0 -80.5 26t-32.5 72zM963 1665q0 41 33.5 66.5t80.5 25.5q42 0 73.5 -25
t31.5 -67q0 -45 -31.5 -71.5t-73.5 -26.5q-48 0 -81 26.5t-33 71.5z" />
    <glyph glyph-name="uni04E7" unicode="&#x4e7;" horiz-adv-x="1157" 
d="M86 461q0 209 136.5 345t355.5 136t355 -136t136 -345t-136 -345t-355 -136t-355.5 136t-136.5 345zM260 461q0 -144 89.5 -236t228.5 -92t228 90.5t89 237.5q0 144 -89 235.5t-228 91.5q-137 0 -227.5 -91t-90.5 -236zM276 1208q0 42 28 68.5t69 26.5q35 0 62.5 -27
t27.5 -68q0 -47 -27 -74.5t-63 -27.5q-42 0 -69.5 27t-27.5 75zM692 1208q0 42 29 68.5t70 26.5q35 0 62.5 -27t27.5 -68q0 -47 -27 -74.5t-63 -27.5q-42 0 -70.5 27t-28.5 75z" />
    <glyph glyph-name="uni04E8" unicode="&#x4e8;" horiz-adv-x="1667" 
d="M102 717q0 206 93.5 374.5t261.5 265.5t377 97q154 0 289 -54.5t232.5 -150t153.5 -233.5t56 -299q0 -157 -56 -294.5t-153 -234.5t-232.5 -152.5t-289.5 -55.5q-207 0 -373.5 92.5t-262.5 261.5t-96 383zM834 1290q-217 0 -368.5 -139t-174.5 -360h1085
q-25 220 -177 359.5t-365 139.5zM834 143q218 0 365 135.5t175 348.5h-1081q29 -211 180.5 -347.5t360.5 -136.5z" />
    <glyph glyph-name="uni04E9" unicode="&#x4e9;" horiz-adv-x="1157" 
d="M86 461q0 209 136.5 345t355.5 136t355 -136t136 -345t-136 -345t-355 -136t-355.5 136t-136.5 345zM578 788q-119 0 -204 -69t-108 -184h621q-22 115 -106 184t-203 69zM578 133q119 0 202.5 67t106.5 181h-619q23 -113 107.5 -180.5t202.5 -67.5z" />
    <glyph glyph-name="uni04EE" unicode="&#x4ee;" horiz-adv-x="1363" 
d="M1333 1434l-495 -1106q-76 -170 -159 -249t-198 -79q-48 0 -96.5 14t-77.5 37l62 148q53 -37 110 -37q107 0 176 145l25 53l-649 1074h196l537 -899l393 899h176zM383 1577v133h623v-133h-623z" />
    <glyph glyph-name="uni04EF" unicode="&#x4ef;" horiz-adv-x="1005" 
d="M985 922l-369 -922q-67 -164 -123 -253.5t-108 -123t-121 -33.5q-88 0 -174 58l53 125q69 -31 103 -31q58 0 104 49t92 160l21 49l-443 922h197l270 -586q28 -65 56 -139q14 51 43 141l213 584h186zM238 1188v133h540v-133h-540z" />
    <glyph glyph-name="uni04F0" unicode="&#x4f0;" horiz-adv-x="1363" 
d="M1333 1434l-495 -1106q-76 -170 -159 -249t-198 -79q-48 0 -96.5 14t-77.5 37l62 148q53 -37 110 -37q107 0 176 145l25 53l-649 1074h196l537 -899l393 899h176zM346 1665q0 41 33 66.5t80 25.5q42 0 74 -25.5t32 -66.5q0 -45 -31.5 -71.5t-74.5 -26.5q-48 0 -80.5 26
t-32.5 72zM821 1665q0 41 33.5 66.5t81.5 25.5q42 0 73 -25t31 -67q0 -45 -31 -71.5t-73 -26.5q-48 0 -81.5 26.5t-33.5 71.5z" />
    <glyph glyph-name="uni04F1" unicode="&#x4f1;" horiz-adv-x="1005" 
d="M985 922l-369 -922q-67 -164 -123 -253.5t-108 -123t-121 -33.5q-88 0 -174 58l53 125q69 -31 103 -31q58 0 104 49t92 160l21 49l-443 922h197l270 -586q28 -65 56 -139q14 51 43 141l213 584h186zM201 1208q0 42 27.5 68.5t68.5 26.5q35 0 62.5 -27t27.5 -68
q0 -47 -27 -74.5t-63 -27.5q-41 0 -68.5 27t-27.5 75zM616 1208q0 42 29 68.5t70 26.5q35 0 62.5 -27t27.5 -68q0 -47 -27 -74.5t-63 -27.5q-42 0 -70.5 27t-28.5 75z" />
    <glyph glyph-name="uni04F2" unicode="&#x4f2;" horiz-adv-x="1363" 
d="M1333 1434l-495 -1106q-76 -170 -159 -249t-198 -79q-48 0 -96.5 14t-77.5 37l62 148q53 -37 110 -37q107 0 176 145l25 53l-649 1074h196l537 -899l393 899h176zM1182 1712l-367 -207l-67 72l321 240zM782 1743l-329 -238l-70 66l262 246z" />
    <glyph glyph-name="uni04F3" unicode="&#x4f3;" horiz-adv-x="1005" 
d="M985 922l-369 -922q-67 -164 -123 -253.5t-108 -123t-121 -33.5q-88 0 -174 58l53 125q69 -31 103 -31q58 0 104 49t92 160l21 49l-443 922h197l270 -586q28 -65 56 -139q14 51 43 141l213 584h186zM924 1374l-256 -287l-99 70l234 309zM582 1393l-232 -306l-98 70
l211 324z" />
    <glyph glyph-name="uni04F4" unicode="&#x4f4;" horiz-adv-x="1331" 
d="M1116 1434v-1434h-174v627q-64 -46 -164 -78.5t-215 -32.5q-89 0 -163.5 25t-136 77.5t-96 143t-34.5 211.5v461h174v-414q0 -177 81 -258.5t220 -81.5q173 0 334 108v646h174zM274 1665q0 41 33 66.5t80 25.5q42 0 74.5 -25.5t32.5 -66.5q0 -45 -32 -71.5t-75 -26.5
q-48 0 -80.5 26t-32.5 72zM750 1665q0 41 33.5 66.5t80.5 25.5q42 0 73.5 -25t31.5 -67q0 -45 -31.5 -71.5t-73.5 -26.5q-48 0 -81 26.5t-33 71.5z" />
    <glyph glyph-name="uni04F5" unicode="&#x4f5;" horiz-adv-x="987" 
d="M840 922v-922h-164v358q-105 -67 -256 -67q-166 0 -247 87t-81 265v279h174v-260q0 -108 52 -163t147 -55q64 0 120.5 17t90.5 41v420h164zM168 1208q0 42 27.5 68.5t68.5 26.5q35 0 62.5 -27t27.5 -68q0 -47 -27 -74.5t-63 -27.5q-41 0 -68.5 27t-27.5 75zM584 1208
q0 42 28.5 68.5t69.5 26.5q35 0 62.5 -27t27.5 -68q0 -47 -27 -74.5t-63 -27.5q-42 0 -70 27t-28 75z" />
    <glyph glyph-name="uni04F6" unicode="&#x4f6;" horiz-adv-x="1034" 
d="M215 0v1434h799v-164h-625v-1106h174v-430h-164v266h-184z" />
    <glyph glyph-name="uni04F7" unicode="&#x4f7;" horiz-adv-x="741" 
d="M147 0v922h584v-154h-420v-614h144v-379h-154v225h-154z" />
    <glyph glyph-name="uni04F8" unicode="&#x4f8;" horiz-adv-x="1730" 
d="M1341 0v1434h175v-1434h-175zM567 748q-61 0 -178 -13v-569q165 -6 172 -6q178 0 271.5 77t93.5 228q0 137 -93 210t-266 73zM389 1434v-533q130 10 191 10q263 0 396.5 -117t133.5 -325q0 -225 -150.5 -349t-418.5 -124q-66 0 -177.5 2t-148.5 2v1434h174zM518 1665
q0 41 33 66.5t80 25.5q42 0 74 -25.5t32 -66.5q0 -45 -31.5 -71.5t-74.5 -26.5q-48 0 -80.5 26t-32.5 72zM993 1665q0 41 33.5 66.5t81.5 25.5q42 0 73 -25t31 -67q0 -45 -31 -71.5t-73 -26.5q-48 0 -81.5 26.5t-33.5 71.5z" />
    <glyph glyph-name="uni04F9" unicode="&#x4f9;" horiz-adv-x="1314" 
d="M147 0v922h164v-277h152q82 0 146 -17.5t104.5 -46.5t66.5 -70.5t36.5 -86t10.5 -96.5q0 -64 -20 -120t-62.5 -104t-119.5 -76t-181 -28h-297zM1004 0v922h163v-922h-163zM432 492h-121v-338h119q119 0 171 41.5t52 126.5t-52.5 127.5t-168.5 42.5zM356 1208
q0 42 28 68.5t69 26.5q35 0 62.5 -27t27.5 -68q0 -47 -27 -74.5t-63 -27.5q-42 0 -69.5 27t-27.5 75zM772 1208q0 42 28.5 68.5t69.5 26.5q35 0 63 -27t28 -68q0 -47 -27.5 -74.5t-63.5 -27.5q-42 0 -70 27t-28 75z" />
    <glyph glyph-name="uni1E9E" unicode="&#x1e9e;" horiz-adv-x="1318" 
d="M1022 354q0 43 -15.5 84.5t-50 83.5t-68 75.5t-93.5 77.5t-99.5 71.5t-111.5 74.5l276 391q-31 33 -87.5 55.5t-121.5 22.5q-119 0 -190.5 -72t-71.5 -219v-1003h-174v999q0 231 120.5 345t323.5 114q116 0 223 -51.5t191 -149.5l-280 -379q413 -256 413 -544
q0 -103 -53 -185t-132 -123.5t-165 -41.5q-114 0 -189.5 34t-140.5 92l78 136q41 -35 63.5 -51t63.5 -32t86 -16q83 0 144 58t61 153z" />
    <glyph glyph-name="uni2010" unicode="&#x2010;" horiz-adv-x="796" 
d="M154 481v154h489v-154h-489z" />
    <glyph glyph-name="uni2011" unicode="&#x2011;" horiz-adv-x="796" 
d="M154 481v154h489v-154h-489z" />
    <glyph glyph-name="figuredash" unicode="&#x2012;" horiz-adv-x="1216" 
d="M184 653v144h848v-144h-848z" />
    <glyph glyph-name="endash" unicode="&#x2013;" horiz-adv-x="1216" 
d="M184 481v144h848v-144h-848z" />
    <glyph glyph-name="emdash" unicode="&#x2014;" horiz-adv-x="1646" 
d="M184 481v144h1278v-144h-1278z" />
    <glyph glyph-name="uni2015" unicode="&#x2015;" horiz-adv-x="1646" 
d="M184 481v144h1278v-144h-1278z" />
    <glyph glyph-name="quoteleft" unicode="&#x2018;" horiz-adv-x="489" 
d="M330 1130l-137 -83q-60 67 -60 167q0 113 50 190t124 118l76 -74q-46 -32 -71 -84t-25 -113q0 -78 43 -121z" />
    <glyph glyph-name="quoteright" unicode="&#x2019;" horiz-adv-x="489" 
d="M160 1434l137 82q27 -28 43 -73.5t16 -94.5q0 -111 -50.5 -188t-123.5 -118l-76 72q47 33 72 85.5t25 113.5q0 78 -43 121z" />
    <glyph glyph-name="quotesinglbase" unicode="&#x201a;" horiz-adv-x="489" 
d="M160 72l137 82q27 -28 43 -73.5t16 -94.5q0 -111 -50 -187.5t-124 -117.5l-76 71q47 33 72 85.5t25 113.5q0 78 -43 121z" />
    <glyph glyph-name="quotedblleft" unicode="&#x201c;" horiz-adv-x="786" 
d="M627 1130l-138 -83q-59 66 -59 167q0 113 50 190t124 118l76 -74q-46 -32 -71 -84t-25 -113q0 -78 43 -121zM330 1130l-137 -83q-60 67 -60 167q0 113 50 190t124 118l76 -74q-46 -32 -71 -84t-25 -113q0 -78 43 -121z" />
    <glyph glyph-name="quotedblright" unicode="&#x201d;" horiz-adv-x="786" 
d="M457 1434l137 82q27 -28 43 -73.5t16 -94.5q0 -111 -50.5 -188t-123.5 -118l-76 72q47 33 72 85.5t25 113.5q0 78 -43 121zM160 1434l137 82q27 -28 43 -73.5t16 -94.5q0 -111 -50.5 -188t-123.5 -118l-76 72q47 33 72 85.5t25 113.5q0 78 -43 121z" />
    <glyph glyph-name="quotedblbase" unicode="&#x201e;" horiz-adv-x="786" 
d="M457 72l137 82q27 -28 43 -73.5t16 -94.5q0 -111 -50 -187.5t-124 -117.5l-76 71q47 33 72 85.5t25 113.5q0 78 -43 121zM160 72l137 82q27 -28 43 -73.5t16 -94.5q0 -111 -50 -187.5t-124 -117.5l-76 71q47 33 72 85.5t25 113.5q0 78 -43 121z" />
    <glyph glyph-name="dagger" unicode="&#x2020;" horiz-adv-x="940" 
d="M82 840v143h311v451h154v-451h311v-143h-311v-1045h-154v1045h-311z" />
    <glyph glyph-name="daggerdbl" unicode="&#x2021;" horiz-adv-x="940" 
d="M82 840v143h311v451h154v-451h311v-143h-311v-389h311v-144h-311v-512h-154v512h-311v144h311v389h-311z" />
    <glyph glyph-name="bullet" unicode="&#x2022;" horiz-adv-x="471" 
d="M61 539q0 71 51 122.5t121 51.5q72 0 124.5 -51.5t52.5 -122.5t-52.5 -122.5t-124.5 -51.5q-70 0 -121 51.5t-51 122.5z" />
    <glyph glyph-name="ellipsis" unicode="&#x2026;" horiz-adv-x="1740" 
d="M1372 111q0 42 32.5 75t84.5 33q46 0 77 -33t31 -75q0 -47 -31 -82t-77 -35q-52 0 -84.5 34.5t-32.5 82.5zM758 111q0 42 32 75t84 33q46 0 77.5 -33.5t31.5 -74.5q0 -47 -31.5 -82t-77.5 -35q-52 0 -84 34.5t-32 82.5zM143 111q0 42 32.5 75t84.5 33q46 0 77.5 -33.5
t31.5 -74.5q0 -47 -31.5 -82t-77.5 -35q-52 0 -84.5 34.5t-32.5 82.5z" />
    <glyph glyph-name="perthousand" unicode="&#x2030;" horiz-adv-x="2662" 
d="M1821 336q0 154 105.5 250t268.5 96t269 -96t106 -250t-106 -251t-269 -97t-268.5 97t-105.5 251zM1974 336q0 -95 65 -155t156 -60q93 0 157.5 59.5t64.5 155.5q0 94 -65 153.5t-157 59.5q-93 0 -157 -59t-64 -154zM326 47l1052 1407l95 -70l-1051 -1404zM92 1100
q0 154 106 250t269 96t269 -96t106 -250t-106 -251t-269 -97t-269 97t-106 251zM246 1100q0 -95 65 -155t156 -60q93 0 157 59.5t64 155.5q0 94 -64.5 153.5t-156.5 59.5q-93 0 -157 -59t-64 -154zM954 336q0 154 106 250t269 96t269 -96t106 -250t-106 -251t-269 -97
t-269 97t-106 251zM1108 336q0 -95 65 -155t156 -60q93 0 157 59.5t64 155.5q0 94 -64.5 153.5t-156.5 59.5q-93 0 -157 -59t-64 -154z" />
    <glyph glyph-name="guilsinglleft" unicode="&#x2039;" horiz-adv-x="696" 
d="M471 61l-379 447v8l385 442l107 -94l-303 -352l301 -354z" />
    <glyph glyph-name="guilsinglright" unicode="&#x203a;" horiz-adv-x="696" 
d="M604 508l-379 -447l-110 97l301 354l-303 352l106 94l385 -442v-8z" />
    <glyph glyph-name="fraction" unicode="&#x2044;" horiz-adv-x="409" 
d="M-369 47l1053 1407l94 -70l-1050 -1404z" />
    <glyph glyph-name="zerosuperior" unicode="&#x2070;" horiz-adv-x="786" 
d="M82 1075q0 161 81 264t230 103q148 0 230 -104.5t82 -262.5q0 -161 -81 -263.5t-229 -102.5q-151 0 -232 101t-81 265zM236 1075q0 -121 42 -182.5t117 -61.5q156 0 156 244q0 120 -40.5 182t-117.5 62q-78 0 -117.5 -62.5t-39.5 -181.5z" />
    <glyph glyph-name="foursuperior" unicode="&#x2074;" horiz-adv-x="722" 
d="M428 717v162h-397v94l344 461h137l-334 -443h250v187h133v-187h121v-112h-121v-162h-133z" />
    <glyph glyph-name="fivesuperior" unicode="&#x2075;" horiz-adv-x="690" 
d="M133 1049l45 385h426v-113h-325l-27 -168q47 14 100 14q119 0 190.5 -59t71.5 -158q0 -114 -80.5 -179.5t-207.5 -65.5q-206 0 -281 118l76 78q28 -38 77.5 -61t102.5 -23q76 0 119 34.5t43 92.5q0 54 -50 87.5t-139 33.5q-95 0 -141 -16z" />
    <glyph glyph-name="sixsuperior" unicode="&#x2076;" horiz-adv-x="778" 
d="M76 983q0 123 67 226.5t179 165t243 69.5l29 -98q-135 -18 -233 -90.5t-130 -186.5q31 39 88 65.5t125 26.5q120 0 191.5 -60t71.5 -159q0 -103 -85.5 -170t-211.5 -67q-160 0 -247 77.5t-87 200.5zM229 965q2 -60 49.5 -104t131.5 -44q62 0 102.5 35.5t40.5 85.5
q0 53 -40 87t-112 34q-60 0 -105 -28t-67 -66z" />
    <glyph glyph-name="sevensuperior" unicode="&#x2077;" horiz-adv-x="641" 
d="M35 1311v123h569v-86l-321 -631h-156l311 594h-403z" />
    <glyph glyph-name="eightsuperior" unicode="&#x2078;" horiz-adv-x="804" 
d="M389 1137h29q52 0 88.5 28t36.5 68q0 45 -40 71.5t-102 26.5q-60 0 -99.5 -26.5t-39.5 -71.5q0 -41 37.5 -68.5t89.5 -27.5zM416 1034h-23q-66 0 -111.5 -30.5t-45.5 -75.5q0 -50 45 -80.5t120 -30.5q73 0 120.5 30.5t47.5 80.5t-43 78t-110 28zM403 705
q-136 0 -223.5 53.5t-87.5 144.5q0 67 41.5 114t112.5 66v4q-57 18 -92 62.5t-35 107.5q0 84 79.5 135.5t202.5 51.5q124 0 204.5 -51.5t80.5 -135.5q0 -55 -34.5 -101.5t-100.5 -68.5v-2q72 -12 117 -58t45 -114q0 -97 -86.5 -152.5t-223.5 -55.5z" />
    <glyph glyph-name="ninesuperior" unicode="&#x2079;" horiz-adv-x="778" 
d="M702 1149q0 -195 -139 -315.5t-360 -128.5l-21 102q154 15 256.5 91t108.5 181q-31 -45 -87.5 -73.5t-125.5 -28.5q-118 0 -190 64t-72 161q0 106 85.5 174t211.5 68q162 0 247.5 -79.5t85.5 -215.5zM549 1176q-3 67 -49 111t-131 44q-62 0 -103 -34.5t-41 -84.5
q0 -55 40.5 -94t111.5 -39q61 0 105.5 29t66.5 68z" />
    <glyph glyph-name="uni207A" unicode="&#x207a;" horiz-adv-x="737" 
d="M92 1028v113h217v215h113v-215h223v-113h-223v-215h-113v215h-217z" />
    <glyph glyph-name="uni207B" unicode="&#x207b;" horiz-adv-x="737" 
d="M92 1028v113h553v-113h-553z" />
    <glyph glyph-name="uni207C" unicode="&#x207c;" horiz-adv-x="737" 
d="M92 885v112h553v-112h-553zM92 1171v113h553v-113h-553z" />
    <glyph glyph-name="uni207D" unicode="&#x207d;" horiz-adv-x="434" 
d="M414 713l-84 -84q-95 50 -158 128t-87 155t-24 159q0 121 65.5 236t205.5 204l76 -81q-203 -137 -203 -359q0 -111 55.5 -203.5t153.5 -154.5z" />
    <glyph glyph-name="uni207E" unicode="&#x207e;" horiz-adv-x="434" 
d="M20 1427l84 84q95 -50 158 -128t87 -155t24 -159q0 -122 -65.5 -237.5t-205.5 -202.5l-75 82q202 134 202 358q0 111 -55.5 203t-153.5 155z" />
    <glyph glyph-name="zeroinferior" unicode="&#x2080;" horiz-adv-x="786" 
d="M82 358q0 161 81 264t230 103q148 0 230 -104.5t82 -262.5q0 -161 -81 -263.5t-229 -102.5q-151 0 -232 101t-81 265zM236 358q0 -120 42 -181.5t117 -61.5q156 0 156 243q0 120 -40.5 182t-117.5 62q-78 0 -117.5 -62.5t-39.5 -181.5z" />
    <glyph glyph-name="oneinferior" unicode="&#x2081;" horiz-adv-x="516" 
d="M45 573l215 146h102v-719h-143v551l-119 -76z" />
    <glyph glyph-name="twoinferior" unicode="&#x2082;" horiz-adv-x="714" 
d="M72 0v104q7 5 51 34t59 39.5t56 39t59.5 44t51 43t48.5 47.5t34.5 45t26 48t7.5 45q0 49 -33 81t-92 32q-51 0 -92.5 -34t-48.5 -85l-121 43q15 92 91 145.5t185 53.5q127 0 194.5 -61t67.5 -158q0 -54 -29 -108.5t-69 -95t-93.5 -80t-91 -61t-73.5 -38.5h393v-123h-581z
" />
    <glyph glyph-name="threeinferior" unicode="&#x2083;" horiz-adv-x="716" 
d="M346 -12q-98 0 -177.5 36t-117.5 107l84 78q24 -46 77.5 -74.5t111.5 -28.5q74 0 115.5 30.5t41.5 78.5q0 43 -38 69.5t-107 26.5h-70v103h62q54 0 90.5 30t36.5 74q0 43 -35 67.5t-94 24.5q-118 0 -183 -92l-69 78q33 59 104 95t176 36q115 0 184.5 -48t69.5 -132
q0 -63 -40 -108t-111 -64v-2q84 -6 131 -54.5t47 -115.5q0 -97 -83.5 -156t-205.5 -59z" />
    <glyph glyph-name="fourinferior" unicode="&#x2084;" horiz-adv-x="722" 
d="M428 0v162h-397v94l344 461h137l-334 -443h250v187h133v-187h121v-112h-121v-162h-133z" />
    <glyph glyph-name="fiveinferior" unicode="&#x2085;" horiz-adv-x="690" 
d="M133 332l45 385h426v-113h-325l-27 -168q50 15 100 15q119 0 190.5 -59.5t71.5 -158.5q0 -114 -80.5 -179.5t-207.5 -65.5q-206 0 -281 118l76 78q28 -38 77.5 -61t102.5 -23q76 0 119 34.5t43 92.5q0 54 -50 87.5t-139 33.5q-95 0 -141 -16z" />
    <glyph glyph-name="sixinferior" unicode="&#x2086;" horiz-adv-x="778" 
d="M76 266q0 123 67 226.5t179 165t243 69.5l29 -98q-135 -18 -233 -90.5t-130 -186.5q31 39 88 65.5t125 26.5q120 0 191.5 -60t71.5 -159q0 -103 -85.5 -170t-211.5 -67q-160 0 -247 77.5t-87 200.5zM229 248q2 -60 49.5 -104t131.5 -44q62 0 102.5 35.5t40.5 85.5
q0 53 -40 87t-112 34q-60 0 -105 -28t-67 -66z" />
    <glyph glyph-name="seveninferior" unicode="&#x2087;" horiz-adv-x="641" 
d="M35 594v123h569v-86l-321 -631h-156l311 594h-403z" />
    <glyph glyph-name="eightinferior" unicode="&#x2088;" horiz-adv-x="804" 
d="M389 420h29q52 0 88.5 28t36.5 68q0 45 -40 71.5t-102 26.5q-60 0 -99.5 -26.5t-39.5 -71.5q0 -41 37.5 -68.5t89.5 -27.5zM416 317h-23q-66 0 -111.5 -30.5t-45.5 -75.5q0 -50 45 -80.5t120 -30.5q73 0 120.5 30.5t47.5 80.5t-43 78t-110 28zM403 -12
q-136 0 -223.5 53.5t-87.5 144.5q0 67 41.5 114.5t112.5 66.5v4q-57 18 -92 62.5t-35 107.5q0 84 79.5 135t202.5 51q125 0 205 -51t80 -135q0 -55 -34.5 -101.5t-100.5 -68.5v-2q72 -12 117 -58t45 -114q0 -97 -86.5 -153t-223.5 -56z" />
    <glyph glyph-name="nineinferior" unicode="&#x2089;" horiz-adv-x="778" 
d="M702 432q0 -195 -139 -315.5t-360 -128.5l-21 102q154 15 256.5 91t108.5 181q-31 -45 -87.5 -73.5t-125.5 -28.5q-118 0 -190 64t-72 161q0 106 85.5 174t211.5 68q162 0 247.5 -79.5t85.5 -215.5zM549 459q-3 67 -49 111t-131 44q-62 0 -103 -34t-41 -84
q0 -55 40.5 -94.5t111.5 -39.5q61 0 105.5 29t66.5 68z" />
    <glyph glyph-name="uni208A" unicode="&#x208a;" horiz-adv-x="737" 
d="M92 311v113h217v215h113v-215h223v-113h-223v-215h-113v215h-217z" />
    <glyph glyph-name="uni208B" unicode="&#x208b;" horiz-adv-x="737" 
d="M92 311v113h553v-113h-553z" />
    <glyph glyph-name="uni208C" unicode="&#x208c;" horiz-adv-x="737" 
d="M92 168v113h553v-113h-553zM92 455v112h553v-112h-553z" />
    <glyph glyph-name="uni208D" unicode="&#x208d;" horiz-adv-x="434" 
d="M414 -4l-84 -84q-95 50 -158 128t-87 155t-24 159q0 121 65.5 236.5t205.5 204.5l76 -82q-203 -137 -203 -359q0 -111 55.5 -203.5t153.5 -154.5z" />
    <glyph glyph-name="uni208E" unicode="&#x208e;" horiz-adv-x="434" 
d="M20 711l84 84q72 -38 126 -91.5t84 -113.5t44.5 -119t14.5 -119q0 -122 -65.5 -237.5t-205.5 -202.5l-75 82q202 134 202 358q0 111 -55.5 203.5t-153.5 155.5z" />
    <glyph glyph-name="Euro" unicode="&#x20ac;" 
d="M37 840l53 133h152q66 218 240 349.5t423 131.5q75 0 152.5 -17t124.5 -42l-64 -150q-92 45 -213 45q-161 0 -286 -84t-185 -233h613l-50 -133h-598q-10 -65 -10 -123q0 -49 6 -92h545l-43 -133h-471q59 -162 194 -255.5t314 -93.5q127 0 196 37l29 -157
q-35 -19 -102.5 -31t-136.5 -12q-257 0 -441.5 137t-247.5 375h-192l51 133h119q-4 58 -4 92q0 68 8 123h-176z" />
    <glyph glyph-name="uni20AE" unicode="&#x20ae;" 
d="M967 956l-273 -133v-215l273 133v-133l-273 -133v-475h-174v391l-272 -133v135l272 131v215l-272 -133v135l272 131v398h-481v164h1137v-164h-482v-314l273 134v-134z" />
    <glyph glyph-name="uni20B4" unicode="&#x20b4;" horiz-adv-x="1228" 
d="M150 844v133h624q33 45 33 141q0 72 -46.5 122t-144.5 50q-163 0 -272 -106l-84 123q61 71 156.5 109t206.5 38q166 0 265 -87t99 -224q0 -46 -15 -92t-38 -74h145v-133h-229q-46 -47 -144.5 -113.5t-136.5 -101.5h510v-133h-630q-60 -67 -60 -154q0 -93 74 -146t182 -53
q82 0 160.5 35.5t136.5 106.5l88 -111q-64 -94 -170.5 -144t-238.5 -50q-102 0 -191 37.5t-147 115.5t-58 182q0 99 62 181h-137v133h233q43 42 143 110t142 105h-518z" />
    <glyph glyph-name="uni20B8" unicode="&#x20b8;" horiz-adv-x="1218" 
d="M59 922v163h1096v-163h-461v-922h-174v922h-461zM59 1300v134h1096v-134h-1096z" />
    <glyph glyph-name="uni20BA" unicode="&#x20ba;" 
d="M45 463v135l184 88v215l-184 -90v135l184 88v400h174v-316l361 176v-133l-361 -176v-215l361 176v-133l-361 -176v-473q43 -4 146 -4q120 0 204.5 42t132 121.5t68.5 180t21 231.5v6h184v-6q0 -130 -16 -234.5t-58 -201t-109.5 -161.5t-175.5 -103.5t-251 -38.5
q-45 0 -139 2t-158 2h-23v553z" />
    <glyph glyph-name="uni20BD" unicode="&#x20bd;" horiz-adv-x="1228" 
d="M39 631v133h217v670q39 0 184 2t191 2q530 0 530 -408q0 -181 -131.5 -290t-384.5 -109h-215v-215h354v-133h-354v-283h-174v283h-217v133h217v215h-217zM647 1274q-81 0 -217 -4v-506h209q162 0 250 63.5t88 190.5q0 129 -80.5 192.5t-249.5 63.5z" />
    <glyph glyph-name="uni20BF" unicode="&#x20bf;" 
d="M184 2v1430q24 0 138 4v182h133v-180q41 2 123 2q34 0 92 -4v182h133v-209q235 -76 235 -324q0 -128 -67.5 -211.5t-177.5 -119.5v-4q138 -22 217.5 -109t79.5 -231q0 -151 -76 -247t-211 -138v-230h-133v205q-50 -6 -101 -6h-114v-199h-133v203q-72 0 -138 4zM590 653
h-232v-487q94 -8 222 -8q161 0 248 66t87 196q0 113 -84.5 173t-240.5 60zM573 1276q-62 0 -215 -6v-463h230q119 0 197.5 63.5t78.5 176.5q0 112 -74 170.5t-217 58.5z" />
    <glyph glyph-name="uni20C0" unicode="&#x20c0;" 
d="M109 0v133h1083v-133h-1083zM1063 567l70 -131q-72 -73 -195.5 -116.5t-257.5 -43.5q-278 0 -445 163.5t-167 424.5q0 116 45.5 222.5t125 188t197.5 130.5t254 49q275 0 436 -139l-79 -131q-142 106 -355 106q-192 0 -316 -122t-124 -304q0 -190 115 -307t329 -117
q211 0 367 127z" />
    <glyph glyph-name="uni2116" unicode="&#x2116;" horiz-adv-x="2408" 
d="M1372 0h-139l-854 1126v-1126h-164v1434h139l854 -1131v1131h164v-1434zM1516 1001q0 154 105.5 250.5t268.5 96.5t269 -96.5t106 -250.5t-106 -251t-269 -97t-268.5 97t-105.5 251zM1669 1001q0 -95 65 -155t156 -60q93 0 157 59.5t64 155.5q0 94 -64.5 153.5
t-156.5 59.5q-93 0 -157 -59t-64 -154zM1587 379v153h606v-153h-606z" />
    <glyph glyph-name="trademark" unicode="&#x2122;" horiz-adv-x="1734" 
d="M778 788v646h142l272 -287l258 287h135v-646h-153v449l-244 -270h-4l-250 270v-449h-156zM31 1284v150h651v-150h-250v-496h-153v496h-248z" />
    <glyph glyph-name="arrowleft" unicode="&#x2190;" horiz-adv-x="1316" 
d="M662 1137l114 -115l-381 -381h840v-164h-842l383 -383l-114 -114l-580 579z" />
    <glyph glyph-name="arrowup" unicode="&#x2191;" horiz-adv-x="1320" 
d="M197 457l-115 116l577 580l580 -580l-115 -116l-383 383v-840h-163v838z" />
    <glyph glyph-name="arrowright" unicode="&#x2192;" horiz-adv-x="1316" 
d="M539 1022l116 115l580 -578l-580 -579l-116 114l383 383h-840v164h838z" />
    <glyph glyph-name="arrowdown" unicode="&#x2193;" horiz-adv-x="1320" 
d="M82 539l115 114l381 -381v840h163v-842l383 383l115 -114l-580 -580z" />
    <glyph glyph-name="partialdiff" unicode="&#x2202;" horiz-adv-x="1204" 
d="M86 414q0 141 63.5 261.5t181 193.5t263.5 73q131 0 221 -55.5t127 -130.5q0 113 -30.5 207t-93.5 168.5t-166.5 120.5t-241.5 55l24 147q324 -12 503 -197t179 -509q0 -121 -23.5 -233t-71.5 -209.5t-116.5 -170t-164.5 -114t-208 -41.5q-198 0 -322 123.5t-124 310.5z
M260 428q0 -124 80.5 -209.5t210.5 -85.5q81 0 149.5 39.5t115.5 105t76 147.5t38 171q-113 192 -328 192q-145 0 -243.5 -106t-98.5 -254z" />
    <glyph glyph-name="product" unicode="&#x220f;" horiz-adv-x="1802" 
d="M1413 -410v1680h-1024v-1680h-174v1844h1372v-1844h-174z" />
    <glyph glyph-name="summation" unicode="&#x2211;" horiz-adv-x="1300" 
d="M696 512l-614 805v117h1137v-164h-891l569 -758l-580 -758h902v-164h-1137v117z" />
    <glyph glyph-name="minus" unicode="&#x2212;" 
d="M141 666v143h930v-143h-930z" />
    <glyph glyph-name="uni2215" unicode="&#x2215;" horiz-adv-x="686" 
d="M-61 -379l682 1833l127 -47l-680 -1833z" />
    <glyph glyph-name="radical" unicode="&#x221a;" horiz-adv-x="1234" 
d="M10 758v164h330l344 -646l268 1158h570v-164h-426l-303 -1278h-140l-426 766h-217z" />
    <glyph glyph-name="infinity" unicode="&#x221e;" horiz-adv-x="1527" 
d="M1120 375q-111 0 -196 56t-162 153q-73 -99 -151 -154t-187 -55q-80 0 -152.5 37.5t-121 113t-48.5 172.5q0 134 91.5 231t236.5 97q53 0 101 -16.5t89.5 -49t73 -66.5t68.5 -81q34 48 65 81.5t74 66t97.5 49t119.5 16.5q139 0 223 -94t84 -242q0 -126 -83.5 -220.5
t-221.5 -94.5zM1090 883q-72 0 -127.5 -46t-118.5 -135q68 -89 127.5 -136.5t132.5 -47.5q77 0 122.5 53t45.5 123q0 79 -48.5 134t-133.5 55zM440 518q76 0 130 44t110 128q-35 47 -58 75.5t-54 59t-62 44.5t-64 14q-84 0 -135 -53.5t-51 -131.5q0 -83 56 -131.5t128 -48.5
z" />
    <glyph glyph-name="integral" unicode="&#x222b;" horiz-adv-x="675" 
d="M332 -35q0 -179 -55 -276.5t-189 -110.5q-31 -4 -96 0q-97 9 -154 55l45 131q59 -36 121 -36q92 0 128 63t36 184v1096q0 173 72 269t204 108q49 6 101 0q119 -11 192 -76l-57 -125q-58 44 -131 49q-68 3 -111 -16q-106 -45 -106 -227v-1088z" />
    <glyph glyph-name="approxequal" unicode="&#x2248;" 
d="M176 444l-74 105q65 70 138 108.5t141 38.5q56 0 122.5 -22.5t118 -50t116.5 -50t118 -22.5q94 0 186 92l66 -113q-129 -122 -254 -122q-55 0 -121 22.5t-117 50t-114 50t-113 22.5q-100 0 -213 -109zM176 813l-74 105q65 70 138 108.5t141 38.5q56 0 122.5 -22.5
t118 -50t116.5 -50t118 -22.5q94 0 186 92l66 -113q-130 -123 -254 -123q-55 0 -121 23t-117 50t-114 50t-113 23q-100 0 -213 -109z" />
    <glyph glyph-name="notequal" unicode="&#x2260;" 
d="M141 850v143h482l172 461l127 -47l-154 -414h303v-143h-356l-84 -225h440v-144h-493l-187 -501l-129 47l170 454h-291v144h344l84 225h-428z" />
    <glyph glyph-name="lessequal" unicode="&#x2264;" 
d="M117 522v152l901 -539v-158zM1018 346l-901 545v70l901 540v-178l-674 -397l674 -402v-178z" />
    <glyph glyph-name="greaterequal" unicode="&#x2265;" 
d="M1094 674v-152l-899 -545v158zM1094 891l-899 -545v178l673 402l-673 397v178l899 -540v-70z" />
    <glyph glyph-name="angleleft" unicode="&#x2329;" horiz-adv-x="827" 
d="M715 1434l-434 -717l434 -717h-189l-434 713v8l434 713h189z" />
    <glyph glyph-name="angleright" unicode="&#x232a;" horiz-adv-x="827" 
d="M547 717l-434 717h188l434 -713v-8l-434 -713h-188z" />
    <glyph glyph-name="lozenge" unicode="&#x25ca;" horiz-adv-x="978" 
d="M424 -8l-342 518l344 547h129l342 -525l-344 -540h-129zM248 512l241 -367l242 387l-242 363z" />
    <glyph glyph-name="spade" unicode="&#x2660;" horiz-adv-x="1294" 
d="M647 1044q112 -70 230.5 -181.5t206 -239t87.5 -215.5q0 -87 -60.5 -150t-178.5 -63q-163 0 -268 147q28 -119 79 -203.5t140 -138.5h-471q150 107 215 336q-103 -141 -265 -141q-118 0 -178.5 63.5t-60.5 151.5q0 66 51.5 157t130 179t169.5 167.5t173 130.5z" />
    <glyph glyph-name="club" unicode="&#x2663;" horiz-adv-x="1253" 
d="M362 780q0 109 78 186.5t187 77.5t186.5 -77.5t77.5 -186.5q0 -15 -4 -39q102 -8 172.5 -83.5t70.5 -178.5q0 -109 -77.5 -186.5t-186.5 -77.5q-65 0 -121 29.5t-92 79.5q64 -236 209 -324h-471q130 92 205 319q-37 -46 -93 -75t-116 -29q-109 0 -186.5 77.5t-77.5 186.5
q0 103 70.5 178.5t171.5 83.5q-3 18 -3 39z" />
    <glyph glyph-name="heart" unicode="&#x2665;" horiz-adv-x="1329" 
d="M666 0q-86 65 -179 158.5t-175.5 197.5t-135.5 212.5t-53 189.5q0 51 14.5 97t43.5 84.5t78 61.5t112 23q182 0 295 -213q109 213 292 213q83 0 141 -40t82.5 -98t24.5 -126q0 -82 -53 -191t-135 -213t-174 -197.5t-178 -158.5z" />
    <glyph glyph-name="diamond" unicode="&#x2666;" horiz-adv-x="1193" 
d="M1071 510q-222 -222 -475 -549q-213 280 -473 549q221 231 473 551q256 -324 475 -551z" />
    <glyph glyph-name="uniF350" unicode="&#xf350;" horiz-adv-x="1208" 
d="M25 0l503 1081h152l504 -1081h-187l-131 287h-534l-131 -287h-176zM600 872l-194 -421h387z" />
    <glyph glyph-name="uniF351" unicode="&#xf351;" horiz-adv-x="1067" 
d="M172 0v1075h711v-164h-537v-256q77 9 189 9q201 0 309 -83.5t108 -238.5q0 -175 -117.5 -262.5t-336.5 -87.5q-72 0 -185 4t-141 4zM516 502q-94 0 -170 -8v-332q153 -6 170 -6q262 0 262 178q0 168 -262 168z" />
    <glyph glyph-name="uniF352" unicode="&#xf352;" horiz-adv-x="1073" 
d="M172 2v1071q264 8 363 8q200 0 292.5 -73t92.5 -193q0 -94 -54.5 -160.5t-144.5 -91.5v-2q115 -15 176 -77.5t61 -170.5q0 -159 -119 -239t-315 -80q-212 0 -352 8zM547 467h-201v-301q66 -8 191 -8q247 0 247 161q0 72 -61.5 110t-175.5 38zM532 918q-49 0 -186 -7v-290
h197q87 0 144.5 39.5t57.5 109.5q0 148 -213 148z" />
    <glyph glyph-name="uniF353" unicode="&#xf353;" horiz-adv-x="874" 
d="M172 0v1075h682v-164h-508v-911h-174z" />
    <glyph glyph-name="uniF354" unicode="&#xf354;" horiz-adv-x="1271" 
d="M23 -195v359h129q21 24 47 76t55 135.5t52.5 211.5t31.5 273l12 215h715v-911h160v-359h-164v195h-875v-195h-163zM502 741q-19 -226 -68.5 -378.5t-91.5 -198.5h549v747h-373z" />
    <glyph glyph-name="uniF355" unicode="&#xf355;" horiz-adv-x="999" 
d="M172 0v1075h696v-164h-522v-286h471v-164h-471v-297h539v-164h-713z" />
    <glyph glyph-name="uniF356" unicode="&#xf356;" horiz-adv-x="1605" 
d="M1556 1075l-456 -510l473 -565h-211l-457 561l438 514h213zM717 0v1075h174v-1075h-174zM506 561l-457 514h213l440 -514l-458 -561h-213z" />
    <glyph glyph-name="uniF357" unicode="&#xf357;" horiz-adv-x="1013" 
d="M479 -18q-140 0 -252.5 53.5t-163.5 124.5l97 116q57 -60 141.5 -95.5t177.5 -35.5q117 0 181.5 45t64.5 125q0 70 -55 110t-166 40h-160v164h152q73 0 127.5 42.5t54.5 106.5q0 72 -52 110t-141 38q-181 0 -286 -117l-101 117q61 75 163 119.5t228 44.5q161 0 262 -77.5
t101 -215.5q0 -77 -40 -142.5t-114 -95.5v-6q96 -17 148.5 -87.5t52.5 -166.5q0 -147 -116 -232t-304 -85z" />
    <glyph glyph-name="uniF358" unicode="&#xf358;" horiz-adv-x="1343" 
d="M326 0h-154v1075h174v-799l672 799h153v-1075h-174v799z" />
    <glyph glyph-name="uniF359" unicode="&#xf359;" horiz-adv-x="1343" 
d="M326 0h-154v1075h174v-799l672 799h153v-1075h-174v799zM358 1393h154q0 -66 41.5 -99.5t116.5 -33.5q70 0 109.5 33.5t39.5 99.5h154q0 -120 -82 -188t-221 -68q-151 0 -231.5 67t-80.5 189z" />
    <glyph glyph-name="uniF35A" unicode="&#xf35a;" horiz-adv-x="1134" 
d="M1077 1075l-504 -502l531 -573h-238l-506 561l490 514h227zM172 0v1075h174v-1075h-174z" />
    <glyph glyph-name="uniF35B" unicode="&#xf35b;" horiz-adv-x="1230" 
d="M885 0v911h-393l-21 -202q-18 -187 -49.5 -321.5t-69 -213t-89.5 -121t-104 -52.5t-120 -1l4 168q22 -2 40.5 0.5t42.5 17.5t44.5 42.5t43 79.5t40 124.5t34 181.5t27.5 246l17 215h727v-1075h-174z" />
    <glyph glyph-name="uniF35C" unicode="&#xf35c;" horiz-adv-x="1515" 
d="M172 0v1075h176l424 -514l406 514h165v-1075h-174v811l-397 -492h-24l-402 486v-805h-174z" />
    <glyph glyph-name="uniF35D" unicode="&#xf35d;" horiz-adv-x="1310" 
d="M965 0v467h-619v-467h-174v1075h174v-444h619v444h174v-1075h-174z" />
    <glyph glyph-name="uniF35E" unicode="&#xf35e;" horiz-adv-x="1341" 
d="M82 537q0 115 43.5 217t120.5 176t187.5 117t238.5 43q167 0 300.5 -68.5t210.5 -195t77 -289.5q0 -159 -76.5 -286.5t-211 -198t-300.5 -70.5q-168 0 -302 68.5t-211 195.5t-77 291zM266 537q0 -167 117.5 -279.5t288.5 -112.5q184 0 293.5 111t109.5 281t-115.5 279.5
t-287.5 109.5q-175 0 -290.5 -109.5t-115.5 -279.5z" />
    <glyph glyph-name="uniF35F" unicode="&#xf35f;" horiz-adv-x="1308" 
d="M963 0v911h-617v-911h-174v1075h965v-1075h-174z" />
    <glyph glyph-name="uniF360" unicode="&#xf360;" horiz-adv-x="1021" 
d="M346 0h-174v1075q32 0 157 2t165 2q100 0 177.5 -19.5t127.5 -52t82.5 -79.5t45.5 -97.5t13 -109.5q0 -157 -111.5 -260t-316.5 -103q-70 0 -166 7v-365zM510 915q-74 0 -164 -4v-381q106 -8 160 -8q119 0 184.5 53t65.5 146q0 92 -60 143t-186 51z" />
    <glyph glyph-name="uniF361" unicode="&#xf361;" horiz-adv-x="1110" 
d="M985 233l68 -131q-57 -55 -159.5 -87.5t-215.5 -32.5q-269 0 -432.5 151.5t-163.5 403.5q0 113 38.5 212.5t111 176t185.5 120.5t253 44q221 0 360 -107l-80 -131q-125 74 -280 74q-180 0 -292 -106t-112 -283q0 -176 117 -284t311 -108q167 0 291 88z" />
    <glyph glyph-name="uniF362" unicode="&#xf362;" horiz-adv-x="1007" 
d="M16 911v164h975v-164h-401v-911h-174v911h-400z" />
    <glyph glyph-name="uniF363" unicode="&#xf363;" horiz-adv-x="1118" 
d="M1098 1075l-404 -821q-64 -129 -137 -191.5t-174 -62.5q-86 0 -141 41l61 147q45 -26 88 -26t71.5 26.5t53.5 71.5l21 37l-514 778h217l387 -606l293 606h178z" />
    <glyph glyph-name="uniF364" unicode="&#xf364;" horiz-adv-x="1413" 
d="M616 -12v123q-252 0 -402.5 116.5t-150.5 325.5q0 206 150.5 322.5t402.5 119.5v92h175v-92q256 -2 407.5 -116.5t151.5 -325.5q0 -207 -152.5 -324.5t-404.5 -117.5h-2v-123h-175zM1165 553q0 123 -98.5 202.5t-275.5 80.5v-568q177 0 275.5 76.5t98.5 208.5zM248 553
q0 -130 98.5 -207.5t269.5 -77.5v568q-173 -1 -270.5 -81t-97.5 -202z" />
    <glyph glyph-name="uniF365" unicode="&#xf365;" horiz-adv-x="1126" 
d="M1083 1075l-407 -528l424 -547h-215l-324 414l-319 -414h-217l424 547l-406 528h217l305 -397l303 397h215z" />
    <glyph glyph-name="uniF366" unicode="&#xf366;" horiz-adv-x="1327" 
d="M172 0v1075h174v-911h598v911h174v-911h162v-359h-164v195h-944z" />
    <glyph glyph-name="uniF367" unicode="&#xf367;" horiz-adv-x="1122" 
d="M950 1075v-1075h-174v449q-49 -32 -127.5 -54t-171.5 -22q-72 0 -134.5 18.5t-116 57t-84.5 107t-31 159.5v360h174v-299q0 -123 61 -181t168 -58q151 0 262 71v467h174z" />
    <glyph glyph-name="uniF368" unicode="&#xf368;" horiz-adv-x="1683" 
d="M172 0v1075h174v-911h408v911h174v-911h409v911h174v-1075h-1339z" />
    <glyph glyph-name="uniF369" unicode="&#xf369;" horiz-adv-x="1720" 
d="M172 0v1075h174v-911h408v911h174v-911h409v911h174v-911h162v-359h-164v195h-1337z" />
    <glyph glyph-name="uniF36A" unicode="&#xf36a;" horiz-adv-x="1132" 
d="M10 911v164h445v-375q103 7 151 7q224 0 335.5 -91t111.5 -254q0 -171 -127.5 -268.5t-356.5 -97.5q-59 0 -158.5 2t-129.5 2v911h-271zM594 543q-60 0 -139 -6v-373q86 -4 145 -4q127 0 197.5 49t70.5 149q0 91 -70.5 138t-203.5 47z" />
    <glyph glyph-name="uniF36B" unicode="&#xf36b;" horiz-adv-x="1445" 
d="M1100 0v1075h174v-1075h-174zM477 543q-52 0 -131 -6v-373q82 -4 127 -4q268 0 268 198q0 90 -68 137.5t-196 47.5zM346 1075v-375q100 7 146 7q216 0 325 -91t109 -254q0 -171 -125.5 -268.5t-347.5 -97.5q-57 0 -154 2t-127 2v1075h174z" />
    <glyph glyph-name="uniF36C" unicode="&#xf36c;" horiz-adv-x="1024" 
d="M483 543q-58 0 -137 -6v-373q82 -4 133 -4q134 0 207.5 49t73.5 149q0 91 -71 138t-206 47zM346 1075v-375q100 7 152 7q223 0 334.5 -91t111.5 -254q0 -171 -128 -268.5t-357 -97.5q-57 0 -156.5 2t-130.5 2v1075h174z" />
    <glyph glyph-name="uniF36D" unicode="&#xf36d;" horiz-adv-x="1140" 
d="M322 467v164h557q-28 143 -136.5 220t-283.5 77q-202 0 -322 -84l-69 131q68 52 172.5 84.5t226.5 32.5q263 0 428.5 -151.5t165.5 -401.5q0 -251 -166.5 -403t-445.5 -152q-120 0 -224.5 30t-171.5 82l76 146q138 -95 340 -95q170 0 280.5 83t131.5 237h-559z" />
    <glyph glyph-name="uniF36E" unicode="&#xf36e;" horiz-adv-x="1783" 
d="M172 0v1075h174v-444h229q28 203 177.5 332t377.5 129q260 0 416 -151.5t156 -401.5q0 -245 -156.5 -400t-415.5 -155q-227 0 -380.5 132t-176.5 351h-227v-467h-174zM754 539q0 -169 106.5 -280.5t274.5 -111.5q177 0 280 110.5t103 281.5q0 173 -105.5 281t-277.5 108
q-167 0 -274 -108.5t-107 -280.5z" />
    <glyph glyph-name="uniF36F" unicode="&#xf36f;" horiz-adv-x="1093" 
d="M748 0v369h-230l-274 -369h-207l305 403q-92 42 -151.5 120t-59.5 184q0 77 27.5 143t82 118.5t145 82.5t208.5 30q66 0 182.5 -3t145.5 -3v-1075h-174zM502 532h246v379q-123 7 -170 7q-127 0 -195 -56t-68 -145q0 -71 55.5 -122.5t131.5 -62.5z" />
    <glyph glyph-name="uniF371" unicode="&#xf371;" horiz-adv-x="999" 
d="M172 0v1075h696v-164h-522v-286h471v-164h-471v-297h539v-164h-713zM244 1339q0 39 28.5 63.5t69.5 24.5q34 0 61 -25t27 -63q0 -42 -27 -68t-61 -26q-41 0 -69.5 25.5t-28.5 68.5zM608 1339q0 39 28 63.5t66 24.5q37 0 64 -25t27 -63q0 -42 -27 -68t-64 -26
q-39 0 -66.5 25.5t-27.5 68.5z" />
    <glyph glyph-name="uniF372" unicode="&#xf372;" horiz-adv-x="1290" 
d="M1208 324q0 -172 -79 -256t-218 -84q-60 0 -113.5 20t-74.5 43l57 133q50 -33 109 -33q145 0 145 168q0 181 -211 181q-18 0 -35 -1t-33.5 -4.5t-28.5 -6t-28 -8.5t-24.5 -8.5t-24 -10.5t-20 -10.5t-21 -11t-18.5 -9.5v-426h-174v911h-400v164h975v-164h-401v-317
q44 20 72.5 31.5t82 22.5t111.5 11q160 0 256 -80.5t96 -254.5z" />
    <glyph glyph-name="uniF373" unicode="&#xf373;" horiz-adv-x="874" 
d="M172 0v1075h682v-164h-508v-911h-174zM741 1444l-276 -256l-82 90l258 291z" />
    <glyph glyph-name="uniF374" unicode="&#xf374;" horiz-adv-x="1142" 
d="M821 627v-164h-561q24 -154 142.5 -235t295.5 -81q184 0 326 95l66 -146q-67 -52 -169 -82t-221 -30q-281 0 -449.5 150t-168.5 405q0 246 165.5 399.5t428.5 153.5q123 0 226.5 -32.5t170.5 -84.5l-78 -131q-59 42 -145 63t-168 21q-186 0 -291 -78t-129 -223h559z" />
    <glyph glyph-name="uniF375" unicode="&#xf375;" horiz-adv-x="993" 
d="M727 293q0 40 -26.5 71t-70 50.5t-99 39.5t-113.5 37t-113.5 44t-99 59.5t-70 84.5t-26.5 118q0 129 101.5 211t305.5 82q98 0 209.5 -40t165.5 -98l-80 -129q-57 46 -144 74.5t-159 28.5q-100 0 -157.5 -37t-57.5 -101q0 -38 26.5 -67t70 -47.5t99 -37.5t113.5 -36
t113.5 -44.5t99 -61t70 -88t26.5 -123.5q0 -135 -114.5 -218t-288.5 -83q-134 0 -256.5 46.5t-181.5 123.5l100 118q56 -55 152.5 -90t195.5 -35q87 0 148 39t61 109z" />
    <glyph glyph-name="uniF376" unicode="&#xf376;" horiz-adv-x="575" 
d="M201 0v1075h174v-1075h-174z" />
    <glyph glyph-name="uniF377" unicode="&#xf377;" horiz-adv-x="608" 
d="M78 1337q0 38 25.5 62t62.5 24q32 0 57 -24.5t25 -61.5q0 -40 -25 -65t-57 -25q-38 0 -63 25t-25 65zM362 1337q0 37 26.5 61.5t64.5 24.5q32 0 57 -24.5t25 -61.5q0 -40 -25 -65t-57 -25q-38 0 -64.5 25t-26.5 65zM217 0v1075h174v-1075h-174z" />
    <glyph glyph-name="uniF378" unicode="&#xf378;" horiz-adv-x="645" 
d="M473 1075v-823q0 -268 -270 -268q-60 0 -113 19t-78 44l60 133q50 -33 106 -33q121 0 121 134v794h174z" />
    <glyph glyph-name="uniF379" unicode="&#xf379;" horiz-adv-x="1718" 
d="M885 0v911h-389l-23 -202q-21 -188 -52.5 -321.5t-69.5 -212.5t-89.5 -121.5t-103 -52.5t-119.5 -1l4 174q22 -3 40 -0.5t42.5 17t45 41.5t43 78.5t40 123t34 180.5t27.5 246l17 215h727v-375q100 7 143 7q216 0 325 -91t109 -254q0 -172 -124.5 -269t-348.5 -97
q-58 0 -153.5 2t-124.5 2zM1188 543q-52 0 -129 -6v-373q78 -4 125 -4q268 0 268 198q0 90 -68 137.5t-196 47.5z" />
    <glyph glyph-name="uniF37A" unicode="&#xf37a;" horiz-adv-x="1781" 
d="M172 0v1075h174v-409h602v409h174v-401q85 6 144 6q216 0 326 -88t110 -242q0 -164 -126 -259t-347 -95q-58 0 -155 2t-126 2v502h-602v-502h-174zM1122 510v-346q82 -4 127 -4q131 0 200 47.5t69 138.5q0 82 -69.5 127t-195.5 45q-60 0 -131 -8z" />
    <glyph glyph-name="uniF37B" unicode="&#xf37b;" horiz-adv-x="1290" 
d="M16 911v164h975v-164h-401v-329q107 67 270 67q57 0 106.5 -11t94.5 -36.5t77 -64.5t51 -98t19 -134v-305h-174v258q0 227 -213 227q-132 0 -231 -63v-422h-174v911h-400z" />
    <glyph glyph-name="uniF37C" unicode="&#xf37c;" horiz-adv-x="1134" 
d="M1077 1075l-504 -502l531 -573h-238l-506 561l490 514h227zM172 0v1075h174v-1075h-174zM803 1444l-277 -256l-82 90l258 291z" />
    <glyph glyph-name="uniF37E" unicode="&#xf37e;" horiz-adv-x="1118" 
d="M1098 1075l-404 -821q-64 -129 -137 -191.5t-174 -62.5q-86 0 -141 41l61 147q45 -26 88 -26t71.5 26.5t53.5 71.5l21 37l-514 778h217l387 -606l293 606h178zM262 1393h154q0 -66 41 -99.5t116 -33.5q70 0 110 33.5t40 99.5h154q0 -120 -82 -188t-222 -68
q-151 0 -231 67t-80 189z" />
    <glyph glyph-name="uniF37F" unicode="&#xf37f;" horiz-adv-x="1292" 
d="M172 0v1075h174v-911h600v911h174v-1075h-393v-236h-164v236h-391z" />
    <glyph glyph-name="uniF381" unicode="&#xf381;" horiz-adv-x="1054" 
d="M10 793v143h193v139h174v-139h266v-143h-266v-134q100 7 151 7q447 0 447 -324q0 -169 -127 -257.5t-359 -88.5q-57 0 -156 2t-130 2v793h-193zM514 512q-58 0 -137 -6v-352q82 -4 133 -4q281 0 281 188q0 174 -277 174z" />
    <glyph glyph-name="uniF389" unicode="&#xf389;" horiz-adv-x="1341" 
d="M82 537q0 115 43.5 217t120.5 176t187.5 117t238.5 43q167 0 300.5 -68.5t210.5 -195t77 -289.5q0 -159 -76.5 -286.5t-211 -198t-300.5 -70.5q-168 0 -302 68.5t-211 195.5t-77 291zM459 549q-100 0 -189 -80q25 -142 137 -233t265 -91q152 0 255.5 78.5t135.5 206.5
q-80 -57 -170 -57q-48 0 -97.5 18t-90.5 44t-80.5 52t-83 44t-82.5 18zM907 526q87 0 164 68q-22 149 -132.5 240.5t-266.5 91.5q-146 0 -252.5 -78t-140.5 -207q88 61 182 61q62 0 126 -27.5t109 -60.5t103 -60.5t108 -27.5z" />
    <glyph glyph-name="uniF38A" unicode="&#xf38a;" horiz-adv-x="1107" 
d="M932 756l-305 -760h-131l-494 1079h197l368 -839l221 593q64 172 142.5 226t218.5 18v-141q-72 21 -122.5 -21.5t-94.5 -154.5z" />
    <glyph glyph-name="uniF393" unicode="&#xf393;" horiz-adv-x="884" 
d="M172 0v1075h528v185h164v-349h-518v-911h-174z" />
    <glyph glyph-name="uniF394" unicode="&#xf394;" horiz-adv-x="892" 
d="M190 0v436h-174v154h174v485h682v-164h-507v-321h350v-154h-350v-436h-175z" />
    <glyph glyph-name="uniF395" unicode="&#xf395;" horiz-adv-x="1046" 
d="M172 0v1075h682v-164h-508v-317q44 20 72.5 31.5t82 22.5t111.5 11q76 0 138.5 -20t111.5 -61t76 -109t27 -158v-377q0 -175 -80 -267.5t-217 -92.5q-60 0 -114 20.5t-75 43.5l58 133q49 -33 108 -33q68 0 107 46.5t39 139.5v350q0 100 -52 161t-159 61q-16 0 -32 -1.5
t-29 -3t-28 -5.5t-25 -6.5t-24.5 -8t-21 -8t-21 -9.5t-18.5 -9.5t-18.5 -10t-16.5 -8.5v-426h-174z" />
    <glyph glyph-name="uniF396" unicode="&#xf396;" horiz-adv-x="1607" 
d="M1556 1075l-456 -510l336 -401h151v-359h-164v195h-61l-457 561l438 514h213zM506 561l-457 514h213l440 -514l-458 -561h-213zM717 0v1075h174v-1075h-174z" />
    <glyph glyph-name="uniF397" unicode="&#xf397;" horiz-adv-x="1013" 
d="M565 -236h-164v224q-115 13 -205 61.5t-133 110.5l97 116q57 -60 141.5 -95.5t177.5 -35.5q117 0 181.5 45t64.5 125q0 70 -55 110t-166 40h-160v164h152q73 0 127.5 42.5t54.5 106.5q0 72 -52 110t-141 38q-181 0 -286 -117l-101 117q61 75 163 119.5t228 44.5
q161 0 262 -77.5t101 -215.5q0 -77 -40 -142.5t-114 -95.5v-6q96 -17 148.5 -87.5t52.5 -166.5q0 -130 -91 -211.5t-243 -99.5v-224z" />
    <glyph glyph-name="uniF398" unicode="&#xf398;" horiz-adv-x="1124" 
d="M1077 1075l-504 -502l379 -409h152v-359h-164v195h-74l-506 561l490 514h227zM172 0v1075h174v-1075h-174z" />
    <glyph glyph-name="uniF399" unicode="&#xf399;" horiz-adv-x="1179" 
d="M432 217v686h156v-155l315 327h219l-504 -502l531 -573h-231l-330 367v-150h-156zM172 0v1075h174v-1075h-174z" />
    <glyph glyph-name="uniF39B" unicode="&#xf39b;" horiz-adv-x="1284" 
d="M1227 1075l-504 -502l530 -573h-237l-506 561l489 514h228zM322 0v911h-312v164h486v-1075h-174z" />
    <glyph glyph-name="uniF39C" unicode="&#xf39c;" horiz-adv-x="1347" 
d="M965 0v467h-619v-467h-174v1075h174v-444h619v444h174v-911h161v-359h-163v195h-172z" />
    <glyph glyph-name="uniF39D" unicode="&#xf39d;" horiz-adv-x="1634" 
d="M942 0v467h-596v-467h-174v1075h174v-444h596v444h672v-164h-498v-911h-174z" />
    <glyph glyph-name="uniF3A0" unicode="&#xf3a0;" horiz-adv-x="1110" 
d="M985 233l68 -131q-47 -45 -126.5 -76t-172.5 -40v-222h-164v224q-232 23 -370 171t-138 378q0 113 38.5 212.5t111 176t185.5 120.5t253 44q221 0 360 -107l-80 -131q-125 74 -280 74q-180 0 -292 -106t-112 -283q0 -176 117 -284t311 -108q167 0 291 88z" />
    <glyph glyph-name="uniF3A2" unicode="&#xf3a2;" horiz-adv-x="1040" 
d="M1028 1075l-422 -622v-453h-174v453l-420 622h211l303 -459l303 459h199z" />
    <glyph glyph-name="uniF3A3" unicode="&#xf3a3;" horiz-adv-x="1040" 
d="M1028 1075l-364 -538h225v-154h-283v-383h-174v383h-282v154h225l-363 538h211l303 -459l303 459h199z" />
    <glyph glyph-name="uniF3A4" unicode="&#xf3a4;" horiz-adv-x="1142" 
d="M1083 1075l-407 -528l297 -383h149v-359h-164v195h-73l-324 414l-319 -414h-217l424 547l-406 528h217l305 -397l303 397h215z" />
    <glyph glyph-name="uniF3A6" unicode="&#xf3a6;" horiz-adv-x="1159" 
d="M950 1075v-911h162v-359h-164v195h-172v449q-49 -32 -127.5 -54t-171.5 -22q-72 0 -134.5 18.5t-116 57t-84.5 107t-31 159.5v360h174v-299q0 -123 61 -181t168 -58q151 0 262 71v467h174z" />
    <glyph glyph-name="uniF3A7" unicode="&#xf3a7;" horiz-adv-x="1122" 
d="M950 1075v-1075h-174v449q-61 -42 -158 -62v-209h-163v195q-54 2 -102.5 14.5t-93.5 38.5t-77.5 64.5t-51.5 96t-19 128.5v360h174v-299q0 -205 170 -235v260h163v-256q88 17 158 63v467h174z" />
    <glyph glyph-name="uniF3A8" unicode="&#xf3a8;" horiz-adv-x="1095" 
d="M172 1075h174v-485q46 29 126 48t163 19q75 0 140 -18.5t120 -57t87 -107.5t32 -161v-313h-174v258q0 121 -67 178.5t-185 57.5q-141 0 -242 -64v-430h-174v1075z" />
    <glyph glyph-name="uniF3B0" unicode="&#xf3b0;" horiz-adv-x="1122" 
d="M950 1075v-1075h-172v-195h-164v359h162v285q-49 -32 -127.5 -54t-171.5 -22q-72 0 -134.5 18.5t-116 57t-84.5 107t-31 159.5v360h174v-299q0 -123 61 -181t168 -58q151 0 262 71v467h174z" />
    <glyph glyph-name="uniF3B2" unicode="&#xf3b2;" horiz-adv-x="1208" 
d="M25 0l503 1081h152l504 -1081h-187l-131 287h-534l-131 -287h-176zM600 872l-194 -421h387zM297 1393h154q0 -66 41 -99.5t116 -33.5q70 0 110 33.5t40 99.5h153q0 -120 -82 -188t-221 -68q-151 0 -231 67t-80 189z" />
    <glyph glyph-name="uniF3B3" unicode="&#xf3b3;" horiz-adv-x="1208" 
d="M25 0l503 1081h152l504 -1081h-187l-131 287h-534l-131 -287h-176zM600 872l-194 -421h387zM330 1339q0 39 28.5 63.5t69.5 24.5q34 0 61 -25t27 -63q0 -42 -27 -68t-61 -26q-41 0 -69.5 25.5t-28.5 68.5zM694 1339q0 39 28 63.5t66 24.5q37 0 64 -25t27 -63
q0 -42 -27 -68t-64 -26q-39 0 -66.5 25.5t-27.5 68.5z" />
    <glyph glyph-name="uniF3B4" unicode="&#xf3b4;" horiz-adv-x="1617" 
d="M811 0v291h-422l-223 -291h-203l348 440l502 635h672v-164h-500v-286h451v-164h-451v-297h518v-164h-692zM811 827l-291 -372h291v372z" />
    <glyph glyph-name="uniF3B5" unicode="&#xf3b5;" horiz-adv-x="999" 
d="M172 0v1075h696v-164h-522v-286h471v-164h-471v-297h539v-164h-713zM215 1393h154q0 -66 41 -99.5t116 -33.5q70 0 110 33.5t40 99.5h153q0 -120 -82 -188t-221 -68q-151 0 -231 67t-80 189z" />
    <glyph glyph-name="uniF3B6" unicode="&#xf3b6;" horiz-adv-x="1275" 
d="M80 629h928q-20 138 -129 217.5t-275 79.5q-92 0 -160 -20t-131 -64l-67 131q149 117 377 117q262 0 417.5 -150.5t155.5 -402.5q0 -250 -157.5 -402.5t-413.5 -152.5q-270 0 -422 175.5t-123 471.5zM623 145q178 0 278.5 87.5t112.5 232.5h-754q2 -135 101 -227.5
t262 -92.5z" />
    <glyph glyph-name="uniF3B8" unicode="&#xf3b8;" horiz-adv-x="1605" 
d="M1556 1075l-456 -510l473 -565h-211l-457 561l438 514h213zM717 0v1075h174v-1075h-174zM506 561l-457 514h213l440 -514l-458 -561h-213zM528 1339q0 39 29 63.5t70 24.5q34 0 61 -25t27 -63q0 -42 -27 -68t-61 -26q-41 0 -70 25.5t-29 68.5zM893 1339q0 39 28 63.5
t66 24.5q37 0 63.5 -24.5t26.5 -63.5q0 -43 -26.5 -68.5t-63.5 -25.5q-39 0 -66.5 25.5t-27.5 68.5z" />
    <glyph glyph-name="uniF3B9" unicode="&#xf3b9;" horiz-adv-x="1013" 
d="M479 -18q-140 0 -252.5 53.5t-163.5 124.5l97 116q57 -60 141.5 -95.5t177.5 -35.5q117 0 181.5 45t64.5 125q0 70 -55 110t-166 40h-160v164h152q73 0 127.5 42.5t54.5 106.5q0 72 -52 110t-141 38q-181 0 -286 -117l-101 117q61 75 163 119.5t228 44.5q161 0 262 -77.5
t101 -215.5q0 -77 -40 -142.5t-114 -95.5v-6q96 -17 148.5 -87.5t52.5 -166.5q0 -147 -116 -232t-304 -85zM219 1339q0 39 28.5 63.5t69.5 24.5q34 0 61.5 -25t27.5 -63q0 -42 -27 -68t-62 -26q-41 0 -69.5 25.5t-28.5 68.5zM584 1339q0 39 28 63.5t66 24.5q37 0 63.5 -24.5
t26.5 -63.5q0 -43 -26.5 -68.5t-63.5 -25.5q-39 0 -66.5 25.5t-27.5 68.5z" />
    <glyph glyph-name="uniF3BB" unicode="&#xf3bb;" horiz-adv-x="1343" 
d="M326 0h-154v1075h174v-799l672 799h153v-1075h-174v799zM401 1280v133h541v-133h-541z" />
    <glyph glyph-name="uniF3BC" unicode="&#xf3bc;" horiz-adv-x="1343" 
d="M326 0h-154v1075h174v-799l672 799h153v-1075h-174v799zM397 1339q0 39 29 63.5t70 24.5q34 0 61 -25t27 -63q0 -42 -27 -68t-61 -26q-41 0 -70 25.5t-29 68.5zM762 1339q0 39 28 63.5t66 24.5q37 0 63.5 -24.5t26.5 -63.5q0 -43 -26.5 -68.5t-63.5 -25.5
q-39 0 -66.5 25.5t-27.5 68.5z" />
    </font>
</defs>
</svg>
