<?xml version="1.0" standalone="no"?>
<!DOCTYPE svg PUBLIC "-//W3C//DTD SVG 1.1//EN" "http://www.w3.org/Graphics/SVG/1.1/DTD/svg11.dtd" >
<svg xmlns="http://www.w3.org/2000/svg" xmlns:xlink="http://www.w3.org/1999/xlink" version="1.1">
<metadata>
Created by FontForge 20170731 at Wed Mar 15 10:29:07 2023
 By Aleksey,,,
Copyright (c) 2011 Paratype, Inc., ParaType Ltd. All rights reserved.
</metadata>
<defs>
<font id="Circe-MediumItalic" horiz-adv-x="1216" >
  <font-face 
    font-family="Circe Medium"
    font-weight="500"
    font-style="italic"
    font-stretch="normal"
    units-per-em="2048"
    panose-1="2 11 6 2 2 2 3 9 2 3"
    ascent="1583"
    descent="-465"
    x-height="922"
    cap-height="1434"
    bbox="-956 -836 3260 2064"
    underline-thickness="102"
    underline-position="-307"
    slope="-10"
    unicode-range="U+0020-FEFF"
  />
<missing-glyph horiz-adv-x="446" 
 />
    <glyph glyph-name="uniF350.var.accented" unicode="&#xf350;`" horiz-adv-x="1232" 
d="M20 0l693 1079h188l311 -1079h-217l-69 254h-514l-158 -254h-234zM768 827l-231 -374h335zM1122 1425l-291 -247l-98 110l266 291z" />
    <glyph glyph-name="uniF355.var.accented" unicode="&#xf355;`" horiz-adv-x="1009" 
d="M166 0l190 1075h717l-37 -198h-499l-41 -238h448l-35 -197h-450l-43 -245h518l-37 -197h-731zM989 1425l-291 -247l-98 110l266 291z" />
    <glyph glyph-name="uniF358.var.accented" unicode="&#xf358;`" horiz-adv-x="1351" 
d="M352 0h-186l190 1075h213l-123 -710l742 710h188l-192 -1075h-213l127 717zM1147 1425l-291 -247l-98 110l266 291z" />
    <glyph glyph-name="uniF35E.var.accented" unicode="&#xf35e;`" horiz-adv-x="1345" 
d="M160 481q0 126 44 236t125.5 193.5t207 131.5t278.5 48q242 0 399.5 -136t157.5 -356q0 -274 -178 -446t-469 -172q-256 0 -410.5 138.5t-154.5 362.5zM391 492q0 -139 91 -225.5t255 -86.5q191 0 298.5 116.5t107.5 289.5q0 133 -91.5 218t-248.5 85q-188 0 -300 -110
t-112 -287zM1151 1425l-291 -247l-98 110l266 291z" />
    <glyph glyph-name="uniF363.var.accented" unicode="&#xf363;`" horiz-adv-x="1130" 
d="M1303 1075l-543 -817q-34 -51 -56 -81.5t-57 -68.5t-67 -58.5t-76 -35t-94 -14.5q-98 0 -168 53l98 168q44 -24 84 -24q70 0 125 82l24 36l-372 760h239l262 -555l363 555h238zM1053 1425l-291 -247l-98 110l266 291z" />
    <glyph glyph-name="uniF36B.var.accented" unicode="&#xf36b;`" horiz-adv-x="1478" 
d="M1094 0l192 1075h215l-190 -1075h-217zM584 528q-17 0 -54.5 -2.5t-56.5 -3.5l-57 -321q37 -4 108 -4q127 0 194.5 50.5t67.5 145.5q0 67 -52 101t-150 34zM571 1075l-63 -354q80 6 121 6q172 0 279.5 -84.5t107.5 -224.5q0 -139 -69.5 -236t-183 -141.5t-259.5 -44.5
q-89 0 -201.5 2t-136.5 2l190 1075h215zM1184 1425l-291 -247l-98 110l266 291z" />
    <glyph glyph-name="uniF36D.var.accented" unicode="&#xf36d;`" horiz-adv-x="1146" 
d="M389 451l35 196h512q-39 246 -322 246q-179 0 -307 -74l-71 154q78 55 185 87t218 32q165 0 288.5 -64t186 -170.5t62.5 -239.5q0 -290 -179 -462t-491 -172q-145 0 -248 34.5t-182 104.5l125 164q133 -107 317 -107q165 0 265 71.5t137 199.5h-531zM965 1425l-291 -247
l-99 110l267 291z" />
    <glyph glyph-name="uniF36E.var.accented" unicode="&#xf36e;`" horiz-adv-x="1789" 
d="M166 0l190 1075h215l-75 -428h180q51 206 222.5 325.5t389.5 119.5q126 0 229.5 -43t168 -113.5t99 -157.5t34.5 -180q0 -177 -74 -315.5t-220.5 -219.5t-344.5 -81q-122 0 -222 39.5t-164 105.5t-100 149t-39 173h-196l-78 -449h-215zM883 483q0 -132 84.5 -217.5
t232.5 -85.5q93 0 168.5 34t122.5 91t72.5 129t25.5 152q0 136 -89 221.5t-224 85.5q-173 0 -283 -114.5t-110 -295.5zM1331 1425l-291 -247l-98 110l266 291z" />
    <glyph glyph-name="uniF36F.var.accented" unicode="&#xf36f;`" horiz-adv-x="1122" 
d="M741 0l62 348h-189l-292 -348h-269l348 401q-71 39 -114 104t-43 146q0 192 134 311t382 119q92 0 227 -3t160 -3l-193 -1075h-213zM610 549h228l57 328q-13 0 -70 2t-92 2q-121 0 -189.5 -54.5t-68.5 -136.5q0 -59 35.5 -95.5t99.5 -45.5zM1085 1425l-290 -247l-99 110
l267 291z" />
    <glyph glyph-name="uniF371.var.accented" unicode="&#xf371;`" horiz-adv-x="1009" 
d="M166 0l190 1075h717l-37 -198h-504l-40 -238h452l-35 -197h-452l-43 -245h520l-37 -197h-731zM397 1323q0 51 36 81t89 30q37 0 66.5 -27.5t29.5 -71.5q0 -52 -34.5 -83t-77.5 -31q-46 0 -77.5 27t-31.5 75zM897 1323q0 50 37 80.5t86 30.5q41 0 69.5 -27t28.5 -70
q0 -54 -34 -85t-80 -31q-45 0 -76 27t-31 75zM1008 1536l-291 -266l-99 94l254 307z" />
    <glyph glyph-name="uni0410.var.accented" unicode="&#x410;`" horiz-adv-x="1443" 
d="M23 0l860 1440h184l354 -1440h-215l-98 401h-621l-237 -401h-227zM930 1161l-328 -561h459zM1317 1671l-436 -170l-58 121l418 219z" />
    <glyph glyph-name="uni0415.var.accented" unicode="&#x415;`" horiz-adv-x="1177" 
d="M207 0l252 1434h823l-33 -201h-612l-72 -410h549l-35 -200h-551l-73 -422h630l-32 -201h-846zM1217 1671l-437 -170l-57 121l418 219z" />
    <glyph glyph-name="uni0418.var.accented" unicode="&#x418;`" horiz-adv-x="1626" 
d="M393 0h-186l252 1434h213l-187 -1061l1000 1061h186l-250 -1434h-213l187 1061zM1403 1671l-436 -170l-58 121l418 219z" />
    <glyph glyph-name="uni041E.var.accented" unicode="&#x41e;`" horiz-adv-x="1677" 
d="M213 645q0 168 58.5 316t164 257t261.5 172.5t341 63.5q147 0 272.5 -45.5t215 -129t140 -205.5t50.5 -269q0 -235 -99 -422.5t-282.5 -295t-419.5 -107.5q-169 0 -303.5 51.5t-221 142t-132 211t-45.5 260.5zM442 657q0 -148 64 -258t172.5 -165.5t245.5 -55.5
q247 0 405 167t158 439q0 213 -128 342t-341 129q-160 0 -291 -74t-208 -211.5t-77 -312.5zM1427 1671l-436 -170l-57 121l418 219z" />
    <glyph glyph-name="uni0423.var.accented" unicode="&#x423;`" horiz-adv-x="1372" 
d="M1602 1434l-689 -1102q-110 -180 -201.5 -256t-219.5 -76q-53 0 -103.5 15.5t-77.5 41.5l99 168q51 -28 108 -28q100 0 182 135l31 45l-457 1057h230l352 -848l516 848h230zM1305 1671l-437 -170l-57 121l418 219z" />
    <glyph glyph-name="uni042B.var.accented" unicode="&#x42b;`" horiz-adv-x="1751" 
d="M1331 0l252 1434h211l-250 -1434h-213zM707 733q-60 0 -162 -12l-90 -520q24 0 73.5 -2t77.5 -2q178 0 279.5 86.5t101.5 236.5q0 102 -72.5 157.5t-207.5 55.5zM672 1434l-90 -512q123 10 172 10q228 0 345.5 -100t117.5 -275q0 -124 -40 -225t-119 -177t-206.5 -117.5
t-294.5 -41.5q-76 0 -195.5 2t-154.5 2l252 1434h213zM1460 1671l-436 -170l-57 121l417 219z" />
    <glyph glyph-name="uni042D.var.accented" unicode="&#x42d;`" horiz-adv-x="1396" 
d="M512 631l35 200h674q3 199 -119 311.5t-324 112.5q-210 0 -397 -116l-82 164q91 72 231.5 111.5t296.5 39.5q290 0 450.5 -172.5t160.5 -466.5q0 -256 -105.5 -446.5t-291 -289.5t-427.5 -99q-165 0 -297 50.5t-219 137.5l123 160q74 -67 177 -109t223 -41
q226 2 385.5 124.5t189.5 328.5h-684zM1159 1671l-436 -170l-57 121l417 219z" />
    <glyph glyph-name="uni042E.var.accented" unicode="&#x42e;`" horiz-adv-x="2187" 
d="M207 0l252 1434h213l-107 -603h244q58 279 265.5 451t506.5 172q288 0 465.5 -173t177.5 -462q0 -242 -96.5 -432.5t-274.5 -298.5t-409 -108q-159 0 -284.5 50t-205.5 138.5t-121.5 206.5t-41.5 256h-259l-112 -631h-213zM1012 651q0 -218 123.5 -345.5t324.5 -127.5
q237 0 386 171t149 446q0 210 -117.5 335t-316.5 125q-113 0 -213.5 -43.5t-174.5 -121t-117.5 -191.5t-43.5 -248zM1677 1671l-436 -170l-57 121l418 219z" />
    <glyph glyph-name="uni042F.var.accented" unicode="&#x42f;`" horiz-adv-x="1300" 
d="M881 0l90 514h-240l-428 -514h-256l494 575q-213 106 -213 343q0 81 22.5 155t72.5 141.5t123.5 117t183.5 79t245 29.5q59 0 195.5 -3t175.5 -3l-252 -1434h-213zM739 713h269l90 520q-82 8 -180 8q-176 0 -268.5 -90t-92.5 -221q0 -78 47 -137t135 -80zM1341 1671
l-436 -170l-57 121l418 219z" />
    <glyph glyph-name="uni0401.var.accented" unicode="&#x401;`" horiz-adv-x="1177" 
d="M1096 1673q0 49 32 79t78 30q44 0 74.5 -29.5t30.5 -77.5q0 -52 -30 -84t-75 -32q-47 0 -78.5 31t-31.5 83zM500 1673q0 49 31 79t75 30t75.5 -29.5t31.5 -77.5q0 -52 -30.5 -84t-76.5 -32q-47 0 -76.5 30.5t-29.5 83.5zM1106 1796l-270 -278l-82 38l192 297zM207 0
l252 1434h823l-33 -201h-612l-72 -410h549l-35 -200h-551l-73 -422h630l-32 -201h-846z" />
    <glyph glyph-name="uni0430.var.accented" unicode="&#x430;`" horiz-adv-x="1058" 
d="M920 0h-197l51 291q-195 -311 -405 -311q-119 0 -179.5 87.5t-60.5 231.5q0 180 81 327.5t222 231.5t313 84q99 0 183.5 -20.5t132.5 -47.5zM463 160q60 0 138.5 76.5t139 176t82.5 177.5l29 155q-54 15 -113 15q-179 0 -291 -120.5t-112 -299.5q0 -85 32 -132.5
t95 -47.5zM1038 1380l-254 -297l-118 84l217 332z" />
    <glyph glyph-name="uni0435.var.accented" unicode="&#x435;`" horiz-adv-x="966" 
d="M819 262l86 -115q-73 -73 -176.5 -120t-216.5 -47q-94 0 -168.5 29.5t-120.5 80t-70 114.5t-24 136q0 117 39 225t110 192.5t179 134.5t237 50q151 0 223.5 -63t69.5 -170q0 -156 -164 -247t-491 -106q3 -99 61 -149.5t156 -50.5q121 0 270 106zM672 766
q-119 0 -207.5 -78t-118.5 -196q436 28 436 184q3 43 -26.5 66.5t-83.5 23.5zM1008 1380l-254 -297l-119 84l217 332z" />
    <glyph glyph-name="uni0438.var.accented" unicode="&#x438;`" horiz-adv-x="1034" 
d="M1040 922l-159 -922h-197l49 285q-35 -57 -75 -106.5t-92.5 -96.5t-115.5 -74.5t-128 -27.5q-99 0 -145 59t-46 151q0 76 21 187l114 545h197l-111 -504q-21 -101 -18 -158q0 -96 72 -96q64 0 147.5 74.5t147.5 173t85 174.5l58 336h196zM963 1380l-254 -297l-119 84
l217 332z" />
    <glyph glyph-name="uni043E.var.accented" unicode="&#x43e;`" horiz-adv-x="1052" 
d="M129 362q0 92 23 177.5t69.5 158.5t111 127.5t153 85.5t190.5 31q173 0 270.5 -101.5t97.5 -275.5q0 -169 -63.5 -301t-184 -208t-280.5 -76q-177 0 -282 105t-105 277zM336 397q0 -112 58 -174.5t155 -62.5q135 0 213 103.5t78 264.5q0 111 -50.5 171.5t-146.5 60.5
q-136 0 -221.5 -100t-85.5 -263zM1024 1380l-254 -297l-119 84l217 332z" />
    <glyph glyph-name="uni0443.var.accented" unicode="&#x443;`" horiz-adv-x="882" 
d="M743 922h211q-78 -291 -168.5 -531t-191 -420.5t-211 -280.5t-219.5 -100q-108 0 -184 66l90 151q54 -32 94 -32q62 0 121 62t108 157q-24 161 -108 423t-187 505h217q51 -117 121.5 -334.5t98.5 -354.5q63 140 124.5 338t83.5 351zM868 1380l-254 -297l-118 84l217 332z
" />
    <glyph glyph-name="uni044B.var.accented" unicode="&#x44b;`" horiz-adv-x="1318" 
d="M164 389l139 533h199l-109 -398q161 176 324 176q90 0 151.5 -59.5t61.5 -171.5q0 -100 -51 -192.5t-131 -156t-177.5 -102t-189.5 -38.5q-126 0 -185 62.5t-59 162.5q0 79 27 184zM1130 922h193l-156 -922h-196zM336 274q-2 -10 -2 -28q4 -86 98 -86q102 0 200.5 78
t98.5 176q0 49 -29 75.5t-71 26.5q-76 0 -174.5 -81.5t-120.5 -160.5zM1114 1380l-254 -297l-119 84l217 332z" />
    <glyph glyph-name="uni044D.var.accented" unicode="&#x44d;`" horiz-adv-x="901" 
d="M336 389l29 152h327q6 114 -55.5 168.5t-165.5 54.5q-126 0 -242 -72l-73 131q155 119 356 119q191 0 287 -103t96 -282q0 -134 -39.5 -243.5t-109 -182t-163 -112t-202.5 -39.5q-203 0 -320 126l111 134q82 -82 211 -82q111 0 190.5 58t104.5 173h-342zM870 1380
l-254 -297l-118 84l217 332z" />
    <glyph glyph-name="uni044E.var.accented" unicode="&#x44e;`" horiz-adv-x="1427" 
d="M119 0l153 922h195l-57 -359h176q46 166 170.5 272.5t312.5 106.5q167 0 259.5 -100.5t92.5 -276.5q0 -166 -60 -298.5t-173.5 -209.5t-261.5 -77q-167 0 -266 104t-103 287h-180l-62 -371h-196zM752 397q0 -107 51.5 -172t142.5 -65q128 0 201.5 104t73.5 264
q0 110 -46.5 171t-138.5 61q-127 0 -205.5 -99t-78.5 -264zM1143 1380l-254 -297l-119 84l217 332z" />
    <glyph glyph-name="uni044F.var.accented" unicode="&#x44f;`" horiz-adv-x="942" 
d="M651 922h295l-158 -922h-194l49 289h-139l-250 -289h-234l310 344q-64 30 -104 85.5t-40 133.5q0 70 26 132.5t79.5 114t146 82t213.5 30.5zM389 586q0 -125 158 -125h127l47 278h-127q-102 0 -153.5 -44.5t-51.5 -108.5zM973 1380l-254 -297l-119 84l217 332z" />
    <glyph glyph-name="uni0451.var.accented" unicode="&#x451;`" horiz-adv-x="966" 
d="M819 262l86 -115q-74 -74 -178 -120.5t-215 -46.5q-96 0 -171.5 30.5t-120.5 82.5t-68 114.5t-23 132.5q0 118 39 226t110 192t180 134t238 50q152 0 223 -64t68 -169q0 -318 -655 -353q3 -97 59.5 -148.5t157.5 -51.5q121 0 270 106zM672 766q-121 0 -208 -78.5
t-118 -195.5q436 28 436 184q3 42 -27 66t-83 24zM946 1384l-246 -303l-102 68l207 338zM354 1219q0 42 28 68t69 26q37 0 63.5 -26.5t26.5 -67.5q0 -46 -26.5 -73.5t-63.5 -27.5q-41 0 -69 27.5t-28 73.5zM930 1219q0 42 28 68t68 26q37 0 63.5 -26.5t26.5 -67.5
q0 -46 -27 -73.5t-65 -27.5q-41 0 -67.5 27.5t-26.5 73.5z" />
    <glyph glyph-name="fi" unicode="fi" horiz-adv-x="1038" 
d="M119 -43l188 1096q16 91 46 160t81.5 125.5t134 86t193.5 29.5q115 0 196.5 -33.5t120.5 -93.5l-121 -135q-32 33 -84 54.5t-116 21.5q-119 0 -178.5 -57.5t-79.5 -170.5l-17 -118h533l-160 -922h-192l122 733h-337l-138 -790q-58 -365 -356 -365q-65 0 -122 20.5
t-83 49.5l86 153q54 -37 107 -37q144 0 176 193z" />
    <glyph glyph-name="fl" unicode="fl" horiz-adv-x="1114" 
d="M705 289l163 917q-65 62 -168 62q-159 0 -196 -215l-21 -131h203l-31 -189h-206l-134 -764q-32 -194 -117.5 -292.5t-242.5 -98.5q-65 0 -122 20.5t-83 49.5l86 153q54 -37 107 -37q144 0 176 195l192 1112q33 188 130.5 285.5t258.5 97.5q144 0 224 -61h174l-199 -1098
q-23 -127 66 -127q44 0 120 37l23 -160q-106 -63 -217 -63q-97 0 -147 56t-50 155q0 39 11 96z" />
    <glyph glyph-name=".notdef" horiz-adv-x="446" 
 />
    <glyph glyph-name=".null" horiz-adv-x="0" 
 />
    <glyph glyph-name="nonmarkingreturn" horiz-adv-x="682" 
 />
    <glyph glyph-name="space" unicode=" " horiz-adv-x="446" 
 />
    <glyph glyph-name="exclam" unicode="!" horiz-adv-x="657" 
d="M295 463l170 971h211l-168 -971h-213zM213 127q0 49 37.5 86t97.5 37q54 0 90.5 -37.5t36.5 -85.5q0 -54 -36.5 -94.5t-90.5 -40.5q-61 0 -98 40t-37 95z" />
    <glyph glyph-name="quotedbl" unicode="&#x22;" horiz-adv-x="892" 
d="M694 958l84 476h201l-86 -476h-199zM338 958l84 476h201l-86 -476h-199z" />
    <glyph glyph-name="numbersign" unicode="#" horiz-adv-x="1462" 
d="M770 33l127 352h-344l-152 -405l-155 53l131 352h-172v172h237l117 320h-354v172h418l151 405l156 -57l-129 -348h342l151 405l156 -53l-131 -352h184v-172h-248l-116 -320h364v-172h-430l-151 -405zM735 877l-117 -320h345l116 320h-344z" />
    <glyph glyph-name="dollar" unicode="$" horiz-adv-x="1208" 
d="M915 401q0 43 -19.5 78.5t-52 62t-74.5 50.5t-88.5 46.5t-93.5 47t-89 56t-74.5 69t-52 90t-19.5 115.5q0 162 115 281.5t307 148.5l29 172h201l-33 -172q94 -15 166 -53.5t114 -94.5l-139 -155q-89 112 -256 112q-128 0 -201 -59t-73 -156q0 -55 31 -98.5t80.5 -73
t109 -57.5t119.5 -60t109.5 -71t80.5 -101t31 -141q0 -183 -120.5 -304t-309.5 -148l-31 -191h-199l33 191q-120 18 -210.5 73.5t-121.5 139.5l144 141q45 -75 130.5 -119.5t180.5 -44.5q120 0 198 61.5t78 163.5z" />
    <glyph glyph-name="percent" unicode="%" horiz-adv-x="1841" 
d="M463 59l1044 1395l115 -84l-1040 -1390zM221 1081q0 156 106 260.5t263 104.5q164 0 268.5 -98.5t104.5 -257.5q0 -156 -107 -264.5t-268 -108.5q-159 0 -263 102t-104 262zM397 1081q0 -86 55 -141t140 -55q88 0 141 54t53 146q0 84 -55 140.5t-139 56.5
q-89 0 -142 -56.5t-53 -144.5zM1133 352q0 156 106 260.5t262 104.5q164 0 269.5 -99t105.5 -258q0 -155 -107.5 -263.5t-267.5 -108.5q-159 0 -263.5 102t-104.5 262zM1309 352q0 -86 55 -141t139 -55q90 0 143.5 54t53.5 146q0 83 -56 140t-139 57q-89 0 -142.5 -56.5
t-53.5 -144.5z" />
    <glyph glyph-name="ampersand" unicode="&#x26;" horiz-adv-x="1536" 
d="M1196 0l-102 172q-216 -192 -463 -192q-206 0 -320 98t-114 262q0 75 25.5 144t64 122t100 107t116 92t130.5 84q-34 33 -51 51t-47 56.5t-44 78t-14 82.5q0 133 99.5 215t259.5 82q144 0 233.5 -69.5t89.5 -188.5q0 -107 -58.5 -183t-191.5 -153l230 -389
q137 189 188 451h197q-29 -171 -105 -332.5t-184 -282.5l186 -307h-225zM655 178q184 0 340 156l-254 434q-80 -53 -129 -90.5t-96.5 -87t-69.5 -103.5t-22 -118q0 -100 65 -145.5t166 -45.5zM674 1163q0 -88 123 -172q70 28 118 73t48 99q0 60 -36.5 95.5t-101.5 35.5
q-64 0 -107.5 -37.5t-43.5 -93.5z" />
    <glyph glyph-name="quotesingle" unicode="'" horiz-adv-x="536" 
d="M338 958l84 476h201l-86 -476h-199z" />
    <glyph glyph-name="parenleft" unicode="(" horiz-adv-x="626" 
d="M569 -311l-131 -111q-145 148 -218 335.5t-73 373.5q0 134 26.5 256t89.5 256t182.5 271.5t291.5 272.5l107 -126q-268 -222 -381 -436.5t-113 -473.5q0 -176 57 -339t162 -279z" />
    <glyph glyph-name="parenright" unicode=")" horiz-adv-x="667" 
d="M223 1233l133 110q146 -152 215.5 -337t69.5 -375q0 -608 -590 -1053l-106 131q493 392 493 914q0 361 -215 610z" />
    <glyph glyph-name="asterisk" unicode="*" horiz-adv-x="999" 
d="M537 1335q0 47 34 83t80 36q50 0 84.5 -35.5t34.5 -83.5q0 -49 -34 -81.5t-85 -32.5q-47 0 -80.5 32.5t-33.5 81.5zM532 733q0 49 35.5 84t81.5 35q48 0 83.5 -35t35.5 -84q0 -47 -36 -83t-83 -36q-46 0 -81.5 36t-35.5 83zM791 1182q0 50 32.5 84t79.5 34
q48 0 83.5 -34.5t35.5 -83.5q0 -47 -36 -82t-83 -35t-79.5 34.5t-32.5 82.5zM791 893q0 49 32.5 83t79.5 34q48 0 83.5 -34t35.5 -83t-35.5 -84t-83.5 -35q-47 0 -79.5 34.5t-32.5 84.5zM281 893q0 50 33.5 83.5t82.5 33.5q48 0 81.5 -34t33.5 -83t-34 -84t-81 -35
q-49 0 -82.5 34.5t-33.5 84.5zM281 1182q0 50 33.5 84t82.5 34q47 0 81 -34.5t34 -83.5q0 -47 -34 -82t-81 -35q-49 0 -82.5 34.5t-33.5 82.5z" />
    <glyph glyph-name="plus" unicode="+" 
d="M264 651v172h375v381h186v-381h379v-172h-379v-385h-186v385h-375z" />
    <glyph glyph-name="comma" unicode="," horiz-adv-x="483" 
d="M121 106q0 60 41 98t102 38q72 0 111 -50.5t39 -130.5q0 -127 -83 -223.5t-220 -136.5l-39 94q64 22 118 81.5t58 127.5q-12 -4 -27 -4q-47 0 -73.5 30.5t-26.5 75.5z" />
    <glyph glyph-name="hyphen" unicode="-" horiz-adv-x="806" 
d="M225 467l25 184h504l-29 -184h-500z" />
    <glyph glyph-name="period" unicode="." horiz-adv-x="462" 
d="M127 131q0 51 38 91t101 40q57 0 95 -40t38 -91q0 -58 -37 -98.5t-98 -40.5q-65 0 -101 40t-36 99z" />
    <glyph glyph-name="slash" unicode="/" horiz-adv-x="708" 
d="M-45 -369l678 1823l153 -57l-675 -1823z" />
    <glyph glyph-name="zero" unicode="0" horiz-adv-x="1159" 
d="M209 504q0 146 21 280.5t67 256.5t114 212.5t168.5 143.5t223.5 53q88 0 156.5 -26.5t114 -72.5t75 -112.5t42.5 -142.5t13 -166q0 -140 -19 -272t-62.5 -255.5t-107 -215.5t-160.5 -147.5t-216 -55.5q-430 0 -430 520zM420 512q0 -171 53 -256.5t178 -85.5
q143 0 243.5 204t100.5 562q0 159 -49.5 242.5t-165.5 83.5q-64 0 -117.5 -29.5t-90 -77t-64.5 -114t-44.5 -134t-26.5 -143t-13.5 -135.5t-3.5 -117z" />
    <glyph glyph-name="one" unicode="1" horiz-adv-x="780" 
d="M258 1169l401 271h144l-254 -1440h-199l203 1145l-209 -129z" />
    <glyph glyph-name="two" unicode="2" horiz-adv-x="1077" 
d="M84 0l27 160q283 230 397 334q325 299 375 507q10 42 10 80q0 82 -49.5 127t-138.5 45q-78 0 -150.5 -58t-108.5 -155l-159 78q52 156 173 244t277 88q181 0 277 -91t96 -237q0 -77 -32 -164t-79.5 -162.5t-119 -159.5t-132 -144.5t-139.5 -129.5t-120 -102.5t-93 -73.5
h609l-33 -186h-887z" />
    <glyph glyph-name="three" unicode="3" horiz-adv-x="1083" 
d="M537 -20q-179 0 -293 71.5t-160 198.5l174 90q35 -75 105 -119.5t163 -44.5q145 0 222 76t77 190q0 90 -67.5 141.5t-192.5 51.5h-90l37 196h74q135 0 219 69.5t84 180.5q0 80 -52 128t-151 48q-75 0 -138 -36.5t-106 -98.5l-143 113q69 106 185 162.5t253 56.5
q165 0 268 -85t103 -230q0 -130 -75 -235.5t-214 -155.5l-4 -7q106 -27 165.5 -104.5t59.5 -181.5q0 -210 -139.5 -342.5t-363.5 -132.5z" />
    <glyph glyph-name="four" unicode="4" horiz-adv-x="1157" 
d="M705 0l61 344h-660l27 148l739 942h242l-702 -891h391l65 379h199l-66 -379h191l-35 -199h-190l-62 -344h-200z" />
    <glyph glyph-name="five" unicode="5" horiz-adv-x="1064" 
d="M311 692l226 742h667l-35 -197h-493l-107 -340q73 10 97 10q166 0 274.5 -107t108.5 -272q0 -169 -71.5 -294.5t-194.5 -189.5t-279 -64q-129 0 -242.5 55t-175.5 158l143 131q49 -73 127 -110.5t160 -37.5q149 0 232 89.5t83 226.5q0 110 -69 173.5t-213 63.5
q-62 0 -129.5 -11t-108.5 -26z" />
    <glyph glyph-name="six" unicode="6" horiz-adv-x="1144" 
d="M184 438q0 153 51.5 300.5t139 264.5t200.5 212.5t238 156t248 82.5l51 -164q-100 -27 -195.5 -74.5t-186 -117.5t-165.5 -170.5t-119 -218.5q58 86 143 131t185 45q160 0 268.5 -105t108.5 -272q0 -231 -143.5 -379.5t-366.5 -148.5q-214 0 -335.5 128t-121.5 330z
M408 508q-24 -138 40.5 -235t190.5 -97q138 0 216.5 88t78.5 215q0 94 -63.5 156.5t-165.5 62.5q-100 0 -180.5 -55t-116.5 -135z" />
    <glyph glyph-name="seven" unicode="7" horiz-adv-x="1007" 
d="M274 1237l33 197h881l-23 -131l-747 -1303h-234l713 1237h-623z" />
    <glyph glyph-name="eight" unicode="8" horiz-adv-x="1220" 
d="M778 836h25q96 0 164.5 64t68.5 165q0 88 -61 140t-160 52q-104 0 -177 -64t-73 -161q0 -84 56.5 -140t156.5 -56zM719 639h-25q-127 0 -207.5 -71.5t-80.5 -180.5q0 -96 67.5 -153.5t190.5 -57.5q144 0 221.5 74t77.5 186q0 95 -68.5 149t-175.5 54zM655 -20
q-212 0 -340.5 100t-128.5 266q0 152 89.5 262t256.5 144l3 6q-79 39 -131 110t-52 179q0 174 142.5 290.5t357.5 116.5q184 0 292.5 -89.5t108.5 -240.5q0 -132 -68.5 -237.5t-209.5 -147.5l-4 -6q95 -35 149 -113t54 -182q0 -213 -139.5 -335.5t-379.5 -122.5z" />
    <glyph glyph-name="nine" unicode="9" horiz-adv-x="1146" 
d="M1212 958q0 -205 -65 -380t-183 -300.5t-285 -203t-368 -94.5l-41 170q129 15 238.5 55t203 107.5t159 172.5t96.5 240q-47 -79 -138 -130.5t-198 -51.5q-171 0 -279 114t-108 293q0 216 143 360t363 144q212 0 337 -132t125 -364zM989 913q24 138 -47 241t-199 103
q-125 0 -203.5 -82t-78.5 -192q0 -115 67.5 -184.5t186.5 -69.5q89 0 159.5 47.5t114.5 136.5z" />
    <glyph glyph-name="colon" unicode=":" horiz-adv-x="659" 
d="M328 811q0 51 39 91t100 40q56 0 94.5 -40.5t38.5 -90.5q0 -58 -36.5 -98.5t-96.5 -40.5q-65 0 -102 40.5t-37 98.5zM209 131q0 51 38 91t101 40q56 0 94.5 -40.5t38.5 -90.5q0 -57 -37.5 -98t-97.5 -41q-65 0 -101 40t-36 99z" />
    <glyph glyph-name="semicolon" unicode=";" horiz-adv-x="663" 
d="M193 106q0 60 41.5 98t101.5 38q74 0 112.5 -50.5t38.5 -130.5q0 -127 -83 -223.5t-222 -136.5l-39 94q66 22 119.5 81.5t56.5 127.5q-8 -4 -26 -4q-46 0 -73 30.5t-27 75.5zM319 811q0 50 39.5 90.5t100.5 40.5q57 0 96 -40t39 -91q0 -57 -37.5 -98t-97.5 -41
q-65 0 -102.5 40.5t-37.5 98.5z" />
    <glyph glyph-name="less" unicode="&#x3c;" 
d="M1163 147l-927 551v84l927 547v-215l-651 -373l651 -376v-218z" />
    <glyph glyph-name="equal" unicode="=" 
d="M264 840v172h940v-172h-940zM264 463v172h940v-172h-940z" />
    <glyph glyph-name="greater" unicode="&#x3e;" 
d="M1225 698l-926 -551v218l651 376l-651 373v215l926 -547v-84z" />
    <glyph glyph-name="question" unicode="?" horiz-adv-x="931" 
d="M844 1081q0 78 -45.5 126t-145.5 48q-82 0 -147.5 -35.5t-128.5 -107.5l-123 133q167 209 442 209q174 0 269.5 -93t95.5 -235q0 -78 -27.5 -146t-71.5 -118t-97 -94.5t-107 -84t-99 -77t-74.5 -83t-31.5 -93.5h-172q-1 67 24 125.5t66 101.5t90.5 82.5t99 76.5t91 75
t67 86.5t25.5 103.5zM283 106q0 49 37 87t98 38q54 0 90.5 -38.5t36.5 -86.5q0 -54 -36.5 -94.5t-90.5 -40.5q-62 0 -98.5 40t-36.5 95z" />
    <glyph glyph-name="at" unicode="@" horiz-adv-x="2072" 
d="M1282 158l25 133q-195 -311 -406 -311q-120 0 -181 87t-61 232q0 135 48 254.5t130.5 204.5t197 134.5t243.5 49.5q170 0 315 -68l-112 -686h37q167 0 260.5 111.5t93.5 316.5q0 118 -47 220t-132 177t-212.5 118t-280.5 43q-129 0 -246.5 -32.5t-215 -97t-169 -154
t-111.5 -210t-40 -258.5q0 -165 54.5 -295t149.5 -212t220.5 -124.5t271.5 -42.5q174 0 283 39l24 -176q-125 -49 -319 -49q-189 0 -349 60t-275 169.5t-180 270.5t-65 356q0 266 125.5 481.5t348 338t497.5 122.5q252 0 447.5 -94.5t302 -260.5t106.5 -376
q0 -134 -35.5 -246.5t-105.5 -199t-183.5 -135t-260.5 -48.5h-66q-83 0 -111.5 39.5t-15.5 118.5zM995 160q60 0 138.5 76.5t138.5 176t82 177.5l30 155q-54 15 -114 15q-178 0 -291 -121t-113 -299q0 -85 33 -132.5t96 -47.5z" />
    <glyph glyph-name="A" unicode="A" horiz-adv-x="1443" 
d="M23 0l860 1440h184l354 -1440h-215l-98 401h-621l-237 -401h-227zM930 1161l-328 -561h459z" />
    <glyph glyph-name="B" unicode="B" horiz-adv-x="1273" 
d="M207 2l252 1428q200 10 422 10q405 0 405 -320q0 -138 -78 -238t-209 -139l-4 -4q103 -27 162.5 -97.5t59.5 -170.5q0 -120 -46.5 -213.5t-129.5 -150.5t-191 -86t-236 -29q-267 0 -407 10zM741 637h-209l-77 -436q62 -11 200 -11q161 0 248.5 67.5t87.5 188.5
q0 191 -250 191zM834 1243q-56 0 -197 -6l-74 -418h205q124 0 208.5 68t84.5 186q0 82 -57.5 126t-169.5 44z" />
    <glyph glyph-name="C" unicode="C" horiz-adv-x="1351" 
d="M1290 287l82 -164q-79 -69 -207.5 -106t-255.5 -37q-157 0 -288 49.5t-220 138t-138.5 212t-49.5 269.5q0 166 61 313t169.5 256t268 172.5t347.5 63.5q145 0 260.5 -35t179.5 -92l-110 -156q-130 84 -328 84q-177 0 -319 -76t-221 -209.5t-79 -297.5q0 -217 133 -355.5
t359 -138.5q208 0 356 109z" />
    <glyph glyph-name="D" unicode="D" horiz-adv-x="1519" 
d="M207 0l252 1434h24q43 0 184.5 3t196.5 3q146 0 264 -31t198 -85t133.5 -130.5t77.5 -165.5t24 -192q0 -177 -64 -330t-183 -266.5t-302.5 -178.5t-409.5 -65q-46 0 -175 2t-194 2h-26zM831 1241q-68 0 -194 -8l-182 -1032q82 -4 184 -4q323 0 507.5 167t184.5 459
q0 202 -124.5 310t-375.5 108z" />
    <glyph glyph-name="E" unicode="E" horiz-adv-x="1177" 
d="M207 0l252 1434h823l-33 -201h-612l-72 -410h549l-35 -200h-551l-73 -422h630l-32 -201h-846z" />
    <glyph glyph-name="F" unicode="F" horiz-adv-x="1110" 
d="M207 0l252 1434h823l-35 -201h-610l-80 -455h549l-37 -200h-549l-100 -578h-213z" />
    <glyph glyph-name="G" unicode="G" horiz-adv-x="1497" 
d="M909 551l35 199h567l-102 -572q-81 -90 -225.5 -144t-294.5 -54q-205 0 -360 85t-236.5 235.5t-81.5 344.5q0 165 60 313t166 257.5t261.5 174t337.5 64.5q296 0 463 -154l-123 -157q-57 50 -148.5 81t-207.5 31q-252 0 -416 -166t-164 -421q0 -222 122.5 -356
t330.5 -134q206 0 338 109l43 264h-365z" />
    <glyph glyph-name="H" unicode="H" horiz-adv-x="1566" 
d="M1147 0l110 631h-725l-112 -631h-213l252 1434h213l-107 -603h729l105 603h211l-250 -1434h-213z" />
    <glyph glyph-name="I" unicode="I" horiz-adv-x="698" 
d="M242 0l254 1434h213l-254 -1434h-213z" />
    <glyph glyph-name="J" unicode="J" horiz-adv-x="782" 
d="M827 1434l-192 -1092q-66 -362 -395 -362q-73 0 -132.5 24t-84.5 57l100 160q50 -43 127 -43q146 0 180 191l186 1065h211z" />
    <glyph glyph-name="K" unicode="K" horiz-adv-x="1353" 
d="M207 0l252 1434h213l-252 -1434h-213zM1059 0l-494 748l703 686h272l-731 -703l502 -731h-252z" />
    <glyph glyph-name="L" unicode="L" horiz-adv-x="1130" 
d="M207 0l252 1434h213l-217 -1233h684l-37 -201h-895z" />
    <glyph glyph-name="M" unicode="M" horiz-adv-x="1826" 
d="M207 0l252 1434h192l385 -701l604 701h232l-254 -1434h-211l192 1094l-595 -672h-31l-363 668l-190 -1090h-213z" />
    <glyph glyph-name="N" unicode="N" horiz-adv-x="1628" 
d="M1421 0h-172l-653 1085l-190 -1085h-199l252 1434h170l653 -1086l191 1086h198z" />
    <glyph glyph-name="O" unicode="O" horiz-adv-x="1677" 
d="M213 645q0 168 58.5 316t164 257t261.5 172.5t341 63.5q147 0 272.5 -45.5t215 -129t140 -205.5t50.5 -269q0 -235 -99 -422.5t-282.5 -295t-419.5 -107.5q-169 0 -303.5 51.5t-221 142t-132 211t-45.5 260.5zM442 657q0 -148 64 -258t172.5 -165.5t245.5 -55.5
q247 0 405 167t158 439q0 213 -128 342t-341 129q-160 0 -291 -74t-208 -211.5t-77 -312.5z" />
    <glyph glyph-name="P" unicode="P" horiz-adv-x="1239" 
d="M420 0h-213l252 1434q38 0 191 2t202 2q127 0 221 -31t147 -85t78 -119t25 -142q0 -114 -39.5 -210.5t-114 -168.5t-190 -113t-260.5 -41q-128 0 -207 7zM836 1237q-131 0 -199 -4l-88 -496q105 -10 192 -10q162 0 257.5 83t95.5 222q0 205 -258 205z" />
    <glyph glyph-name="Q" unicode="Q" horiz-adv-x="1677" 
d="M213 645q0 166 58 313t162.5 257t260.5 174.5t342 64.5q304 0 492 -177.5t188 -473.5q0 -175 -61.5 -330.5t-175.5 -271.5l135 -201h-242l-57 80q-183 -100 -402 -100q-168 0 -302.5 51.5t-220.5 142t-131.5 211t-45.5 260.5zM1108 383l164 127l86 -129q129 164 129 405
q0 213 -129 341t-340 128q-159 0 -289.5 -72.5t-208.5 -210t-78 -315.5q0 -223 137 -351t347 -128q151 0 274 72z" />
    <glyph glyph-name="R" unicode="R" horiz-adv-x="1333" 
d="M420 0h-213l252 1434q45 0 215 2t186 2q123 0 215 -28t145 -79t78 -114t25 -140q0 -191 -107 -315.5t-272 -165.5l354 -596h-249l-320 555h-213zM827 1237q-122 0 -190 -4l-84 -479h152q176 0 282.5 75t106.5 211q0 90 -63.5 143.5t-203.5 53.5z" />
    <glyph glyph-name="S" unicode="S" horiz-adv-x="1118" 
d="M868 387q0 57 -30.5 103.5t-80 80t-109 66t-118.5 69.5t-108.5 81t-80 110t-30.5 147q0 80 32.5 152.5t93.5 130.5t160 92.5t222 34.5q119 0 221.5 -43t159.5 -111l-131 -151q-106 106 -266 106q-124 0 -194 -55t-70 -137q0 -56 31 -101t80 -77.5t108.5 -63.5
t119.5 -67.5t109 -80.5t80 -111.5t31 -151.5q0 -191 -133 -310.5t-355 -119.5q-171 0 -293 65.5t-174 169.5l140 137q54 -81 137.5 -127.5t185.5 -46.5q112 0 187 56.5t75 152.5z" />
    <glyph glyph-name="T" unicode="T" horiz-adv-x="1220" 
d="M236 1233l34 201h1184l-33 -201h-487l-217 -1233h-213l217 1233h-485z" />
    <glyph glyph-name="U" unicode="U" horiz-adv-x="1536" 
d="M1604 1434l-148 -838q-56 -313 -218 -464.5t-450 -151.5q-248 0 -385.5 138.5t-117.5 397.5q4 64 10 102l143 816h217l-141 -783q-10 -49 -10 -106q-24 -365 313 -365q184 0 289.5 117t144.5 342l142 795h211z" />
    <glyph glyph-name="V" unicode="V" horiz-adv-x="1343" 
d="M1593 1434l-835 -1440h-160l-344 1440h217l254 -1121l643 1121h225z" />
    <glyph glyph-name="W" unicode="W" horiz-adv-x="1990" 
d="M2228 1434l-659 -1434h-201l-170 1098l-553 -1098h-199l-180 1434h221l123 -1082l537 1082h213l160 -1082l489 1082h219z" />
    <glyph glyph-name="X" unicode="X" horiz-adv-x="1368" 
d="M1569 1434l-621 -709l387 -725h-235l-305 569l-500 -569h-262l647 733l-373 701h240l289 -545l475 545h258z" />
    <glyph glyph-name="Y" unicode="Y" horiz-adv-x="1247" 
d="M1487 1434l-656 -828l-104 -606h-213l104 606l-354 828h228l262 -625l483 625h250z" />
    <glyph glyph-name="Z" unicode="Z" horiz-adv-x="1310" 
d="M340 1233l35 201h1085l-26 -146l-1014 -1087h844l-35 -201h-1147l24 143l1012 1090h-778z" />
    <glyph glyph-name="bracketleft" unicode="[" horiz-adv-x="692" 
d="M57 -410l308 1741h536l-33 -188h-338l-241 -1366h338l-33 -187h-537z" />
    <glyph glyph-name="backslash" unicode="\" horiz-adv-x="708" 
d="M221 1454l678 -1823l-156 -57l-677 1823z" />
    <glyph glyph-name="bracketright" unicode="]" horiz-adv-x="692" 
d="M799 1331l-307 -1741h-537l33 187h336l241 1366h-336l33 188h537z" />
    <glyph glyph-name="asciicircum" unicode="^" horiz-adv-x="1024" 
d="M225 922l373 528h137l371 -528h-217l-223 327l-224 -327h-217z" />
    <glyph glyph-name="underscore" unicode="_" horiz-adv-x="671" 
d="M0 -410v201h672v-201h-672z" />
    <glyph glyph-name="grave" unicode="`" horiz-adv-x="620" 
d="M377 1083l-254 293l158 119l217 -328z" />
    <glyph glyph-name="a" unicode="a" horiz-adv-x="1058" 
d="M920 0h-197l51 291q-195 -311 -405 -311q-119 0 -179.5 87.5t-60.5 231.5q0 180 81 327.5t222 231.5t313 84q99 0 183.5 -20.5t132.5 -47.5zM463 160q60 0 138.5 76.5t139 176t82.5 177.5l29 155q-54 15 -113 15q-179 0 -291 -120.5t-112 -299.5q0 -85 32 -132.5
t95 -47.5z" />
    <glyph glyph-name="b" unicode="b" horiz-adv-x="1077" 
d="M119 70l235 1351h195l-137 -774q85 128 193 208.5t222 80.5q116 0 179 -83.5t63 -229.5q0 -182 -79 -329.5t-217 -230.5t-308 -83q-112 0 -206.5 26t-139.5 64zM735 760q-59 0 -139.5 -72t-144.5 -166t-91 -170l-28 -159q51 -33 151 -33q169 0 275 122.5t106 299.5
q0 80 -32.5 129t-96.5 49z" />
    <glyph glyph-name="c" unicode="c" horiz-adv-x="909" 
d="M784 268l88 -121q-68 -74 -168 -120.5t-212 -46.5q-92 0 -163.5 29.5t-114 80.5t-64 114t-21.5 136q0 116 37.5 223.5t106.5 192.5t176.5 135.5t238.5 50.5q171 0 248 -53l-68 -160q-87 31 -192 31q-78 0 -143 -31.5t-107.5 -84.5t-66 -122t-23.5 -145q0 -99 51.5 -158
t144.5 -59q107 0 252 108z" />
    <glyph glyph-name="d" unicode="d" horiz-adv-x="1081" 
d="M735 0l47 287q-36 -57 -77 -106.5t-94 -97.5t-116.5 -75.5t-129.5 -27.5q-114 0 -175 87t-61 232q0 129 45 247t123 205t188.5 139t235.5 52q86 0 164 -20l90 512h192l-241 -1434h-191zM461 160q58 0 139.5 76t145 174.5t83.5 171.5l27 143q-65 35 -145 35
q-107 0 -195.5 -57t-138 -153.5t-49.5 -209.5q0 -81 35 -130.5t98 -49.5z" />
    <glyph glyph-name="e" unicode="e" horiz-adv-x="966" 
d="M819 262l86 -115q-73 -73 -176.5 -120t-216.5 -47q-94 0 -168.5 29.5t-120.5 80t-70 114.5t-24 136q0 117 39 225t110 192.5t179 134.5t237 50q151 0 223.5 -63t69.5 -170q0 -156 -164 -247t-491 -106q3 -99 61 -149.5t156 -50.5q121 0 270 106zM672 766
q-119 0 -207.5 -78t-118.5 -196q436 28 436 184q3 43 -26.5 66.5t-83.5 23.5z" />
    <glyph glyph-name="f" unicode="f" horiz-adv-x="616" 
d="M129 -43l190 1114q33 190 132 286.5t254 96.5q180 0 237 -72l-96 -155q-47 41 -135 41q-160 0 -197 -215l-22 -131h223l-33 -189h-223l-135 -790q-64 -365 -359 -365q-65 0 -121 20.5t-82 49.5l84 153q50 -37 109 -37q145 0 174 193z" />
    <glyph glyph-name="g" unicode="g" horiz-adv-x="991" 
d="M-31 -168q0 70 28 127t77.5 94.5t108 61.5t128.5 37q-8 16 -8 49q0 59 39 98q-78 37 -120 104t-42 152q0 161 117.5 274t312.5 113q144 0 226 -70l276 68l-22 -158l-168 -41q16 -36 16 -94q0 -157 -113.5 -264.5t-289.5 -114.5q-35 -3 -72 0q-17 -30 -17 -61q0 -30 9 -39
h67q174 -6 277.5 -72.5t103.5 -187.5q0 -110 -70 -186.5t-184.5 -112t-261.5 -35.5q-190 0 -304 65.5t-114 192.5zM152 -143q0 -60 69 -91.5t189 -31.5q143 0 227 38.5t84 112.5q0 59 -70 93t-192 34q-142 0 -224.5 -42t-82.5 -113zM360 573q0 -66 45.5 -107.5t126.5 -41.5
q94 0 159 57.5t65 147.5q0 68 -44.5 111.5t-121.5 43.5q-100 0 -165 -61t-65 -150z" />
    <glyph glyph-name="h" unicode="h" horiz-adv-x="1071" 
d="M119 0l246 1434h194l-137 -797q79 124 192 214.5t232 90.5q102 0 150 -60t48 -157q0 -71 -22 -190l-100 -535h-195l96 502q21 109 19 153q-2 48 -18.5 74.5t-57.5 26.5q-65 0 -150 -73t-151.5 -169t-91.5 -174l-58 -340h-196z" />
    <glyph glyph-name="i" unicode="i" horiz-adv-x="514" 
d="M139 0l156 922h197l-160 -922h-193zM332 1270q0 54 36 86.5t87 32.5q47 0 82.5 -33t35.5 -86q0 -57 -35.5 -92t-82.5 -35q-52 0 -87.5 34.5t-35.5 92.5z" />
    <glyph glyph-name="j" unicode="j" horiz-adv-x="503" 
d="M512 922l-174 -990q-62 -358 -361 -358q-66 0 -121.5 17.5t-86.5 43.5l84 160q51 -35 110 -35q144 0 176 189l172 973h201zM350 1270q0 54 35 86.5t86 32.5q47 0 83 -33t36 -86q0 -57 -36 -92t-83 -35q-51 0 -86 34.5t-35 92.5z" />
    <glyph glyph-name="k" unicode="k" horiz-adv-x="978" 
d="M1073 922l-432 -445l326 -477h-240l-313 483l413 439h246zM119 0l246 1434h194l-244 -1434h-196z" />
    <glyph glyph-name="l" unicode="l" horiz-adv-x="569" 
d="M160 289l205 1145h196l-205 -1139q-4 -16 -4 -43q-6 -84 70 -84q47 0 119 37l24 -160q-106 -63 -217 -63q-91 0 -141.5 47t-54.5 141q-3 69 8 119z" />
    <glyph glyph-name="m" unicode="m" horiz-adv-x="1542" 
d="M1493 549l-107 -549h-198l98 506q23 117 21 156q0 96 -74 96q-49 0 -102.5 -46.5t-96.5 -117.5t-76.5 -145t-52.5 -138l-57 -311h-201l101 508q23 104 18 151q0 99 -70 99q-50 0 -106 -51t-100 -126t-77 -151t-48 -135l-50 -295h-196l157 922h195l-47 -281
q28 56 63.5 105t82.5 95.5t107.5 73.5t125.5 27q84 0 126 -49t42 -127q0 -62 -6 -115q155 291 374 291q88 0 132.5 -49.5t44.5 -130.5q0 -91 -23 -213z" />
    <glyph glyph-name="n" unicode="n" horiz-adv-x="1069" 
d="M373 340l-58 -340h-196l157 922h195l-49 -285q38 58 82.5 108t99.5 96.5t119.5 73.5t128.5 27q97 0 143.5 -59t46.5 -150q0 -93 -22 -198l-100 -535h-195l98 502q18 126 17 157q0 97 -74 97q-65 0 -150 -73t-151.5 -169t-91.5 -174z" />
    <glyph glyph-name="o" unicode="o" horiz-adv-x="1052" 
d="M129 362q0 92 23 177.5t69.5 158.5t111 127.5t153 85.5t190.5 31q173 0 270.5 -101.5t97.5 -275.5q0 -169 -63.5 -301t-184 -208t-280.5 -76q-177 0 -282 105t-105 277zM336 397q0 -112 58 -174.5t155 -62.5q135 0 213 103.5t78 264.5q0 111 -50.5 171.5t-146.5 60.5
q-136 0 -221.5 -100t-85.5 -263z" />
    <glyph glyph-name="p" unicode="p" horiz-adv-x="1075" 
d="M311 0l-69 -410h-197l82 482l147 850h193l-47 -283q36 57 78.5 107t95.5 96t116 73t126 27q115 0 174 -90t59 -229q0 -174 -77 -321.5t-214.5 -234.5t-304.5 -87q-87 0 -162 20zM737 760q-58 0 -138.5 -75t-143.5 -172.5t-86 -172.5l-25 -143q61 -37 141 -37
q165 0 274 123t109 299q0 80 -34 129t-97 49z" />
    <glyph glyph-name="q" unicode="q" horiz-adv-x="1077" 
d="M664 -410l127 701q-197 -311 -422 -311q-117 0 -178.5 87t-61.5 236q0 128 46 245.5t125.5 204t194 138t244.5 51.5q105 0 193.5 -27.5t140.5 -70.5l-215 -1254h-194zM467 160q60 0 142.5 77t146.5 176.5t84 172.5l20 143q-64 31 -137 31q-111 0 -201 -58.5t-138 -154
t-48 -207.5q0 -82 32 -131t99 -49z" />
    <glyph glyph-name="r" unicode="r" horiz-adv-x="704" 
d="M119 0l157 922h195l-37 -217q62 102 144.5 169.5t183.5 67.5q56 0 90 -24l-98 -181q-32 19 -70 19q-45 0 -93.5 -37.5t-89 -96t-72.5 -123t-52 -126.5l-62 -373h-196z" />
    <glyph glyph-name="s" unicode="s" horiz-adv-x="786" 
d="M532 258q0 44 -36 79.5t-87 63.5t-102 60.5t-87 86.5t-36 124q0 119 93 194.5t253 75.5q199 0 289 -65l-88 -146q-74 39 -186 39q-74 0 -113 -26t-39 -68q0 -32 25.5 -60.5t63.5 -49t83 -50t83 -61t63.5 -84t25.5 -117.5q0 -131 -100 -202.5t-260 -71.5q-105 0 -189 24
t-129 66l97 139q95 -59 209 -59q167 0 167 108z" />
    <glyph glyph-name="t" unicode="t" horiz-adv-x="684" 
d="M152 350l155 828h193l-45 -256h307l-31 -189h-305l-74 -368q-8 -27 -8 -78q0 -62 23 -89.5t75 -27.5q40 0 82.5 16.5t71.5 38.5l51 -162q-45 -34 -117.5 -57.5t-146.5 -23.5q-121 0 -180.5 67t-59.5 191q0 52 9 110z" />
    <glyph glyph-name="u" unicode="u" horiz-adv-x="1034" 
d="M1040 922l-159 -922h-197l49 285q-35 -57 -75 -106.5t-92.5 -96.5t-115.5 -74.5t-128 -27.5q-99 0 -145 59t-46 151q0 76 21 187l114 545h197l-111 -504q-21 -101 -18 -158q0 -96 72 -96q64 0 147.5 74.5t147.5 173t85 174.5l58 336h196z" />
    <glyph glyph-name="v" unicode="v" horiz-adv-x="864" 
d="M723 922h215q-28 -265 -168.5 -528t-302.5 -402h-143q-46 267 -90 468.5t-115 461.5h213q113 -444 127 -670q114 149 183.5 328.5t80.5 341.5z" />
    <glyph glyph-name="w" unicode="w" horiz-adv-x="1347" 
d="M1204 922h215q-28 -267 -156.5 -526t-291.5 -404h-148q-26 286 -61 465q-60 -144 -140 -266.5t-167 -198.5h-148q-67 478 -188 930h213q99 -394 119 -680q167 224 229 520l-49 160h211q92 -344 116 -680q110 150 173 332t73 348z" />
    <glyph glyph-name="x" unicode="x" horiz-adv-x="925" 
d="M1040 922l-381 -447l244 -475h-219l-164 336l-282 -336h-242l401 471l-229 451h223l148 -320l260 320h241z" />
    <glyph glyph-name="y" unicode="y" horiz-adv-x="882" 
d="M743 922h211q-78 -291 -168.5 -531t-191 -420.5t-211 -280.5t-219.5 -100q-108 0 -184 66l90 151q54 -32 94 -32q62 0 121 62t108 157q-24 161 -108 423t-187 505h217q51 -117 121.5 -334.5t98.5 -354.5q63 140 124.5 338t83.5 351z" />
    <glyph glyph-name="z" unicode="z" horiz-adv-x="874" 
d="M197 733l30 189h721l-22 -144l-574 -592h461l-31 -186h-741l25 143l565 590h-434z" />
    <glyph glyph-name="braceleft" unicode="{" horiz-adv-x="716" 
d="M209 -111l51 283q19 106 -25.5 155t-123.5 46l28 176q78 0 142 53.5t84 171.5l45 256q27 153 110.5 227t249.5 74h141l-32 -188h-93q-86 0 -127.5 -39.5t-60.5 -140.5l-49 -275q-16 -102 -62 -161t-133 -72q68 -9 98 -72.5t15 -161.5l-45 -262q-19 -97 12.5 -139.5
t118.5 -42.5h84l-33 -187h-151q-149 0 -210 71t-34 228z" />
    <glyph glyph-name="bar" unicode="|" horiz-adv-x="686" 
d="M369 0v1434h200v-1434h-200z" />
    <glyph glyph-name="braceright" unicode="}" horiz-adv-x="716" 
d="M520 172l-53 -295q-26 -150 -112.5 -218.5t-235.5 -68.5h-150l33 187h84q88 0 133 42t64 140l49 281q19 110 62.5 165t131.5 68q-74 18 -100.5 85t-11.5 163l45 242q17 99 -9.5 139.5t-109.5 40.5h-96l32 188h138q167 0 225 -75t31 -234l-43 -248q-17 -101 15.5 -163
t127.5 -62l-29 -176q-95 3 -150 -53t-71 -148z" />
    <glyph glyph-name="asciitilde" unicode="~" 
d="M307 610l-90 127q66 72 142.5 114t148.5 42q56 0 122.5 -22.5t118 -49t116.5 -49t118 -22.5q45 0 94.5 26t89.5 68l78 -139q-134 -127 -264 -127q-55 0 -121 22t-117.5 48.5t-114 48.5t-110.5 22q-102 0 -211 -109z" />
    <glyph glyph-name="uni00A0" unicode="&#xa0;" horiz-adv-x="446" 
 />
    <glyph glyph-name="exclamdown" unicode="&#xa1;" horiz-adv-x="634" 
d="M508 471l-172 -971h-213l172 971h213zM590 807q0 -47 -38.5 -85t-98.5 -38q-54 0 -91.5 38.5t-37.5 84.5q0 55 37.5 95t93.5 40q60 0 97.5 -39.5t37.5 -95.5z" />
    <glyph glyph-name="cent" unicode="&#xa2;" 
d="M1004 266l73 -151q-112 -109 -315 -131l-41 -230h-201l45 246q-144 32 -223.5 143t-79.5 250q0 142 54.5 259t161.5 193.5t251 92.5l41 221h199l-39 -223q154 -27 237 -123l-114 -145q-88 88 -244 88q-155 0 -242.5 -95.5t-87.5 -242.5q0 -119 70.5 -186.5t202.5 -67.5
q139 0 252 102z" />
    <glyph glyph-name="sterling" unicode="&#xa3;" 
d="M254 553l27 160h165q-5 20 -22.5 75.5t-27 101t-9.5 93.5q0 204 138 335.5t372 131.5q257 0 381 -166l-127 -145q-99 110 -264 110q-116 0 -195.5 -75t-79.5 -187q0 -60 29 -149.5t35 -124.5h319l-28 -160h-299q-20 -149 -152 -264q37 -7 167.5 -51.5t205.5 -44.5
q66 0 119.5 19.5t117.5 70.5l66 -160q-146 -131 -324 -131q-74 0 -157 26.5t-163.5 53t-146.5 26.5q-109 0 -241 -112l-62 164q99 94 217 135q58 60 93 121t51 147h-205z" />
    <glyph glyph-name="currency" unicode="&#xa4;" 
d="M250 668q0 188 108 311l-151 168l127 119l153 -170q115 71 271 71q85 0 142 -17.5t114 -51.5l186 168l117 -127l-180 -166q63 -102 63 -230q0 -86 -28 -168t-76 -145l145 -160l-127 -118l-151 163q-119 -77 -265 -77q-94 0 -155 20.5t-117 58.5l-184 -167l-119 126
l184 168q-57 93 -57 224zM438 678q0 -120 67 -192t195 -72q140 0 226 96t86 227q0 118 -69 188t-193 70q-133 0 -222.5 -93t-89.5 -224z" />
    <glyph glyph-name="yen" unicode="&#xa5;" 
d="M246 606l26 160h273l-258 668h227l227 -627l455 627h246l-504 -668h274l-28 -160h-365l-33 -192h365l-29 -162h-364l-45 -252h-213l45 252h-363l27 162h364l33 192h-360z" />
    <glyph glyph-name="brokenbar" unicode="&#xa6;" horiz-adv-x="686" 
d="M569 901h-200v533h200v-533zM369 532h200v-532h-200v532z" />
    <glyph glyph-name="section" unicode="&#xa7;" horiz-adv-x="1073" 
d="M213 469q0 149 87.5 262t248.5 146q-54 35 -88.5 96.5t-34.5 132.5q0 144 101 236t268 92q105 0 171 -37t115 -103l-127 -127q-33 38 -67.5 58t-89.5 20q-83 0 -128.5 -46t-45.5 -122q0 -120 127 -194q138 -23 218.5 -111t80.5 -215q0 -160 -92.5 -273t-249.5 -141
q54 -36 88 -97t34 -134q0 -141 -100 -231.5t-274 -90.5q-186 0 -279 140l127 125q60 -78 156 -78q80 0 128 45.5t48 120.5q0 123 -131 196q-134 25 -212.5 112.5t-78.5 217.5zM414 481q0 -74 50 -124t134 -50q119 0 182.5 67.5t63.5 166.5q0 74 -49.5 124t-135.5 50
q-63 0 -112 -21t-77 -55.5t-42 -74.5t-14 -83z" />
    <glyph glyph-name="dieresis" unicode="&#xa8;" horiz-adv-x="888" 
d="M123 1245q0 46 33 76.5t82 30.5q44 0 76 -29.5t32 -77.5q0 -52 -32 -85.5t-76 -33.5q-50 0 -82.5 32t-32.5 87zM541 1245q0 45 33 76t81 31q45 0 78 -29.5t33 -77.5q0 -53 -32.5 -86t-78.5 -33q-50 0 -82 32t-32 87z" />
    <glyph glyph-name="copyright" unicode="&#xa9;" horiz-adv-x="2084" 
d="M233 453q0 184 68.5 348.5t186.5 283.5t284 188.5t352 69.5t352 -69.5t284 -188.5t186.5 -283.5t68.5 -348.5q0 -147 -43.5 -283.5t-124.5 -246t-190 -191t-246.5 -126t-286.5 -44.5t-286.5 44.5t-246.5 126t-190 191t-124.5 246t-43.5 283.5zM406 451
q0 -146 54.5 -277.5t148.5 -228.5t228.5 -154t286.5 -57q202 0 367 97t257.5 261t92.5 359q0 197 -92.5 361t-257.5 260.5t-367 96.5q-152 0 -286 -56.5t-228.5 -153t-149 -229t-54.5 -279.5zM1405 279l94 -144q-57 -75 -152.5 -115t-207.5 -40q-222 0 -359 132t-137 349
q0 203 134 342t337 139q246 0 369 -123l-94 -155q-97 92 -246 92q-117 0 -202 -83t-85 -212q0 -133 87.5 -215t211.5 -82q147 0 250 115z" />
    <glyph glyph-name="ordfeminine" unicode="&#xaa;" horiz-adv-x="890" 
d="M442 1151l-53 125q120 72 268 72q143 0 224.5 -74.5t60.5 -200.5l-76 -426h-174l15 84q-92 -92 -230 -92q-110 0 -171.5 55t-61.5 146q0 112 78.5 178.5t222.5 66.5q122 0 215 -49l2 13q15 74 -22 112.5t-113 38.5q-102 0 -185 -49zM549 784q83 0 178 64l14 78
q-76 37 -161 37q-63 0 -103.5 -27.5t-40.5 -69.5q0 -38 30 -60t83 -22z" />
    <glyph glyph-name="guillemotleft" unicode="&#xab;" horiz-adv-x="1122" 
d="M897 53l-311 467v8l442 439l119 -123l-340 -338l235 -350zM481 53l-311 467l2 8l442 439l117 -123l-340 -338l236 -350z" />
    <glyph glyph-name="logicalnot" unicode="&#xac;" 
d="M229 651v172h992v-442h-177v270h-815z" />
    <glyph glyph-name="uni00AD" unicode="&#xad;" horiz-adv-x="806" 
d="M225 467l25 184h504l-29 -184h-500z" />
    <glyph glyph-name="registered" unicode="&#xae;" horiz-adv-x="1310" 
d="M274 1018q0 112 44.5 215t119.5 177.5t179.5 118.5t218.5 44q113 0 216 -44t178 -118.5t119 -177.5t44 -215q0 -154 -74.5 -283.5t-203 -204.5t-279.5 -75q-153 0 -282.5 75t-204.5 204.5t-75 283.5zM438 1016q0 -165 116.5 -281.5t281.5 -116.5q163 0 280 117t117 281
t-117 280.5t-280 116.5q-166 0 -282 -116.5t-116 -280.5zM758 737h-137v574h219q117 0 173 -50t56 -135q0 -58 -34 -104t-83 -64l138 -221h-160l-109 193h-63v-193zM823 1212h-65v-184h69q47 0 77 27t30 69q0 41 -29 64.5t-82 23.5z" />
    <glyph glyph-name="macron" unicode="&#xaf;" horiz-adv-x="802" 
d="M109 1167l26 160h557l-28 -160h-555z" />
    <glyph glyph-name="degree" unicode="&#xb0;" horiz-adv-x="856" 
d="M283 1163q0 141 95.5 237.5t231.5 96.5q140 0 237 -92t97 -234q0 -138 -98 -236.5t-236 -98.5q-136 0 -231.5 95t-95.5 232zM459 1167q0 -65 45.5 -110t109.5 -45q63 0 109.5 45.5t46.5 109.5q0 63 -46.5 109.5t-109.5 46.5q-64 0 -109.5 -46.5t-45.5 -109.5z" />
    <glyph glyph-name="plusminus" unicode="&#xb1;" 
d="M262 831v175h373v380h188v-380h379v-175h-379v-231h-188v231h-373zM262 328v174h940v-174h-940z" />
    <glyph glyph-name="twosuperior" unicode="&#xb2;" horiz-adv-x="729" 
d="M193 717l24 127q195 111 255 151q192 129 192 222q0 34 -25 55.5t-68 21.5q-54 0 -91 -31.5t-50 -80.5l-143 55q24 97 108 151t195 54q120 0 191 -52t71 -141q0 -55 -26.5 -107.5t-66.5 -92.5t-96.5 -76.5t-108 -61.5t-108.5 -47h377l-26 -147h-604z" />
    <glyph glyph-name="threesuperior" unicode="&#xb3;" horiz-adv-x="729" 
d="M485 705q-93 0 -172 35.5t-116 111.5l106 90q57 -94 189 -94q62 0 100.5 26.5t38.5 71.5q0 32 -32 51t-87 19h-66l21 123h57q60 0 95.5 28.5t35.5 69.5q0 31 -26 48.5t-72 17.5q-119 0 -190 -86l-78 98q103 131 305 131q123 0 190.5 -46.5t67.5 -129.5q0 -65 -56 -115
t-132 -61v-4q70 -6 110.5 -46t40.5 -98q0 -116 -90 -178.5t-240 -62.5z" />
    <glyph glyph-name="acute" unicode="&#xb4;" horiz-adv-x="618" 
d="M496 1380l-254 -297l-119 84l217 332z" />
    <glyph glyph-name="mu" unicode="&#xb5;" horiz-adv-x="1114" 
d="M1137 922l-164 -922h-199l21 119q-56 -60 -135.5 -99.5t-159.5 -39.5q-100 0 -164 51l-78 -441h-199l236 1332h199l-91 -512q-44 -246 166 -246q66 0 134 35t122 90l113 633h199z" />
    <glyph glyph-name="mu" unicode="&#x3bc;" horiz-adv-x="1114" 
d="M1137 922l-164 -922h-199l21 119q-56 -60 -135.5 -99.5t-159.5 -39.5q-100 0 -164 51l-78 -441h-199l236 1332h199l-91 -512q-44 -246 166 -246q66 0 134 35t122 90l113 633h199z" />
    <glyph glyph-name="paragraph" unicode="&#xb6;" horiz-adv-x="974" 
d="M217 985q0 206 124 327.5t323 121.5h387v-189h-193v-1251q0 -420 -360 -420q-72 0 -142 26.5t-110 65.5l82 146q69 -52 155 -52q99 0 137.5 64.5t38.5 177.5v537q-118 1 -217.5 52.5t-162 154.5t-62.5 239z" />
    <glyph glyph-name="periodcentered" unicode="&#xb7;" horiz-adv-x="446" 
d="M205 614q0 51 38 91t101 40q57 0 95 -40t38 -91q0 -58 -37 -98.5t-98 -40.5q-65 0 -101 40t-36 99z" />
    <glyph glyph-name="cedilla" unicode="&#xb8;" horiz-adv-x="745" 
d="M63 -342l76 92q60 -49 148 -49q43 0 69.5 20t26.5 54q0 57 -92 57h-12l30 168h105l-13 -80q88 -4 134.5 -41.5t46.5 -99.5q0 -93 -75.5 -147t-211.5 -54q-152 0 -232 80z" />
    <glyph glyph-name="onesuperior" unicode="&#xb9;" horiz-adv-x="532" 
d="M266 1284l250 150h123l-125 -717h-174l86 508l-113 -66z" />
    <glyph glyph-name="ordmasculine" unicode="&#xba;" horiz-adv-x="974" 
d="M283 995q0 158 105.5 263.5t262.5 105.5q164 0 269.5 -99t105.5 -259q0 -154 -107 -262.5t-268 -108.5t-264.5 100.5t-103.5 259.5zM459 999q0 -89 54.5 -144.5t141.5 -55.5t140 55t53 145q0 85 -55 141t-138 56q-90 0 -143 -55.5t-53 -141.5z" />
    <glyph glyph-name="guillemotright" unicode="&#xbb;" horiz-adv-x="1122" 
d="M815 967l315 -467l-4 -8l-440 -441l-117 123l340 340l-239 348zM401 967l314 -467l-2 -8l-443 -441l-114 123l338 340l-240 348z" />
    <glyph glyph-name="onequarter" unicode="&#xbc;" horiz-adv-x="1404" 
d="M283 1284l249 150h123l-125 -717h-174l86 508l-112 -66zM223 59l1043 1395l114 -84l-1040 -1390zM1083 0l29 152h-397l20 114l410 451h176l-393 -430h209l28 174h164l-33 -174h119l-24 -135h-119l-25 -152h-164z" />
    <glyph glyph-name="onehalf" unicode="&#xbd;" horiz-adv-x="1437" 
d="M283 1284l249 150h123l-125 -717h-174l86 508l-112 -66zM190 59l1043 1395l115 -84l-1041 -1390zM762 0l24 127q195 111 255 151q192 129 192 222q0 35 -24.5 56.5t-67.5 21.5q-54 0 -91.5 -32t-50.5 -81l-143 55q24 97 108 151t195 54q120 0 191 -52t71 -141
q0 -55 -26 -107.5t-66.5 -92.5t-96.5 -76.5t-107.5 -61.5t-108.5 -47h377l-27 -147h-604z" />
    <glyph glyph-name="threequarters" unicode="&#xbe;" horiz-adv-x="1531" 
d="M498 705q-93 0 -172.5 35.5t-116.5 111.5l106 90q57 -94 189 -94q62 0 100.5 26.5t38.5 71.5q0 32 -32 51t-87 19h-65l20 123h58q60 0 95.5 28.5t35.5 69.5q0 31 -26.5 48.5t-72.5 17.5q-119 0 -190 -86l-78 98q103 131 305 131q123 0 190.5 -46.5t67.5 -129.5
q0 -65 -56 -115t-132 -61v-4q70 -6 110.5 -46t40.5 -98q0 -116 -89.5 -178.5t-239.5 -62.5zM354 59l1043 1395l114 -84l-1040 -1390zM1212 0l29 152h-397l20 114l410 451h176l-393 -430h209l28 174h164l-33 -174h119l-24 -135h-119l-25 -152h-164z" />
    <glyph glyph-name="questiondown" unicode="&#xbf;" horiz-adv-x="962" 
d="M262 -147q0 -77 46.5 -124.5t146.5 -47.5q152 0 276 143l121 -135q-167 -209 -440 -209q-175 0 -271 94t-96 236q0 78 27.5 146t71.5 118t97 94.5t107 84t99 77t74.5 83t31.5 93.5h172q1 -67 -24 -125.5t-66 -101.5t-90.5 -83t-99 -77t-91 -75.5t-67 -87t-25.5 -103.5z
M825 827q0 -47 -38 -84.5t-99 -37.5q-53 0 -90 38t-37 84q0 55 36.5 95.5t92.5 40.5q61 0 98 -40t37 -96z" />
    <glyph glyph-name="Agrave" unicode="&#xc0;" horiz-adv-x="1443" 
d="M23 0l860 1440h184l354 -1440h-215l-98 401h-621l-237 -401h-227zM930 1161l-328 -561h459zM1102 1501l-436 170l75 170l418 -219z" />
    <glyph glyph-name="Aacute" unicode="&#xc1;" horiz-adv-x="1443" 
d="M23 0l860 1440h184l354 -1440h-215l-98 401h-621l-237 -401h-227zM930 1161l-328 -561h459zM1303 1671l-437 -170l-57 121l418 219z" />
    <glyph glyph-name="Acircumflex" unicode="&#xc2;" horiz-adv-x="1443" 
d="M23 0l860 1440h184l354 -1440h-215l-98 401h-621l-237 -401h-227zM930 1161l-328 -561h459zM1032 1833l332 -219l-94 -113l-256 164l-318 -164l-57 119l385 213h8z" />
    <glyph glyph-name="Atilde" unicode="&#xc3;" horiz-adv-x="1443" 
d="M23 0l860 1440h184l354 -1440h-215l-98 401h-621l-237 -401h-227zM930 1161l-328 -561h459zM711 1550l-64 125q42 49 101.5 77t115.5 28q63 0 154 -38t145 -38q98 0 156 63l53 -125q-81 -114 -221 -114q-53 0 -149 39t-156 39q-68 0 -135 -56z" />
    <glyph glyph-name="Adieresis" unicode="&#xc4;" horiz-adv-x="1443" 
d="M23 0l860 1440h184l354 -1440h-215l-98 401h-621l-237 -401h-227zM930 1161l-328 -561h459zM1126 1673q0 49 37.5 79t91.5 30q51 0 87 -29.5t36 -77.5q0 -52 -35 -83t-88 -31q-57 0 -93 29.5t-36 82.5zM643 1673q0 49 37.5 79t91.5 30q53 0 89 -29.5t36 -77.5
q0 -51 -35.5 -82.5t-89.5 -31.5q-57 0 -93 29.5t-36 82.5z" />
    <glyph glyph-name="Aring" unicode="&#xc5;" horiz-adv-x="1443" 
d="M23 0l854 1432q-69 23 -110.5 73.5t-41.5 124.5q0 103 76 156t194 53q123 0 200 -52.5t77 -156.5q0 -86 -55 -139.5t-144 -69.5l348 -1421h-215l-100 401h-621l-235 -401h-227zM930 1161l-328 -561h459zM874 1630q0 -51 34.5 -78.5t90.5 -27.5q55 0 89 27.5t34 78.5
q0 50 -33.5 74.5t-89.5 24.5q-57 0 -91 -24.5t-34 -74.5z" />
    <glyph glyph-name="AE" unicode="&#xc6;" horiz-adv-x="1974" 
d="M2079 1434l-35 -201h-610l-74 -410h549l-33 -200h-551l-76 -422h633l-35 -201h-843l69 406h-479l-356 -406h-263l1278 1434h826zM1192 1085l-418 -479h336z" />
    <glyph glyph-name="Ccedilla" unicode="&#xc7;" horiz-adv-x="1351" 
d="M573 -344l74 100q69 -55 156 -55q47 0 72.5 20t25.5 54q0 57 -102 57l24 152q-279 25 -444.5 207t-165.5 458q0 166 61 313t169.5 256t268 172.5t347.5 63.5q145 0 260.5 -35t179.5 -92l-110 -156q-130 84 -328 84q-177 0 -319 -76t-221 -209.5t-79 -297.5
q0 -217 133 -355.5t359 -138.5q208 0 356 109l82 -164q-75 -67 -197.5 -103.5t-246.5 -39.5l-10 -60q98 -4 147 -41t49 -100q0 -94 -79.5 -147.5t-203.5 -53.5q-158 0 -258 78z" />
    <glyph glyph-name="Egrave" unicode="&#xc8;" horiz-adv-x="1177" 
d="M207 0l252 1434h823l-33 -201h-612l-72 -410h549l-35 -200h-551l-73 -422h630l-32 -201h-846zM1067 1501l-436 170l76 170l417 -219z" />
    <glyph glyph-name="Eacute" unicode="&#xc9;" horiz-adv-x="1177" 
d="M207 0l252 1434h823l-33 -201h-612l-72 -410h549l-35 -200h-551l-73 -422h630l-32 -201h-846zM1186 1671l-436 -170l-58 121l418 219z" />
    <glyph glyph-name="Ecircumflex" unicode="&#xca;" horiz-adv-x="1177" 
d="M207 0l252 1434h823l-33 -201h-612l-72 -410h549l-35 -200h-551l-73 -422h630l-32 -201h-846zM934 1833l332 -219l-95 -113l-256 164l-317 -164l-57 119l385 213h8z" />
    <glyph glyph-name="Edieresis" unicode="&#xcb;" horiz-adv-x="1177" 
d="M207 0l252 1434h823l-33 -201h-612l-72 -410h549l-35 -200h-551l-73 -422h630l-32 -201h-846zM1032 1673q0 49 37.5 79t91.5 30q51 0 87 -29.5t36 -77.5q0 -52 -35 -83t-88 -31q-57 0 -93 29.5t-36 82.5zM549 1673q0 49 37.5 79t91.5 30q53 0 89 -29.5t36 -77.5
q0 -51 -35.5 -82.5t-89.5 -31.5q-57 0 -93 29.5t-36 82.5z" />
    <glyph glyph-name="Igrave" unicode="&#xcc;" horiz-adv-x="698" 
d="M242 0l254 1434h213l-254 -1434h-213zM758 1501l-436 170l75 170l418 -219z" />
    <glyph glyph-name="Iacute" unicode="&#xcd;" horiz-adv-x="698" 
d="M242 0l254 1434h213l-254 -1434h-213zM932 1671l-436 -170l-58 121l418 219z" />
    <glyph glyph-name="Icircumflex" unicode="&#xce;" horiz-adv-x="698" 
d="M242 0l254 1434h213l-254 -1434h-213zM662 1833l331 -219l-94 -113l-256 164l-317 -164l-58 119l385 213h9z" />
    <glyph glyph-name="Idieresis" unicode="&#xcf;" horiz-adv-x="698" 
d="M242 0l254 1434h213l-254 -1434h-213zM696 1673q0 49 37.5 79t91.5 30q52 0 87.5 -29.5t35.5 -77.5q0 -52 -35 -83t-88 -31q-57 0 -93 29.5t-36 82.5zM338 1673q0 49 37.5 79t91.5 30q52 0 88.5 -29.5t36.5 -77.5q0 -51 -35.5 -82.5t-89.5 -31.5q-57 0 -93 29.5t-36 82.5
z" />
    <glyph glyph-name="Eth" unicode="&#xd0;" horiz-adv-x="1519" 
d="M106 627l33 188h209l111 619h24q42 0 184.5 3t200.5 3q145 0 262 -30.5t196.5 -85t133 -131t77.5 -165.5t24 -192q0 -140 -39 -265.5t-118.5 -231t-192.5 -182t-270 -119t-343 -42.5q-42 0 -171 2t-194 2h-26l108 627h-209zM827 1241q-64 0 -190 -8l-76 -418h373
l-33 -188h-373l-73 -426q82 -4 184 -4q322 0 507 166.5t185 455.5q0 422 -504 422z" />
    <glyph glyph-name="Ntilde" unicode="&#xd1;" horiz-adv-x="1628" 
d="M1421 0h-172l-653 1085l-190 -1085h-199l252 1434h170l653 -1086l191 1086h198zM815 1550l-63 125q42 49 101.5 77t115.5 28q63 0 154 -38t145 -38q97 0 155 63l54 -125q-81 -114 -222 -114q-53 0 -149 39t-156 39q-68 0 -135 -56z" />
    <glyph glyph-name="Ograve" unicode="&#xd2;" horiz-adv-x="1677" 
d="M213 645q0 168 58.5 316t164 257t261.5 172.5t341 63.5q147 0 272.5 -45.5t215 -129t140 -205.5t50.5 -269q0 -235 -99 -422.5t-282.5 -295t-419.5 -107.5q-169 0 -303.5 51.5t-221 142t-132 211t-45.5 260.5zM442 657q0 -148 64 -258t172.5 -165.5t245.5 -55.5
q247 0 405 167t158 439q0 213 -128 342t-341 129q-160 0 -291 -74t-208 -211.5t-77 -312.5zM1282 1501l-436 170l76 170l417 -219z" />
    <glyph glyph-name="Oacute" unicode="&#xd3;" horiz-adv-x="1677" 
d="M213 645q0 168 58.5 316t164 257t261.5 172.5t341 63.5q147 0 272.5 -45.5t215 -129t140 -205.5t50.5 -269q0 -235 -99 -422.5t-282.5 -295t-419.5 -107.5q-169 0 -303.5 51.5t-221 142t-132 211t-45.5 260.5zM442 657q0 -148 64 -258t172.5 -165.5t245.5 -55.5
q247 0 405 167t158 439q0 213 -128 342t-341 129q-160 0 -291 -74t-208 -211.5t-77 -312.5zM1413 1671l-436 -170l-57 121l417 219z" />
    <glyph glyph-name="Ocircumflex" unicode="&#xd4;" horiz-adv-x="1677" 
d="M213 645q0 168 58.5 316t164 257t261.5 172.5t341 63.5q147 0 272.5 -45.5t215 -129t140 -205.5t50.5 -269q0 -235 -99 -422.5t-282.5 -295t-419.5 -107.5q-169 0 -303.5 51.5t-221 142t-132 211t-45.5 260.5zM442 657q0 -148 64 -258t172.5 -165.5t245.5 -55.5
q247 0 405 167t158 439q0 213 -128 342t-341 129q-160 0 -291 -74t-208 -211.5t-77 -312.5zM1147 1833l332 -219l-95 -113l-256 164l-317 -164l-57 119l385 213h8z" />
    <glyph glyph-name="Otilde" unicode="&#xd5;" horiz-adv-x="1677" 
d="M213 645q0 168 58.5 316t164 257t261.5 172.5t341 63.5q147 0 272.5 -45.5t215 -129t140 -205.5t50.5 -269q0 -235 -99 -422.5t-282.5 -295t-419.5 -107.5q-169 0 -303.5 51.5t-221 142t-132 211t-45.5 260.5zM442 657q0 -148 64 -258t172.5 -165.5t245.5 -55.5
q247 0 405 167t158 439q0 213 -128 342t-341 129q-160 0 -291 -74t-208 -211.5t-77 -312.5zM829 1550l-63 125q42 49 101.5 77t115.5 28q63 0 154 -38t145 -38q98 0 156 63l53 -125q-81 -114 -221 -114q-54 0 -150 39t-155 39q-69 0 -136 -56z" />
    <glyph glyph-name="Odieresis" unicode="&#xd6;" horiz-adv-x="1677" 
d="M213 645q0 168 58.5 316t164 257t261.5 172.5t341 63.5q147 0 272.5 -45.5t215 -129t140 -205.5t50.5 -269q0 -235 -99 -422.5t-282.5 -295t-419.5 -107.5q-169 0 -303.5 51.5t-221 142t-132 211t-45.5 260.5zM442 657q0 -148 64 -258t172.5 -165.5t245.5 -55.5
q247 0 405 167t158 439q0 213 -128 342t-341 129q-160 0 -291 -74t-208 -211.5t-77 -312.5zM1245 1673q0 49 37.5 79t91.5 30q51 0 87 -29.5t36 -77.5q0 -52 -35 -83t-88 -31q-57 0 -93 29.5t-36 82.5zM762 1673q0 49 37.5 79t91.5 30q53 0 89 -29.5t36 -77.5
q0 -51 -35.5 -82.5t-89.5 -31.5q-57 0 -93 29.5t-36 82.5z" />
    <glyph glyph-name="multiply" unicode="&#xd7;" 
d="M340 1008l123 122l270 -270l268 270l123 -122l-268 -271l270 -270l-122 -125l-271 272l-274 -272l-123 125l272 270z" />
    <glyph glyph-name="Oslash" unicode="&#xd8;" horiz-adv-x="1677" 
d="M213 645q0 168 58.5 316t164 257t261.5 172.5t341 63.5q289 0 473 -164l115 99l103 -123l-115 -95q102 -158 102 -366q0 -235 -99 -422.5t-282.5 -295t-419.5 -107.5q-328 0 -518 184l-127 -107l-100 123l131 111q-88 152 -88 354zM1487 784q0 130 -53 236l-861 -711
q134 -131 351 -131q247 0 405 167t158 439zM442 657q0 -120 45 -215l848 703q-119 110 -317 110q-160 0 -291 -74t-208 -211.5t-77 -312.5z" />
    <glyph glyph-name="Ugrave" unicode="&#xd9;" horiz-adv-x="1536" 
d="M1604 1434l-148 -838q-56 -313 -218 -464.5t-450 -151.5q-248 0 -385.5 138.5t-117.5 397.5q4 64 10 102l143 816h217l-141 -783q-10 -49 -10 -106q-24 -365 313 -365q184 0 289.5 117t144.5 342l142 795h211zM1200 1501l-436 170l76 170l417 -219z" />
    <glyph glyph-name="Uacute" unicode="&#xda;" horiz-adv-x="1536" 
d="M1604 1434l-148 -838q-56 -313 -218 -464.5t-450 -151.5q-248 0 -385.5 138.5t-117.5 397.5q4 64 10 102l143 816h217l-141 -783q-10 -49 -10 -106q-24 -365 313 -365q184 0 289.5 117t144.5 342l142 795h211zM1395 1671l-437 -170l-57 121l418 219z" />
    <glyph glyph-name="Ucircumflex" unicode="&#xdb;" horiz-adv-x="1536" 
d="M1604 1434l-148 -838q-56 -313 -218 -464.5t-450 -151.5q-248 0 -385.5 138.5t-117.5 397.5q4 64 10 102l143 816h217l-141 -783q-10 -49 -10 -106q-24 -365 313 -365q184 0 289.5 117t144.5 342l142 795h211zM1079 1833l332 -219l-94 -113l-256 164l-318 -164l-57 119
l385 213h8z" />
    <glyph glyph-name="Udieresis" unicode="&#xdc;" horiz-adv-x="1536" 
d="M1604 1434l-148 -838q-56 -313 -218 -464.5t-450 -151.5q-248 0 -385.5 138.5t-117.5 397.5q4 64 10 102l143 816h217l-141 -783q-10 -49 -10 -106q-24 -365 313 -365q184 0 289.5 117t144.5 342l142 795h211zM1171 1673q0 49 37.5 79t91.5 30q51 0 87 -29.5t36 -77.5
q0 -52 -35 -83t-88 -31q-57 0 -93 29.5t-36 82.5zM688 1673q0 49 37.5 79t91.5 30q53 0 89 -29.5t36 -77.5q0 -51 -35.5 -82.5t-89.5 -31.5q-57 0 -93 29.5t-36 82.5z" />
    <glyph glyph-name="Yacute" unicode="&#xdd;" horiz-adv-x="1247" 
d="M1487 1434l-656 -828l-104 -606h-213l104 606l-354 828h228l262 -625l483 625h250zM1227 1671l-436 -170l-58 121l418 219z" />
    <glyph glyph-name="Thorn" unicode="&#xde;" horiz-adv-x="1239" 
d="M420 0h-213l252 1434h213l-37 -213q22 0 90.5 2t87.5 2q127 0 221 -30t147.5 -84t79 -120t25.5 -145q0 -245 -167 -388t-439 -143q-132 0 -203 9zM788 1024q-29 0 -99.5 -2t-90.5 -2l-86 -496q110 -10 193 -10q162 0 257 83t95 222q0 205 -269 205z" />
    <glyph glyph-name="germandbls" unicode="&#xdf;" horiz-adv-x="1089" 
d="M877 334q0 49 -28 92.5t-67.5 77.5t-79.5 68.5t-68 80t-28 97.5q0 56 18 102.5t45 75.5t59 58.5t59 52t45 55t18 69.5q0 49 -37 79t-96 30q-94 0 -141.5 -62t-67.5 -182l-176 -1032h-197l176 1036q14 79 34 140t53.5 116t79 90t111 55.5t148.5 20.5q140 0 230 -71
t90 -187q0 -63 -25 -112t-60.5 -81.5t-71 -62.5t-60.5 -69.5t-25 -88.5q0 -42 27.5 -80.5t66.5 -71t78 -69t66.5 -91.5t27.5 -122q0 -158 -100 -263t-266 -105q-172 0 -273 131l90 143q69 -94 175 -94q80 0 125 48.5t45 125.5z" />
    <glyph glyph-name="agrave" unicode="&#xe0;" horiz-adv-x="1058" 
d="M920 0h-197l51 291q-195 -311 -405 -311q-119 0 -179.5 87.5t-60.5 231.5q0 180 81 327.5t222 231.5t313 84q99 0 183.5 -20.5t132.5 -47.5zM463 160q60 0 138.5 76.5t139 176t82.5 177.5l29 155q-54 15 -113 15q-179 0 -291 -120.5t-112 -299.5q0 -85 32 -132.5
t95 -47.5zM795 1083l-254 293l157 119l217 -328z" />
    <glyph glyph-name="aacute" unicode="&#xe1;" horiz-adv-x="1058" 
d="M920 0h-197l51 291q-195 -311 -405 -311q-119 0 -179.5 87.5t-60.5 231.5q0 180 81 327.5t222 231.5t313 84q99 0 183.5 -20.5t132.5 -47.5zM463 160q60 0 138.5 76.5t139 176t82.5 177.5l29 155q-54 15 -113 15q-179 0 -291 -120.5t-112 -299.5q0 -85 32 -132.5
t95 -47.5zM1053 1380l-254 -297l-119 84l217 332z" />
    <glyph glyph-name="acircumflex" unicode="&#xe2;" horiz-adv-x="1058" 
d="M920 0h-197l51 291q-195 -311 -405 -311q-119 0 -179.5 87.5t-60.5 231.5q0 180 81 327.5t222 231.5t313 84q99 0 183.5 -20.5t132.5 -47.5zM463 160q60 0 138.5 76.5t139 176t82.5 177.5l29 155q-54 15 -113 15q-179 0 -291 -120.5t-112 -299.5q0 -85 32 -132.5
t95 -47.5zM811 1460l256 -289l-109 -102l-174 199l-245 -199l-82 117l346 274h8z" />
    <glyph glyph-name="atilde" unicode="&#xe3;" horiz-adv-x="1058" 
d="M920 0h-197l51 291q-195 -311 -405 -311q-119 0 -179.5 87.5t-60.5 231.5q0 180 81 327.5t222 231.5t313 84q99 0 183.5 -20.5t132.5 -47.5zM463 160q60 0 138.5 76.5t139 176t82.5 177.5l29 155q-54 15 -113 15q-179 0 -291 -120.5t-112 -299.5q0 -85 32 -132.5
t95 -47.5zM506 1130l-82 93q113 133 238 133q48 0 119.5 -45t113.5 -45q27 0 51.5 9.5t40 20t51.5 39.5l66 -102q-115 -127 -225 -127q-45 0 -118.5 43t-119.5 43q-55 0 -135 -62z" />
    <glyph glyph-name="adieresis" unicode="&#xe4;" horiz-adv-x="1058" 
d="M920 0h-197l51 291q-195 -311 -405 -311q-119 0 -179.5 87.5t-60.5 231.5q0 180 81 327.5t222 231.5t313 84q99 0 183.5 -20.5t132.5 -47.5zM463 160q60 0 138.5 76.5t139 176t82.5 177.5l29 155q-54 15 -113 15q-179 0 -291 -120.5t-112 -299.5q0 -85 32 -132.5
t95 -47.5zM451 1245q0 46 32.5 76.5t81.5 30.5q45 0 77 -29.5t32 -77.5q0 -52 -32.5 -85.5t-76.5 -33.5q-50 0 -82 32t-32 87zM868 1245q0 45 33.5 76t81.5 31q45 0 78 -29.5t33 -77.5q0 -53 -32.5 -86t-78.5 -33q-51 0 -83 32t-32 87z" />
    <glyph glyph-name="aring" unicode="&#xe5;" horiz-adv-x="1058" 
d="M920 0h-197l51 291q-195 -311 -405 -311q-119 0 -179.5 87.5t-60.5 231.5q0 180 81 327.5t222 231.5t313 84q99 0 183.5 -20.5t132.5 -47.5zM463 160q60 0 138.5 76.5t139 176t82.5 177.5l29 155q-54 15 -113 15q-179 0 -291 -120.5t-112 -299.5q0 -85 32 -132.5
t95 -47.5zM524 1266q0 98 70.5 166.5t175.5 68.5q106 0 178 -68.5t72 -166.5q0 -99 -71.5 -167.5t-178.5 -68.5q-105 0 -175.5 68.5t-70.5 167.5zM651 1266q0 -53 34.5 -89t86.5 -36q51 0 84 36t33 89t-33 89t-84 36q-52 0 -86.5 -36t-34.5 -89z" />
    <glyph glyph-name="ae" unicode="&#xe6;" horiz-adv-x="1613" 
d="M782 287q-39 -62 -77 -110.5t-89.5 -96t-114.5 -74t-132 -26.5q-119 0 -179.5 87t-60.5 234q0 177 81 324.5t222.5 232t312.5 84.5q183 0 304 -82q126 82 297 82q155 0 223 -65.5t65 -167.5q0 -157 -164 -246.5t-491 -106.5q3 -99 62 -149.5t155 -50.5q121 0 270 106
l86 -115q-72 -73 -176 -120t-217 -47q-163 0 -262 86t-115 221zM463 160q59 0 136 74.5t136 170.5t86 177q35 94 68 141q-61 37 -168 37q-162 0 -273.5 -123t-111.5 -297q0 -85 32 -132.5t95 -47.5zM1319 766q-119 0 -207.5 -78t-118.5 -196q437 28 437 184q3 43 -26 66.5
t-85 23.5z" />
    <glyph glyph-name="ccedilla" unicode="&#xe7;" horiz-adv-x="917" 
d="M205 -342l74 92q60 -49 147 -49q44 0 71 20t27 54q0 57 -92 57h-12l26 152q-80 7 -142 40t-99 83.5t-55.5 110.5t-18.5 126q0 117 39.5 224.5t109.5 191t176.5 133t231.5 49.5q181 0 266 -70l-88 -163q-76 47 -194 47q-143 0 -235.5 -108.5t-92.5 -262.5
q0 -100 53.5 -160.5t145.5 -60.5q111 0 256 112l82 -129q-64 -67 -150 -111t-182 -54l-8 -62q90 -6 136 -42.5t46 -98.5q0 -93 -77 -147t-216 -54q-149 0 -225 80z" />
    <glyph glyph-name="egrave" unicode="&#xe8;" horiz-adv-x="966" 
d="M819 262l86 -115q-73 -73 -176.5 -120t-216.5 -47q-94 0 -168.5 29.5t-120.5 80t-70 114.5t-24 136q0 117 39 225t110 192.5t179 134.5t237 50q151 0 223.5 -63t69.5 -170q0 -156 -164 -247t-491 -106q3 -99 61 -149.5t156 -50.5q121 0 270 106zM672 766
q-119 0 -207.5 -78t-118.5 -196q436 28 436 184q3 43 -26.5 66.5t-83.5 23.5zM795 1083l-254 293l157 119l217 -328z" />
    <glyph glyph-name="eacute" unicode="&#xe9;" horiz-adv-x="966" 
d="M819 262l86 -115q-73 -73 -176.5 -120t-216.5 -47q-94 0 -168.5 29.5t-120.5 80t-70 114.5t-24 136q0 117 39 225t110 192.5t179 134.5t237 50q151 0 223.5 -63t69.5 -170q0 -156 -164 -247t-491 -106q3 -99 61 -149.5t156 -50.5q121 0 270 106zM672 766
q-119 0 -207.5 -78t-118.5 -196q436 28 436 184q3 43 -26.5 66.5t-83.5 23.5zM1055 1380l-254 -297l-119 84l217 332z" />
    <glyph glyph-name="ecircumflex" unicode="&#xea;" horiz-adv-x="966" 
d="M819 262l86 -115q-73 -73 -176.5 -120t-216.5 -47q-94 0 -168.5 29.5t-120.5 80t-70 114.5t-24 136q0 117 39 225t110 192.5t179 134.5t237 50q151 0 223.5 -63t69.5 -170q0 -156 -164 -247t-491 -106q3 -99 61 -149.5t156 -50.5q121 0 270 106zM672 766
q-119 0 -207.5 -78t-118.5 -196q436 28 436 184q3 43 -26.5 66.5t-83.5 23.5zM795 1460l256 -289l-109 -102l-174 199l-246 -199l-82 117l346 274h9z" />
    <glyph glyph-name="edieresis" unicode="&#xeb;" horiz-adv-x="966" 
d="M819 262l86 -115q-73 -73 -176.5 -120t-216.5 -47q-94 0 -168.5 29.5t-120.5 80t-70 114.5t-24 136q0 117 39 225t110 192.5t179 134.5t237 50q151 0 223.5 -63t69.5 -170q0 -156 -164 -247t-491 -106q3 -99 61 -149.5t156 -50.5q121 0 270 106zM672 766
q-119 0 -207.5 -78t-118.5 -196q436 28 436 184q3 43 -26.5 66.5t-83.5 23.5zM406 1245q0 46 32.5 76.5t81.5 30.5q45 0 77 -29.5t32 -77.5q0 -52 -32.5 -85.5t-76.5 -33.5q-50 0 -82 32t-32 87zM823 1245q0 45 33.5 76t81.5 31q45 0 78 -29.5t33 -77.5q0 -53 -32.5 -86
t-78.5 -33q-50 0 -82.5 32t-32.5 87z" />
    <glyph glyph-name="igrave" unicode="&#xec;" horiz-adv-x="514" 
d="M139 0l156 922h197l-160 -922h-193zM434 1083l-254 293l158 119l217 -328z" />
    <glyph glyph-name="iacute" unicode="&#xed;" horiz-adv-x="514" 
d="M139 0l156 922h197l-160 -922h-193zM713 1380l-254 -297l-119 84l217 332z" />
    <glyph glyph-name="icircumflex" unicode="&#xee;" horiz-adv-x="514" 
d="M139 0l156 922h197l-160 -922h-193zM496 1460l256 -289l-109 -102l-174 199l-246 -199l-82 117l346 274h9z" />
    <glyph glyph-name="idieresis" unicode="&#xef;" horiz-adv-x="512" 
d="M500 1241q0 43 31 72.5t75 29.5q41 0 70 -28.5t29 -73.5t-28.5 -75.5t-70.5 -30.5q-47 0 -76.5 28.5t-29.5 77.5zM201 1241q0 43 30.5 72.5t75.5 29.5q41 0 71 -29t30 -73q0 -45 -30 -75.5t-71 -30.5q-47 0 -76.5 28.5t-29.5 77.5zM139 0l156 922h192l-155 -922h-193z
" />
    <glyph glyph-name="eth" unicode="&#xf0;" horiz-adv-x="1093" 
d="M778 1135l-248 -136l-47 164l189 103q-103 85 -191 131l217 57q83 -37 154 -98l197 110l38 -168l-124 -69q143 -189 143 -455q0 -126 -20.5 -240t-66 -216.5t-113 -176.5t-167.5 -117.5t-223 -43.5q-177 0 -282 105t-105 277q0 88 23.5 171.5t70 154.5t111 125t152 84.5
t186.5 30.5q140 0 227 -76q-9 78 -41.5 154t-79.5 129zM334 397q0 -109 57.5 -173t153.5 -64q102 0 180.5 67.5t120.5 172t55 235.5q-95 110 -250 110q-141 0 -229 -97t-88 -251z" />
    <glyph glyph-name="ntilde" unicode="&#xf1;" horiz-adv-x="1069" 
d="M373 340l-58 -340h-196l157 922h195l-49 -285q38 58 82.5 108t99.5 96.5t119.5 73.5t128.5 27q97 0 143.5 -59t46.5 -150q0 -93 -22 -198l-100 -535h-195l98 502q18 126 17 157q0 97 -74 97q-65 0 -150 -73t-151.5 -169t-91.5 -174zM504 1130l-82 93q113 133 237 133
q48 0 120 -45t114 -45q27 0 51.5 9.5t40 20t51.5 39.5l66 -102q-115 -127 -225 -127q-45 0 -118.5 43t-119.5 43q-55 0 -135 -62z" />
    <glyph glyph-name="ograve" unicode="&#xf2;" horiz-adv-x="1052" 
d="M129 362q0 92 23 177.5t69.5 158.5t111 127.5t153 85.5t190.5 31q173 0 270.5 -101.5t97.5 -275.5q0 -169 -63.5 -301t-184 -208t-280.5 -76q-177 0 -282 105t-105 277zM336 397q0 -112 58 -174.5t155 -62.5q135 0 213 103.5t78 264.5q0 111 -50.5 171.5t-146.5 60.5
q-136 0 -221.5 -100t-85.5 -263zM721 1083l-254 293l158 119l217 -328z" />
    <glyph glyph-name="oacute" unicode="&#xf3;" horiz-adv-x="1052" 
d="M129 362q0 92 23 177.5t69.5 158.5t111 127.5t153 85.5t190.5 31q173 0 270.5 -101.5t97.5 -275.5q0 -169 -63.5 -301t-184 -208t-280.5 -76q-177 0 -282 105t-105 277zM336 397q0 -112 58 -174.5t155 -62.5q135 0 213 103.5t78 264.5q0 111 -50.5 171.5t-146.5 60.5
q-136 0 -221.5 -100t-85.5 -263zM1032 1380l-254 -297l-119 84l218 332z" />
    <glyph glyph-name="ocircumflex" unicode="&#xf4;" horiz-adv-x="1052" 
d="M129 362q0 92 23 177.5t69.5 158.5t111 127.5t153 85.5t190.5 31q173 0 270.5 -101.5t97.5 -275.5q0 -169 -63.5 -301t-184 -208t-280.5 -76q-177 0 -282 105t-105 277zM336 397q0 -112 58 -174.5t155 -62.5q135 0 213 103.5t78 264.5q0 111 -50.5 171.5t-146.5 60.5
q-136 0 -221.5 -100t-85.5 -263zM778 1460l256 -289l-108 -102l-174 199l-246 -199l-82 117l346 274h8z" />
    <glyph glyph-name="otilde" unicode="&#xf5;" horiz-adv-x="1052" 
d="M129 362q0 92 23 177.5t69.5 158.5t111 127.5t153 85.5t190.5 31q173 0 270.5 -101.5t97.5 -275.5q0 -169 -63.5 -301t-184 -208t-280.5 -76q-177 0 -282 105t-105 277zM336 397q0 -112 58 -174.5t155 -62.5q135 0 213 103.5t78 264.5q0 111 -50.5 171.5t-146.5 60.5
q-136 0 -221.5 -100t-85.5 -263zM487 1130l-81 93q113 133 237 133q48 0 120 -45t114 -45q27 0 51.5 9.5t40 20t51.5 39.5l65 -102q-115 -127 -225 -127q-45 0 -118 43t-119 43q-56 0 -136 -62z" />
    <glyph glyph-name="odieresis" unicode="&#xf6;" horiz-adv-x="1052" 
d="M129 362q0 92 23 177.5t69.5 158.5t111 127.5t153 85.5t190.5 31q173 0 270.5 -101.5t97.5 -275.5q0 -169 -63.5 -301t-184 -208t-280.5 -76q-177 0 -282 105t-105 277zM336 397q0 -112 58 -174.5t155 -62.5q135 0 213 103.5t78 264.5q0 111 -50.5 171.5t-146.5 60.5
q-136 0 -221.5 -100t-85.5 -263zM426 1245q0 46 33 76.5t82 30.5q44 0 76 -29.5t32 -77.5q0 -52 -32 -85.5t-76 -33.5q-51 0 -83 32t-32 87zM844 1245q0 45 33 76t81 31q45 0 78 -29.5t33 -77.5q0 -53 -32.5 -86t-78.5 -33q-50 0 -82 32t-32 87z" />
    <glyph glyph-name="divide" unicode="&#xf7;" 
d="M610 1147q0 46 33.5 81.5t89.5 35.5q53 0 86 -35.5t33 -81.5q0 -49 -33 -86t-86 -37q-56 0 -89.5 37t-33.5 86zM610 328q0 44 34 79t89 35q50 0 84.5 -35.5t34.5 -78.5q0 -50 -33 -86.5t-86 -36.5q-56 0 -89.5 36.5t-33.5 86.5zM262 651v172h940v-172h-940z" />
    <glyph glyph-name="oslash" unicode="&#xf8;" horiz-adv-x="1052" 
d="M129 362q0 92 23 177.5t69.5 158.5t111 127.5t153 85.5t190.5 31q157 0 256 -86l86 76l92 -109l-96 -86q30 -73 30 -172q0 -169 -63.5 -301t-184 -208t-280.5 -76q-162 0 -262 86l-100 -91l-93 107l107 94q-39 86 -39 186zM840 528q0 38 -2 54l-426 -377q57 -45 137 -45
q135 0 213 103.5t78 264.5zM336 397q0 -47 4 -65l434 381q-47 47 -131 47q-136 0 -221.5 -100t-85.5 -263z" />
    <glyph glyph-name="ugrave" unicode="&#xf9;" horiz-adv-x="1034" 
d="M1040 922l-159 -922h-197l49 285q-35 -57 -75 -106.5t-92.5 -96.5t-115.5 -74.5t-128 -27.5q-99 0 -145 59t-46 151q0 76 21 187l114 545h197l-111 -504q-21 -101 -18 -158q0 -96 72 -96q64 0 147.5 74.5t147.5 173t85 174.5l58 336h196zM713 1083l-254 293l157 119
l218 -328z" />
    <glyph glyph-name="uacute" unicode="&#xfa;" horiz-adv-x="1034" 
d="M1040 922l-159 -922h-197l49 285q-35 -57 -75 -106.5t-92.5 -96.5t-115.5 -74.5t-128 -27.5q-99 0 -145 59t-46 151q0 76 21 187l114 545h197l-111 -504q-21 -101 -18 -158q0 -96 72 -96q64 0 147.5 74.5t147.5 173t85 174.5l58 336h196zM985 1380l-254 -297l-119 84
l217 332z" />
    <glyph glyph-name="ucircumflex" unicode="&#xfb;" horiz-adv-x="1034" 
d="M1040 922l-159 -922h-197l49 285q-35 -57 -75 -106.5t-92.5 -96.5t-115.5 -74.5t-128 -27.5q-99 0 -145 59t-46 151q0 76 21 187l114 545h197l-111 -504q-21 -101 -18 -158q0 -96 72 -96q64 0 147.5 74.5t147.5 173t85 174.5l58 336h196zM770 1460l256 -289l-108 -102
l-175 199l-245 -199l-82 117l346 274h8z" />
    <glyph glyph-name="udieresis" unicode="&#xfc;" horiz-adv-x="1034" 
d="M1040 922l-159 -922h-197l49 285q-35 -57 -75 -106.5t-92.5 -96.5t-115.5 -74.5t-128 -27.5q-99 0 -145 59t-46 151q0 76 21 187l114 545h197l-111 -504q-21 -101 -18 -158q0 -96 72 -96q64 0 147.5 74.5t147.5 173t85 174.5l58 336h196zM416 1245q0 46 32.5 76.5
t81.5 30.5q45 0 77 -29.5t32 -77.5q0 -52 -32.5 -85.5t-76.5 -33.5q-50 0 -82 32t-32 87zM834 1245q0 45 33 76t81 31q45 0 78 -29.5t33 -77.5q0 -53 -32.5 -86t-78.5 -33q-50 0 -82 32t-32 87z" />
    <glyph glyph-name="yacute" unicode="&#xfd;" horiz-adv-x="882" 
d="M743 922h211q-78 -291 -168.5 -531t-191 -420.5t-211 -280.5t-219.5 -100q-108 0 -184 66l90 151q54 -32 94 -32q62 0 121 62t108 157q-24 161 -108 423t-187 505h217q51 -117 121.5 -334.5t98.5 -354.5q63 140 124.5 338t83.5 351zM872 1380l-254 -297l-118 84l217 332z
" />
    <glyph glyph-name="thorn" unicode="&#xfe;" horiz-adv-x="1075" 
d="M311 0l-69 -410h-197q75 442 86 496l231 1348h195l-137 -795q36 57 78.5 107t95.5 96t116 73t126 27q115 0 174 -90t59 -229q0 -174 -77 -321.5t-214.5 -234.5t-304.5 -87q-87 0 -162 20zM737 760q-58 0 -138.5 -75t-143.5 -172.5t-86 -172.5l-25 -143q61 -37 141 -37
q165 0 274 123t109 299q0 80 -34 129t-97 49z" />
    <glyph glyph-name="ydieresis" unicode="&#xff;" horiz-adv-x="882" 
d="M743 922h211q-78 -291 -168.5 -531t-191 -420.5t-211 -280.5t-219.5 -100q-108 0 -184 66l90 151q54 -32 94 -32q62 0 121 62t108 157q-24 161 -108 423t-187 505h217q51 -117 121.5 -334.5t98.5 -354.5q63 140 124.5 338t83.5 351zM262 1245q0 46 33 76.5t82 30.5
q44 0 76 -29.5t32 -77.5q0 -52 -32 -85.5t-76 -33.5q-51 0 -83 32t-32 87zM680 1245q0 45 33.5 76t81.5 31q45 0 77.5 -29.5t32.5 -77.5q0 -53 -32 -86t-78 -33q-51 0 -83 32t-32 87z" />
    <glyph glyph-name="Amacron" unicode="&#x100;" horiz-adv-x="1443" 
d="M23 0l860 1440h184l354 -1440h-215l-98 401h-621l-237 -401h-227zM930 1161l-328 -561h459zM684 1567l29 162h628l-28 -162h-629z" />
    <glyph glyph-name="amacron" unicode="&#x101;" horiz-adv-x="1058" 
d="M920 0h-197l51 291q-195 -311 -405 -311q-119 0 -179.5 87.5t-60.5 231.5q0 180 81 327.5t222 231.5t313 84q99 0 183.5 -20.5t132.5 -47.5zM463 160q60 0 138.5 76.5t139 176t82.5 177.5l29 155q-54 15 -113 15q-179 0 -291 -120.5t-112 -299.5q0 -85 32 -132.5
t95 -47.5zM492 1167l26 160h557l-28 -160h-555z" />
    <glyph glyph-name="Abreve" unicode="&#x102;" horiz-adv-x="1443" 
d="M23 0l860 1440h184l354 -1440h-215l-98 401h-621l-237 -401h-227zM930 1161l-328 -561h459zM641 1720l104 103q101 -131 271 -131q178 0 309 131l66 -113q-65 -84 -170 -138t-226 -54q-123 0 -217.5 55.5t-136.5 146.5z" />
    <glyph glyph-name="abreve" unicode="&#x103;" horiz-adv-x="1058" 
d="M920 0h-197l51 291q-195 -311 -405 -311q-119 0 -179.5 87.5t-60.5 231.5q0 180 81 327.5t222 231.5t313 84q99 0 183.5 -20.5t132.5 -47.5zM463 160q60 0 138.5 76.5t139 176t82.5 177.5l29 155q-54 15 -113 15q-179 0 -291 -120.5t-112 -299.5q0 -85 32 -132.5
t95 -47.5zM498 1307l104 98q16 -23 30.5 -40t40 -37t60.5 -31t78 -11q71 0 138 34t116 83l61 -105q-159 -176 -335 -176q-114 0 -186.5 55t-106.5 130z" />
    <glyph glyph-name="Aogonek" unicode="&#x104;" horiz-adv-x="1443" 
d="M1311 -233l45 -127q-32 -25 -86.5 -39.5t-114.5 -14.5q-103 0 -172.5 44t-69.5 124q0 96 81 163t208 95l-94 389h-621l-237 -401h-227l860 1440h184l354 -1440h-41q-99 -3 -176.5 -53t-77.5 -117q0 -40 29 -60t66 -20q43 0 90 17zM930 1161l-328 -561h459z" />
    <glyph glyph-name="aogonek" unicode="&#x105;" horiz-adv-x="1058" 
d="M840 -233l45 -123q-79 -58 -213 -58q-97 0 -163.5 43.5t-66.5 132.5q0 90 80 155t203 95l49 279q-195 -311 -405 -311q-119 0 -179.5 87.5t-60.5 231.5q0 180 81 327.5t222 231.5t313 84q99 0 183.5 -20.5t132.5 -47.5l-141 -874h-15q-100 -3 -175 -52.5t-75 -117.5
q0 -41 27 -60.5t68 -19.5q43 0 90 17zM463 160q60 0 138.5 76.5t139 176t82.5 177.5l29 155q-54 15 -113 15q-179 0 -291 -120.5t-112 -299.5q0 -85 32 -132.5t95 -47.5z" />
    <glyph glyph-name="Cacute" unicode="&#x106;" horiz-adv-x="1351" 
d="M1290 287l82 -164q-79 -69 -207.5 -106t-255.5 -37q-157 0 -288 49.5t-220 138t-138.5 212t-49.5 269.5q0 166 61 313t169.5 256t268 172.5t347.5 63.5q145 0 260.5 -35t179.5 -92l-110 -156q-130 84 -328 84q-177 0 -319 -76t-221 -209.5t-79 -297.5q0 -217 133 -355.5
t359 -138.5q208 0 356 109zM1393 1671l-437 -170l-57 121l418 219z" />
    <glyph glyph-name="cacute" unicode="&#x107;" horiz-adv-x="909" 
d="M784 268l88 -121q-68 -74 -168 -120.5t-212 -46.5q-92 0 -163.5 29.5t-114 80.5t-64 114t-21.5 136q0 116 37.5 223.5t106.5 192.5t176.5 135.5t238.5 50.5q171 0 248 -53l-68 -160q-87 31 -192 31q-78 0 -143 -31.5t-107.5 -84.5t-66 -122t-23.5 -145q0 -99 51.5 -158
t144.5 -59q107 0 252 108zM1004 1380l-254 -297l-119 84l217 332z" />
    <glyph glyph-name="Ccircumflex" unicode="&#x108;" horiz-adv-x="1351" 
d="M1290 287l82 -164q-79 -69 -207.5 -106t-255.5 -37q-157 0 -288 49.5t-220 138t-138.5 212t-49.5 269.5q0 166 61 313t169.5 256t268 172.5t347.5 63.5q145 0 260.5 -35t179.5 -92l-110 -156q-130 84 -328 84q-177 0 -319 -76t-221 -209.5t-79 -297.5q0 -217 133 -355.5
t359 -138.5q208 0 356 109zM1116 1833l332 -219l-94 -113l-256 164l-318 -164l-57 119l385 213h8z" />
    <glyph glyph-name="ccircumflex" unicode="&#x109;" horiz-adv-x="909" 
d="M784 268l88 -121q-68 -74 -168 -120.5t-212 -46.5q-92 0 -163.5 29.5t-114 80.5t-64 114t-21.5 136q0 116 37.5 223.5t106.5 192.5t176.5 135.5t238.5 50.5q171 0 248 -53l-68 -160q-87 31 -192 31q-78 0 -143 -31.5t-107.5 -84.5t-66 -122t-23.5 -145q0 -99 51.5 -158
t144.5 -59q107 0 252 108zM774 1460l256 -289l-108 -102l-174 199l-246 -199l-82 117l346 274h8z" />
    <glyph glyph-name="Cdotaccent" unicode="&#x10a;" horiz-adv-x="1351" 
d="M1290 287l82 -164q-79 -69 -207.5 -106t-255.5 -37q-157 0 -288 49.5t-220 138t-138.5 212t-49.5 269.5q0 166 61 313t169.5 256t268 172.5t347.5 63.5q145 0 260.5 -35t179.5 -92l-110 -156q-130 84 -328 84q-177 0 -319 -76t-221 -209.5t-79 -297.5q0 -217 133 -355.5
t359 -138.5q208 0 356 109zM954 1688q0 56 41 89t99 33q53 0 92 -33t39 -89q0 -61 -39 -96.5t-92 -35.5q-59 0 -99.5 35t-40.5 97z" />
    <glyph glyph-name="cdotaccent" unicode="&#x10b;" horiz-adv-x="909" 
d="M784 268l88 -121q-68 -74 -168 -120.5t-212 -46.5q-92 0 -163.5 29.5t-114 80.5t-64 114t-21.5 136q0 116 37.5 223.5t106.5 192.5t176.5 135.5t238.5 50.5q171 0 248 -53l-68 -160q-87 31 -192 31q-78 0 -143 -31.5t-107.5 -84.5t-66 -122t-23.5 -145q0 -99 51.5 -158
t144.5 -59q107 0 252 108zM649 1270q0 54 36 86.5t89 32.5q47 0 84 -33t37 -86q0 -57 -37 -92t-84 -35q-53 0 -89 34.5t-36 92.5z" />
    <glyph glyph-name="Ccaron" unicode="&#x10c;" horiz-adv-x="1351" 
d="M1290 287l82 -164q-79 -69 -207.5 -106t-255.5 -37q-157 0 -288 49.5t-220 138t-138.5 212t-49.5 269.5q0 166 61 313t169.5 256t268 172.5t347.5 63.5q145 0 260.5 -35t179.5 -92l-110 -156q-130 84 -328 84q-177 0 -319 -76t-221 -209.5t-79 -297.5q0 -217 133 -355.5
t359 -138.5q208 0 356 109zM1067 1507l-330 219l94 115l254 -164l316 164l61 -121l-387 -213h-8z" />
    <glyph glyph-name="ccaron" unicode="&#x10d;" horiz-adv-x="909" 
d="M784 268l88 -121q-68 -74 -168 -120.5t-212 -46.5q-92 0 -163.5 29.5t-114 80.5t-64 114t-21.5 136q0 116 37.5 223.5t106.5 192.5t176.5 135.5t238.5 50.5q171 0 248 -53l-68 -160q-87 31 -192 31q-78 0 -143 -31.5t-107.5 -84.5t-66 -122t-23.5 -145q0 -99 51.5 -158
t144.5 -59q107 0 252 108zM719 1073l-256 285l106 108l176 -200l246 196l82 -119l-346 -270h-8z" />
    <glyph glyph-name="Dcaron" unicode="&#x10e;" horiz-adv-x="1519" 
d="M207 0l252 1434h24q43 0 184.5 3t196.5 3q146 0 264 -31t198 -85t133.5 -130.5t77.5 -165.5t24 -192q0 -177 -64 -330t-183 -266.5t-302.5 -178.5t-409.5 -65q-46 0 -175 2t-194 2h-26zM831 1241q-68 0 -194 -8l-182 -1032q82 -4 184 -4q323 0 507.5 167t184.5 459
q0 202 -124.5 310t-375.5 108zM965 1507l-330 219l94 115l254 -164l315 164l62 -121l-387 -213h-8z" />
    <glyph glyph-name="dcaron" unicode="&#x10f;" horiz-adv-x="1118" 
d="M754 0l49 287q-35 -56 -78 -106.5t-97.5 -97.5t-121 -75t-133.5 -28q-117 0 -180.5 87t-63.5 232q0 172 79 319.5t220 235.5t311 88q88 0 170 -20l90 512h201l-250 -1434h-196zM471 160q60 0 144 76t150 174.5t87 171.5l27 143q-61 35 -150 35q-168 0 -281.5 -123
t-113.5 -297q0 -82 35.5 -131t101.5 -49zM1397 1434h196q0 -6 1 -22t1 -23q0 -64 -22.5 -124t-60.5 -105.5t-80.5 -79t-88.5 -56.5l-75 86q62 51 99.5 120t37.5 140q0 32 -8 64z" />
    <glyph glyph-name="Dcroat" unicode="&#x110;" horiz-adv-x="1519" 
d="M106 627l33 188h209l111 619h24q42 0 184.5 3t200.5 3q145 0 262 -30.5t196.5 -85t133 -131t77.5 -165.5t24 -192q0 -140 -39 -265.5t-118.5 -231t-192.5 -182t-270 -119t-343 -42.5q-42 0 -171 2t-194 2h-26l108 627h-209zM827 1241q-64 0 -190 -8l-76 -418h373
l-33 -188h-373l-73 -426q82 -4 184 -4q322 0 507 166.5t185 455.5q0 422 -504 422z" />
    <glyph glyph-name="dcroat" unicode="&#x111;" horiz-adv-x="1081" 
d="M735 0l47 287q-36 -57 -77 -106.5t-94 -97.5t-116.5 -75.5t-129.5 -27.5q-114 0 -175 87t-61 232q0 129 45 247t123 205t188.5 139t235.5 52q86 0 164 -20l26 157h-284l28 162h283l37 193h192l-32 -193h168l-27 -162h-170l-180 -1079h-191zM461 160q58 0 139.5 76
t145 174.5t83.5 171.5l27 143q-65 35 -145 35q-107 0 -195.5 -57t-138 -153.5t-49.5 -209.5q0 -81 35 -130.5t98 -49.5z" />
    <glyph glyph-name="Emacron" unicode="&#x112;" horiz-adv-x="1177" 
d="M207 0l252 1434h823l-33 -201h-612l-72 -410h549l-35 -200h-551l-73 -422h630l-32 -201h-846zM578 1567l28 162h629l-29 -162h-628z" />
    <glyph glyph-name="emacron" unicode="&#x113;" horiz-adv-x="966" 
d="M819 262l86 -115q-73 -73 -176.5 -120t-216.5 -47q-94 0 -168.5 29.5t-120.5 80t-70 114.5t-24 136q0 117 39 225t110 192.5t179 134.5t237 50q151 0 223.5 -63t69.5 -170q0 -156 -164 -247t-491 -106q3 -99 61 -149.5t156 -50.5q121 0 270 106zM672 766
q-119 0 -207.5 -78t-118.5 -196q436 28 436 184q3 43 -26.5 66.5t-83.5 23.5zM461 1167l26 160h557l-28 -160h-555z" />
    <glyph glyph-name="Edotaccent" unicode="&#x116;" horiz-adv-x="1177" 
d="M207 0l252 1434h823l-33 -201h-612l-72 -410h549l-35 -200h-551l-73 -422h630l-32 -201h-846zM782 1688q0 56 41 89t99 33q53 0 92 -33t39 -89q0 -61 -39 -96.5t-92 -35.5q-59 0 -99.5 35t-40.5 97z" />
    <glyph glyph-name="edotaccent" unicode="&#x117;" horiz-adv-x="966" 
d="M819 262l86 -115q-73 -73 -176.5 -120t-216.5 -47q-94 0 -168.5 29.5t-120.5 80t-70 114.5t-24 136q0 117 39 225t110 192.5t179 134.5t237 50q151 0 223.5 -63t69.5 -170q0 -156 -164 -247t-491 -106q3 -99 61 -149.5t156 -50.5q121 0 270 106zM672 766
q-119 0 -207.5 -78t-118.5 -196q436 28 436 184q3 43 -26.5 66.5t-83.5 23.5zM639 1270q0 54 36 86.5t89 32.5q47 0 84 -33t37 -86q0 -57 -37 -92t-84 -35q-53 0 -89 34.5t-36 92.5z" />
    <glyph glyph-name="Eogonek" unicode="&#x118;" horiz-adv-x="1177" 
d="M207 0l252 1434h823l-33 -201h-612l-72 -410h549l-35 -200h-551l-73 -422h630l-32 -201h-9q-102 -3 -179 -52.5t-77 -117.5q0 -40 29.5 -60t67.5 -20q39 0 86 17l49 -127q-74 -54 -205 -54q-101 0 -170.5 44.5t-69.5 123.5q0 85 65.5 148t170.5 98h-604z" />
    <glyph glyph-name="eogonek" unicode="&#x119;" horiz-adv-x="966" 
d="M721 -233l45 -123q-79 -58 -213 -58q-97 0 -163 43t-66 129q0 121 180 222q-122 1 -209 53.5t-126.5 132t-39.5 174.5q0 117 39 225t110 192.5t179 134.5t237 50q151 0 223.5 -63t69.5 -170q0 -156 -164 -247t-491 -106q3 -99 61 -149.5t156 -50.5q121 0 270 106l86 -115
q-85 -88 -213 -137q-155 -89 -155 -180q0 -41 26.5 -60.5t67.5 -19.5q43 0 90 17zM672 766q-119 0 -207.5 -78t-118.5 -196q436 28 436 184q3 43 -26.5 66.5t-83.5 23.5z" />
    <glyph glyph-name="Ecaron" unicode="&#x11a;" horiz-adv-x="1177" 
d="M207 0l252 1434h823l-33 -201h-612l-72 -410h549l-35 -200h-551l-73 -422h630l-32 -201h-846zM881 1507l-330 219l94 115l254 -164l315 164l62 -121l-387 -213h-8z" />
    <glyph glyph-name="ecaron" unicode="&#x11b;" horiz-adv-x="966" 
d="M819 262l86 -115q-73 -73 -176.5 -120t-216.5 -47q-94 0 -168.5 29.5t-120.5 80t-70 114.5t-24 136q0 117 39 225t110 192.5t179 134.5t237 50q151 0 223.5 -63t69.5 -170q0 -156 -164 -247t-491 -106q3 -99 61 -149.5t156 -50.5q121 0 270 106zM672 766
q-119 0 -207.5 -78t-118.5 -196q436 28 436 184q3 43 -26.5 66.5t-83.5 23.5zM735 1073l-256 285l107 108l176 -200l246 196l82 -119l-347 -270h-8z" />
    <glyph glyph-name="Gcircumflex" unicode="&#x11c;" horiz-adv-x="1497" 
d="M909 551l35 199h567l-102 -572q-81 -90 -225.5 -144t-294.5 -54q-205 0 -360 85t-236.5 235.5t-81.5 344.5q0 165 60 313t166 257.5t261.5 174t337.5 64.5q296 0 463 -154l-123 -157q-57 50 -148.5 81t-207.5 31q-252 0 -416 -166t-164 -421q0 -222 122.5 -356
t330.5 -134q206 0 338 109l43 264h-365zM1094 1833l331 -219l-94 -113l-256 164l-317 -164l-58 119l385 213h9z" />
    <glyph glyph-name="gcircumflex" unicode="&#x11d;" horiz-adv-x="991" 
d="M-31 -168q0 70 28 127t77.5 94.5t108 61.5t128.5 37q-8 16 -8 49q0 59 39 98q-78 37 -120 104t-42 152q0 161 117.5 274t312.5 113q144 0 226 -70l276 68l-22 -158l-168 -41q16 -36 16 -94q0 -157 -113.5 -264.5t-289.5 -114.5q-35 -3 -72 0q-17 -30 -17 -61q0 -30 9 -39
h67q174 -6 277.5 -72.5t103.5 -187.5q0 -110 -70 -186.5t-184.5 -112t-261.5 -35.5q-190 0 -304 65.5t-114 192.5zM152 -143q0 -60 69 -91.5t189 -31.5q143 0 227 38.5t84 112.5q0 59 -70 93t-192 34q-142 0 -224.5 -42t-82.5 -113zM360 573q0 -66 45.5 -107.5t126.5 -41.5
q94 0 159 57.5t65 147.5q0 68 -44.5 111.5t-121.5 43.5q-100 0 -165 -61t-65 -150zM696 1460l256 -289l-108 -102l-174 199l-246 -199l-82 117l346 274h8z" />
    <glyph glyph-name="Gbreve" unicode="&#x11e;" horiz-adv-x="1497" 
d="M909 551l35 199h567l-102 -572q-81 -90 -225.5 -144t-294.5 -54q-205 0 -360 85t-236.5 235.5t-81.5 344.5q0 165 60 313t166 257.5t261.5 174t337.5 64.5q296 0 463 -154l-123 -157q-57 50 -148.5 81t-207.5 31q-252 0 -416 -166t-164 -421q0 -222 122.5 -356
t330.5 -134q206 0 338 109l43 264h-365zM702 1720l105 103q101 -131 270 -131q178 0 309 131l66 -113q-65 -84 -170 -138t-225 -54q-124 0 -218.5 55.5t-136.5 146.5z" />
    <glyph glyph-name="gbreve" unicode="&#x11f;" horiz-adv-x="991" 
d="M-31 -168q0 70 28 127t77.5 94.5t108 61.5t128.5 37q-8 16 -8 49q0 59 39 98q-78 37 -120 104t-42 152q0 161 117.5 274t312.5 113q144 0 226 -70l276 68l-22 -158l-168 -41q16 -36 16 -94q0 -157 -113.5 -264.5t-289.5 -114.5q-35 -3 -72 0q-17 -30 -17 -61q0 -30 9 -39
h67q174 -6 277.5 -72.5t103.5 -187.5q0 -110 -70 -186.5t-184.5 -112t-261.5 -35.5q-190 0 -304 65.5t-114 192.5zM152 -143q0 -60 69 -91.5t189 -31.5q143 0 227 38.5t84 112.5q0 59 -70 93t-192 34q-142 0 -224.5 -42t-82.5 -113zM360 573q0 -66 45.5 -107.5t126.5 -41.5
q94 0 159 57.5t65 147.5q0 68 -44.5 111.5t-121.5 43.5q-100 0 -165 -61t-65 -150zM371 1307l104 98q16 -23 30.5 -40t40 -37t60.5 -31t78 -11q71 0 138 34t116 83l61 -105q-159 -176 -335 -176q-114 0 -186.5 55t-106.5 130z" />
    <glyph glyph-name="Gdotaccent" unicode="&#x120;" horiz-adv-x="1497" 
d="M909 551l35 199h567l-102 -572q-81 -90 -225.5 -144t-294.5 -54q-205 0 -360 85t-236.5 235.5t-81.5 344.5q0 165 60 313t166 257.5t261.5 174t337.5 64.5q296 0 463 -154l-123 -157q-57 50 -148.5 81t-207.5 31q-252 0 -416 -166t-164 -421q0 -222 122.5 -356
t330.5 -134q206 0 338 109l43 264h-365zM936 1688q0 56 40.5 89t98.5 33q53 0 92 -33t39 -89q0 -61 -39 -96.5t-92 -35.5q-59 0 -99 35t-40 97z" />
    <glyph glyph-name="gdotaccent" unicode="&#x121;" horiz-adv-x="991" 
d="M-31 -168q0 70 28 127t77.5 94.5t108 61.5t128.5 37q-8 16 -8 49q0 59 39 98q-78 37 -120 104t-42 152q0 161 117.5 274t312.5 113q144 0 226 -70l276 68l-22 -158l-168 -41q16 -36 16 -94q0 -157 -113.5 -264.5t-289.5 -114.5q-35 -3 -72 0q-17 -30 -17 -61q0 -30 9 -39
h67q174 -6 277.5 -72.5t103.5 -187.5q0 -110 -70 -186.5t-184.5 -112t-261.5 -35.5q-190 0 -304 65.5t-114 192.5zM152 -143q0 -60 69 -91.5t189 -31.5q143 0 227 38.5t84 112.5q0 59 -70 93t-192 34q-142 0 -224.5 -42t-82.5 -113zM360 573q0 -66 45.5 -107.5t126.5 -41.5
q94 0 159 57.5t65 147.5q0 68 -44.5 111.5t-121.5 43.5q-100 0 -165 -61t-65 -150zM561 1270q0 54 36 86.5t89 32.5q47 0 84 -33t37 -86q0 -57 -37 -92t-84 -35q-53 0 -89 34.5t-36 92.5z" />
    <glyph glyph-name="uni0122" unicode="&#x122;" horiz-adv-x="1497" 
d="M909 551l35 199h567l-102 -572q-81 -90 -225.5 -144t-294.5 -54q-205 0 -360 85t-236.5 235.5t-81.5 344.5q0 165 60 313t166 257.5t261.5 174t337.5 64.5q296 0 463 -154l-123 -157q-57 50 -148.5 81t-207.5 31q-252 0 -416 -166t-164 -421q0 -222 122.5 -356
t330.5 -134q206 0 338 109l43 264h-365zM733 -127l193 45q15 -6 26 -27t11 -47q0 -100 -80.5 -171.5t-200.5 -94.5l-43 94q119 42 119 140q0 45 -25 61z" />
    <glyph glyph-name="uni0123" unicode="&#x123;" horiz-adv-x="991" 
d="M-31 -168q0 70 28 127t77.5 94.5t108 61.5t128.5 37q-8 16 -8 49q0 59 39 98q-78 37 -120 104t-42 152q0 161 117.5 274t312.5 113q144 0 226 -70l276 68l-22 -158l-168 -41q16 -36 16 -94q0 -157 -113.5 -264.5t-289.5 -114.5q-35 -3 -72 0q-17 -30 -17 -61q0 -30 9 -39
h67q174 -6 277.5 -72.5t103.5 -187.5q0 -110 -70 -186.5t-184.5 -112t-261.5 -35.5q-190 0 -304 65.5t-114 192.5zM152 -143q0 -60 69 -91.5t189 -31.5q143 0 227 38.5t84 112.5q0 59 -70 93t-192 34q-142 0 -224.5 -42t-82.5 -113zM360 573q0 -66 45.5 -107.5t126.5 -41.5
q94 0 159 57.5t65 147.5q0 68 -44.5 111.5t-121.5 43.5q-100 0 -165 -61t-65 -150zM782 1145l-192 -45q-15 6 -26 27t-11 47q0 100 80.5 171.5t200.5 94.5l43 -94q-119 -42 -119 -140q0 -46 24 -61z" />
    <glyph glyph-name="Hcircumflex" unicode="&#x124;" horiz-adv-x="1566" 
d="M1147 0l110 631h-725l-112 -631h-213l252 1434h213l-107 -603h729l105 603h211l-250 -1434h-213zM1100 1833l332 -219l-95 -113l-256 164l-317 -164l-57 119l385 213h8z" />
    <glyph glyph-name="hcircumflex" unicode="&#x125;" horiz-adv-x="1071" 
d="M119 0l246 1434h194l-137 -797q79 124 192 214.5t232 90.5q102 0 150 -60t48 -157q0 -71 -22 -190l-100 -535h-195l96 502q21 109 19 153q-2 48 -18.5 74.5t-57.5 26.5q-65 0 -150 -73t-151.5 -169t-91.5 -174l-58 -340h-196zM623 1833l331 -219l-94 -113l-256 164
l-317 -164l-58 119l385 213h9z" />
    <glyph glyph-name="Hbar" unicode="&#x126;" horiz-adv-x="1581" 
d="M233 1044l33 187h168l35 203h213l-35 -203h721l37 203h211l-35 -203h168l-31 -187h-170l-184 -1044h-213l113 631h-723l-111 -631h-213l184 1044h-168zM578 831h720l37 213h-721z" />
    <glyph glyph-name="hbar" unicode="&#x127;" horiz-adv-x="1122" 
d="M170 0l178 1049h-219l33 188h219l33 197h196l-35 -197h310l-33 -188h-309l-70 -412q36 57 80.5 108t98.5 97t118 73t127 27q101 0 149 -60t48 -157q0 -57 -21 -190l-102 -535h-193l94 502q21 108 21 153q-2 48 -18.5 74.5t-57.5 26.5q-65 0 -150.5 -72.5t-152 -169.5
t-90.5 -174l-59 -340h-195z" />
    <glyph glyph-name="Imacron" unicode="&#x12a;" horiz-adv-x="698" 
d="M242 0l254 1434h213l-254 -1434h-213zM311 1567l29 162h629l-29 -162h-629z" />
    <glyph glyph-name="imacron" unicode="&#x12b;" horiz-adv-x="514" 
d="M139 0l156 922h197l-160 -922h-193zM168 1167l27 160h557l-29 -160h-555z" />
    <glyph glyph-name="Iogonek" unicode="&#x12e;" horiz-adv-x="698" 
d="M377 -233l45 -127q-32 -24 -89 -39t-112 -15q-103 0 -172 44.5t-69 127.5q0 91 74.5 155.5t191.5 94.5l250 1426h213l-254 -1434q-102 0 -182 -51t-80 -119q0 -40 29 -60t65 -20q43 0 90 17z" />
    <glyph glyph-name="iogonek" unicode="&#x12f;" horiz-adv-x="561" 
d="M129 -414q-99 0 -165 43.5t-66 132.5q0 93 79.5 157.5t202.5 92.5l156 910h194l-157 -922q-106 0 -184 -50.5t-78 -119.5q0 -41 26.5 -60.5t67.5 -19.5q43 0 90 17l45 -123q-79 -58 -211 -58zM373 1262q0 51 36 82.5t87 31.5q45 0 79.5 -32t34.5 -82q0 -58 -34 -92.5
t-80 -34.5q-52 0 -87.5 34t-35.5 93z" />
    <glyph glyph-name="Idotaccent" unicode="&#x130;" horiz-adv-x="698" 
d="M242 0l254 1434h213l-254 -1434h-213zM512 1688q0 56 40.5 89t98.5 33q53 0 92 -33t39 -89q0 -61 -39 -96.5t-92 -35.5q-59 0 -99 35t-40 97z" />
    <glyph glyph-name="dotlessi" unicode="&#x131;" horiz-adv-x="514" 
d="M139 0l156 922h197l-160 -922h-193z" />
    <glyph glyph-name="Jcircumflex" unicode="&#x134;" horiz-adv-x="782" 
d="M827 1434l-192 -1092q-66 -362 -395 -362q-73 0 -132.5 24t-84.5 57l100 160q50 -43 127 -43q146 0 180 191l186 1065h211zM776 1833l332 -219l-94 -113l-256 164l-318 -164l-57 119l385 213h8z" />
    <glyph glyph-name="jcircumflex" unicode="&#x135;" horiz-adv-x="503" 
d="M512 922l-174 -990q-62 -358 -361 -358q-66 0 -121.5 17.5t-86.5 43.5l84 160q51 -35 110 -35q144 0 176 189l172 973h201zM500 1460l256 -289l-109 -102l-174 199l-246 -199l-82 117l347 274h8z" />
    <glyph glyph-name="uni0136" unicode="&#x136;" horiz-adv-x="1353" 
d="M207 0l252 1434h213l-252 -1434h-213zM1059 0l-494 748l703 686h272l-731 -703l502 -731h-252zM557 -127l193 45q15 -6 25.5 -27t10.5 -47q0 -100 -80 -171.5t-200 -94.5l-43 94q119 42 119 140q0 45 -25 61z" />
    <glyph glyph-name="uni0137" unicode="&#x137;" horiz-adv-x="978" 
d="M1073 922l-432 -445l326 -477h-240l-313 483l413 439h246zM119 0l246 1434h194l-244 -1434h-196zM377 -127l192 45q15 -6 26 -27t11 -47q0 -100 -80 -171.5t-200 -94.5l-43 94q118 42 118 140q0 46 -24 61z" />
    <glyph glyph-name="Lacute" unicode="&#x139;" horiz-adv-x="1130" 
d="M207 0l252 1434h213l-217 -1233h684l-37 -201h-895zM1202 1671l-436 -170l-57 121l417 219z" />
    <glyph glyph-name="lacute" unicode="&#x13a;" horiz-adv-x="569" 
d="M160 289l205 1145h196l-205 -1139q-4 -16 -4 -43q-6 -84 70 -84q47 0 119 37l24 -160q-106 -63 -217 -63q-91 0 -141.5 47t-54.5 141q-3 69 8 119zM891 1671l-436 -170l-58 121l418 219z" />
    <glyph glyph-name="uni013B" unicode="&#x13b;" horiz-adv-x="1130" 
d="M207 0l252 1434h213l-217 -1233h684l-37 -201h-895zM541 -127l192 45q15 -6 26 -27t11 -47q0 -100 -80.5 -171.5t-200.5 -94.5l-43 94q119 42 119 140q0 46 -24 61z" />
    <glyph glyph-name="uni013C" unicode="&#x13c;" horiz-adv-x="569" 
d="M160 289l205 1145h196l-205 -1139q-4 -16 -4 -43q-6 -84 70 -84q47 0 119 37l24 -160q-106 -63 -217 -63q-91 0 -141.5 47t-54.5 141q-3 69 8 119zM217 -127l193 45q15 -6 25.5 -27t10.5 -47q0 -100 -80 -171.5t-200 -94.5l-43 94q119 42 119 140q0 45 -25 61z" />
    <glyph glyph-name="Lcaron" unicode="&#x13d;" horiz-adv-x="1130" 
d="M207 0l252 1434h213l-217 -1233h684l-37 -201h-895zM1040 1434h193q4 -12 4 -45q0 -64 -22.5 -124t-60 -105.5t-79.5 -79t-88 -56.5l-78 86q64 51 102 120t38 140q0 28 -9 64z" />
    <glyph glyph-name="lcaron" unicode="&#x13e;" horiz-adv-x="585" 
d="M160 289l213 1145h200l-211 -1139q-6 -16 -6 -43q-3 -84 74 -84q47 0 123 37l25 -160q-111 -63 -226 -63q-191 0 -200 188q-3 69 8 119zM741 1434h193q4 -12 4 -45q0 -64 -22.5 -124t-60 -105.5t-79.5 -79t-88 -56.5l-78 86q64 51 102 120t38 140q0 28 -9 64z" />
    <glyph glyph-name="Ldot" unicode="&#x13f;" horiz-adv-x="1130" 
d="M207 0l252 1434h213l-217 -1233h684l-37 -201h-895zM883 766q0 51 38 91t101 40q57 0 95 -40t38 -91q0 -58 -37 -98.5t-98 -40.5q-65 0 -101 40t-36 99z" />
    <glyph glyph-name="ldot" unicode="&#x140;" horiz-adv-x="673" 
d="M160 289l205 1145h196l-205 -1139q-4 -16 -4 -43q-6 -84 70 -84q47 0 119 37l24 -160q-106 -63 -217 -63q-91 0 -141.5 47t-54.5 141q-3 69 8 119zM547 688q0 54 36 86.5t89 32.5q47 0 84 -33t37 -86q0 -57 -37 -92t-84 -35q-53 0 -89 34.5t-36 92.5z" />
    <glyph glyph-name="Lslash" unicode="&#x141;" horiz-adv-x="1146" 
d="M119 434l37 209l194 86l125 705h213l-108 -607l376 166l-34 -209l-377 -166l-74 -417h682l-35 -201h-897l94 518z" />
    <glyph glyph-name="lslash" unicode="&#x142;" horiz-adv-x="651" 
d="M102 434l37 213l160 74l127 713h197l-113 -621l211 96l-37 -213l-213 -94l-53 -307q-4 -16 -4 -41q-3 -44 13.5 -65t57.5 -21q49 0 117 37l25 -160q-103 -63 -224 -63q-88 0 -135 48t-53 138q-6 56 6 119l39 217z" />
    <glyph glyph-name="Nacute" unicode="&#x143;" horiz-adv-x="1628" 
d="M1421 0h-172l-653 1085l-190 -1085h-199l252 1434h170l653 -1086l191 1086h198zM1458 1671l-436 -170l-57 121l417 219z" />
    <glyph glyph-name="nacute" unicode="&#x144;" horiz-adv-x="1069" 
d="M373 340l-58 -340h-196l157 922h195l-49 -285q38 58 82.5 108t99.5 96.5t119.5 73.5t128.5 27q97 0 143.5 -59t46.5 -150q0 -93 -22 -198l-100 -535h-195l98 502q18 126 17 157q0 97 -74 97q-65 0 -150 -73t-151.5 -169t-91.5 -174zM1024 1380l-254 -297l-119 84l217 332
z" />
    <glyph glyph-name="uni0145" unicode="&#x145;" horiz-adv-x="1628" 
d="M1421 0h-172l-653 1085l-190 -1085h-199l252 1434h170l653 -1086l191 1086h198zM676 -127l192 45q15 -6 26 -27t11 -47q0 -100 -80 -171.5t-200 -94.5l-43 94q118 42 118 140q0 46 -24 61z" />
    <glyph glyph-name="uni0146" unicode="&#x146;" horiz-adv-x="1069" 
d="M373 340l-58 -340h-196l157 922h195l-49 -285q38 58 82.5 108t99.5 96.5t119.5 73.5t128.5 27q97 0 143.5 -59t46.5 -150q0 -93 -22 -198l-100 -535h-195l98 502q18 126 17 157q0 97 -74 97q-65 0 -150 -73t-151.5 -169t-91.5 -174zM412 -127l192 45q15 -6 26 -27t11 -47
q0 -100 -80.5 -171.5t-200.5 -94.5l-43 94q119 42 119 140q0 46 -24 61z" />
    <glyph glyph-name="Ncaron" unicode="&#x147;" horiz-adv-x="1628" 
d="M1421 0h-172l-653 1085l-190 -1085h-199l252 1434h170l653 -1086l191 1086h198zM1092 1507l-330 219l94 115l254 -164l315 164l62 -121l-387 -213h-8z" />
    <glyph glyph-name="ncaron" unicode="&#x148;" horiz-adv-x="1069" 
d="M373 340l-58 -340h-196l157 922h195l-49 -285q38 58 82.5 108t99.5 96.5t119.5 73.5t128.5 27q97 0 143.5 -59t46.5 -150q0 -93 -22 -198l-100 -535h-195l98 502q18 126 17 157q0 97 -74 97q-65 0 -150 -73t-151.5 -169t-91.5 -174zM739 1073l-256 285l107 108l176 -200
l246 196l82 -119l-346 -270h-9z" />
    <glyph glyph-name="Eng" unicode="&#x14a;" horiz-adv-x="1628" 
d="M1671 1434l-262 -1497q-31 -177 -123 -270t-262 -93q-72 0 -132 24.5t-85 57.5l100 160q50 -43 127 -43q149 0 180 190l9 37l-627 1079l-190 -1079h-199l252 1434h170l649 -1119l195 1119h198z" />
    <glyph glyph-name="eng" unicode="&#x14b;" horiz-adv-x="1069" 
d="M373 340l-58 -340h-196l157 922h195l-49 -285q38 58 82.5 108t99.5 96.5t119.5 73.5t128.5 27q97 0 143.5 -59t46.5 -150q0 -93 -22 -198l-109 -603q-65 -358 -356 -358q-66 0 -122 17.5t-87 43.5l84 160q51 -35 111 -35q76 0 117 48t59 141l106 553q18 126 17 157
q0 97 -74 97q-65 0 -150 -73t-151.5 -169t-91.5 -174z" />
    <glyph glyph-name="Omacron" unicode="&#x14c;" horiz-adv-x="1677" 
d="M213 645q0 168 58.5 316t164 257t261.5 172.5t341 63.5q147 0 272.5 -45.5t215 -129t140 -205.5t50.5 -269q0 -235 -99 -422.5t-282.5 -295t-419.5 -107.5q-169 0 -303.5 51.5t-221 142t-132 211t-45.5 260.5zM442 657q0 -148 64 -258t172.5 -165.5t245.5 -55.5
q247 0 405 167t158 439q0 213 -128 342t-341 129q-160 0 -291 -74t-208 -211.5t-77 -312.5zM758 1567l28 162h629l-29 -162h-628z" />
    <glyph glyph-name="omacron" unicode="&#x14d;" horiz-adv-x="1052" 
d="M129 362q0 92 23 177.5t69.5 158.5t111 127.5t153 85.5t190.5 31q173 0 270.5 -101.5t97.5 -275.5q0 -169 -63.5 -301t-184 -208t-280.5 -76q-177 0 -282 105t-105 277zM336 397q0 -112 58 -174.5t155 -62.5q135 0 213 103.5t78 264.5q0 111 -50.5 171.5t-146.5 60.5
q-136 0 -221.5 -100t-85.5 -263zM469 1167l27 160h557l-29 -160h-555z" />
    <glyph glyph-name="Ohungarumlaut" unicode="&#x150;" horiz-adv-x="1677" 
d="M213 645q0 168 58.5 316t164 257t261.5 172.5t341 63.5q147 0 272.5 -45.5t215 -129t140 -205.5t50.5 -269q0 -235 -99 -422.5t-282.5 -295t-419.5 -107.5q-169 0 -303.5 51.5t-221 142t-132 211t-45.5 260.5zM442 657q0 -148 64 -258t172.5 -165.5t245.5 -55.5
q247 0 405 167t158 439q0 213 -128 342t-341 129q-160 0 -291 -74t-208 -211.5t-77 -312.5zM1657 1714l-379 -213l-82 86l324 254zM1245 1753l-332 -252l-86 80l248 260z" />
    <glyph glyph-name="ohungarumlaut" unicode="&#x151;" horiz-adv-x="1052" 
d="M129 362q0 92 23 177.5t69.5 158.5t111 127.5t153 85.5t190.5 31q173 0 270.5 -101.5t97.5 -275.5q0 -169 -63.5 -301t-184 -208t-280.5 -76q-177 0 -282 105t-105 277zM336 397q0 -112 58 -174.5t155 -62.5q135 0 213 103.5t78 264.5q0 111 -50.5 171.5t-146.5 60.5
q-136 0 -221.5 -100t-85.5 -263zM1184 1368l-264 -285l-121 84l237 316zM829 1393l-235 -310l-121 84l211 332z" />
    <glyph glyph-name="OE" unicode="&#x152;" horiz-adv-x="2131" 
d="M1159 0l8 45q-51 -29 -128 -47t-158 -18q-199 0 -352 86t-234.5 234t-81.5 331q0 132 33.5 252.5t102.5 224.5t168 181t237.5 121t302.5 44q212 0 348 -76l8 56h825l-34 -201h-611l-73 -410h548l-34 -200h-547l-74 -422h629l-37 -201h-846zM918 178q86 0 153.5 21.5
t136.5 66.5l156 887q-64 51 -143 76.5t-193 25.5q-258 0 -422 -165.5t-164 -427.5q0 -134 54.5 -242.5t164 -175t257.5 -66.5z" />
    <glyph glyph-name="oe" unicode="&#x153;" horiz-adv-x="1593" 
d="M1446 262l86 -115q-73 -73 -176.5 -120t-216.5 -47q-188 0 -291 114q-139 -114 -332 -114q-177 0 -282 105t-105 277q0 92 23 177.5t69.5 158.5t111 127.5t153 85.5t190.5 31q197 0 291 -127q146 127 354 127q152 0 224.5 -62.5t70.5 -170.5q-2 -156 -166.5 -247
t-491.5 -106q3 -99 61.5 -149.5t156.5 -50.5q121 0 270 106zM336 397q0 -112 58 -174.5t155 -62.5q68 0 126.5 27.5t94.5 78.5q-15 81 4 192t62 201q-21 48 -75.5 74.5t-117.5 26.5q-136 0 -221.5 -100t-85.5 -263zM1298 766q-118 0 -208 -78.5t-115 -195.5q433 28 436 184
q1 43 -29 66.5t-84 23.5z" />
    <glyph glyph-name="Racute" unicode="&#x154;" horiz-adv-x="1333" 
d="M420 0h-213l252 1434q45 0 215 2t186 2q123 0 215 -28t145 -79t78 -114t25 -140q0 -191 -107 -315.5t-272 -165.5l354 -596h-249l-320 555h-213zM827 1237q-122 0 -190 -4l-84 -479h152q176 0 282.5 75t106.5 211q0 90 -63.5 143.5t-203.5 53.5zM1190 1671l-436 -170
l-58 121l418 219z" />
    <glyph glyph-name="racute" unicode="&#x155;" horiz-adv-x="704" 
d="M119 0l157 922h195l-37 -217q62 102 144.5 169.5t183.5 67.5q56 0 90 -24l-98 -181q-32 19 -70 19q-45 0 -93.5 -37.5t-89 -96t-72.5 -123t-52 -126.5l-62 -373h-196zM934 1380l-254 -297l-119 84l217 332z" />
    <glyph glyph-name="uni0156" unicode="&#x156;" horiz-adv-x="1333" 
d="M420 0h-213l252 1434q45 0 215 2t186 2q123 0 215 -28t145 -79t78 -114t25 -140q0 -191 -107 -315.5t-272 -165.5l354 -596h-249l-320 555h-213zM827 1237q-122 0 -190 -4l-84 -479h152q176 0 282.5 75t106.5 211q0 90 -63.5 143.5t-203.5 53.5zM569 -127l193 45
q15 -6 26 -27t11 -47q0 -100 -80.5 -171.5t-200.5 -94.5l-43 94q119 42 119 140q0 45 -25 61z" />
    <glyph glyph-name="uni0157" unicode="&#x157;" horiz-adv-x="704" 
d="M119 0l157 922h195l-37 -217q62 102 144.5 169.5t183.5 67.5q56 0 90 -24l-98 -181q-32 19 -70 19q-45 0 -93.5 -37.5t-89 -96t-72.5 -123t-52 -126.5l-62 -373h-196zM94 -127l193 45q15 -6 26 -27t11 -47q0 -100 -80.5 -171.5t-200.5 -94.5l-43 94q119 42 119 140
q0 45 -25 61z" />
    <glyph glyph-name="Rcaron" unicode="&#x158;" horiz-adv-x="1333" 
d="M420 0h-213l252 1434q45 0 215 2t186 2q123 0 215 -28t145 -79t78 -114t25 -140q0 -191 -107 -315.5t-272 -165.5l354 -596h-249l-320 555h-213zM827 1237q-122 0 -190 -4l-84 -479h152q176 0 282.5 75t106.5 211q0 90 -63.5 143.5t-203.5 53.5zM879 1507l-330 219
l94 115l254 -164l315 164l62 -121l-387 -213h-8z" />
    <glyph glyph-name="rcaron" unicode="&#x159;" horiz-adv-x="704" 
d="M119 0l157 922h195l-37 -217q62 102 144.5 169.5t183.5 67.5q56 0 90 -24l-98 -181q-32 19 -70 19q-45 0 -93.5 -37.5t-89 -96t-72.5 -123t-52 -126.5l-62 -373h-196zM612 1073l-256 285l107 108l176 -200l246 196l82 -119l-346 -270h-9z" />
    <glyph glyph-name="Sacute" unicode="&#x15a;" horiz-adv-x="1118" 
d="M868 387q0 57 -30.5 103.5t-80 80t-109 66t-118.5 69.5t-108.5 81t-80 110t-30.5 147q0 80 32.5 152.5t93.5 130.5t160 92.5t222 34.5q119 0 221.5 -43t159.5 -111l-131 -151q-106 106 -266 106q-124 0 -194 -55t-70 -137q0 -56 31 -101t80 -77.5t108.5 -63.5
t119.5 -67.5t109 -80.5t80 -111.5t31 -151.5q0 -191 -133 -310.5t-355 -119.5q-171 0 -293 65.5t-174 169.5l140 137q54 -81 137.5 -127.5t185.5 -46.5q112 0 187 56.5t75 152.5zM1174 1671l-437 -170l-57 121l418 219z" />
    <glyph glyph-name="sacute" unicode="&#x15b;" horiz-adv-x="786" 
d="M532 258q0 44 -36 79.5t-87 63.5t-102 60.5t-87 86.5t-36 124q0 119 93 194.5t253 75.5q199 0 289 -65l-88 -146q-74 39 -186 39q-74 0 -113 -26t-39 -68q0 -32 25.5 -60.5t63.5 -49t83 -50t83 -61t63.5 -84t25.5 -117.5q0 -131 -100 -202.5t-260 -71.5q-105 0 -189 24
t-129 66l97 139q95 -59 209 -59q167 0 167 108zM885 1380l-254 -297l-119 84l217 332z" />
    <glyph glyph-name="Scircumflex" unicode="&#x15c;" horiz-adv-x="1118" 
d="M868 387q0 57 -30.5 103.5t-80 80t-109 66t-118.5 69.5t-108.5 81t-80 110t-30.5 147q0 80 32.5 152.5t93.5 130.5t160 92.5t222 34.5q119 0 221.5 -43t159.5 -111l-131 -151q-106 106 -266 106q-124 0 -194 -55t-70 -137q0 -56 31 -101t80 -77.5t108.5 -63.5
t119.5 -67.5t109 -80.5t80 -111.5t31 -151.5q0 -191 -133 -310.5t-355 -119.5q-171 0 -293 65.5t-174 169.5l140 137q54 -81 137.5 -127.5t185.5 -46.5q112 0 187 56.5t75 152.5zM872 1833l332 -219l-94 -113l-256 164l-317 -164l-58 119l385 213h8z" />
    <glyph glyph-name="scircumflex" unicode="&#x15d;" horiz-adv-x="786" 
d="M532 258q0 44 -36 79.5t-87 63.5t-102 60.5t-87 86.5t-36 124q0 119 93 194.5t253 75.5q199 0 289 -65l-88 -146q-74 39 -186 39q-74 0 -113 -26t-39 -68q0 -32 25.5 -60.5t63.5 -49t83 -50t83 -61t63.5 -84t25.5 -117.5q0 -131 -100 -202.5t-260 -71.5q-105 0 -189 24
t-129 66l97 139q95 -59 209 -59q167 0 167 108zM621 1460l256 -289l-109 -102l-174 199l-246 -199l-82 117l346 274h9z" />
    <glyph glyph-name="Scedilla" unicode="&#x15e;" horiz-adv-x="1118" 
d="M299 -344l74 100q66 -55 151 -55q49 0 76 20t27 54q0 26 -23 41.5t-69 15.5h-13l27 148q-149 12 -255 76t-151 159l140 137q54 -81 137.5 -127.5t185.5 -46.5q112 0 187 56.5t75 152.5q0 57 -30.5 103.5t-80 80t-109 66t-118.5 69.5t-108.5 81t-80 110t-30.5 147
q0 80 32.5 152.5t93.5 130.5t160 92.5t222 34.5q119 0 221.5 -43t159.5 -111l-131 -151q-106 106 -266 106q-124 0 -194 -55t-70 -137q0 -56 31 -101t80 -77.5t108.5 -63.5t119.5 -67.5t109 -80.5t80 -111.5t31 -151.5q0 -183 -121.5 -300.5t-325.5 -129.5l-10 -60
q98 -4 147.5 -41t49.5 -100q0 -94 -78.5 -147.5t-202.5 -53.5q-161 0 -258 78z" />
    <glyph glyph-name="scedilla" unicode="&#x15f;" horiz-adv-x="786" 
d="M61 -342l76 92q62 -49 148 -49q44 0 70 20t26 54q0 57 -90 57h-12l24 152q-167 13 -244 86l97 139q95 -59 209 -59q167 0 167 108q0 44 -36 79.5t-87 63.5t-102 60.5t-87 86.5t-36 124q0 119 93 194.5t253 75.5q199 0 289 -65l-88 -146q-74 39 -186 39q-74 0 -113 -26
t-39 -68q0 -32 25.5 -60.5t63.5 -49t83 -50t83 -61t63.5 -84t25.5 -117.5q0 -123 -91 -195.5t-236 -78.5l-11 -60q89 -4 136 -41.5t47 -99.5q0 -93 -75.5 -147t-211.5 -54q-150 0 -234 80z" />
    <glyph glyph-name="Scaron" unicode="&#x160;" horiz-adv-x="1118" 
d="M868 387q0 57 -30.5 103.5t-80 80t-109 66t-118.5 69.5t-108.5 81t-80 110t-30.5 147q0 80 32.5 152.5t93.5 130.5t160 92.5t222 34.5q119 0 221.5 -43t159.5 -111l-131 -151q-106 106 -266 106q-124 0 -194 -55t-70 -137q0 -56 31 -101t80 -77.5t108.5 -63.5
t119.5 -67.5t109 -80.5t80 -111.5t31 -151.5q0 -191 -133 -310.5t-355 -119.5q-171 0 -293 65.5t-174 169.5l140 137q54 -81 137.5 -127.5t185.5 -46.5q112 0 187 56.5t75 152.5zM823 1507l-329 219l94 115l254 -164l315 164l62 -121l-388 -213h-8z" />
    <glyph glyph-name="scaron" unicode="&#x161;" horiz-adv-x="786" 
d="M532 258q0 44 -36 79.5t-87 63.5t-102 60.5t-87 86.5t-36 124q0 119 93 194.5t253 75.5q199 0 289 -65l-88 -146q-74 39 -186 39q-74 0 -113 -26t-39 -68q0 -32 25.5 -60.5t63.5 -49t83 -50t83 -61t63.5 -84t25.5 -117.5q0 -131 -100 -202.5t-260 -71.5q-105 0 -189 24
t-129 66l97 139q95 -59 209 -59q167 0 167 108zM567 1073l-256 285l107 108l176 -200l246 196l82 -119l-347 -270h-8z" />
    <glyph glyph-name="uni0162" unicode="&#x162;" horiz-adv-x="1220" 
d="M301 -346l78 102q69 -55 141 -55q48 0 79.5 19.5t31.5 54.5q0 57 -90 57h-13l29 168h-53l217 1233h-485l34 201h1184l-33 -201h-487l-217 -1233h-53l-17 -80q99 -4 148 -41t49 -100q0 -90 -80.5 -145.5t-214.5 -55.5q-149 0 -248 76z" />
    <glyph glyph-name="uni0163" unicode="&#x163;" horiz-adv-x="684" 
d="M88 -342l76 92q60 -49 147 -49q42 0 69.5 20.5t27.5 53.5q0 57 -93 57h-12l29 156q-95 11 -142 75t-47 162q0 72 9 125l155 828h193l-45 -256h307l-31 -189h-305l-74 -368q-10 -36 -10 -86q0 -109 100 -109q82 0 154 55l51 -162q-81 -61 -213 -79l-8 -64q88 -4 134 -41.5
t46 -99.5q0 -93 -75.5 -147t-211.5 -54q-151 0 -231 80z" />
    <glyph glyph-name="Tcaron" unicode="&#x164;" horiz-adv-x="1220" 
d="M236 1233l34 201h1184l-33 -201h-487l-217 -1233h-213l217 1233h-485zM870 1507l-329 219l94 115l254 -164l315 164l62 -121l-387 -213h-9z" />
    <glyph glyph-name="tcaron" unicode="&#x165;" horiz-adv-x="729" 
d="M152 350l155 828h193l-45 -256h307l-31 -189h-305l-74 -368q-8 -27 -8 -78q0 -62 23 -89.5t75 -27.5q40 0 82.5 16.5t71.5 38.5l51 -162q-45 -34 -117.5 -57.5t-146.5 -23.5q-121 0 -180.5 67t-59.5 191q0 52 9 110zM725 1434h195q4 -24 4 -45q0 -118 -69 -213t-183 -152
l-84 92q67 51 106 117t39 137q0 32 -8 64z" />
    <glyph glyph-name="Umacron" unicode="&#x16a;" horiz-adv-x="1536" 
d="M1604 1434l-148 -838q-56 -313 -218 -464.5t-450 -151.5q-248 0 -385.5 138.5t-117.5 397.5q4 64 10 102l143 816h217l-141 -783q-10 -49 -10 -106q-24 -365 313 -365q184 0 289.5 117t144.5 342l142 795h211zM737 1567l29 162h629l-29 -162h-629z" />
    <glyph glyph-name="umacron" unicode="&#x16b;" horiz-adv-x="1034" 
d="M1040 922l-159 -922h-197l49 285q-35 -57 -75 -106.5t-92.5 -96.5t-115.5 -74.5t-128 -27.5q-99 0 -145 59t-46 151q0 76 21 187l114 545h197l-111 -504q-21 -101 -18 -158q0 -96 72 -96q64 0 147.5 74.5t147.5 173t85 174.5l58 336h196zM420 1167l26 160h558l-29 -160
h-555z" />
    <glyph glyph-name="Ubreve" unicode="&#x16c;" horiz-adv-x="1536" 
d="M1604 1434l-148 -838q-56 -313 -218 -464.5t-450 -151.5q-248 0 -385.5 138.5t-117.5 397.5q4 64 10 102l143 816h217l-141 -783q-10 -49 -10 -106q-24 -365 313 -365q184 0 289.5 117t144.5 342l142 795h211zM694 1720l105 103q101 -131 270 -131q178 0 309 131l66 -113
q-65 -84 -170 -138t-225 -54q-124 0 -218.5 55.5t-136.5 146.5z" />
    <glyph glyph-name="ubreve" unicode="&#x16d;" horiz-adv-x="1034" 
d="M1040 922l-159 -922h-197l49 285q-35 -57 -75 -106.5t-92.5 -96.5t-115.5 -74.5t-128 -27.5q-99 0 -145 59t-46 151q0 76 21 187l114 545h197l-111 -504q-21 -101 -18 -158q0 -96 72 -96q64 0 147.5 74.5t147.5 173t85 174.5l58 336h196zM403 1307l105 98
q16 -23 30.5 -40t40 -37t60.5 -31t78 -11q71 0 138 34t116 83l61 -105q-159 -176 -336 -176q-114 0 -186.5 55t-106.5 130z" />
    <glyph glyph-name="Uring" unicode="&#x16e;" horiz-adv-x="1536" 
d="M1604 1434l-148 -838q-56 -313 -218 -464.5t-450 -151.5q-248 0 -385.5 138.5t-117.5 397.5q4 64 10 102l143 816h217l-141 -783q-10 -49 -10 -106q-24 -365 313 -365q184 0 289.5 117t144.5 342l142 795h211zM778 1630q0 103 76.5 156t194.5 53q121 0 197.5 -52.5
t76.5 -156.5q0 -103 -77 -159t-197 -56q-116 0 -193.5 56t-77.5 159zM926 1630q0 -51 34.5 -78.5t90.5 -27.5q54 0 89.5 28t35.5 78t-35 74.5t-90 24.5q-57 0 -91 -24.5t-34 -74.5z" />
    <glyph glyph-name="uring" unicode="&#x16f;" horiz-adv-x="1034" 
d="M1040 922l-159 -922h-197l49 285q-35 -57 -75 -106.5t-92.5 -96.5t-115.5 -74.5t-128 -27.5q-99 0 -145 59t-46 151q0 76 21 187l114 545h197l-111 -504q-21 -101 -18 -158q0 -96 72 -96q64 0 147.5 74.5t147.5 173t85 174.5l58 336h196zM463 1266q0 98 70.5 166.5
t175.5 68.5q106 0 177.5 -68.5t71.5 -166.5q0 -99 -71.5 -167.5t-177.5 -68.5q-105 0 -175.5 68.5t-70.5 167.5zM590 1266q0 -53 34.5 -89t86.5 -36q50 0 83 36t33 89t-33 89t-83 36q-52 0 -86.5 -36t-34.5 -89z" />
    <glyph glyph-name="Uhungarumlaut" unicode="&#x170;" horiz-adv-x="1536" 
d="M1604 1434l-148 -838q-56 -313 -218 -464.5t-450 -151.5q-248 0 -385.5 138.5t-117.5 397.5q4 64 10 102l143 816h217l-141 -783q-10 -49 -10 -106q-24 -365 313 -365q184 0 289.5 117t144.5 342l142 795h211zM1567 1714l-379 -213l-82 86l324 254zM1155 1753l-332 -252
l-86 80l248 260z" />
    <glyph glyph-name="uhungarumlaut" unicode="&#x171;" horiz-adv-x="1034" 
d="M1040 922l-159 -922h-197l49 285q-35 -57 -75 -106.5t-92.5 -96.5t-115.5 -74.5t-128 -27.5q-99 0 -145 59t-46 151q0 76 21 187l114 545h197l-111 -504q-21 -101 -18 -158q0 -96 72 -96q64 0 147.5 74.5t147.5 173t85 174.5l58 336h196zM1143 1368l-264 -285l-121 84
l237 316zM788 1393l-235 -310l-121 84l211 332z" />
    <glyph glyph-name="Uogonek" unicode="&#x172;" horiz-adv-x="1536" 
d="M963 -233l45 -127q-32 -25 -86.5 -39.5t-114.5 -14.5q-101 0 -171.5 44.5t-70.5 123.5q0 78 55 131.5t154 94.5q-236 6 -366.5 132t-126.5 363q3 75 14 143l143 816h217l-141 -783q-14 -74 -14 -147q-6 -324 317 -324q184 0 289.5 117t144.5 342l142 795h211l-148 -838
q-48 -265 -170.5 -414t-331.5 -188q-176 -73 -176 -164q0 -40 29 -60t65 -20q44 0 91 17z" />
    <glyph glyph-name="uogonek" unicode="&#x173;" horiz-adv-x="1034" 
d="M803 -233l45 -123q-79 -58 -211 -58q-99 0 -165 43.5t-66 132.5q0 93 80 158t202 92l45 273q-35 -57 -75 -106.5t-92.5 -96.5t-115.5 -74.5t-128 -27.5q-99 0 -145 59t-46 151q0 85 16 166l119 566h197l-111 -504q-21 -101 -18 -158q0 -96 72 -96q49 0 112.5 46.5
t119 115t99.5 151t58 150.5l49 295h196l-159 -922q-103 0 -183 -51t-80 -119q0 -41 27 -60.5t68 -19.5q43 0 90 17z" />
    <glyph glyph-name="Ydieresis" unicode="&#x178;" horiz-adv-x="1247" 
d="M1487 1434l-656 -828l-104 -606h-213l104 606l-354 828h228l262 -625l483 625h250zM1020 1673q0 49 37.5 79t91.5 30q51 0 87 -29.5t36 -77.5q0 -52 -35 -83t-88 -31q-57 0 -93 29.5t-36 82.5zM537 1673q0 49 37.5 79t91.5 30q53 0 89 -29.5t36 -77.5q0 -51 -35.5 -82.5
t-89.5 -31.5q-57 0 -93 29.5t-36 82.5z" />
    <glyph glyph-name="Zacute" unicode="&#x179;" horiz-adv-x="1310" 
d="M340 1233l35 201h1085l-26 -146l-1014 -1087h844l-35 -201h-1147l24 143l1012 1090h-778zM1276 1671l-436 -170l-58 121l418 219z" />
    <glyph glyph-name="zacute" unicode="&#x17a;" horiz-adv-x="874" 
d="M197 733l30 189h721l-22 -144l-574 -592h461l-31 -186h-741l25 143l565 590h-434zM946 1380l-254 -297l-119 84l218 332z" />
    <glyph glyph-name="Zdotaccent" unicode="&#x17b;" horiz-adv-x="1310" 
d="M340 1233l35 201h1085l-26 -146l-1014 -1087h844l-35 -201h-1147l24 143l1012 1090h-778zM823 1688q0 56 41 89t99 33q53 0 92 -33t39 -89q0 -61 -39 -96.5t-92 -35.5q-59 0 -99.5 35t-40.5 97z" />
    <glyph glyph-name="zdotaccent" unicode="&#x17c;" horiz-adv-x="874" 
d="M197 733l30 189h721l-22 -144l-574 -592h461l-31 -186h-741l25 143l565 590h-434zM539 1270q0 54 36 86.5t89 32.5q47 0 83.5 -33t36.5 -86q0 -57 -36.5 -92t-83.5 -35q-53 0 -89 34.5t-36 92.5z" />
    <glyph glyph-name="Zcaron" unicode="&#x17d;" horiz-adv-x="1310" 
d="M340 1233l35 201h1085l-26 -146l-1014 -1087h844l-35 -201h-1147l24 143l1012 1090h-778zM920 1507l-330 219l94 115l254 -164l315 164l62 -121l-387 -213h-8z" />
    <glyph glyph-name="zcaron" unicode="&#x17e;" horiz-adv-x="874" 
d="M197 733l30 189h721l-22 -144l-574 -592h461l-31 -186h-741l25 143l565 590h-434zM625 1073l-256 285l106 108l176 -200l246 196l82 -119l-346 -270h-8z" />
    <glyph glyph-name="longs" unicode="&#x17f;" horiz-adv-x="538" 
d="M119 0l188 1071q68 383 393 383q80 0 143.5 -23t94.5 -59l-94 -153q-46 49 -139 49q-159 0 -199 -213l-187 -1055h-200z" />
    <glyph glyph-name="uni018F" unicode="&#x18f;" horiz-adv-x="1605" 
d="M246 831h1167q-6 197 -129 310.5t-330 113.5q-221 0 -389 -112l-78 162q197 149 500 149q310 0 485 -172.5t175 -486.5q0 -161 -57.5 -307.5t-161.5 -259.5t-264.5 -180.5t-352.5 -67.5q-284 0 -444 153t-160 422q0 132 39 276zM829 178q224 0 379 129t193 324h-961
q-4 -46 -4 -66q0 -171 102.5 -279t290.5 -108z" />
    <glyph glyph-name="florin" unicode="&#x192;" 
d="M885 1053l-25 -131h266v-189h-299l-141 -801q-16 -87 -38.5 -149t-60 -111t-95 -73.5t-136.5 -24.5q-62 0 -117.5 17.5t-86.5 43.5l53 160q54 -35 110 -35q140 0 172 191l138 782h-263v189h295l27 155q35 193 115 285t235 92q78 0 143.5 -23t104.5 -59l-70 -153
q-52 49 -143 49q-77 0 -120.5 -50.5t-63.5 -164.5z" />
    <glyph glyph-name="uni01DD" unicode="&#x1dd;" horiz-adv-x="970" 
d="M279 662l-70 131q70 65 172 107t205 42q99 0 175 -31t119.5 -84t65 -115.5t21.5 -133.5q0 -117 -37 -223.5t-106 -190.5t-177.5 -134t-240.5 -50q-82 0 -144.5 22.5t-98 59t-52.5 78.5t-17 87q0 163 161.5 239.5t502.5 82.5q-2 46 -11.5 81t-31 67t-63 49.5t-101.5 17.5
q-127 0 -272 -102zM428 158q112 0 196.5 70.5t116.5 181.5q-170 -7 -268.5 -29t-132.5 -53t-35 -78q-1 -44 31.5 -68t91.5 -24z" />
    <glyph glyph-name="uni0218" unicode="&#x218;" horiz-adv-x="1118" 
d="M868 387q0 57 -30.5 103.5t-80 80t-109 66t-118.5 69.5t-108.5 81t-80 110t-30.5 147q0 80 32.5 152.5t93.5 130.5t160 92.5t222 34.5q119 0 221.5 -43t159.5 -111l-131 -151q-106 106 -266 106q-124 0 -194 -55t-70 -137q0 -56 31 -101t80 -77.5t108.5 -63.5
t119.5 -67.5t109 -80.5t80 -111.5t31 -151.5q0 -191 -133 -310.5t-355 -119.5q-171 0 -293 65.5t-174 169.5l140 137q54 -81 137.5 -127.5t185.5 -46.5q112 0 187 56.5t75 152.5zM459 -127l192 45q15 -6 26 -27t11 -47q0 -100 -80 -171.5t-200 -94.5l-43 94q118 42 118 140
q0 46 -24 61z" />
    <glyph glyph-name="uni0219" unicode="&#x219;" horiz-adv-x="786" 
d="M532 258q0 44 -36 79.5t-87 63.5t-102 60.5t-87 86.5t-36 124q0 119 93 194.5t253 75.5q199 0 289 -65l-88 -146q-74 39 -186 39q-74 0 -113 -26t-39 -68q0 -32 25.5 -60.5t63.5 -49t83 -50t83 -61t63.5 -84t25.5 -117.5q0 -131 -100 -202.5t-260 -71.5q-105 0 -189 24
t-129 66l97 139q95 -59 209 -59q167 0 167 108zM252 -127l192 45q15 -6 26 -27t11 -47q0 -100 -80 -171.5t-200 -94.5l-43 94q118 42 118 140q0 46 -24 61z" />
    <glyph glyph-name="uni021A" unicode="&#x21a;" horiz-adv-x="1220" 
d="M236 1233l34 201h1184l-33 -201h-487l-217 -1233h-213l217 1233h-485zM475 -127l193 45q15 -6 26 -27t11 -47q0 -100 -80.5 -171.5t-200.5 -94.5l-43 94q119 42 119 140q0 45 -25 61z" />
    <glyph glyph-name="uni021B" unicode="&#x21b;" horiz-adv-x="684" 
d="M152 350l155 828h193l-45 -256h307l-31 -189h-305l-74 -368q-8 -27 -8 -78q0 -62 23 -89.5t75 -27.5q40 0 82.5 16.5t71.5 38.5l51 -162q-45 -34 -117.5 -57.5t-146.5 -23.5q-121 0 -180.5 67t-59.5 191q0 52 9 110zM250 -127l192 45q15 -6 26 -27t11 -47
q0 -100 -80 -171.5t-200 -94.5l-43 94q118 42 118 140q0 46 -24 61z" />
    <glyph glyph-name="uni0237" unicode="&#x237;" horiz-adv-x="503" 
d="M512 922l-174 -990q-62 -358 -361 -358q-66 0 -121.5 17.5t-86.5 43.5l84 160q51 -35 110 -35q144 0 176 189l172 973h201z" />
    <glyph glyph-name="uni0259" unicode="&#x259;" horiz-adv-x="970" 
d="M279 662l-70 131q70 65 172 107t205 42q99 0 175 -31t119.5 -84t65 -115.5t21.5 -133.5q0 -117 -37 -223.5t-106 -190.5t-177.5 -134t-240.5 -50q-82 0 -144.5 22.5t-98 59t-52.5 78.5t-17 87q0 163 161.5 239.5t502.5 82.5q-2 46 -11.5 81t-31 67t-63 49.5t-101.5 17.5
q-127 0 -272 -102zM428 158q112 0 196.5 70.5t116.5 181.5q-170 -7 -268.5 -29t-132.5 -53t-35 -78q-1 -44 31.5 -68t91.5 -24z" />
    <glyph glyph-name="uni02BC" unicode="&#x2bc;" horiz-adv-x="526" 
d="M406 1290l180 94q15 -22 26 -60.5t11 -74.5q0 -124 -63 -220t-191 -148l-80 92q65 38 101 97t36 126q0 68 -20 94z" />
    <glyph glyph-name="circumflex" unicode="&#x2c6;" horiz-adv-x="851" 
d="M684 1460l256 -289l-109 -102l-174 199l-245 -199l-82 117l346 274h8z" />
    <glyph glyph-name="caron" unicode="&#x2c7;" horiz-adv-x="851" 
d="M616 1073l-256 285l107 108l176 -200l246 196l82 -119l-346 -270h-9z" />
    <glyph glyph-name="breve" unicode="&#x2d8;" horiz-adv-x="868" 
d="M354 1307l105 98q16 -23 30.5 -40t40 -37t60.5 -31t78 -11q71 0 138 34t116 83l61 -105q-159 -176 -336 -176q-114 0 -186.5 55t-106.5 130z" />
    <glyph glyph-name="dotaccent" unicode="&#x2d9;" horiz-adv-x="491" 
d="M123 1270q0 54 36 86.5t89 32.5q47 0 84 -33t37 -86q0 -57 -37 -92t-84 -35q-53 0 -89 34.5t-36 92.5z" />
    <glyph glyph-name="ring" unicode="&#x2da;" horiz-adv-x="741" 
d="M123 1266q0 98 70.5 166.5t175.5 68.5q106 0 177.5 -68.5t71.5 -166.5q0 -99 -71.5 -167.5t-177.5 -68.5q-105 0 -175.5 68.5t-70.5 167.5zM250 1266q0 -53 34.5 -89t86.5 -36q50 0 83 36t33 89t-33 89t-83 36q-52 0 -86.5 -36t-34.5 -89z" />
    <glyph glyph-name="ogonek" unicode="&#x2db;" horiz-adv-x="700" 
d="M475 -233l45 -123q-33 -26 -89.5 -42t-119.5 -16q-99 0 -165 43.5t-66 132.5q0 66 43.5 120t114.5 87t154.5 50.5t168.5 17.5l-4 -37q-103 0 -183.5 -51t-80.5 -119q0 -41 27 -60.5t69 -19.5q39 0 86 17z" />
    <glyph glyph-name="tilde" unicode="&#x2dc;" horiz-adv-x="925" 
d="M205 1130l-82 93q113 133 237 133q48 0 120 -45t114 -45q27 0 51.5 9.5t40 20t51.5 39.5l66 -102q-115 -127 -225 -127q-45 0 -118.5 43t-119.5 43q-55 0 -135 -62z" />
    <glyph glyph-name="hungarumlaut" unicode="&#x2dd;" horiz-adv-x="954" 
d="M831 1368l-264 -285l-121 84l238 316zM477 1393l-235 -310l-121 84l211 332z" />
    <glyph glyph-name="gravecomb" unicode="&#x300;" horiz-adv-x="0" 
d="M-373 1083l-254 293l158 119l217 -328z" />
    <glyph glyph-name="acutecomb" unicode="&#x301;" horiz-adv-x="0" 
d="M-41 1380l-254 -297l-119 84l217 332z" />
    <glyph glyph-name="Delta" unicode="&#x394;" horiz-adv-x="1503" 
d="M111 0l684 1450h135l569 -1450h-1388zM831 1092l-401 -891h766z" />
    <glyph glyph-name="Delta" unicode="&#x2206;" horiz-adv-x="1503" 
d="M111 0l684 1450h135l569 -1450h-1388zM831 1092l-401 -891h766z" />
    <glyph glyph-name="uni03A9" unicode="&#x3a9;" horiz-adv-x="1677" 
d="M217 0l12 201h334q-130 42 -227.5 193.5t-97.5 350.5q0 156 59.5 290t162 225t241 142.5t294.5 51.5q200 0 359 -81t250.5 -232t91.5 -346q0 -94 -22.5 -180.5t-59.5 -152.5t-85.5 -120t-100.5 -88.5t-105 -52.5h334l-15 -201h-614l14 201q189 49 306.5 204t117.5 345
q0 137 -57.5 251t-169 184t-256.5 70q-119 0 -219 -44t-165 -119t-100.5 -171.5t-35.5 -203.5q0 -84 26 -166.5t73.5 -153t120.5 -123t161 -73.5l-13 -201h-614z" />
    <glyph glyph-name="uni03A9" unicode="&#x2126;" horiz-adv-x="1677" 
d="M217 0l12 201h334q-130 42 -227.5 193.5t-97.5 350.5q0 156 59.5 290t162 225t241 142.5t294.5 51.5q200 0 359 -81t250.5 -232t91.5 -346q0 -94 -22.5 -180.5t-59.5 -152.5t-85.5 -120t-100.5 -88.5t-105 -52.5h334l-15 -201h-614l14 201q189 49 306.5 204t117.5 345
q0 137 -57.5 251t-169 184t-256.5 70q-119 0 -219 -44t-165 -119t-100.5 -171.5t-35.5 -203.5q0 -84 26 -166.5t73.5 -153t120.5 -123t161 -73.5l-13 -201h-614z" />
    <glyph glyph-name="pi" unicode="&#x3c0;" horiz-adv-x="1292" 
d="M225 733l33 189h1098l-33 -189h-172l-74 -414q-4 -25 -6 -40t-1 -39t7.5 -37.5t23 -24t42.5 -10.5q41 0 94 29l14 -158q-83 -57 -186 -57q-128 0 -174 78.5t-23 211.5l82 461h-344l-20 -106q-24 -137 -49 -230.5t-64 -178t-91 -133t-127.5 -75.5t-176.5 -26l16 196
q112 -6 178.5 91.5t108.5 320.5l27 141h-183z" />
    <glyph glyph-name="uni0401" unicode="&#x401;" horiz-adv-x="1177" 
d="M207 0l252 1434h823l-33 -201h-612l-72 -410h549l-35 -200h-551l-73 -422h630l-32 -201h-846zM1036 1673q0 49 37.5 79t91.5 30q51 0 87 -29.5t36 -77.5q0 -52 -35 -83t-88 -31q-57 0 -93 29.5t-36 82.5zM553 1673q0 49 37.5 79t91.5 30q53 0 89 -29.5t36 -77.5
q0 -51 -35.5 -82.5t-89.5 -31.5q-57 0 -93 29.5t-36 82.5z" />
    <glyph glyph-name="uni0402" unicode="&#x402;" horiz-adv-x="1564" 
d="M1554 494q0 -239 -122.5 -376.5t-323.5 -137.5q-77 0 -133.5 24t-87.5 64l96 153q50 -43 123 -43q103 0 164 75.5t61 215.5q0 199 -221 199q-61 0 -121 -16t-91 -30.5t-81 -41.5l-102 -580h-211l217 1233h-485l34 201h1180l-33 -201h-485l-82 -455q156 88 330 88
q170 0 272 -94.5t102 -277.5z" />
    <glyph glyph-name="uni0403" unicode="&#x403;" horiz-adv-x="1046" 
d="M207 0l252 1434h815l-37 -201h-600l-217 -1233h-213zM1257 1671l-436 -170l-57 121l418 219z" />
    <glyph glyph-name="uni0404" unicode="&#x404;" horiz-adv-x="1384" 
d="M1141 831l-35 -200h-670q8 -200 143.5 -326.5t346.5 -126.5q218 0 393 129l70 -176q-86 -70 -215 -110.5t-265 -40.5q-318 0 -507 185t-189 494q0 164 61 309t171.5 253t274 170.5t357.5 62.5q149 0 268 -40t189 -111l-117 -148q-143 100 -344 100q-230 0 -398 -113.5
t-220 -310.5h686z" />
    <glyph glyph-name="uni0405" unicode="&#x405;" horiz-adv-x="1118" 
d="M868 387q0 57 -30.5 103.5t-80 80t-109 66t-118.5 69.5t-108.5 81t-80 110t-30.5 147q0 80 32.5 152.5t93.5 130.5t160 92.5t222 34.5q119 0 221.5 -43t159.5 -111l-131 -151q-106 106 -266 106q-124 0 -194 -55t-70 -137q0 -56 31 -101t80 -77.5t108.5 -63.5
t119.5 -67.5t109 -80.5t80 -111.5t31 -151.5q0 -191 -133 -310.5t-355 -119.5q-171 0 -293 65.5t-174 169.5l140 137q54 -81 137.5 -127.5t185.5 -46.5q112 0 187 56.5t75 152.5z" />
    <glyph glyph-name="uni0406" unicode="&#x406;" horiz-adv-x="698" 
d="M242 0l254 1434h213l-254 -1434h-213z" />
    <glyph glyph-name="uni0407" unicode="&#x407;" horiz-adv-x="698" 
d="M242 0l254 1434h213l-254 -1434h-213zM696 1673q0 49 37.5 79t91.5 30q52 0 87.5 -29.5t35.5 -77.5q0 -52 -35 -83t-88 -31q-57 0 -93 29.5t-36 82.5zM338 1673q0 49 37.5 79t91.5 30q52 0 88.5 -29.5t36.5 -77.5q0 -51 -35.5 -82.5t-89.5 -31.5q-57 0 -93 29.5t-36 82.5
z" />
    <glyph glyph-name="uni0408" unicode="&#x408;" horiz-adv-x="782" 
d="M827 1434l-192 -1092q-66 -362 -395 -362q-73 0 -132.5 24t-84.5 57l100 160q50 -43 127 -43q146 0 180 191l186 1065h211z" />
    <glyph glyph-name="uni0409" unicode="&#x409;" horiz-adv-x="2088" 
d="M1075 0l217 1233h-469l-71 -270q-68 -253 -137 -432.5t-133 -288t-137 -166.5t-141 -73t-153 -3l41 213q26 -3 48.5 0.5t56 23t64.5 56t71 107t79 167.5t85.5 245.5t93.5 334.5l69 287h881l-90 -512q120 10 172 10q230 0 346.5 -102t116.5 -277q0 -261 -175 -409
t-487 -148q-75 0 -194 2t-154 2zM1573 733q-61 0 -160 -12l-90 -520q24 0 72 -2t75 -2q179 0 282 86t103 237q0 105 -73 159t-209 54z" />
    <glyph glyph-name="uni040A" unicode="&#x40a;" horiz-adv-x="2129" 
d="M207 0l252 1434h213l-99 -555h703l96 555h213l-94 -545q93 8 172 8q227 0 345 -98t118 -271q0 -246 -175 -389t-481 -143q-61 0 -159.5 2t-134.5 2h-54l119 680h-700l-121 -680h-213zM1454 688l-86 -487q24 0 74 -2t80 -2q161 0 267.5 80t106.5 215q0 100 -72 153
t-208 53q-52 0 -162 -10z" />
    <glyph glyph-name="uni040B" unicode="&#x40b;" horiz-adv-x="1564" 
d="M236 1233l34 201h1180l-33 -201h-485l-82 -455q150 88 338 88q189 0 287 -125.5t57 -363.5l-68 -377h-211l62 348q27 168 -24.5 244t-188.5 76q-133 0 -285 -90l-102 -578h-211l217 1233h-485z" />
    <glyph glyph-name="uni040C" unicode="&#x40c;" horiz-adv-x="1353" 
d="M207 0l252 1434h213l-252 -1434h-213zM1059 0l-494 748l703 686h272l-731 -703l502 -731h-252zM1358 1671l-436 -170l-58 121l418 219z" />
    <glyph glyph-name="uni040E" unicode="&#x40e;" horiz-adv-x="1372" 
d="M1602 1434l-689 -1102q-110 -180 -201.5 -256t-219.5 -76q-53 0 -103.5 15.5t-77.5 41.5l99 168q51 -28 108 -28q100 0 182 135l31 45l-457 1057h230l352 -848l516 848h230zM618 1772h201q3 -61 39 -93t133 -32q158 0 228 125h184q-42 -123 -159 -199t-273 -76
q-177 0 -267.5 73.5t-85.5 201.5z" />
    <glyph glyph-name="uni040F" unicode="&#x40f;" horiz-adv-x="1538" 
d="M207 0l252 1434h213l-217 -1233h698l217 1233h213l-252 -1434h-463l-57 -315h-199l56 315h-461z" />
    <glyph glyph-name="uni0410" unicode="&#x410;" horiz-adv-x="1443" 
d="M23 0l860 1440h184l354 -1440h-215l-98 401h-621l-237 -401h-227zM930 1161l-328 -561h459z" />
    <glyph glyph-name="uni0411" unicode="&#x411;" horiz-adv-x="1257" 
d="M207 0l252 1434h837l-34 -201h-625l-64 -365q107 13 209 13q204 0 318 -97.5t114 -267.5q0 -261 -173 -392.5t-488 -131.5q-62 0 -126 1.5t-128.5 3.5t-91.5 3zM737 682q-95 0 -200 -12l-82 -473q128 -9 151 -9q186 0 287.5 79.5t101.5 211.5q0 203 -258 203z" />
    <glyph glyph-name="uni0412" unicode="&#x412;" horiz-adv-x="1273" 
d="M207 2l252 1428q200 10 422 10q405 0 405 -320q0 -138 -78 -238t-209 -139l-4 -4q103 -27 162.5 -97.5t59.5 -170.5q0 -120 -46.5 -213.5t-129.5 -150.5t-191 -86t-236 -29q-267 0 -407 10zM741 637h-209l-77 -436q62 -11 200 -11q161 0 248.5 67.5t87.5 188.5
q0 191 -250 191zM834 1243q-56 0 -197 -6l-74 -418h205q124 0 208.5 68t84.5 186q0 82 -57.5 126t-169.5 44z" />
    <glyph glyph-name="uni0413" unicode="&#x413;" horiz-adv-x="1046" 
d="M207 0l252 1434h815l-37 -201h-600l-217 -1233h-213z" />
    <glyph glyph-name="uni0414" unicode="&#x414;" horiz-adv-x="1546" 
d="M-14 -262l80 463h155q85 89 200 344.5t195 601.5l64 287h866l-217 -1233h195l-82 -463h-199l47 262h-1059l-47 -262h-198zM786 981q-70 -280 -166 -495.5t-161 -284.5h659l180 1032h-448z" />
    <glyph glyph-name="uni0415" unicode="&#x415;" horiz-adv-x="1177" 
d="M207 0l252 1434h823l-33 -201h-612l-72 -410h549l-35 -200h-551l-73 -422h630l-32 -201h-846z" />
    <glyph glyph-name="uni0416" unicode="&#x416;" horiz-adv-x="1937" 
d="M862 0l252 1434h213l-254 -1434h-211zM1458 739l447 -739h-238l-444 745l655 689h260zM545 1434l432 -689l-686 -745h-258l710 760l-436 674h238z" />
    <glyph glyph-name="uni0417" unicode="&#x417;" horiz-adv-x="1183" 
d="M592 -20q-163 0 -287 60.5t-194 164.5l139 139q58 -79 151 -122.5t209 -43.5q133 0 216 68.5t83 189.5q0 91 -65 144t-205 53h-115l37 198h123q120 0 203.5 71.5t83.5 180.5q0 84 -60.5 128t-169.5 44q-156 0 -311 -116l-98 151q90 76 203.5 120t238.5 44q206 0 312 -89
t106 -247q0 -116 -67.5 -217t-206.5 -156l-3 -8q100 -26 156.5 -107t56.5 -198q0 -200 -147.5 -326t-388.5 -126z" />
    <glyph glyph-name="uni0418" unicode="&#x418;" horiz-adv-x="1626" 
d="M393 0h-186l252 1434h213l-187 -1061l1000 1061h186l-250 -1434h-213l187 1061z" />
    <glyph glyph-name="uni0419" unicode="&#x419;" horiz-adv-x="1626" 
d="M393 0h-186l252 1434h213l-187 -1061l1000 1061h186l-250 -1434h-213l187 1061zM729 1772h201q3 -61 39 -93t133 -32q157 0 227 125h184q-42 -123 -159 -199t-273 -76q-177 0 -267 73.5t-85 201.5z" />
    <glyph glyph-name="uni041A" unicode="&#x41a;" horiz-adv-x="1353" 
d="M207 0l252 1434h213l-252 -1434h-213zM1059 0l-494 748l703 686h272l-731 -703l502 -731h-252z" />
    <glyph glyph-name="uni041B" unicode="&#x41b;" horiz-adv-x="1495" 
d="M1075 0l217 1233h-469l-71 -270q-61 -229 -122.5 -398t-120.5 -278.5t-124 -175t-127.5 -92t-136.5 -25.5q-35 0 -70 6l41 213q26 -3 48.5 0.5t56 23t64.5 56t71 107t79 167.5t85.5 245.5t93.5 334.5l69 287h881l-252 -1434h-213z" />
    <glyph glyph-name="uni041C" unicode="&#x41c;" horiz-adv-x="1826" 
d="M207 0l252 1434h192l385 -701l604 701h232l-254 -1434h-211l192 1094l-595 -672h-31l-363 668l-190 -1090h-213z" />
    <glyph glyph-name="uni041D" unicode="&#x41d;" horiz-adv-x="1566" 
d="M1147 0l110 631h-725l-112 -631h-213l252 1434h213l-107 -603h729l105 603h211l-250 -1434h-213z" />
    <glyph glyph-name="uni041E" unicode="&#x41e;" horiz-adv-x="1677" 
d="M213 645q0 168 58.5 316t164 257t261.5 172.5t341 63.5q147 0 272.5 -45.5t215 -129t140 -205.5t50.5 -269q0 -235 -99 -422.5t-282.5 -295t-419.5 -107.5q-169 0 -303.5 51.5t-221 142t-132 211t-45.5 260.5zM442 657q0 -148 64 -258t172.5 -165.5t245.5 -55.5
q247 0 405 167t158 439q0 213 -128 342t-341 129q-160 0 -291 -74t-208 -211.5t-77 -312.5z" />
    <glyph glyph-name="uni041F" unicode="&#x41f;" horiz-adv-x="1556" 
d="M1135 0l217 1233h-715l-217 -1233h-213l252 1434h1143l-254 -1434h-213z" />
    <glyph glyph-name="uni0420" unicode="&#x420;" horiz-adv-x="1239" 
d="M420 0h-213l252 1434q38 0 191 2t202 2q127 0 221 -31t147 -85t78 -119t25 -142q0 -114 -39.5 -210.5t-114 -168.5t-190 -113t-260.5 -41q-128 0 -207 7zM836 1237q-131 0 -199 -4l-88 -496q105 -10 192 -10q162 0 257.5 83t95.5 222q0 205 -258 205z" />
    <glyph glyph-name="uni0421" unicode="&#x421;" horiz-adv-x="1351" 
d="M1290 287l82 -164q-79 -69 -207.5 -106t-255.5 -37q-157 0 -288 49.5t-220 138t-138.5 212t-49.5 269.5q0 166 61 313t169.5 256t268 172.5t347.5 63.5q145 0 260.5 -35t179.5 -92l-110 -156q-130 84 -328 84q-177 0 -319 -76t-221 -209.5t-79 -297.5q0 -217 133 -355.5
t359 -138.5q208 0 356 109z" />
    <glyph glyph-name="uni0422" unicode="&#x422;" horiz-adv-x="1220" 
d="M236 1233l34 201h1184l-33 -201h-487l-217 -1233h-213l217 1233h-485z" />
    <glyph glyph-name="uni0423" unicode="&#x423;" horiz-adv-x="1372" 
d="M1602 1434l-689 -1102q-110 -180 -201.5 -256t-219.5 -76q-53 0 -103.5 15.5t-77.5 41.5l99 168q51 -28 108 -28q100 0 182 135l31 45l-457 1057h230l352 -848l516 848h230z" />
    <glyph glyph-name="uni0424" unicode="&#x424;" horiz-adv-x="1720" 
d="M745 -16l33 188q-273 0 -427 135.5t-154 364.5q0 192 100 335.5t276 218.5t406 77l25 147h213l-25 -147q275 -3 430.5 -132t155.5 -350q0 -307 -211 -478t-576 -171l-33 -188h-213zM1552 782q0 156 -100 240t-295 84l-131 -741q240 0 383 112t143 305zM422 684
q0 -156 101.5 -237.5t289.5 -81.5l131 741q-242 0 -382 -116t-140 -306z" />
    <glyph glyph-name="uni0425" unicode="&#x425;" horiz-adv-x="1368" 
d="M1569 1434l-621 -709l387 -725h-235l-305 569l-500 -569h-262l647 733l-373 701h240l289 -545l475 545h258z" />
    <glyph glyph-name="uni0426" unicode="&#x426;" horiz-adv-x="1589" 
d="M207 0l252 1434h213l-217 -1233h704l217 1233h213l-217 -1233h197l-82 -463h-201l47 262h-1126z" />
    <glyph glyph-name="uni0427" unicode="&#x427;" horiz-adv-x="1351" 
d="M1397 1434l-252 -1434h-211l106 606q-164 -102 -356 -102q-182 0 -287.5 90t-105.5 258q4 76 12 115l82 467h213l-74 -414q-12 -62 -12 -121q0 -197 238 -197q88 0 173 28t150 73l111 631h213z" />
    <glyph glyph-name="uni0428" unicode="&#x428;" horiz-adv-x="2039" 
d="M207 0l252 1434h213l-217 -1233h493l217 1233h213l-217 -1233h494l217 1233h213l-252 -1434h-1626z" />
    <glyph glyph-name="uni0429" unicode="&#x429;" horiz-adv-x="2082" 
d="M207 0l252 1434h213l-217 -1233h493l217 1233h213l-217 -1233h494l217 1233h213l-217 -1233h194l-80 -463h-200l45 262h-1620z" />
    <glyph glyph-name="uni042A" unicode="&#x42a;" horiz-adv-x="1378" 
d="M225 1233l37 201h545l-90 -512q117 10 184 10q233 0 352 -99t119 -274q0 -268 -169.5 -415.5t-500.5 -147.5q-78 0 -201.5 2t-158.5 2l217 1233h-334zM852 733q-70 0 -172 -12l-90 -520q23 0 79 -2t87 -2q183 0 285 84t102 235q0 106 -77 161.5t-214 55.5z" />
    <glyph glyph-name="uni042B" unicode="&#x42b;" horiz-adv-x="1751" 
d="M1331 0l252 1434h211l-250 -1434h-213zM707 733q-60 0 -162 -12l-90 -520q24 0 73.5 -2t77.5 -2q178 0 279.5 86.5t101.5 236.5q0 102 -72.5 157.5t-207.5 55.5zM672 1434l-90 -512q123 10 172 10q228 0 345.5 -100t117.5 -275q0 -124 -40 -225t-119 -177t-206.5 -117.5
t-294.5 -41.5q-76 0 -195.5 2t-154.5 2l252 1434h213z" />
    <glyph glyph-name="uni042C" unicode="&#x42c;" horiz-adv-x="1243" 
d="M717 733q-70 0 -172 -12l-90 -520q23 0 78 -2t85 -2q178 0 284 84t106 235q0 217 -291 217zM672 1434l-90 -512q123 10 182 10q238 0 356.5 -99t118.5 -276q0 -268 -177.5 -414.5t-494.5 -146.5q-76 0 -200.5 2t-159.5 2l252 1434h213z" />
    <glyph glyph-name="uni042D" unicode="&#x42d;" horiz-adv-x="1396" 
d="M512 631l35 200h674q3 199 -119 311.5t-324 112.5q-210 0 -397 -116l-82 164q91 72 231.5 111.5t296.5 39.5q290 0 450.5 -172.5t160.5 -466.5q0 -256 -105.5 -446.5t-291 -289.5t-427.5 -99q-165 0 -297 50.5t-219 137.5l123 160q74 -67 177 -109t223 -41
q226 2 385.5 124.5t189.5 328.5h-684z" />
    <glyph glyph-name="uni042E" unicode="&#x42e;" horiz-adv-x="2187" 
d="M207 0l252 1434h213l-107 -603h244q58 279 265.5 451t506.5 172q288 0 465.5 -173t177.5 -462q0 -242 -96.5 -432.5t-274.5 -298.5t-409 -108q-159 0 -284.5 50t-205.5 138.5t-121.5 206.5t-41.5 256h-259l-112 -631h-213zM1012 651q0 -218 123.5 -345.5t324.5 -127.5
q237 0 386 171t149 446q0 210 -117.5 335t-316.5 125q-113 0 -213.5 -43.5t-174.5 -121t-117.5 -191.5t-43.5 -248z" />
    <glyph glyph-name="uni042F" unicode="&#x42f;" horiz-adv-x="1300" 
d="M881 0l90 514h-240l-428 -514h-256l494 575q-213 106 -213 343q0 81 22.5 155t72.5 141.5t123.5 117t183.5 79t245 29.5q59 0 195.5 -3t175.5 -3l-252 -1434h-213zM739 713h269l90 520q-82 8 -180 8q-176 0 -268.5 -90t-92.5 -221q0 -78 47 -137t135 -80z" />
    <glyph glyph-name="uni0430" unicode="&#x430;" horiz-adv-x="1058" 
d="M920 0h-197l51 291q-195 -311 -405 -311q-119 0 -179.5 87.5t-60.5 231.5q0 180 81 327.5t222 231.5t313 84q99 0 183.5 -20.5t132.5 -47.5zM463 160q60 0 138.5 76.5t139 176t82.5 177.5l29 155q-54 15 -113 15q-179 0 -291 -120.5t-112 -299.5q0 -85 32 -132.5
t95 -47.5z" />
    <glyph glyph-name="uni0431" unicode="&#x431;" horiz-adv-x="1093" 
d="M1114 1454l41 -176q-41 -41 -104.5 -67t-122.5 -37t-138.5 -31t-138.5 -47q-73 -33 -127 -82.5t-88.5 -116t-55.5 -136.5t-36 -161q71 130 199.5 231t259.5 101q134 0 208 -84.5t74 -249.5q0 -127 -43 -241.5t-116 -197t-175 -131t-216 -48.5q-126 0 -216 60.5
t-133 159.5t-43 226q0 314 125.5 538t319.5 304q85 36 197.5 62.5t193.5 52t135 71.5zM344 373q9 -98 62 -153.5t145 -55.5q133 0 229.5 118.5t96.5 280.5q0 88 -42.5 137.5t-109.5 49.5q-54 0 -116.5 -38t-114.5 -95.5t-92.5 -122.5t-57.5 -121z" />
    <glyph glyph-name="uni0432" unicode="&#x432;" horiz-adv-x="995" 
d="M991 713q0 -148 -168 -228q140 -39 140 -151q0 -91 -56 -172t-160.5 -131.5t-234.5 -50.5q-94 0 -168.5 29.5t-120.5 80.5t-70 115.5t-24 138.5q0 116 39 223t110 191t179 134t237 50q151 0 225 -61.5t72 -167.5zM770 332q0 75 -84 102q-142 -38 -358 -57
q0 -111 57.5 -166t157.5 -55q90 0 158.5 51.5t68.5 124.5zM670 766q-120 0 -209 -80.5t-119 -202.5q444 50 444 193q1 43 -30 66.5t-86 23.5z" />
    <glyph glyph-name="uni0433" unicode="&#x433;" horiz-adv-x="864" 
d="M78 229q0 59 25 106.5t66 78t93.5 56.5t107 43t107 36.5t94 37t67 45t26.5 60.5q0 34 -29 56t-86 22q-118 0 -262 -72l-62 138q151 106 353 106q142 0 218 -63.5t76 -163.5q0 -60 -25.5 -109t-66.5 -80.5t-94 -58.5t-107.5 -44.5t-107 -37t-93.5 -36.5t-66 -42.5
t-25 -56.5q0 -42 36 -70t105 -28q144 0 293 106l86 -111q-70 -74 -175.5 -120.5t-217.5 -46.5q-164 0 -250 70t-86 179z" />
    <glyph glyph-name="uni0434" unicode="&#x434;" horiz-adv-x="1056" 
d="M442 1280l31 174q295 0 447.5 -157t152.5 -453q0 -180 -36.5 -335t-107 -274t-182 -187t-251.5 -68q-174 0 -270.5 102t-96.5 280q0 111 37 215t102 184.5t163 128.5t212 48q130 0 229 -84q-3 70 -15 127.5t-42 113t-76.5 94t-122 63.5t-174.5 28zM641 754
q-134 0 -220.5 -102t-86.5 -265q0 -106 46 -163.5t132 -57.5q92 0 166.5 68t119.5 178.5t62 249.5q-99 92 -219 92z" />
    <glyph glyph-name="uni0435" unicode="&#x435;" horiz-adv-x="966" 
d="M819 262l86 -115q-73 -73 -176.5 -120t-216.5 -47q-94 0 -168.5 29.5t-120.5 80t-70 114.5t-24 136q0 117 39 225t110 192.5t179 134.5t237 50q151 0 223.5 -63t69.5 -170q0 -156 -164 -247t-491 -106q3 -99 61 -149.5t156 -50.5q121 0 270 106zM672 766
q-119 0 -207.5 -78t-118.5 -196q436 28 436 184q3 43 -26.5 66.5t-83.5 23.5z" />
    <glyph glyph-name="uni0436" unicode="&#x436;" horiz-adv-x="1351" 
d="M1464 922l-385 -451l252 -471h-219l-248 475l361 447h239zM565 0l156 922h194l-157 -922h-193zM406 487l-238 435h221l234 -445l-390 -477h-237z" />
    <glyph glyph-name="uni0437" unicode="&#x437;" horiz-adv-x="874" 
d="M410 -20q-119 0 -220.5 37.5t-144.5 97.5l109 129q47 -44 116 -68t144 -24q90 0 153.5 39.5t63.5 103.5q0 92 -166 92h-125l27 150h110q86 0 136.5 37.5t50.5 95.5q0 47 -41 73.5t-115 26.5q-136 0 -262 -74l-70 135q168 111 387 111q156 0 236 -57t80 -160
q0 -85 -47 -153.5t-144 -98.5v-4q77 -21 111.5 -64.5t34.5 -113.5q0 -140 -123 -225.5t-301 -85.5z" />
    <glyph glyph-name="uni0438" unicode="&#x438;" horiz-adv-x="1034" 
d="M1040 922l-159 -922h-197l49 285q-35 -57 -75 -106.5t-92.5 -96.5t-115.5 -74.5t-128 -27.5q-99 0 -145 59t-46 151q0 76 21 187l114 545h197l-111 -504q-21 -101 -18 -158q0 -96 72 -96q64 0 147.5 74.5t147.5 173t85 174.5l58 336h196z" />
    <glyph glyph-name="uni0439" unicode="&#x439;" horiz-adv-x="1034" 
d="M1040 922l-159 -922h-197l49 285q-35 -57 -75 -106.5t-92.5 -96.5t-115.5 -74.5t-128 -27.5q-99 0 -145 59t-46 151q0 76 21 187l114 545h197l-111 -504q-21 -101 -18 -158q0 -96 72 -96q64 0 147.5 74.5t147.5 173t85 174.5l58 336h196zM418 1389h176q-10 -70 18 -111
t99 -41q58 0 107 40t63 112h159q-26 -125 -120.5 -209t-239.5 -84t-211.5 79t-50.5 214z" />
    <glyph glyph-name="uni043A" unicode="&#x43a;" horiz-adv-x="991" 
d="M1090 922l-443 -453l324 -469h-234l-319 467l416 455h256zM119 0l157 922h195l-156 -922h-196z" />
    <glyph glyph-name="uni043B" unicode="&#x43b;" horiz-adv-x="1040" 
d="M692 0l123 721h-270l-29 -127q-39 -152 -81 -260t-85 -176t-95.5 -107t-105 -53t-120.5 -14l16 196q23 -3 49 6t59 38.5t64 78.5t63.5 134.5t57.5 197.5l63 287h643l-155 -922h-197z" />
    <glyph glyph-name="uni043C" unicode="&#x43c;" horiz-adv-x="1245" 
d="M119 0l157 922h162l250 -426l375 426h186l-157 -922h-195l104 612l-348 -383h-6l-229 385l-103 -614h-196z" />
    <glyph glyph-name="uni043D" unicode="&#x43d;" horiz-adv-x="1081" 
d="M737 0l62 371h-422l-62 -371h-196l155 922h197l-61 -365h421l62 365h192l-155 -922h-193z" />
    <glyph glyph-name="uni043E" unicode="&#x43e;" horiz-adv-x="1052" 
d="M129 362q0 92 23 177.5t69.5 158.5t111 127.5t153 85.5t190.5 31q173 0 270.5 -101.5t97.5 -275.5q0 -169 -63.5 -301t-184 -208t-280.5 -76q-177 0 -282 105t-105 277zM336 397q0 -112 58 -174.5t155 -62.5q135 0 213 103.5t78 264.5q0 111 -50.5 171.5t-146.5 60.5
q-136 0 -221.5 -100t-85.5 -263z" />
    <glyph glyph-name="uni043F" unicode="&#x43f;" horiz-adv-x="1069" 
d="M373 340l-58 -340h-196l157 922h195l-49 -285q38 58 82.5 108t99.5 96.5t119.5 73.5t128.5 27q97 0 143.5 -59t46.5 -150q0 -93 -22 -198l-100 -535h-195l98 502q18 126 17 157q0 97 -74 97q-65 0 -150 -73t-151.5 -169t-91.5 -174z" />
    <glyph glyph-name="uni0440" unicode="&#x440;" horiz-adv-x="1075" 
d="M311 0l-69 -410h-197l82 482l147 850h193l-47 -283q36 57 78.5 107t95.5 96t116 73t126 27q115 0 174 -90t59 -229q0 -174 -77 -321.5t-214.5 -234.5t-304.5 -87q-87 0 -162 20zM737 760q-58 0 -138.5 -75t-143.5 -172.5t-86 -172.5l-25 -143q61 -37 141 -37
q165 0 274 123t109 299q0 80 -34 129t-97 49z" />
    <glyph glyph-name="uni0441" unicode="&#x441;" horiz-adv-x="909" 
d="M784 268l88 -121q-68 -74 -168 -120.5t-212 -46.5q-92 0 -163.5 29.5t-114 80.5t-64 114t-21.5 136q0 116 37.5 223.5t106.5 192.5t176.5 135.5t238.5 50.5q171 0 248 -53l-68 -160q-87 31 -192 31q-78 0 -143 -31.5t-107.5 -84.5t-66 -122t-23.5 -145q0 -99 51.5 -158
t144.5 -59q107 0 252 108z" />
    <glyph glyph-name="uni0442" unicode="&#x442;" horiz-adv-x="1542" 
d="M1493 549l-107 -549h-198l98 506q23 117 21 156q0 96 -74 96q-49 0 -102.5 -46.5t-96.5 -117.5t-76.5 -145t-52.5 -138l-57 -311h-201l101 508q23 104 18 151q0 99 -70 99q-50 0 -106 -51t-100 -126t-77 -151t-48 -135l-50 -295h-196l157 922h195l-47 -281
q28 56 63.5 105t82.5 95.5t107.5 73.5t125.5 27q84 0 126 -49t42 -127q0 -62 -6 -115q155 291 374 291q88 0 132.5 -49.5t44.5 -130.5q0 -91 -23 -213z" />
    <glyph glyph-name="uni0443" unicode="&#x443;" horiz-adv-x="882" 
d="M743 922h211q-78 -291 -168.5 -531t-191 -420.5t-211 -280.5t-219.5 -100q-108 0 -184 66l90 151q54 -32 94 -32q62 0 121 62t108 157q-24 161 -108 423t-187 505h217q51 -117 121.5 -334.5t98.5 -354.5q63 140 124.5 338t83.5 351z" />
    <glyph glyph-name="uni0444" unicode="&#x444;" horiz-adv-x="1351" 
d="M492 -410l73 418q-44 -28 -119 -28q-145 0 -231 110.5t-86 282.5q0 246 144 407.5t362 161.5q54 0 84 -10l86 502h194l-90 -521q48 29 125 29q146 0 227.5 -99.5t81.5 -260.5q0 -142 -39 -257.5t-107.5 -190t-161 -114.5t-199.5 -40q-56 0 -84 12l-68 -402h-192zM338 385
q-1 -96 41.5 -155t114.5 -62q60 0 98 12l96 576q-42 6 -61 6q-129 0 -208.5 -98.5t-80.5 -278.5zM967 756q-58 0 -84 -15l-101 -577q40 -4 70 -4q133 6 207 105t74 290q0 97 -42 149t-124 52z" />
    <glyph glyph-name="uni0445" unicode="&#x445;" horiz-adv-x="925" 
d="M1040 922l-381 -447l244 -475h-219l-164 336l-282 -336h-242l401 471l-229 451h223l148 -320l260 320h241z" />
    <glyph glyph-name="uni0446" unicode="&#x446;" horiz-adv-x="1073" 
d="M1044 922l-126 -736h157l-86 -411h-178l53 225q-86 0 -118.5 28t-26.5 97q0 17 7.5 76t12.5 82q-35 -56 -75.5 -105t-93 -96t-115.5 -74.5t-127 -27.5q-100 0 -145.5 60t-45.5 153q0 73 21 184l116 545h195l-113 -504q-19 -93 -16 -158q0 -96 70 -96q66 0 151 77.5
t149 179.5t85 183l55 318h194z" />
    <glyph glyph-name="uni0447" unicode="&#x447;" horiz-adv-x="948" 
d="M950 922l-155 -922h-195l80 473q-65 -97 -152 -154t-174 -57q-103 0 -150.5 58t-47.5 153q0 66 22 174l60 275h200l-57 -263q-14 -63 -14 -116q2 -44 17.5 -68t57.5 -24q85 0 169 92t114 196l33 183h192z" />
    <glyph glyph-name="uni0448" unicode="&#x448;" horiz-adv-x="1495" 
d="M414 164q60 0 124 70t109.5 162t75.5 190l72 336h200l-108 -502q-27 -116 -27 -162q0 -94 68 -94q47 0 98.5 44t93.5 111.5t75 140t52 136.5l56 326h194l-158 -922h-194l49 285q-32 -60 -63.5 -106.5t-77.5 -96.5t-103.5 -77.5t-122.5 -27.5q-82 0 -125 53.5t-43 135.5
q0 58 9 100q-154 -289 -355 -289q-87 0 -131.5 55.5t-44.5 143.5q0 65 31 213l115 533h200l-106 -480q-33 -135 -33 -182q0 -96 70 -96z" />
    <glyph glyph-name="uni0449" unicode="&#x449;" horiz-adv-x="1527" 
d="M723 586l72 336h200l-102 -476q-1 -4 -12 -52.5t-16 -80t-5 -55.5q0 -94 70 -94q57 0 120.5 68t110 156t76.5 177l63 357h199l-129 -736h158l-86 -411h-180l53 225h-37q-66 0 -98 36t-19 107l23 121q-33 -59 -66 -105.5t-77.5 -90t-99 -67.5t-114.5 -24q-82 0 -125 54.5
t-43 136.5q0 56 9 98q-154 -289 -357 -289q-85 0 -129.5 57t-44.5 142q0 14 0.5 27.5t1.5 24t3 26t3.5 24t5 26.5t5 25t6 29.5t6.5 30.5l115 533h200l-106 -476q-1 -4 -12 -52.5t-16 -80t-5 -55.5q0 -94 70 -94q60 0 124 70t109.5 162t75.5 190z" />
    <glyph glyph-name="uni044A" unicode="&#x44a;" horiz-adv-x="1007" 
d="M479 160q71 0 150 34.5t134.5 94t55.5 121.5q0 40 -27 63t-79 23q-81 0 -186.5 -71.5t-161.5 -166.5q5 -50 32 -74t82 -24zM655 823q-167 -207 -237 -364q77 92 181.5 156.5t201.5 64.5q94 0 155.5 -62t61.5 -172q0 -95 -55.5 -183t-142 -149t-192.5 -97.5t-206 -36.5
q-130 0 -189 63t-59 162q0 224 232 528h-275l29 189h512z" />
    <glyph glyph-name="uni044B" unicode="&#x44b;" horiz-adv-x="1318" 
d="M164 389l139 533h199l-109 -398q161 176 324 176q90 0 151.5 -59.5t61.5 -171.5q0 -100 -51 -192.5t-131 -156t-177.5 -102t-189.5 -38.5q-126 0 -185 62.5t-59 162.5q0 79 27 184zM1130 922h193l-156 -922h-196zM336 274q-2 -10 -2 -28q4 -86 98 -86q102 0 200.5 78
t98.5 176q0 49 -29 75.5t-71 26.5q-76 0 -174.5 -81.5t-120.5 -160.5z" />
    <glyph glyph-name="uni044C" unicode="&#x44c;" horiz-adv-x="933" 
d="M434 160q108 0 207.5 78t99.5 176q0 47 -29.5 74.5t-70.5 27.5q-77 0 -178.5 -81.5t-126.5 -160.5q-2 -8 -2 -28q2 -38 26 -62t74 -24zM725 700q93 0 154 -60.5t61 -170.5q0 -100 -51 -192.5t-131 -156.5t-179.5 -102t-195.5 -38q-128 0 -187 63t-59 162q0 77 23 172
l143 545h199l-109 -398q66 76 155 126t177 50z" />
    <glyph glyph-name="uni044D" unicode="&#x44d;" horiz-adv-x="901" 
d="M336 389l29 152h327q6 114 -55.5 168.5t-165.5 54.5q-126 0 -242 -72l-73 131q155 119 356 119q191 0 287 -103t96 -282q0 -134 -39.5 -243.5t-109 -182t-163 -112t-202.5 -39.5q-203 0 -320 126l111 134q82 -82 211 -82q111 0 190.5 58t104.5 173h-342z" />
    <glyph glyph-name="uni044E" unicode="&#x44e;" horiz-adv-x="1427" 
d="M119 0l153 922h195l-57 -359h176q46 166 170.5 272.5t312.5 106.5q167 0 259.5 -100.5t92.5 -276.5q0 -166 -60 -298.5t-173.5 -209.5t-261.5 -77q-167 0 -266 104t-103 287h-180l-62 -371h-196zM752 397q0 -107 51.5 -172t142.5 -65q128 0 201.5 104t73.5 264
q0 110 -46.5 171t-138.5 61q-127 0 -205.5 -99t-78.5 -264z" />
    <glyph glyph-name="uni044F" unicode="&#x44f;" horiz-adv-x="942" 
d="M651 922h295l-158 -922h-194l49 289h-139l-250 -289h-234l310 344q-64 30 -104 85.5t-40 133.5q0 70 26 132.5t79.5 114t146 82t213.5 30.5zM389 586q0 -125 158 -125h127l47 278h-127q-102 0 -153.5 -44.5t-51.5 -108.5z" />
    <glyph glyph-name="uni0451" unicode="&#x451;" horiz-adv-x="966" 
d="M819 262l86 -115q-73 -73 -176.5 -120t-216.5 -47q-94 0 -168.5 29.5t-120.5 80t-70 114.5t-24 136q0 117 39 225t110 192.5t179 134.5t237 50q151 0 223.5 -63t69.5 -170q0 -156 -164 -247t-491 -106q3 -99 61 -149.5t156 -50.5q121 0 270 106zM672 766
q-119 0 -207.5 -78t-118.5 -196q436 28 436 184q3 43 -26.5 66.5t-83.5 23.5zM406 1245q0 46 32.5 76.5t81.5 30.5q45 0 77 -29.5t32 -77.5q0 -52 -32.5 -85.5t-76.5 -33.5q-50 0 -82 32t-32 87zM823 1245q0 45 33.5 76t81.5 31q45 0 78 -29.5t33 -77.5q0 -53 -32.5 -86
t-78.5 -33q-50 0 -82.5 32t-32.5 87z" />
    <glyph glyph-name="uni0452" unicode="&#x452;" horiz-adv-x="1126" 
d="M113 913l26 162h246l61 359h193l-59 -359h335l-26 -162h-338l-82 -440q82 119 184 198t215 79q65 0 113 -27.5t74 -75t38.5 -102.5t12.5 -119q0 -155 -58 -315t-165.5 -298.5t-245.5 -222.5h-215q154 105 264.5 244.5t162.5 280t52 274.5q0 74 -31 123t-96 49
q-71 0 -170.5 -106t-169.5 -222l-37 -233h-194l153 913h-243z" />
    <glyph glyph-name="uni0453" unicode="&#x453;" horiz-adv-x="864" 
d="M78 229q0 59 25 106.5t66 78t93.5 56.5t107 43t107 36.5t94 37t67 45t26.5 60.5q0 34 -29 56t-86 22q-118 0 -262 -72l-62 138q151 106 353 106q142 0 218 -63.5t76 -163.5q0 -60 -25.5 -109t-66.5 -80.5t-94 -58.5t-107.5 -44.5t-107 -37t-93.5 -36.5t-66 -42.5
t-25 -56.5q0 -42 36 -70t105 -28q144 0 293 106l86 -111q-70 -74 -175.5 -120.5t-217.5 -46.5q-164 0 -250 70t-86 179zM909 1380l-254 -297l-118 84l217 332z" />
    <glyph glyph-name="uni0454" unicode="&#x454;" horiz-adv-x="970" 
d="M745 543l-24 -152h-387q-5 -117 47 -174t168 -57q145 0 270 84l53 -150q-151 -114 -368 -114q-179 0 -277 97t-98 263q0 163 67 299t196 219.5t296 83.5q210 0 311 -115l-102 -143q-83 78 -233 78q-118 0 -191.5 -60.5t-107.5 -158.5h380z" />
    <glyph glyph-name="uni0455" unicode="&#x455;" horiz-adv-x="786" 
d="M532 258q0 44 -36 79.5t-87 63.5t-102 60.5t-87 86.5t-36 124q0 119 93 194.5t253 75.5q199 0 289 -65l-88 -146q-74 39 -186 39q-74 0 -113 -26t-39 -68q0 -32 25.5 -60.5t63.5 -49t83 -50t83 -61t63.5 -84t25.5 -117.5q0 -131 -100 -202.5t-260 -71.5q-105 0 -189 24
t-129 66l97 139q95 -59 209 -59q167 0 167 108z" />
    <glyph glyph-name="uni0456" unicode="&#x456;" horiz-adv-x="514" 
d="M139 0l156 922h197l-160 -922h-193zM332 1270q0 54 36 86.5t87 32.5q47 0 82.5 -33t35.5 -86q0 -57 -35.5 -92t-82.5 -35q-52 0 -87.5 34.5t-35.5 92.5z" />
    <glyph glyph-name="uni0457" unicode="&#x457;" horiz-adv-x="507" 
d="M139 0l156 922h192l-155 -922h-193zM201 1241q0 43 30.5 72.5t75.5 29.5q41 0 71 -29t30 -73q0 -45 -30 -75.5t-71 -30.5q-47 0 -76.5 28.5t-29.5 77.5zM500 1241q0 43 31 72.5t75 29.5q41 0 70 -28.5t29 -73.5t-28.5 -75.5t-70.5 -30.5q-47 0 -76.5 28.5t-29.5 77.5z
" />
    <glyph glyph-name="uni0458" unicode="&#x458;" horiz-adv-x="503" 
d="M512 922l-174 -990q-62 -358 -361 -358q-66 0 -121.5 17.5t-86.5 43.5l84 160q51 -35 110 -35q144 0 176 189l172 973h201zM350 1270q0 54 35 86.5t86 32.5q47 0 83 -33t36 -86q0 -57 -36 -92t-83 -35q-51 0 -86 34.5t-35 92.5z" />
    <glyph glyph-name="uni0459" unicode="&#x459;" horiz-adv-x="1511" 
d="M1061 922l-94 -402q66 76 157.5 128t178.5 52q93 0 153 -60.5t60 -170.5q0 -100 -51 -192.5t-130.5 -156.5t-178.5 -102t-195 -38q-128 0 -188 63.5t-60 161.5q0 61 24 172l84 344h-276l-29 -127q-39 -152 -81 -260t-85 -176t-95.5 -107t-105 -53t-120.5 -14l16 196
q32 -3 66 14t74.5 62.5t81 142.5t71.5 236l63 287h660zM1319 414q0 47 -29.5 74.5t-70.5 27.5q-77 0 -179 -81.5t-127 -160.5q-2 -6 -2 -28q4 -86 101 -86q68 0 139.5 34.5t119.5 94.5t48 125z" />
    <glyph glyph-name="uni045A" unicode="&#x45a;" horiz-adv-x="1564" 
d="M1020 516q66 79 156 131.5t180 52.5q93 0 153 -60.5t60 -170.5q0 -100 -51 -192.5t-130.5 -156.5t-178.5 -102t-195 -38q-118 0 -176 56t-66 142q-3 63 16 170q0 2 2.5 17t4.5 20h-414l-66 -385h-196l155 922h197l-61 -349h424l71 349h195zM1065 160q68 0 139.5 34.5
t119.5 94.5t48 125q0 47 -29.5 74.5t-70.5 27.5q-77 0 -178.5 -81.5t-126.5 -160.5q-2 -6 -2 -28q4 -86 100 -86z" />
    <glyph glyph-name="uni045B" unicode="&#x45b;" horiz-adv-x="1124" 
d="M113 913l26 162h246l61 359h193l-59 -359h333l-26 -162h-336l-82 -438q202 275 418 275q91 0 142.5 -50.5t55.5 -150.5q3 -42 -18 -201l-66 -348h-194l61 315q17 98 17 123q7 123 -74 123q-167 0 -377 -328l-39 -233h-194l155 913h-243z" />
    <glyph glyph-name="uni045C" unicode="&#x45c;" horiz-adv-x="991" 
d="M1090 922l-443 -453l324 -469h-234l-319 467l416 455h256zM119 0l157 922h195l-156 -922h-196zM983 1380l-254 -297l-119 84l217 332z" />
    <glyph glyph-name="uni045E" unicode="&#x45e;" horiz-adv-x="882" 
d="M743 922h211q-78 -291 -168.5 -531t-191 -420.5t-211 -280.5t-219.5 -100q-108 0 -184 66l90 151q54 -32 94 -32q62 0 121 62t108 157q-24 161 -108 423t-187 505h217q51 -117 121.5 -334.5t98.5 -354.5q63 140 124.5 338t83.5 351zM317 1389h177q-21 -152 116 -152
q58 0 107 40t63 112h160q-26 -125 -120.5 -209t-239.5 -84t-211.5 79t-51.5 214z" />
    <glyph glyph-name="uni045F" unicode="&#x45f;" horiz-adv-x="1077" 
d="M119 0l157 922h195l-125 -736h414l125 736h194l-157 -922h-310l-43 -250h-180l41 250h-311z" />
    <glyph glyph-name="uni0462" unicode="&#x462;" horiz-adv-x="1318" 
d="M750 1434l-33 -185h311l-35 -200h-309l-33 -179q136 11 189 11q473 0 473 -365q0 -244 -177.5 -382t-484.5 -138q-82 0 -206.5 2t-157.5 2l184 1049h-260l35 200h258l33 185h213zM791 680q-78 0 -177 -12l-82 -467q23 0 80 -2t90 -2q104 0 187.5 29.5t137.5 95.5t54 161
q0 197 -290 197z" />
    <glyph glyph-name="uni0463" unicode="&#x463;" horiz-adv-x="987" 
d="M109 745l30 177h246l102 512h195l-102 -512h280l-29 -177h-282l-49 -245q49 49 123.5 88t142.5 39q94 0 156.5 -58.5t62.5 -162.5q0 -110 -70 -209t-184 -158t-237 -59q-130 0 -189 63.5t-59 165.5q0 68 26 184l80 352h-243zM682 449q-81 0 -160.5 -70t-79.5 -141
q0 -36 24.5 -59t74.5 -23q95 0 170 63.5t75 132.5q0 46 -31 71.5t-73 25.5z" />
    <glyph glyph-name="uni0472" unicode="&#x472;" horiz-adv-x="1677" 
d="M213 645q0 168 58.5 316t164 257t261.5 172.5t341 63.5q147 0 272.5 -45.5t215 -129t140 -205.5t50.5 -269q0 -235 -99 -422.5t-282.5 -295t-419.5 -107.5q-169 0 -303.5 51.5t-221 142t-132 211t-45.5 260.5zM729 713q-69 0 -145 -34t-138 -81q18 -196 151 -308
t327 -112q211 0 361.5 126t189.5 341q-160 -92 -267 -92q-63 0 -119 16.5t-97 40t-80 47t-86 40t-97 16.5zM1229 741q59 0 131 28.5t123 66.5q-15 192 -140 305.5t-325 113.5q-209 0 -364.5 -124t-194.5 -336q68 44 146 74t143 30q61 0 115 -16.5t95 -39.5t80.5 -46
t88.5 -39.5t102 -16.5z" />
    <glyph glyph-name="uni0473" unicode="&#x473;" horiz-adv-x="1052" 
d="M129 362q0 92 23 177.5t69.5 158.5t111 127.5t153 85.5t190.5 31q173 0 270.5 -101.5t97.5 -275.5q0 -169 -63.5 -301t-184 -208t-280.5 -76q-177 0 -282 105t-105 277zM444 453q-56 0 -108 -35q-3 -127 55.5 -192.5t157.5 -65.5q96 0 165 56.5t101 152.5
q-55 -25 -94 -25q-42 0 -82.5 17t-67 37.5t-61 37.5t-66.5 17zM750 471q42 0 86 21q4 38 2 57q-3 102 -53.5 156.5t-141.5 54.5q-100 0 -176.5 -57t-108.5 -156q59 33 107 33q44 0 87 -17t71 -37.5t62.5 -37.5t64.5 -17z" />
    <glyph glyph-name="uni0474" unicode="&#x474;" horiz-adv-x="1363" 
d="M1327 1028l-569 -1034h-160l-344 1440h217l254 -1121l446 826q85 164 161.5 237t172.5 74q57 0 137 -25l-59 -182q-28 11 -51 12.5t-44.5 -10t-37.5 -25t-38.5 -48t-38.5 -62t-46 -82.5z" />
    <glyph glyph-name="uni0475" unicode="&#x475;" horiz-adv-x="948" 
d="M842 569l-314 -575h-147l-262 928h213l123 -447q21 -74 32 -205q68 145 103 209l110 213q69 126 132 184.5t149 59.5q60 0 133 -23l-59 -178q-21 10 -39.5 12t-36.5 -7.5t-32.5 -21t-33.5 -38t-33 -49t-38 -62.5z" />
    <glyph glyph-name="uni0490" unicode="&#x490;" horiz-adv-x="1046" 
d="M207 0l252 1434h604l43 247h201l-78 -448h-592l-217 -1233h-213z" />
    <glyph glyph-name="uni0491" unicode="&#x491;" horiz-adv-x="765" 
d="M133 0l158 922h401l37 206h182l-67 -395h-389l-127 -733h-195z" />
    <glyph glyph-name="uni0492" unicode="&#x492;" horiz-adv-x="1046" 
d="M207 0l108 618h-176l35 201h176l109 615h815l-37 -201h-600l-74 -414h334l-35 -201h-334l-108 -618h-213z" />
    <glyph glyph-name="uni0493" unicode="&#x493;" horiz-adv-x="796" 
d="M133 0l55 330h-137l33 186h137l70 406h598l-33 -189h-401l-39 -217h264l-33 -186h-262l-57 -330h-195z" />
    <glyph glyph-name="uni0494" unicode="&#x494;" horiz-adv-x="1296" 
d="M418 0h-211l252 1434h815l-33 -201h-608l-76 -455q156 88 324 88q170 0 272 -94.5t102 -277.5q0 -29 -4 -69.5t-8 -66.5l-4 -26l-53 -303q-80 -455 -451 -455q-77 0 -133.5 24t-87.5 64l96 154q50 -43 123 -43q90 0 145 54.5t76 172.5l54 307q24 119 24 170
q0 92 -56.5 141.5t-164.5 49.5q-61 0 -120.5 -16t-89 -30t-81.5 -42z" />
    <glyph glyph-name="uni0495" unicode="&#x495;" horiz-adv-x="1009" 
d="M119 0l160 922h602l-33 -189h-406l-43 -248q54 49 128 78t155 29q139 0 222.5 -80.5t82.5 -216.5q0 -204 -107 -388t-296 -317h-213q72 55 137 119.5t128 147.5t100.5 182t37.5 197q0 78 -47 122.5t-127 44.5q-127 0 -231 -94l-54 -309h-196z" />
    <glyph glyph-name="uni0496" unicode="&#x496;" horiz-adv-x="1937" 
d="M1458 739l326 -538h176l-82 -463h-201l47 262h-57l-444 745l655 689h260zM545 1434l432 -689l-686 -745h-258l710 760l-436 674h238zM862 0l252 1434h213l-254 -1434h-211z" />
    <glyph glyph-name="uni0497" unicode="&#x497;" horiz-adv-x="1351" 
d="M1464 922l-385 -451l152 -285h137l-86 -411h-178l53 225q-47 3 -82 72l-211 403l361 447h239zM406 487l-238 435h221l234 -445l-390 -477h-237zM565 0l156 922h194l-157 -922h-193z" />
    <glyph glyph-name="uni0498" unicode="&#x498;" horiz-adv-x="1183" 
d="M618 -315h-198l53 305q-121 18 -213 74.5t-149 140.5l139 139q58 -79 151 -122.5t209 -43.5q133 0 216 68.5t83 189.5q0 91 -65 144t-205 53h-115l37 198h123q120 0 203.5 71.5t83.5 180.5q0 84 -60.5 128t-169.5 44q-156 0 -311 -116l-98 151q90 76 203.5 120t238.5 44
q206 0 312 -89t106 -247q0 -116 -67.5 -217t-206.5 -156l-3 -8q100 -26 156.5 -107t56.5 -198q0 -182 -123.5 -304t-332.5 -144z" />
    <glyph glyph-name="uni0499" unicode="&#x499;" horiz-adv-x="874" 
d="M461 -250h-180l38 236q-94 12 -167.5 46t-106.5 83l109 129q47 -44 116 -68t144 -24q90 0 153.5 39.5t63.5 103.5q0 92 -166 92h-125l27 150h110q86 0 136.5 37.5t50.5 95.5q0 47 -41 73.5t-115 26.5q-136 0 -262 -74l-70 135q168 111 387 111q156 0 236 -57t80 -160
q0 -85 -47 -153.5t-144 -98.5v-4q77 -21 111.5 -64.5t34.5 -113.5q0 -121 -93.5 -202.5t-238.5 -102.5z" />
    <glyph glyph-name="uni049A" unicode="&#x49a;" horiz-adv-x="1353" 
d="M1059 0l-494 748l703 686h272l-731 -703l362 -530h177l-82 -463h-201l47 262h-53zM207 0l252 1434h213l-252 -1434h-213z" />
    <glyph glyph-name="uni049B" unicode="&#x49b;" horiz-adv-x="991" 
d="M1090 922l-443 -453l189 -283h143l-86 -411h-178l53 225h-10q-40 0 -86 66l-254 401l416 455h256zM119 0l157 922h195l-156 -922h-196z" />
    <glyph glyph-name="uni049C" unicode="&#x49c;" horiz-adv-x="1435" 
d="M1141 0l-369 557l-41 -238h-184l145 820h185l-37 -203l510 498h272l-731 -703l502 -731h-252zM207 0l252 1434h213l-252 -1434h-213z" />
    <glyph glyph-name="uni049D" unicode="&#x49d;" horiz-adv-x="1079" 
d="M1178 922l-418 -461l287 -461h-234l-188 305l-25 -147h-172l104 594h173l-21 -111l238 281h256zM139 0l162 922h201l-162 -922h-201z" />
    <glyph glyph-name="uni04A0" unicode="&#x4a0;" horiz-adv-x="1488" 
d="M342 0l217 1233h-334l37 201h545l-252 -1434h-213zM1194 0l-494 748l703 686h272l-731 -703l502 -731h-252z" />
    <glyph glyph-name="uni04A1" unicode="&#x4a1;" horiz-adv-x="1153" 
d="M281 0l125 733h-275l29 189h473l-156 -922h-196zM1251 922l-442 -453l324 -469h-234l-319 467l415 455h256z" />
    <glyph glyph-name="uni04A2" unicode="&#x4a2;" horiz-adv-x="1609" 
d="M926 0l110 631h-725l-112 -631h-213l252 1434h213l-107 -603h729l105 603h211l-215 -1233h196l-82 -463h-201l48 262h-209z" />
    <glyph glyph-name="uni04A3" unicode="&#x4a3;" horiz-adv-x="1116" 
d="M737 0l62 371h-422l-62 -371h-196l155 922h197l-61 -365h421l62 365h192l-124 -736h157l-86 -411h-178l53 225h-170z" />
    <glyph glyph-name="uni04A4" unicode="&#x4a4;" horiz-adv-x="1931" 
d="M1550 1233l-217 -1233h-211l111 631h-703l-110 -631h-213l252 1434h213l-107 -603h703l106 603h785l-35 -201h-574z" />
    <glyph glyph-name="uni04A5" unicode="&#x4a5;" horiz-adv-x="1411" 
d="M752 0l63 371h-432l-64 -371h-200l162 922h200l-65 -365h432l65 365h590l-33 -189h-391l-129 -733h-198z" />
    <glyph glyph-name="uni04AA" unicode="&#x4aa;" horiz-adv-x="1351" 
d="M1290 287l82 -164q-67 -59 -170 -94t-215 -45l-53 -299h-199l53 303q-265 35 -420 215t-155 446q0 166 61 313t169.5 256t268 172.5t347.5 63.5q145 0 260.5 -35t179.5 -92l-110 -156q-130 84 -328 84q-177 0 -319 -76t-221 -209.5t-79 -297.5q0 -217 133 -355.5
t359 -138.5q208 0 356 109z" />
    <glyph glyph-name="uni04AB" unicode="&#x4ab;" horiz-adv-x="909" 
d="M784 268l88 -121q-114 -124 -280 -157l-41 -240h-180l39 238q-140 24 -210.5 120.5t-70.5 231.5q0 116 37.5 223.5t106.5 192.5t176.5 135.5t238.5 50.5q171 0 248 -53l-68 -160q-87 31 -192 31q-78 0 -143 -31.5t-107.5 -84.5t-66 -122t-23.5 -145q0 -99 51.5 -158
t144.5 -59q107 0 252 108z" />
    <glyph glyph-name="uni04AE" unicode="&#x4ae;" horiz-adv-x="1247" 
d="M1487 1434l-656 -828l-104 -606h-213l104 606l-354 828h228l262 -625l483 625h250z" />
    <glyph glyph-name="uni04AF" unicode="&#x4af;" horiz-adv-x="880" 
d="M735 922h211q-95 -506 -375 -922l-69 -410h-197l70 410q-30 177 -106 440t-167 482h217q46 -100 103.5 -313t89.5 -376q76 132 139.5 327.5t83.5 361.5z" />
    <glyph glyph-name="uni04B0" unicode="&#x4b0;" horiz-adv-x="1247" 
d="M1487 1434l-574 -723h226l-37 -201h-287l-88 -510h-213l88 510h-287l37 201h221l-309 723h228l262 -625l483 625h250z" />
    <glyph glyph-name="uni04B1" unicode="&#x4b1;" horiz-adv-x="880" 
d="M735 922h211q-75 -403 -260 -736h166l-33 -186h-248l-69 -410h-197l70 410h-248l33 186h176q-90 387 -234 736h217q46 -100 103.5 -313t89.5 -376q76 132 139.5 327.5t83.5 361.5z" />
    <glyph glyph-name="uni04B2" unicode="&#x4b2;" horiz-adv-x="1368" 
d="M1569 1434l-621 -709l279 -524h176l-82 -463h-201l47 262h-67l-305 569l-500 -569h-262l647 733l-373 701h240l289 -545l475 545h258z" />
    <glyph glyph-name="uni04B3" unicode="&#x4b3;" horiz-adv-x="925" 
d="M1016 922l-381 -447l147 -289h140l-86 -411h-179l54 225q-36 3 -55 24.5t-52 90.5l-108 221l-283 -336h-242l402 471l-230 451h224l147 -320l260 320h242z" />
    <glyph glyph-name="uni04B6" unicode="&#x4b6;" horiz-adv-x="1396" 
d="M1397 1434l-217 -1233h196l-82 -463h-200l47 262h-207l106 606q-164 -102 -356 -102q-182 0 -287.5 90t-105.5 258q4 76 12 115l82 467h213l-74 -414q-12 -62 -12 -121q0 -197 238 -197q88 0 173 28t150 73l111 631h213z" />
    <glyph glyph-name="uni04B7" unicode="&#x4b7;" horiz-adv-x="980" 
d="M950 922l-125 -736h158l-86 -411h-178l53 225h-18q-1 2 -13.5 0t-32 3.5t-38 14t-32 30.5t-13.5 54q0 39 16 138l39 233q-65 -97 -152 -154t-174 -57q-103 0 -150.5 58t-47.5 153q0 66 22 174l60 275h200l-57 -263q-14 -63 -14 -116q2 -44 17.5 -68t57.5 -24q85 0 169 92
t114 196l33 183h192z" />
    <glyph glyph-name="uni04B8" unicode="&#x4b8;" horiz-adv-x="1351" 
d="M1397 1434l-252 -1434h-211l106 606q-93 -60 -202 -84l-37 -213h-193l35 195q-165 11 -258.5 100t-93.5 248q4 76 12 115l82 467h213l-74 -414q-12 -62 -12 -121q0 -167 166 -192l53 299h193l-52 -291q115 27 201 88l111 631h213z" />
    <glyph glyph-name="uni04B9" unicode="&#x4b9;" horiz-adv-x="948" 
d="M950 922l-155 -922h-195l80 473q-45 -64 -92 -108l-39 -218h-176l20 117q-14 -2 -39 -2q-103 0 -150.5 58t-47.5 153q0 66 22 174l60 275h200l-57 -263q-14 -63 -14 -116q2 -41 14.5 -64.5t44.5 -27.5l45 249h176l-26 -145q74 83 104 184l33 183h192z" />
    <glyph glyph-name="uni04BA" unicode="&#x4ba;" horiz-adv-x="1335" 
d="M487 1434h215l-118 -656q150 88 338 88q161 0 262.5 -96t101.5 -276q0 -68 -29 -228l-49 -266h-211l54 291q16 99 16 164q0 113 -59.5 163t-171.5 50q-167 0 -285 -90l-102 -578h-211z" />
    <glyph glyph-name="uni04BB" unicode="&#x4bb;" horiz-adv-x="1071" 
d="M119 0l246 1434h194l-137 -797q79 124 192 214.5t232 90.5q102 0 150 -60t48 -157q0 -71 -22 -190l-100 -535h-195l96 502q21 109 19 153q-2 48 -18.5 74.5t-57.5 26.5q-65 0 -150 -73t-151.5 -169t-91.5 -174l-58 -340h-196z" />
    <glyph glyph-name="uni04C0" unicode="&#x4c0;" horiz-adv-x="698" 
d="M242 0l254 1434h213l-254 -1434h-213z" />
    <glyph glyph-name="uni04CB" unicode="&#x4cb;" horiz-adv-x="1351" 
d="M1397 1434l-252 -1434h-205l-47 -262h-199l82 463h193l71 405q-164 -102 -356 -102q-182 0 -287.5 90t-105.5 258q4 76 12 115l82 467h213l-74 -414q-12 -62 -12 -121q0 -197 238 -197q88 0 173 28t150 73l111 631h213z" />
    <glyph glyph-name="uni04CC" unicode="&#x4cc;" horiz-adv-x="948" 
d="M950 922l-131 -772q-8 -43 -24.5 -73.5t-32.5 -45t-41.5 -22t-37.5 -8.5t-34 -1h-16l-41 -221h-186l73 407h152v-4l49 291q-65 -97 -152 -154t-174 -57q-103 0 -150.5 58t-47.5 153q0 66 22 174l60 275h200l-51 -232q-20 -86 -20 -147q2 -44 17.5 -68t57.5 -24
q85 0 169 92t114 196l33 183h192z" />
    <glyph glyph-name="uni04CF" unicode="&#x4cf;" horiz-adv-x="710" 
d="M242 0l254 1434h213l-254 -1434h-213z" />
    <glyph glyph-name="uni04D0" unicode="&#x4d0;" horiz-adv-x="1443" 
d="M23 0l860 1440h184l354 -1440h-215l-98 401h-621l-237 -401h-227zM930 1161l-328 -561h459zM610 1772h201q3 -61 39 -93t133 -32q157 0 227 125h185q-42 -123 -159 -199t-273 -76q-177 0 -267.5 73.5t-85.5 201.5z" />
    <glyph glyph-name="uni04D1" unicode="&#x4d1;" horiz-adv-x="1058" 
d="M920 0h-197l51 291q-195 -311 -405 -311q-119 0 -179.5 87.5t-60.5 231.5q0 180 81 327.5t222 231.5t313 84q99 0 183.5 -20.5t132.5 -47.5zM463 160q60 0 138.5 76.5t139 176t82.5 177.5l29 155q-54 15 -113 15q-179 0 -291 -120.5t-112 -299.5q0 -85 32 -132.5
t95 -47.5zM465 1389h176q-10 -70 18 -111t99 -41q58 0 107 40t63 112h159q-26 -125 -120.5 -209t-239.5 -84t-211.5 79t-50.5 214z" />
    <glyph glyph-name="uni04D2" unicode="&#x4d2;" horiz-adv-x="1443" 
d="M23 0l860 1440h184l354 -1440h-215l-98 401h-621l-237 -401h-227zM930 1161l-328 -561h459zM1087 1673q0 49 37.5 79t92.5 30q51 0 86.5 -29.5t35.5 -77.5q0 -52 -34.5 -83t-87.5 -31q-57 0 -93.5 29.5t-36.5 82.5zM604 1673q0 49 37.5 79t91.5 30q53 0 89 -29.5
t36 -77.5q0 -51 -35.5 -82.5t-89.5 -31.5q-57 0 -93 29.5t-36 82.5z" />
    <glyph glyph-name="uni04D3" unicode="&#x4d3;" horiz-adv-x="1058" 
d="M920 0h-197l51 291q-195 -311 -405 -311q-119 0 -179.5 87.5t-60.5 231.5q0 180 81 327.5t222 231.5t313 84q99 0 183.5 -20.5t132.5 -47.5zM463 160q60 0 138.5 76.5t139 176t82.5 177.5l29 155q-54 15 -113 15q-179 0 -291 -120.5t-112 -299.5q0 -85 32 -132.5
t95 -47.5zM420 1204q0 46 33 76.5t82 30.5q44 0 76 -29.5t32 -77.5q0 -52 -32 -85.5t-76 -33.5q-51 0 -83 32.5t-32 86.5zM838 1204q0 45 33 76t81 31q45 0 78 -29.5t33 -77.5q0 -53 -32.5 -86t-78.5 -33q-50 0 -82 32t-32 87z" />
    <glyph glyph-name="uni04D4" unicode="&#x4d4;" horiz-adv-x="1974" 
d="M2079 1434l-35 -201h-610l-74 -410h549l-33 -200h-551l-76 -422h633l-35 -201h-843l69 406h-479l-356 -406h-263l1278 1434h826zM1192 1085l-418 -479h336z" />
    <glyph glyph-name="uni04D5" unicode="&#x4d5;" horiz-adv-x="1613" 
d="M782 287q-39 -62 -77 -110.5t-89.5 -96t-114.5 -74t-132 -26.5q-119 0 -179.5 87t-60.5 234q0 177 81 324.5t222.5 232t312.5 84.5q183 0 304 -82q126 82 297 82q155 0 223 -65.5t65 -167.5q0 -157 -164 -246.5t-491 -106.5q3 -99 62 -149.5t155 -50.5q121 0 270 106
l86 -115q-72 -73 -176 -120t-217 -47q-163 0 -262 86t-115 221zM463 160q59 0 136 74.5t136 170.5t86 177q35 94 68 141q-61 37 -168 37q-162 0 -273.5 -123t-111.5 -297q0 -85 32 -132.5t95 -47.5zM1319 766q-119 0 -207.5 -78t-118.5 -196q437 28 437 184q3 43 -26 66.5
t-85 23.5z" />
    <glyph glyph-name="uni04D6" unicode="&#x4d6;" horiz-adv-x="1177" 
d="M207 0l252 1434h823l-33 -201h-612l-72 -410h549l-35 -200h-551l-73 -422h630l-32 -201h-846zM532 1772h201q3 -61 39 -93t133 -32q158 0 228 125h184q-42 -123 -159 -199t-273 -76q-177 0 -267.5 73.5t-85.5 201.5z" />
    <glyph glyph-name="uni04D7" unicode="&#x4d7;" horiz-adv-x="966" 
d="M819 262l86 -115q-73 -73 -176.5 -120t-216.5 -47q-94 0 -168.5 29.5t-120.5 80t-70 114.5t-24 136q0 117 39 225t110 192.5t179 134.5t237 50q151 0 223.5 -63t69.5 -170q0 -156 -164 -247t-491 -106q3 -99 61 -149.5t156 -50.5q121 0 270 106zM672 766
q-119 0 -207.5 -78t-118.5 -196q436 28 436 184q3 43 -26.5 66.5t-83.5 23.5zM391 1389h176q-10 -70 18 -111t99 -41q58 0 107 40t63 112h160q-26 -125 -121 -209t-240 -84t-211.5 79t-50.5 214z" />
    <glyph glyph-name="uni04D8" unicode="&#x4d8;" horiz-adv-x="1605" 
d="M246 831h1167q-6 197 -129 310.5t-330 113.5q-221 0 -389 -112l-78 162q197 149 500 149q310 0 485 -172.5t175 -486.5q0 -161 -57.5 -307.5t-161.5 -259.5t-264.5 -180.5t-352.5 -67.5q-284 0 -444 153t-160 422q0 132 39 276zM829 178q224 0 379 129t193 324h-961
q-4 -46 -4 -66q0 -171 102.5 -279t290.5 -108z" />
    <glyph glyph-name="uni04D9" unicode="&#x4d9;" horiz-adv-x="970" 
d="M279 662l-70 131q70 65 172 107t205 42q99 0 175 -31t119.5 -84t65 -115.5t21.5 -133.5q0 -117 -37 -223.5t-106 -190.5t-177.5 -134t-240.5 -50q-82 0 -144.5 22.5t-98 59t-52.5 78.5t-17 87q0 163 161.5 239.5t502.5 82.5q-2 46 -11.5 81t-31 67t-63 49.5t-101.5 17.5
q-127 0 -272 -102zM428 158q112 0 196.5 70.5t116.5 181.5q-170 -7 -268.5 -29t-132.5 -53t-35 -78q-1 -44 31.5 -68t91.5 -24z" />
    <glyph glyph-name="uni04DC" unicode="&#x4dc;" horiz-adv-x="1937" 
d="M862 0l252 1434h213l-254 -1434h-211zM1458 739l447 -739h-238l-444 745l655 689h260zM545 1434l432 -689l-686 -745h-258l710 760l-436 674h238zM1348 1673q0 49 37.5 79t91.5 30q51 0 86.5 -29.5t35.5 -77.5q0 -52 -34.5 -83t-87.5 -31q-57 0 -93 29.5t-36 82.5z
M864 1673q0 49 37.5 79t91.5 30q53 0 89 -29.5t36 -77.5q0 -51 -35.5 -82.5t-89.5 -31.5q-57 0 -93 29.5t-36 82.5z" />
    <glyph glyph-name="uni04DD" unicode="&#x4dd;" horiz-adv-x="1351" 
d="M1464 922l-385 -451l252 -471h-219l-248 475l361 447h239zM565 0l156 922h194l-157 -922h-193zM406 487l-238 435h221l234 -445l-390 -477h-237zM543 1204q0 46 32.5 76.5t81.5 30.5q45 0 77 -29.5t32 -77.5q0 -52 -32.5 -85.5t-76.5 -33.5q-50 0 -82 32t-32 87z
M961 1204q0 45 33 76t81 31q45 0 78 -29.5t33 -77.5q0 -53 -32.5 -86t-78.5 -33q-50 0 -82 32t-32 87z" />
    <glyph glyph-name="uni04DE" unicode="&#x4de;" horiz-adv-x="1183" 
d="M592 -20q-163 0 -287 60.5t-194 164.5l139 139q58 -79 151 -122.5t209 -43.5q133 0 216 68.5t83 189.5q0 91 -65 144t-205 53h-115l37 198h123q120 0 203.5 71.5t83.5 180.5q0 84 -60.5 128t-169.5 44q-156 0 -311 -116l-98 151q90 76 203.5 120t238.5 44q206 0 312 -89
t106 -247q0 -116 -67.5 -217t-206.5 -156l-3 -8q100 -26 156.5 -107t56.5 -198q0 -200 -147.5 -326t-388.5 -126zM918 1673q0 49 37.5 79t91.5 30q51 0 86.5 -29.5t35.5 -77.5q0 -52 -34.5 -83t-87.5 -31q-57 0 -93 29.5t-36 82.5zM434 1673q0 49 37.5 79t91.5 30
q53 0 89 -29.5t36 -77.5q0 -51 -35.5 -82.5t-89.5 -31.5q-57 0 -93 29.5t-36 82.5z" />
    <glyph glyph-name="uni04DF" unicode="&#x4df;" horiz-adv-x="874" 
d="M410 -20q-119 0 -220.5 37.5t-144.5 97.5l109 129q47 -44 116 -68t144 -24q90 0 153.5 39.5t63.5 103.5q0 92 -166 92h-125l27 150h110q86 0 136.5 37.5t50.5 95.5q0 47 -41 73.5t-115 26.5q-136 0 -262 -74l-70 135q168 111 387 111q156 0 236 -57t80 -160
q0 -85 -47 -153.5t-144 -98.5v-4q77 -21 111.5 -64.5t34.5 -113.5q0 -140 -123 -225.5t-301 -85.5zM270 1204q0 46 33 76.5t82 30.5q45 0 77 -29.5t32 -77.5q0 -52 -32.5 -85.5t-76.5 -33.5q-51 0 -83 32.5t-32 86.5zM688 1204q0 45 33.5 76t81.5 31q45 0 77.5 -29.5
t32.5 -77.5q0 -53 -32 -86t-78 -33q-51 0 -83 32.5t-32 86.5z" />
    <glyph glyph-name="uni04E2" unicode="&#x4e2;" horiz-adv-x="1626" 
d="M393 0h-186l252 1434h213l-187 -1061l1000 1061h186l-250 -1434h-213l187 1061zM791 1567l28 162h629l-29 -162h-628z" />
    <glyph glyph-name="uni04E3" unicode="&#x4e3;" horiz-adv-x="1034" 
d="M1040 922l-159 -922h-197l49 285q-35 -57 -75 -106.5t-92.5 -96.5t-115.5 -74.5t-128 -27.5q-99 0 -145 59t-46 151q0 76 21 187l114 545h197l-111 -504q-21 -101 -18 -158q0 -96 72 -96q64 0 147.5 74.5t147.5 173t85 174.5l58 336h196zM430 1167l27 160h557l-29 -160
h-555z" />
    <glyph glyph-name="uni04E4" unicode="&#x4e4;" horiz-adv-x="1626" 
d="M393 0h-186l252 1434h213l-187 -1061l1000 1061h186l-250 -1434h-213l187 1061zM1210 1673q0 49 37.5 79t91.5 30q51 0 87 -29.5t36 -77.5q0 -52 -35 -83t-88 -31q-57 0 -93 29.5t-36 82.5zM727 1673q0 49 37.5 79t91.5 30q53 0 89 -29.5t36 -77.5q0 -51 -35.5 -82.5
t-89.5 -31.5q-57 0 -93 29.5t-36 82.5z" />
    <glyph glyph-name="uni04E5" unicode="&#x4e5;" horiz-adv-x="1034" 
d="M1040 922l-159 -922h-197l49 285q-35 -57 -75 -106.5t-92.5 -96.5t-115.5 -74.5t-128 -27.5q-99 0 -145 59t-46 151q0 76 21 187l114 545h197l-111 -504q-21 -101 -18 -158q0 -96 72 -96q64 0 147.5 74.5t147.5 173t85 174.5l58 336h196zM369 1204q0 46 32.5 76.5
t81.5 30.5q45 0 77 -29.5t32 -77.5q0 -52 -32.5 -85.5t-76.5 -33.5q-50 0 -82 32t-32 87zM786 1204q0 45 33.5 76t81.5 31q45 0 78 -29.5t33 -77.5q0 -53 -32.5 -86t-78.5 -33q-51 0 -83 32.5t-32 86.5z" />
    <glyph glyph-name="uni04E6" unicode="&#x4e6;" horiz-adv-x="1677" 
d="M213 645q0 168 58.5 316t164 257t261.5 172.5t341 63.5q147 0 272.5 -45.5t215 -129t140 -205.5t50.5 -269q0 -235 -99 -422.5t-282.5 -295t-419.5 -107.5q-169 0 -303.5 51.5t-221 142t-132 211t-45.5 260.5zM442 657q0 -148 64 -258t172.5 -165.5t245.5 -55.5
q247 0 405 167t158 439q0 213 -128 342t-341 129q-160 0 -291 -74t-208 -211.5t-77 -312.5zM1210 1673q0 49 37.5 79t91.5 30q51 0 87 -29.5t36 -77.5q0 -52 -35 -83t-88 -31q-57 0 -93 29.5t-36 82.5zM727 1673q0 49 37.5 79t91.5 30q53 0 89 -29.5t36 -77.5
q0 -51 -35.5 -82.5t-89.5 -31.5q-57 0 -93 29.5t-36 82.5z" />
    <glyph glyph-name="uni04E7" unicode="&#x4e7;" horiz-adv-x="1052" 
d="M129 362q0 92 23 177.5t69.5 158.5t111 127.5t153 85.5t190.5 31q173 0 270.5 -101.5t97.5 -275.5q0 -169 -63.5 -301t-184 -208t-280.5 -76q-177 0 -282 105t-105 277zM336 397q0 -112 58 -174.5t155 -62.5q135 0 213 103.5t78 264.5q0 111 -50.5 171.5t-146.5 60.5
q-136 0 -221.5 -100t-85.5 -263zM385 1204q0 46 33 76.5t82 30.5q44 0 76 -29.5t32 -77.5q0 -52 -32 -85.5t-76 -33.5q-50 0 -82.5 32.5t-32.5 86.5zM803 1204q0 45 33.5 76t81.5 31q45 0 77.5 -29.5t32.5 -77.5q0 -53 -32 -86t-78 -33q-50 0 -82.5 32.5t-32.5 86.5z" />
    <glyph glyph-name="uni04E8" unicode="&#x4e8;" horiz-adv-x="1677" 
d="M213 645q0 168 58.5 316t164 257t261.5 172.5t341 63.5q147 0 272.5 -45.5t215 -129t140 -205.5t50.5 -269q0 -235 -99 -422.5t-282.5 -295t-419.5 -107.5q-169 0 -303.5 51.5t-221 142t-132 211t-45.5 260.5zM924 178q208 0 355.5 122t190.5 331h-1028
q9 -210 144 -331.5t338 -121.5zM1018 1255q-200 0 -352 -115.5t-203 -308.5h1022q-15 193 -141 308.5t-326 115.5z" />
    <glyph glyph-name="uni04E9" unicode="&#x4e9;" horiz-adv-x="1052" 
d="M129 362q0 92 23 177.5t69.5 158.5t111 127.5t153 85.5t190.5 31q173 0 270.5 -101.5t97.5 -275.5q0 -169 -63.5 -301t-184 -208t-280.5 -76q-177 0 -282 105t-105 277zM549 160q99 0 168.5 58t99.5 157h-481q6 -101 63.5 -158t149.5 -57zM643 760q-99 0 -174 -55
t-109 -152h480q-6 99 -56.5 153t-140.5 54z" />
    <glyph glyph-name="uni04EE" unicode="&#x4ee;" horiz-adv-x="1372" 
d="M1602 1434l-689 -1102q-110 -180 -201.5 -256t-219.5 -76q-53 0 -103.5 15.5t-77.5 41.5l99 168q51 -28 108 -28q100 0 182 135l31 45l-457 1057h230l352 -848l516 848h230zM645 1567l29 162h629l-29 -162h-629z" />
    <glyph glyph-name="uni04EF" unicode="&#x4ef;" horiz-adv-x="882" 
d="M743 922h211q-78 -291 -168.5 -531t-191 -420.5t-211 -280.5t-219.5 -100q-108 0 -184 66l90 151q54 -32 94 -32q62 0 121 62t108 157q-24 161 -108 423t-187 505h217q51 -117 121.5 -334.5t98.5 -354.5q63 140 124.5 338t83.5 351zM289 1167l26 160h557l-28 -160h-555z
" />
    <glyph glyph-name="uni04F0" unicode="&#x4f0;" horiz-adv-x="1372" 
d="M1602 1434l-689 -1102q-110 -180 -201.5 -256t-219.5 -76q-53 0 -103.5 15.5t-77.5 41.5l99 168q51 -28 108 -28q100 0 182 135l31 45l-457 1057h230l352 -848l516 848h230zM1085 1673q0 49 37.5 79t91.5 30q51 0 87 -29.5t36 -77.5q0 -52 -35 -83t-88 -31
q-57 0 -93 29.5t-36 82.5zM602 1673q0 49 37.5 79t91.5 30q53 0 89 -29.5t36 -77.5q0 -51 -35.5 -82.5t-89.5 -31.5q-57 0 -93 29.5t-36 82.5z" />
    <glyph glyph-name="uni04F1" unicode="&#x4f1;" horiz-adv-x="882" 
d="M743 922h211q-78 -291 -168.5 -531t-191 -420.5t-211 -280.5t-219.5 -100q-108 0 -184 66l90 151q54 -32 94 -32q62 0 121 62t108 157q-24 161 -108 423t-187 505h217q51 -117 121.5 -334.5t98.5 -354.5q63 140 124.5 338t83.5 351zM221 1204q0 46 33 76.5t82 30.5
q44 0 76 -29.5t32 -77.5q0 -52 -32 -85.5t-76 -33.5q-50 0 -82.5 32.5t-32.5 86.5zM639 1204q0 45 33.5 76t81.5 31q45 0 77.5 -29.5t32.5 -77.5q0 -53 -32 -86t-78 -33q-50 0 -82.5 32.5t-32.5 86.5z" />
    <glyph glyph-name="uni04F2" unicode="&#x4f2;" horiz-adv-x="1372" 
d="M1602 1434l-689 -1102q-110 -180 -201.5 -256t-219.5 -76q-53 0 -103.5 15.5t-77.5 41.5l99 168q51 -28 108 -28q100 0 182 135l31 45l-457 1057h230l352 -848l516 848h230zM1442 1714l-379 -213l-82 86l324 254zM1030 1753l-332 -252l-86 80l248 260z" />
    <glyph glyph-name="uni04F3" unicode="&#x4f3;" horiz-adv-x="882" 
d="M743 922h211q-78 -291 -168.5 -531t-191 -420.5t-211 -280.5t-219.5 -100q-108 0 -184 66l90 151q54 -32 94 -32q62 0 121 62t108 157q-24 161 -108 423t-187 505h217q51 -117 121.5 -334.5t98.5 -354.5q63 140 124.5 338t83.5 351zM969 1368l-264 -285l-121 84l237 316z
M614 1393l-235 -310l-121 84l211 332z" />
    <glyph glyph-name="uni04F4" unicode="&#x4f4;" horiz-adv-x="1351" 
d="M1397 1434l-252 -1434h-211l106 606q-164 -102 -356 -102q-182 0 -287.5 90t-105.5 258q4 76 12 115l82 467h213l-74 -414q-12 -62 -12 -121q0 -197 238 -197q88 0 173 28t150 73l111 631h213zM1032 1673q0 49 37.5 79t91.5 30q51 0 87 -29.5t36 -77.5q0 -52 -35 -83
t-88 -31q-57 0 -93 29.5t-36 82.5zM549 1673q0 49 37.5 79t91.5 30q53 0 89 -29.5t36 -77.5q0 -51 -35.5 -82.5t-89.5 -31.5q-57 0 -93 29.5t-36 82.5z" />
    <glyph glyph-name="uni04F5" unicode="&#x4f5;" horiz-adv-x="948" 
d="M950 922l-155 -922h-195l80 473q-65 -97 -152 -154t-174 -57q-103 0 -150.5 58t-47.5 153q0 66 22 174l60 275h200l-57 -263q-14 -63 -14 -116q2 -44 17.5 -68t57.5 -24q85 0 169 92t114 196l33 183h192zM309 1204q0 46 33 76.5t82 30.5q44 0 76 -29.5t32 -77.5
q0 -52 -32 -85.5t-76 -33.5q-50 0 -82.5 32.5t-32.5 86.5zM727 1204q0 45 33.5 76t81.5 31q45 0 77.5 -29.5t32.5 -77.5q0 -53 -32 -86t-78 -33q-50 0 -82.5 32.5t-32.5 86.5z" />
    <glyph glyph-name="uni04F6" unicode="&#x4f6;" horiz-adv-x="1046" 
d="M207 0l252 1434h815l-37 -201h-600l-182 -1032h196l-82 -463h-200l47 262h-209z" />
    <glyph glyph-name="uni04F7" unicode="&#x4f7;" horiz-adv-x="780" 
d="M344 186h158l-86 -411h-178l53 225q-85 0 -117.5 24t-32.5 82q0 38 25 179l108 637h598l-32 -189h-402z" />
    <glyph glyph-name="uni04F8" unicode="&#x4f8;" horiz-adv-x="1751" 
d="M1331 0l252 1434h211l-250 -1434h-213zM707 733q-60 0 -162 -12l-90 -520q24 0 73.5 -2t77.5 -2q178 0 279.5 86.5t101.5 236.5q0 102 -72.5 157.5t-207.5 55.5zM672 1434l-90 -512q123 10 172 10q228 0 345.5 -100t117.5 -275q0 -124 -40 -225t-119 -177t-206.5 -117.5
t-294.5 -41.5q-76 0 -195.5 2t-154.5 2l252 1434h213zM1251 1673q0 49 37.5 79t91.5 30q51 0 87 -29.5t36 -77.5q0 -52 -35 -83t-88 -31q-57 0 -93 29.5t-36 82.5zM768 1673q0 49 37.5 79t91.5 30q53 0 89 -29.5t36 -77.5q0 -51 -35.5 -82.5t-89.5 -31.5q-57 0 -93 29.5
t-36 82.5z" />
    <glyph glyph-name="uni04F9" unicode="&#x4f9;" horiz-adv-x="1318" 
d="M164 389l139 533h199l-109 -398q161 176 324 176q90 0 151.5 -59.5t61.5 -171.5q0 -100 -51 -192.5t-131 -156t-177.5 -102t-189.5 -38.5q-126 0 -185 62.5t-59 162.5q0 79 27 184zM1130 922h193l-156 -922h-196zM336 274q-2 -10 -2 -28q4 -86 98 -86q102 0 200.5 78
t98.5 176q0 49 -29 75.5t-71 26.5q-76 0 -174.5 -81.5t-120.5 -160.5zM543 1204q0 46 32.5 76.5t81.5 30.5q45 0 77 -29.5t32 -77.5q0 -52 -32.5 -85.5t-76.5 -33.5q-50 0 -82 32t-32 87zM961 1204q0 45 33 76t81 31q45 0 78 -29.5t33 -77.5q0 -53 -32.5 -86t-78.5 -33
q-50 0 -82 32t-32 87z" />
    <glyph glyph-name="uni1E9E" unicode="&#x1e9e;" horiz-adv-x="1327" 
d="M1081 393q0 54 -27.5 108t-83 109t-108 97t-133.5 100l328 377q-65 71 -176 71q-130 0 -197.5 -72.5t-91.5 -203.5l-172 -983h-213l174 979q41 243 161.5 361t354.5 118q276 0 426 -233l-336 -361q320 -228 320 -467q0 -187 -116.5 -300t-301.5 -113q-207 0 -326 137
l115 153q92 -92 201 -92q93 0 147.5 58t54.5 157z" />
    <glyph glyph-name="uni2010" unicode="&#x2010;" horiz-adv-x="806" 
d="M225 467l25 184h504l-29 -184h-500z" />
    <glyph glyph-name="uni2011" unicode="&#x2011;" horiz-adv-x="806" 
d="M225 467l25 184h504l-29 -184h-500z" />
    <glyph glyph-name="figuredash" unicode="&#x2012;" horiz-adv-x="1183" 
d="M287 639l28 172h838l-31 -172h-835z" />
    <glyph glyph-name="endash" unicode="&#x2013;" horiz-adv-x="1226" 
d="M266 467l29 172h864l-31 -172h-862z" />
    <glyph glyph-name="emdash" unicode="&#x2014;" horiz-adv-x="1662" 
d="M266 467l29 172h1298l-28 -172h-1299z" />
    <glyph glyph-name="uni2015" unicode="&#x2015;" horiz-adv-x="1609" 
d="M238 467l28 172h1299l-29 -172h-1298z" />
    <glyph glyph-name="quoteleft" unicode="&#x2018;" horiz-adv-x="491" 
d="M545 1126l-180 -96q-41 51 -41 137q0 123 63 220t191 151l79 -94q-65 -38 -101 -97t-36 -126q0 -64 25 -95z" />
    <glyph glyph-name="quoteright" unicode="&#x2019;" horiz-adv-x="491" 
d="M401 1434l181 94q36 -45 36 -135q0 -125 -62 -221t-191 -148l-78 92q64 38 100.5 97.5t36.5 125.5q0 69 -23 95z" />
    <glyph glyph-name="quotesinglbase" unicode="&#x201a;" horiz-adv-x="491" 
d="M162 74l180 94q37 -53 37 -139q0 -123 -62.5 -219.5t-191.5 -149.5l-80 94q66 40 102.5 98t36.5 123q0 68 -22 99z" />
    <glyph glyph-name="quotedblleft" unicode="&#x201c;" horiz-adv-x="815" 
d="M860 1126l-180 -96q-41 51 -41 137q0 123 63 220t191 151l80 -94q-65 -38 -101 -97t-36 -126q0 -65 24 -95zM545 1126l-180 -96q-37 46 -37 137q0 124 62 221t192 150l77 -94q-65 -38 -102 -97.5t-37 -125.5q0 -59 25 -95z" />
    <glyph glyph-name="quotedblright" unicode="&#x201d;" horiz-adv-x="815" 
d="M725 1434l180 94q15 -22 26 -60.5t11 -74.5q0 -125 -63 -221t-191 -148l-80 92q65 38 101 97t36 126q0 69 -20 95zM403 1434l181 94q17 -22 28 -60t11 -75q0 -125 -63 -221t-191 -148l-80 92q64 38 100.5 97.5t36.5 125.5q0 65 -23 95z" />
    <glyph glyph-name="quotedblbase" unicode="&#x201e;" horiz-adv-x="804" 
d="M162 74l180 94q37 -53 37 -139q0 -123 -62.5 -219.5t-191.5 -149.5l-80 94q66 40 102.5 98t36.5 123q0 68 -22 99zM475 74l180 94q37 -53 37 -139q0 -123 -62.5 -219.5t-191.5 -149.5l-78 94q65 40 101.5 98.5t36.5 122.5q0 70 -23 99z" />
    <glyph glyph-name="dagger" unicode="&#x2020;" horiz-adv-x="972" 
d="M209 823v176h311v435h189v-435h311v-176h-311v-1028h-189v1028h-311z" />
    <glyph glyph-name="daggerdbl" unicode="&#x2021;" horiz-adv-x="983" 
d="M209 823v176h311v435h189v-435h311v-176h-311v-356h311v-176h-311v-496h-189v496h-311v176h311v356h-311z" />
    <glyph glyph-name="bullet" unicode="&#x2022;" horiz-adv-x="528" 
d="M152 541q0 84 60 145.5t144 61.5q86 0 147.5 -61.5t61.5 -145.5q0 -85 -61.5 -147t-147.5 -62q-84 0 -144 62t-60 147z" />
    <glyph glyph-name="ellipsis" unicode="&#x2026;" horiz-adv-x="1753" 
d="M147 131q0 51 38.5 91t101.5 40q57 0 95 -40t38 -91q0 -58 -37 -98.5t-98 -40.5q-65 0 -101.5 40t-36.5 99zM772 131q0 51 38 91t101 40q57 0 95 -40t38 -91q0 -58 -37 -98.5t-98 -40.5q-65 0 -101 40t-36 99zM1397 131q0 51 38 91t101 40q57 0 95 -40t38 -91
q0 -58 -37 -98.5t-98 -40.5q-65 0 -101 40t-36 99z" />
    <glyph glyph-name="perthousand" unicode="&#x2030;" horiz-adv-x="2721" 
d="M463 59l1044 1395l115 -84l-1042 -1390zM221 1079q0 158 106 262.5t263 104.5q164 0 268.5 -98.5t104.5 -257.5q0 -156 -107 -264.5t-268 -108.5q-159 0 -263 101t-104 261zM397 1081q0 -86 55 -142t140 -56q88 0 141 54.5t53 145.5q0 85 -55 142t-139 57q-89 0 -142 -57
t-53 -144zM2015 350q0 158 106 262.5t263 104.5q164 0 268.5 -99t104.5 -258q0 -156 -107 -264t-268 -108q-159 0 -263 101t-104 261zM2191 352q0 -86 55 -142t140 -56q88 0 141 54.5t53 145.5q0 85 -55 142t-139 57q-89 0 -142 -57t-53 -144zM1135 350q0 158 105.5 262.5
t262.5 104.5q164 0 268.5 -99t104.5 -258q0 -156 -107 -264t-268 -108q-159 0 -262.5 101t-103.5 261zM1311 352q0 -86 54.5 -142t139.5 -56q88 0 141.5 54.5t53.5 145.5q0 85 -55.5 142t-139.5 57q-89 0 -141.5 -57t-52.5 -144z" />
    <glyph glyph-name="guilsinglleft" unicode="&#x2039;" horiz-adv-x="708" 
d="M481 53l-311 467l2 8l442 439l117 -123l-340 -338l236 -350z" />
    <glyph glyph-name="guilsinglright" unicode="&#x203a;" horiz-adv-x="708" 
d="M401 967l314 -467l-2 -8l-443 -441l-114 123l338 340l-240 348z" />
    <glyph glyph-name="fraction" unicode="&#x2044;" horiz-adv-x="419" 
d="M-276 59l1042 1395l115 -84l-1041 -1390z" />
    <glyph glyph-name="zerosuperior" unicode="&#x2070;" horiz-adv-x="800" 
d="M258 1016q0 58 11.5 115t39.5 114t69 100t106.5 70t146.5 27q80 0 139.5 -28.5t91 -76t46 -99.5t14.5 -108q0 -82 -23 -156t-67 -134t-117 -95.5t-166 -35.5q-138 0 -214.5 84.5t-76.5 222.5zM444 1032q0 -176 121 -176q79 0 123.5 75t44.5 181q0 94 -28 138t-89 44
q-47 0 -82.5 -24.5t-54 -65.5t-27 -84t-8.5 -88z" />
    <glyph glyph-name="foursuperior" unicode="&#x2074;" horiz-adv-x="745" 
d="M549 717l29 151h-398l21 115l409 451h176l-393 -430h209l29 174h164l-33 -174h119l-25 -136h-119l-24 -151h-164z" />
    <glyph glyph-name="fivesuperior" unicode="&#x2075;" horiz-adv-x="700" 
d="M307 1034l115 400h446l-24 -136h-320l-49 -139q40 12 94 12q106 0 169 -57t63 -147q0 -120 -94.5 -191t-251.5 -71q-203 0 -267 120l99 88q54 -73 168 -73q76 0 115.5 33t39.5 85q0 91 -147 91q-109 0 -156 -15z" />
    <glyph glyph-name="sixsuperior" unicode="&#x2076;" horiz-adv-x="794" 
d="M238 946q0 98 46.5 189t125 159t189 109.5t232.5 42.5l13 -123q-283 -31 -389 -227q76 67 198 67q116 0 179 -51t63 -141q0 -125 -94 -195.5t-248 -70.5q-153 0 -234 64.5t-81 176.5zM424 963q-8 -54 28.5 -88.5t110.5 -34.5q69 0 105.5 32.5t36.5 81.5q0 40 -29 63
t-86 23q-97 0 -166 -77z" />
    <glyph glyph-name="sevensuperior" unicode="&#x2077;" horiz-adv-x="657" 
d="M258 1286l27 148h594l-19 -107l-426 -610h-196l403 569h-383z" />
    <glyph glyph-name="eightsuperior" unicode="&#x2078;" horiz-adv-x="823" 
d="M604 1147h23q56 0 91.5 25t35.5 65q0 35 -29 53.5t-82 18.5q-60 0 -99.5 -25t-39.5 -65q0 -32 27 -52t73 -20zM606 1024h-20q-66 0 -112 -28.5t-46 -73.5q0 -82 137 -82q69 0 115.5 29t46.5 77q0 36 -33.5 57t-87.5 21zM549 705q-131 0 -217 46.5t-86 141.5
q0 67 50.5 120t129.5 70v4q-44 18 -69 53.5t-25 84.5q0 102 89.5 161.5t233.5 59.5q126 0 202.5 -47t76.5 -129q0 -63 -43.5 -113t-120.5 -70v-2q63 -14 95 -53.5t32 -89.5q0 -116 -93.5 -176.5t-254.5 -60.5z" />
    <glyph glyph-name="ninesuperior" unicode="&#x2079;" horiz-adv-x="794" 
d="M932 1194q0 -214 -170.5 -351.5t-429.5 -137.5l-4 122q146 12 259 78t136 160q-85 -92 -211 -92q-104 0 -171 56t-67 142q0 123 95.5 199t253.5 76q151 0 230 -67t79 -185zM743 1176q8 58 -26 95.5t-107 37.5q-61 0 -102 -33.5t-41 -83.5q0 -43 28.5 -69.5t82.5 -26.5
q101 0 165 80z" />
    <glyph glyph-name="uni207A" unicode="&#x207a;" horiz-adv-x="737" 
d="M279 1016v135h208v205h136v-205h213v-135h-213v-205h-136v205h-208z" />
    <glyph glyph-name="uni207B" unicode="&#x207b;" horiz-adv-x="737" 
d="M279 1016v135h557v-135h-557z" />
    <glyph glyph-name="uni207C" unicode="&#x207c;" horiz-adv-x="737" 
d="M279 881v135h557v-135h-557zM279 1147v135h557v-135h-557z" />
    <glyph glyph-name="uni207D" unicode="&#x207d;" horiz-adv-x="456" 
d="M561 729l-108 -96q-104 60 -157.5 158.5t-53.5 205.5q0 166 92.5 297.5t267.5 216.5l78 -106q-262 -140 -262 -391q0 -178 143 -285z" />
    <glyph glyph-name="uni207E" unicode="&#x207e;" horiz-adv-x="456" 
d="M274 1413l107 98q104 -62 157.5 -161.5t53.5 -206.5q0 -167 -100 -299.5t-263 -210.5l-73 102q135 77 197.5 173t62.5 218q0 177 -142 287z" />
    <glyph glyph-name="zeroinferior" unicode="&#x2080;" horiz-adv-x="800" 
d="M131 299q0 58 11.5 115t39.5 114t69 100t106.5 70t146.5 27q80 0 139.5 -28.5t91 -76t46 -99t14.5 -107.5q0 -82 -23 -156t-67 -134.5t-117 -96t-166 -35.5q-138 0 -214.5 84.5t-76.5 222.5zM317 315q0 -176 121 -176q79 0 123.5 75t44.5 181q0 94 -28 138.5t-89 44.5
q-47 0 -82.5 -25t-54 -65.5t-27 -84t-8.5 -88.5z" />
    <glyph glyph-name="oneinferior" unicode="&#x2081;" horiz-adv-x="532" 
d="M139 567l250 150h123l-125 -717h-174l86 508l-113 -66z" />
    <glyph glyph-name="twoinferior" unicode="&#x2082;" horiz-adv-x="729" 
d="M66 0l24 127q195 111 255 151q192 129 192 222q0 35 -25 56.5t-68 21.5q-54 0 -91 -32t-50 -81l-143 55q24 97 108 151t195 54q120 0 191 -52t71 -141q0 -55 -26.5 -107.5t-66.5 -92.5t-96.5 -76.5t-108 -61.5t-108.5 -47h377l-26 -147h-604z" />
    <glyph glyph-name="threeinferior" unicode="&#x2083;" horiz-adv-x="729" 
d="M358 -12q-93 0 -172 35.5t-116 111.5l106 90q57 -94 189 -94q62 0 100.5 26.5t38.5 71.5q0 32 -32 51t-87 19h-66l21 123h57q60 0 95.5 28.5t35.5 69.5q0 31 -26 48.5t-72 17.5q-119 0 -190 -86l-78 98q103 131 305 131q123 0 190.5 -46.5t67.5 -129.5q0 -65 -56 -115
t-132 -61v-4q70 -6 110.5 -46t40.5 -98q0 -116 -90 -178.5t-240 -62.5z" />
    <glyph glyph-name="fourinferior" unicode="&#x2084;" horiz-adv-x="743" 
d="M422 0l29 152h-398l21 114l409 451h176l-393 -430h209l29 174h164l-33 -174h119l-25 -135h-119l-24 -152h-164z" />
    <glyph glyph-name="fiveinferior" unicode="&#x2085;" horiz-adv-x="700" 
d="M180 317l115 400h446l-24 -135h-320l-49 -140q43 13 94 13q106 0 169 -57t63 -148q0 -120 -94.5 -191t-251.5 -71q-202 0 -267 121l99 88q54 -74 168 -74q76 0 115.5 33.5t39.5 85.5q0 90 -147 90q-110 0 -156 -15z" />
    <glyph glyph-name="sixinferior" unicode="&#x2086;" horiz-adv-x="794" 
d="M113 229q0 131 78.5 245t216 183.5t299.5 71.5l12 -123q-283 -31 -389 -227q76 67 198 67q116 0 179 -51t63 -141q0 -125 -94 -195.5t-248 -70.5q-153 0 -234 64.5t-81 176.5zM299 246q-8 -54 28.5 -88.5t110.5 -34.5q68 0 105 33t37 82q0 40 -29 63t-86 23
q-96 0 -166 -78z" />
    <glyph glyph-name="seveninferior" unicode="&#x2087;" horiz-adv-x="657" 
d="M131 569l27 148h594l-19 -107l-426 -610h-196l403 569h-383z" />
    <glyph glyph-name="eightinferior" unicode="&#x2088;" horiz-adv-x="823" 
d="M477 430h23q56 0 91.5 25t35.5 65q0 35 -29 53.5t-82 18.5q-60 0 -99.5 -25t-39.5 -65q0 -32 27 -52t73 -20zM479 307h-20q-66 0 -112 -28.5t-46 -73.5q0 -82 137 -82q69 0 115.5 29t46.5 77q0 36 -33.5 57t-87.5 21zM422 -12q-131 0 -217 46.5t-86 141.5
q0 67 50.5 120.5t129.5 70.5v4q-44 18 -69 53.5t-25 83.5q0 102 89.5 161.5t233.5 59.5q126 0 202.5 -47t76.5 -129q0 -63 -43.5 -112.5t-120.5 -69.5v-2q63 -14 95 -54t32 -90q0 -116 -93.5 -176.5t-254.5 -60.5z" />
    <glyph glyph-name="nineinferior" unicode="&#x2089;" horiz-adv-x="794" 
d="M805 477q0 -214 -170.5 -351.5t-429.5 -137.5l-4 123q146 12 259 77.5t136 159.5q-85 -92 -211 -92q-104 0 -171 56.5t-67 142.5q0 123 95.5 198.5t253.5 75.5q151 0 230 -67t79 -185zM616 459q8 58 -26 95.5t-107 37.5q-61 0 -102 -33.5t-41 -83.5q0 -43 28.5 -69.5
t82.5 -26.5q101 0 165 80z" />
    <glyph glyph-name="uni208A" unicode="&#x208a;" horiz-adv-x="737" 
d="M147 299v135h209v205h136v-205h213v-135h-213v-205h-136v205h-209z" />
    <glyph glyph-name="uni208B" unicode="&#x208b;" horiz-adv-x="737" 
d="M147 299v135h558v-135h-558z" />
    <glyph glyph-name="uni208C" unicode="&#x208c;" horiz-adv-x="737" 
d="M147 166v135h558v-135h-558zM147 432v135h558v-135h-558z" />
    <glyph glyph-name="uni208D" unicode="&#x208d;" horiz-adv-x="456" 
d="M436 12l-108 -96q-104 60 -157.5 159t-53.5 206q0 166 92.5 297.5t267.5 216.5l78 -107q-262 -140 -262 -391q0 -178 143 -285z" />
    <glyph glyph-name="uni208E" unicode="&#x208e;" horiz-adv-x="456" 
d="M147 696l107 99q104 -62 157.5 -162t53.5 -207q0 -167 -100 -299.5t-263 -210.5l-73 102q134 77 197 173.5t63 218.5q0 176 -142 286z" />
    <glyph glyph-name="Euro" unicode="&#x20ac;" 
d="M180 827l92 160h123q100 220 296 343.5t480 123.5q74 0 147 -16t120 -41l-107 -172q-79 30 -196 30q-90 0 -178 -27.5t-172 -89.5t-136 -151h576l-86 -160h-564q-11 -41 -18 -108v-84h492l-78 -162h-377q44 -135 161.5 -215t262.5 -80q109 0 174 23v-193
q-70 -28 -201 -28q-133 0 -249 42.5t-195 113t-130.5 157t-68.5 180.5h-225l88 162h115q0 53 4 82q3 60 14 110h-164z" />
    <glyph glyph-name="uni20AE" unicode="&#x20ae;" horiz-adv-x="1228" 
d="M381 582l29 166l282 120l66 365h-443l35 201h1098l-35 -201h-442l-47 -268l282 120l-28 -163l-285 -121l-33 -193l283 121l-29 -164l-283 -121l-77 -444h-213l61 346l-285 -121l29 166l285 121l33 190z" />
    <glyph glyph-name="uni20B4" unicode="&#x20b4;" horiz-adv-x="1228" 
d="M291 831l28 162h607q24 26 38.5 63.5t14.5 71.5q-3 127 -156 127q-141 0 -262 -100l-80 160q68 68 164.5 103.5t206.5 35.5q166 0 256 -74t90 -194q0 -56 -21.5 -110t-50.5 -83h134l-27 -162h-229q-50 -41 -143 -100.5t-134 -91.5h469l-27 -160h-616q-74 -74 -74 -160
q0 -66 53 -103.5t160 -37.5q161 0 293 119l88 -143q-145 -174 -411 -174q-171 0 -281.5 75.5t-110.5 214.5q0 109 82 209h-123l29 160h234q53 46 148.5 106.5t129.5 85.5h-479z" />
    <glyph glyph-name="uni20B8" unicode="&#x20b8;" horiz-adv-x="1228" 
d="M242 874l34 201h1057l-35 -201h-421l-154 -874h-213l154 874h-422zM311 1270l29 164h1057l-29 -164h-1057z" />
    <glyph glyph-name="uni20BA" unicode="&#x20ba;" horiz-adv-x="1228" 
d="M199 776l30 166l187 80l73 412h213l-55 -314l381 162l-29 -164l-381 -164l-34 -190l381 162l-29 -164l-381 -164l-70 -397h109q130 0 217.5 45t148.5 151.5t99 288.5h215q-99 -685 -672 -688l-364 2l88 500l-189 -80l29 166l188 80l33 190z" />
    <glyph glyph-name="uni20BD" unicode="&#x20bd;" horiz-adv-x="1228" 
d="M141 618l27 164h209l117 652q38 0 190 2t201 2q246 0 362.5 -99.5t116.5 -269.5q0 -99 -35 -179.5t-106 -142t-188 -95.5t-271 -34h-201l-35 -190h344l-28 -162h-344l-45 -266h-213l45 266h-209l28 162h209l35 190h-209zM868 1237q-130 0 -196 -4l-82 -451h194
q346 0 346 271q0 95 -64.5 139.5t-197.5 44.5z" />
    <glyph glyph-name="uni20BF" unicode="&#x20bf;" horiz-adv-x="1208" 
d="M180 2l252 1428q19 0 117 4l33 184h180l-35 -180q45 2 127 2q12 0 33 -1t31 -1l32 180h180l-40 -217q170 -74 170 -281q0 -138 -78 -238t-209 -139l-4 -4q102 -27 161.5 -97.5t59.5 -170.5q0 -172 -91.5 -284t-250.5 -160l-39 -232h-178l35 199q-27 -2 -78 -2h-115
l-33 -197h-178l35 201zM715 637h-209l-78 -436q62 -11 201 -11q161 0 248.5 67.5t87.5 188.5q0 191 -250 191zM807 1243q-56 0 -197 -6l-73 -418h204q124 0 208.5 68t84.5 186q0 82 -57.5 126t-169.5 44z" />
    <glyph glyph-name="uni20C0" unicode="&#x20c0;" horiz-adv-x="1206" 
d="M88 0l29 164h1083l-29 -164h-1083zM1120 596l76 -160q-160 -139 -420 -139q-107 0 -198.5 28.5t-156 77.5t-110 113.5t-66.5 137t-20 147.5q0 135 54 255.5t147 208t224.5 138.5t279.5 51q266 0 395 -129l-108 -158q-57 43 -140.5 65.5t-167.5 22.5q-124 0 -228 -54
t-166 -156.5t-60 -231.5q1 -61 22 -116t62.5 -101t111.5 -73t160 -27q88 0 157.5 21.5t151.5 78.5z" />
    <glyph glyph-name="uni2116" unicode="&#x2116;" horiz-adv-x="2420" 
d="M1376 0h-168l-610 1073l-192 -1073h-199l252 1434h170l610 -1078l191 1078h200zM1675 958q0 76 27 144.5t78.5 124t135.5 88.5t189 33q156 0 256.5 -86.5t100.5 -229.5q0 -178 -117 -287.5t-305 -109.5q-166 0 -265.5 88t-99.5 235zM1864 967q0 -79 47 -124.5t137 -45.5
q104 0 164.5 63t60.5 160q0 74 -48.5 120t-129.5 46q-106 0 -168.5 -62t-62.5 -157zM1638 338l33 186h631l-33 -186h-631z" />
    <glyph glyph-name="trademark" unicode="&#x2122;" horiz-adv-x="1753" 
d="M932 788l86 646h162l221 -256l282 256h172l-86 -646h-188l61 408l-262 -233h-4l-196 233l-58 -408h-190zM254 1253l20 181h656l-19 -181h-235l-66 -465h-188l65 465h-233z" />
    <glyph glyph-name="arrowleft" unicode="&#x2190;" horiz-adv-x="1316" 
d="M723 1137l141 -142l-340 -336h772v-200h-772l340 -340l-141 -139l-580 579z" />
    <glyph glyph-name="arrowup" unicode="&#x2191;" horiz-adv-x="1320" 
d="M299 430l-139 143l577 580l578 -580l-139 -143l-340 340v-770h-199v770z" />
    <glyph glyph-name="arrowright" unicode="&#x2192;" horiz-adv-x="1316" 
d="M590 995l143 142l578 -578l-578 -579l-143 139l340 340h-770v200h768z" />
    <glyph glyph-name="arrowdown" unicode="&#x2193;" horiz-adv-x="1320" 
d="M160 539l139 141l338 -340v772h199v-772l340 340l139 -141l-578 -580z" />
    <glyph glyph-name="partialdiff" unicode="&#x2202;" horiz-adv-x="1185" 
d="M168 414q0 106 37 202t102.5 168t162.5 115t210 43q119 0 202.5 -46.5t121.5 -113.5q0 217 -127.5 348t-380.5 146l28 178q329 -9 511 -187t182 -495q0 -161 -38.5 -302.5t-111.5 -251.5t-189 -174t-260 -64q-202 0 -326 123t-124 311zM379 430q0 -111 72.5 -188.5
t191.5 -77.5q73 0 135 35.5t104.5 96t69 137t35.5 161.5q-112 162 -299 162q-130 0 -219.5 -96t-89.5 -230z" />
    <glyph glyph-name="product" unicode="&#x220f;" horiz-adv-x="1804" 
d="M1503 -410v1643h-966v-1643h-213v1844h1390v-1844h-211z" />
    <glyph glyph-name="summation" unicode="&#x2211;" horiz-adv-x="1306" 
d="M815 512l-596 776v146h1145v-201h-848l545 -721l-557 -721h860v-201h-1145v144z" />
    <glyph glyph-name="minus" unicode="&#x2212;" 
d="M262 651v172h940v-172h-940z" />
    <glyph glyph-name="uni2215" unicode="&#x2215;" horiz-adv-x="708" 
d="M-45 -369l678 1823l153 -57l-675 -1823z" />
    <glyph glyph-name="radical" unicode="&#x221a;" horiz-adv-x="1255" 
d="M57 721v201h349l327 -586l260 1098h584v-201h-410l-301 -1239h-172l-424 727h-213z" />
    <glyph glyph-name="infinity" unicode="&#x221e;" horiz-adv-x="1538" 
d="M1249 360q-113 0 -198.5 52.5t-161.5 144.5q-70 -93 -148.5 -145t-187.5 -52q-84 0 -158.5 39.5t-124 118.5t-49.5 180q0 139 93.5 240.5t242.5 101.5q102 0 179 -54t153 -150q34 46 65 77.5t74 63t97.5 47.5t119.5 16q145 0 232.5 -98t87.5 -252q0 -134 -87.5 -232
t-228.5 -98zM573 532q67 0 117.5 40.5t102.5 115.5q-34 46 -54 71t-49.5 54.5t-57.5 42t-59 12.5q-75 0 -121 -49.5t-46 -120.5q0 -76 49.5 -121t117.5 -45zM1212 868q-35 0 -65.5 -12.5t-59 -38t-50 -51.5t-50.5 -66q62 -80 118 -124t120 -44q69 0 110 48.5t41 115.5
q0 71 -44 121.5t-120 50.5z" />
    <glyph glyph-name="integral" unicode="&#x222b;" horiz-adv-x="671" 
d="M496 -27q0 -73 -7 -129.5t-24.5 -106t-46 -82.5t-73 -53t-103.5 -24q-33 -4 -99 0q-99 12 -151 57l53 160q58 -35 115 -35q42 0 70 16.5t42 49t19.5 70.5t5.5 92v1083q0 177 76 273.5t215 105.5q47 5 102 -4q113 -11 184 -74l-67 -153q-48 38 -111 43q-57 6 -98 -9
q-46 -16 -74 -66.5t-28 -133.5v-1080z" />
    <glyph glyph-name="approxequal" unicode="&#x2248;" 
d="M307 422l-90 127q66 72 142.5 114t148.5 42q56 0 122.5 -22.5t118 -49.5t116.5 -49.5t118 -22.5q45 0 94.5 26t89.5 68l78 -139q-134 -127 -264 -127q-55 0 -121 22t-117.5 48.5t-114 48.5t-110.5 22q-103 0 -211 -108zM307 799l-90 127q66 72 142.5 113.5t148.5 41.5
q56 0 122.5 -22.5t118 -49t116.5 -49t118 -22.5q45 0 94.5 26t89.5 68l78 -139q-134 -127 -264 -127q-55 0 -121 22t-117.5 48.5t-114 48.5t-110.5 22q-103 0 -211 -108z" />
    <glyph glyph-name="notequal" unicode="&#x2260;" 
d="M262 840v174h481l166 440l152 -57l-141 -383h282v-174h-348l-76 -205h424v-174h-489l-181 -481l-155 57l160 424h-275v174h340l76 205h-416z" />
    <glyph glyph-name="lessequal" unicode="&#x2264;" 
d="M213 508l20 184l857 -540l-21 -193zM1118 338l-856 551l10 84l998 547l-25 -217l-700 -373l596 -375z" />
    <glyph glyph-name="greaterequal" unicode="&#x2265;" 
d="M1221 692l-21 -184l-995 -549l20 193zM1249 889l-995 -551l22 217l705 375l-600 373l25 217l854 -547z" />
    <glyph glyph-name="angleleft" unicode="&#x2329;" horiz-adv-x="942" 
d="M807 1434h237l-579 -740l307 -694h-217l-309 713l2 8z" />
    <glyph glyph-name="angleright" unicode="&#x232a;" horiz-adv-x="942" 
d="M360 0h-237l579 739l-307 695h217l310 -713l-2 -8z" />
    <glyph glyph-name="lozenge" unicode="&#x25ca;" horiz-adv-x="989" 
d="M520 -6l-344 516l344 547h160l344 -525l-344 -538h-160zM379 512l221 -334l221 354l-221 328z" />
    <glyph glyph-name="spade" unicode="&#x2660;" horiz-adv-x="1294" 
d="M709 1044q112 -70 230.5 -181.5t206 -239t87.5 -215.5q0 -87 -61 -150t-179 -63q-163 0 -268 147q28 -119 79 -203.5t140 -138.5h-471q150 107 215 336q-103 -141 -264 -141q-118 0 -179 63.5t-61 151.5q0 87 87.5 214t206.5 238.5t231 181.5z" />
    <glyph glyph-name="club" unicode="&#x2663;" horiz-adv-x="1253" 
d="M438 780q0 109 78.5 186.5t188.5 77.5q107 0 184.5 -77.5t77.5 -186.5q0 -27 -4 -39q102 -8 173.5 -84t71.5 -178q0 -109 -78 -186.5t-188 -77.5q-63 0 -119.5 29.5t-93.5 79.5q68 -238 209 -324h-471q130 92 205 319q-35 -45 -92 -74.5t-117 -29.5q-107 0 -184.5 77.5
t-77.5 186.5q0 103 70 178.5t171 83.5q-4 12 -4 39z" />
    <glyph glyph-name="heart" unicode="&#x2665;" horiz-adv-x="1329" 
d="M766 0q-119 89 -241 219t-213 281t-91 258q0 109 63.5 187.5t186.5 78.5q178 0 295 -213q109 213 291 213q63 0 112.5 -23t79 -61t44 -84t14.5 -96q0 -82 -53 -191t-135 -213t-174.5 -197.5t-178.5 -158.5z" />
    <glyph glyph-name="diamond" unicode="&#x2666;" horiz-adv-x="1193" 
d="M1133 510q-226 -226 -476 -549q-213 280 -473 549q221 231 473 551q252 -319 476 -551z" />
    <glyph glyph-name="uniF350" unicode="&#xf350;" horiz-adv-x="1232" 
d="M20 0l693 1079h188l311 -1079h-217l-69 254h-514l-158 -254h-234zM768 827l-231 -374h335z" />
    <glyph glyph-name="uniF351" unicode="&#xf351;" horiz-adv-x="1085" 
d="M166 0l190 1075h738l-37 -198h-522l-37 -211q65 8 166 8q171 0 273.5 -75.5t102.5 -217.5q0 -198 -128 -293.5t-367 -95.5q-99 0 -228 4t-151 4zM629 477q-87 0 -166 -6l-47 -276q3 0 58.5 -3.5t94.5 -3.5q124 0 187 38t63 132q0 119 -190 119z" />
    <glyph glyph-name="uniF352" unicode="&#xf352;" horiz-adv-x="1089" 
d="M166 2l188 1071q264 8 371 8q183 0 274 -67t91 -189q0 -97 -68 -168t-182 -94v-2q93 -13 146.5 -77t53.5 -154q0 -88 -35 -154t-98 -105.5t-144.5 -59t-180.5 -19.5q-299 0 -416 10zM641 451h-182l-45 -252q80 -11 184 -11q221 0 221 150q0 113 -178 113zM700 885
q-57 0 -168 -6l-40 -244h174q83 0 140.5 38.5t57.5 108.5q0 103 -164 103z" />
    <glyph glyph-name="uniF353" unicode="&#xf353;" horiz-adv-x="888" 
d="M166 0l190 1075h697l-37 -198h-481l-154 -877h-215z" />
    <glyph glyph-name="uniF354" unicode="&#xf354;" horiz-adv-x="1290" 
d="M-12 -188l67 389h129q62 56 152 232t147 427l49 215h742l-154 -874h162l-70 -389h-202l34 188h-821l-35 -188h-200zM659 713q-53 -194 -122 -332t-115 -180h483l119 676h-319z" />
    <glyph glyph-name="uniF355" unicode="&#xf355;" horiz-adv-x="1009" 
d="M166 0l190 1075h717l-37 -198h-499l-41 -238h448l-35 -197h-450l-43 -245h518l-37 -197h-731z" />
    <glyph glyph-name="uniF356" unicode="&#xf356;" horiz-adv-x="1656" 
d="M1270 549l360 -549h-237l-361 555l-98 -555h-213l98 553l-524 -553h-275l564 578l-338 497h239l338 -508l90 508h213l-92 -510l502 510h268z" />
    <glyph glyph-name="uniF357" unicode="&#xf357;" horiz-adv-x="1028" 
d="M520 -20q-159 0 -272 51.5t-158 130.5l135 135q100 -121 295 -121q116 0 183 41t67 115q0 114 -188 114h-158l35 199h151q89 0 141 40t52 97q0 55 -46 83t-130 28q-181 0 -283 -94l-98 147q141 144 409 144q169 0 268 -73.5t99 -197.5q0 -94 -51.5 -162.5t-149.5 -97.5
v-6q77 -28 118.5 -83t41.5 -130q0 -166 -121 -263t-340 -97z" />
    <glyph glyph-name="uniF358" unicode="&#xf358;" horiz-adv-x="1351" 
d="M352 0h-186l190 1075h213l-123 -710l742 710h188l-192 -1075h-213l127 717z" />
    <glyph glyph-name="uniF359" unicode="&#xf359;" horiz-adv-x="1351" 
d="M352 0h-186l190 1075h213l-123 -710l742 710h188l-192 -1075h-213l127 717zM598 1413h186q-6 -60 25.5 -90.5t91.5 -30.5q129 0 172 121h168q-28 -117 -122 -193.5t-234 -76.5q-159 0 -227.5 69.5t-59.5 200.5z" />
    <glyph glyph-name="uniF35A" unicode="&#xf35a;" horiz-adv-x="1167" 
d="M735 557l410 -557h-264l-404 555l-96 -555h-215l190 1075h213l-88 -500l541 500h285z" />
    <glyph glyph-name="uniF35B" unicode="&#xf35b;" horiz-adv-x="1243" 
d="M864 0l154 877h-344l-56 -205q-50 -178 -101 -303.5t-104 -203t-111 -118.5t-122.5 -50t-138.5 3l37 205q32 -4 59 2.5t66.5 43t76.5 104t84.5 196.5t94.5 309l53 215h756l-191 -1075h-213z" />
    <glyph glyph-name="uniF35C" unicode="&#xf35c;" horiz-adv-x="1540" 
d="M166 0l190 1075h213l316 -481l467 481h209l-189 -1075h-215l133 739l-438 -440h-29l-307 463l-139 -762h-211z" />
    <glyph glyph-name="uniF35D" unicode="&#xf35d;" horiz-adv-x="1323" 
d="M938 0l80 449h-559l-78 -449h-215l190 1075h215l-75 -428h557l77 428h213l-188 -1075h-217z" />
    <glyph glyph-name="uniF35E" unicode="&#xf35e;" horiz-adv-x="1345" 
d="M160 481q0 126 44 236t125.5 193.5t207 131.5t278.5 48q242 0 399.5 -136t157.5 -356q0 -274 -178 -446t-469 -172q-256 0 -410.5 138.5t-154.5 362.5zM391 492q0 -139 91 -225.5t255 -86.5q191 0 298.5 116.5t107.5 289.5q0 133 -91.5 218t-248.5 85q-188 0 -300 -110
t-112 -287z" />
    <glyph glyph-name="uniF35F" unicode="&#xf35f;" horiz-adv-x="1320" 
d="M938 0l152 877h-555l-154 -877h-215l190 1075h987l-190 -1075h-215z" />
    <glyph glyph-name="uniF360" unicode="&#xf360;" horiz-adv-x="1044" 
d="M377 0h-211l190 1075q31 0 162.5 2t173.5 2q192 0 300 -87.5t108 -229.5q0 -195 -131 -310.5t-367 -115.5q-115 0 -164 4zM684 881q-22 0 -76 -2t-76 -2l-57 -334q135 -6 139 -6q256 0 256 200q0 70 -48 107t-138 37z" />
    <glyph glyph-name="uniF361" unicode="&#xf361;" horiz-adv-x="1118" 
d="M1040 262l74 -164q-70 -55 -171.5 -86.5t-213.5 -31.5q-142 0 -253 39.5t-179 109t-102.5 159t-34.5 193.5q0 121 42 228.5t123.5 193.5t214 136.5t300.5 50.5q248 0 368 -111l-116 -154q-94 64 -269 64q-197 0 -314.5 -107.5t-117.5 -281.5q0 -148 88 -234t266 -86
q167 0 295 82z" />
    <glyph glyph-name="uniF362" unicode="&#xf362;" horiz-adv-x="1017" 
d="M170 877l35 198h987l-33 -198h-389l-152 -877h-217l154 877h-385z" />
    <glyph glyph-name="uniF363" unicode="&#xf363;" horiz-adv-x="1130" 
d="M1303 1075l-543 -817q-34 -51 -56 -81.5t-57 -68.5t-67 -58.5t-76 -35t-94 -14.5q-98 0 -168 53l98 168q44 -24 84 -24q70 0 125 82l24 36l-372 760h239l262 -555l363 555h238z" />
    <glyph glyph-name="uniF364" unicode="&#xf364;" horiz-adv-x="1429" 
d="M602 -12l23 118q-136 0 -243 44.5t-171 135.5t-64 214q0 233 167 364.5t468 134.5l15 88h213l-15 -88q220 -3 350 -108.5t130 -286.5q0 -241 -174 -369.5t-465 -128.5l-21 -118h-213zM1245 578q0 102 -71.5 164t-215.5 63l-90 -506q172 1 274.5 79t102.5 200zM377 520
q0 -99 71 -159.5t209 -61.5l88 506q-175 -1 -271.5 -82.5t-96.5 -202.5z" />
    <glyph glyph-name="uniF365" unicode="&#xf365;" horiz-adv-x="1138" 
d="M1298 1075l-495 -526l319 -549h-241l-226 385l-360 -385h-279l512 545l-303 530h242l209 -368l344 368h278z" />
    <glyph glyph-name="uniF366" unicode="&#xf366;" horiz-adv-x="1337" 
d="M166 0l190 1075h215l-155 -874h534l156 874h217l-156 -874h162l-67 -389h-205l35 188h-926z" />
    <glyph glyph-name="uniF367" unicode="&#xf367;" horiz-adv-x="1153" 
d="M1176 1075l-191 -1075h-213l80 444q-132 -84 -307 -84q-145 0 -230.5 70.5t-85.5 192.5q0 16 9 77l65 375h213l-53 -309q-6 -38 -6 -80q2 -62 36.5 -94.5t116.5 -32.5q89 0 152 18.5t125 57.5l76 440h213z" />
    <glyph glyph-name="uniF368" unicode="&#xf368;" horiz-adv-x="1699" 
d="M166 0l190 1075h215l-155 -874h358l156 874h217l-156 -874h361l155 874h217l-192 -1075h-1366z" />
    <glyph glyph-name="uniF369" unicode="&#xf369;" horiz-adv-x="1736" 
d="M166 0l190 1075h215l-155 -874h358l156 874h217l-156 -874h361l155 874h217l-155 -874h162l-68 -389h-201l33 188h-1329z" />
    <glyph glyph-name="uniF36A" unicode="&#xf36a;" horiz-adv-x="1144" 
d="M166 877l35 198h473l-62 -354q79 6 123 6q183 0 294.5 -81.5t111.5 -231.5q0 -190 -136.5 -304t-379.5 -114q-95 0 -213 2t-142 2l156 877h-260zM709 528q-41 0 -131 -8l-58 -319q37 -4 127 -4q124 0 194 48t70 144q0 69 -53.5 104t-148.5 35z" />
    <glyph glyph-name="uniF36B" unicode="&#xf36b;" horiz-adv-x="1478" 
d="M1094 0l192 1075h215l-190 -1075h-217zM584 528q-17 0 -54.5 -2.5t-56.5 -3.5l-57 -321q37 -4 108 -4q127 0 194.5 50.5t67.5 145.5q0 67 -52 101t-150 34zM571 1075l-63 -354q80 6 121 6q172 0 279.5 -84.5t107.5 -224.5q0 -139 -69.5 -236t-183 -141.5t-259.5 -44.5
q-89 0 -201.5 2t-136.5 2l190 1075h215z" />
    <glyph glyph-name="uniF36C" unicode="&#xf36c;" horiz-adv-x="1040" 
d="M606 528q-29 0 -77 -3t-58 -3l-57 -321q37 -4 116 -4q131 0 203 48.5t72 147.5q0 66 -53 100.5t-146 34.5zM569 1075l-61 -354q80 6 129 6q186 0 292.5 -85.5t106.5 -227.5q0 -194 -139.5 -306t-386.5 -112q-90 0 -205 2t-139 2l190 1075h213z" />
    <glyph glyph-name="uniF36D" unicode="&#xf36d;" horiz-adv-x="1146" 
d="M389 451l35 196h512q-39 246 -322 246q-179 0 -307 -74l-71 154q78 55 185 87t218 32q165 0 288.5 -64t186 -170.5t62.5 -239.5q0 -290 -179 -462t-491 -172q-145 0 -248 34.5t-182 104.5l125 164q133 -107 317 -107q165 0 265 71.5t137 199.5h-531z" />
    </font>
</defs>
</svg>
