<?xml version="1.0" standalone="no"?>
<!DOCTYPE svg PUBLIC "-//W3C//DTD SVG 1.1//EN" "http://www.w3.org/Graphics/SVG/1.1/DTD/svg11.dtd" >
<svg xmlns="http://www.w3.org/2000/svg" xmlns:xlink="http://www.w3.org/1999/xlink" version="1.1">
<metadata>
Created by FontForge 20170731 at Wed Mar 15 10:29:15 2023
 By Aleksey,,,
Copyright (c) 2011 Paratype, Inc., ParaType Ltd. All rights reserved.
</metadata>
<defs>
<font id="Circe-Medium" horiz-adv-x="1400" >
  <font-face 
    font-family="Circe Medium"
    font-weight="500"
    font-stretch="normal"
    units-per-em="2048"
    panose-1="2 11 6 2 2 2 3 2 2 3"
    ascent="1583"
    descent="-465"
    x-height="922"
    cap-height="1434"
    bbox="-1071 -836 3437 2064"
    underline-thickness="102"
    underline-position="-307"
    unicode-range="U+0020-FEFF"
  />
<missing-glyph horiz-adv-x="446" 
 />
    <glyph glyph-name="uniF350.var.accented" unicode="&#xf350;`" horiz-adv-x="1228" 
d="M18 0l502 1079h189l503 -1079h-229l-115 254h-520l-115 -254h-215zM610 827l-172 -374h340zM862 1425l-291 -247l-98 110l266 291z" />
    <glyph glyph-name="uniF355.var.accented" unicode="&#xf355;`" horiz-adv-x="1009" 
d="M166 0v1075h715v-198h-504v-234h454v-201h-454v-241h522v-201h-733zM764 1425l-291 -247l-98 110l266 291z" />
    <glyph glyph-name="uniF358.var.accented" unicode="&#xf358;`" horiz-adv-x="1351" 
d="M352 0h-186v1075h211v-737l622 737h185v-1075h-211v737zM913 1425l-290 -247l-99 110l267 291z" />
    <glyph glyph-name="uniF35E.var.accented" unicode="&#xf35e;`" horiz-adv-x="1345" 
d="M78 537q0 116 43.5 217.5t121 175.5t189 117t240.5 43q171 0 307 -67.5t213.5 -194t77.5 -291.5q0 -161 -77.5 -288.5t-214 -198t-306.5 -70.5q-259 0 -426.5 153t-167.5 404zM303 537q0 -153 106.5 -255t262.5 -102q174 0 273 100.5t99 256.5t-106.5 254t-265.5 98
q-161 0 -265 -97.5t-104 -254.5zM934 1425l-291 -247l-98 110l266 291z" />
    <glyph glyph-name="uniF363.var.accented" unicode="&#xf363;`" horiz-adv-x="1138" 
d="M1122 1075l-405 -817q-62 -129 -140.5 -193.5t-187.5 -64.5q-92 0 -151 45l75 180q40 -26 86 -26q68 0 109 80l20 32l-508 764h267l348 -555l270 555h217zM840 1425l-291 -247l-98 110l266 291z" />
    <glyph glyph-name="uniF36B.var.accented" unicode="&#xf36b;`" horiz-adv-x="1476" 
d="M1098 0v1075h213v-1075h-213zM492 528q-44 0 -115 -6v-321q39 -4 110 -4q234 0 234 172q0 78 -60 118.5t-169 40.5zM377 1075v-354q80 6 131 6q218 0 328 -93.5t110 -260.5q0 -173 -128 -275t-355 -102q-63 0 -165.5 2t-131.5 2v1075h211zM954 1425l-290 -247l-99 110
l266 291z" />
    <glyph glyph-name="uniF36D.var.accented" unicode="&#xf36d;`" horiz-adv-x="1146" 
d="M319 449v198h525q-31 120 -129 183t-252 63q-201 0 -322 -82l-84 160q70 54 177 88.5t237 34.5q263 0 430.5 -153.5t167.5 -403.5q0 -255 -168.5 -404t-454.5 -149q-122 0 -229.5 30.5t-171.5 79.5l92 180q133 -92 334 -92q152 0 251.5 67t125.5 200h-529zM729 1425
l-291 -247l-98 110l266 291z" />
    <glyph glyph-name="uniF36E.var.accented" unicode="&#xf36e;`" horiz-adv-x="1789" 
d="M166 0v1075h211v-428h201q33 199 181 323t376 124q266 0 421.5 -150.5t155.5 -404.5q0 -247 -156.5 -401t-420.5 -154q-226 0 -378.5 125.5t-181.5 339.5h-198v-449h-211zM795 539q0 -154 96.5 -255.5t249.5 -101.5q163 0 254.5 100t91.5 257q0 159 -94.5 256.5
t-251.5 97.5q-153 0 -249.5 -98t-96.5 -256zM1110 1425l-291 -247l-98 110l266 291z" />
    <glyph glyph-name="uniF36F.var.accented" unicode="&#xf36f;`" horiz-adv-x="1118" 
d="M741 0v348h-209l-249 -348h-254l293 393q-87 44 -142 120.5t-55 182.5q0 78 28 145.5t84 122t149.5 86t215.5 31.5q70 0 196.5 -3t155.5 -3v-1075h-213zM512 549h229v328q-11 0 -69 2t-90 2q-111 0 -171.5 -47.5t-60.5 -124.5q0 -63 48 -106.5t114 -53.5zM819 1425
l-291 -247l-98 110l266 291z" />
    <glyph glyph-name="uniF371.var.accented" unicode="&#xf371;`" horiz-adv-x="1009" 
d="M176 1331q0 46 34 75.5t83 29.5q40 0 72 -30t32 -75q0 -51 -31.5 -80.5t-72.5 -29.5q-50 0 -83.5 29t-33.5 81zM655 1331q0 46 33.5 75.5t79.5 29.5q43 0 74.5 -29.5t31.5 -75.5q0 -51 -31 -80.5t-75 -29.5q-47 0 -80 29t-33 81zM762 1536l-252 -246l-100 86l208 295z
M166 0v1075h715v-198h-504v-234h454v-201h-454v-241h522v-201h-733z" />
    <glyph glyph-name="uni0410.var.accented" unicode="&#x410;`" horiz-adv-x="1454" 
d="M23 0l612 1440h184l611 -1440h-226l-168 401h-633l-165 -401h-215zM721 1161l-234 -561h467zM1067 1671l-436 -170l-58 121l418 219z" />
    <glyph glyph-name="uni0415.var.accented" unicode="&#x415;`" horiz-adv-x="1177" 
d="M207 0v1434h819v-201h-606v-410h545v-198h-545v-424h627v-201h-840zM975 1671l-436 -170l-58 121l418 219z" />
    <glyph glyph-name="uni0418.var.accented" unicode="&#x418;`" horiz-adv-x="1626" 
d="M393 0h-186v1434h213v-1084l811 1084h186v-1434h-213v1081zM1159 1671l-436 -170l-57 121l417 219z" />
    <glyph glyph-name="uni041E.var.accented" unicode="&#x41e;`" horiz-adv-x="1671" 
d="M98 717q0 154 55 290t151 234.5t234 155.5t298 57q157 0 293.5 -53.5t234.5 -149t154.5 -233.5t56.5 -301q0 -211 -96.5 -379.5t-265 -263t-377.5 -94.5q-210 0 -377.5 91t-264 260t-96.5 386zM324 717q0 -229 148 -384t364 -155q154 0 272 71.5t180 193.5t62 274
q0 234 -147.5 386t-366.5 152q-221 0 -366.5 -151.5t-145.5 -386.5zM1180 1671l-437 -170l-57 121l418 219z" />
    <glyph glyph-name="uni0423.var.accented" unicode="&#x423;`" horiz-adv-x="1380" 
d="M1354 1434l-492 -1102q-76 -171 -163 -251.5t-210 -80.5q-50 0 -102 15.5t-84 37.5l76 180q53 -34 108 -34q100 0 160 123l21 51l-639 1061h239l502 -850l369 850h215zM1071 1671l-436 -170l-57 121l417 219z" />
    <glyph glyph-name="uni042B.var.accented" unicode="&#x42b;`" horiz-adv-x="1748" 
d="M1331 0v1434h213v-1434h-213zM578 733q-64 0 -158 -12v-520q25 0 74.5 -2t78.5 -2q158 0 241 70t83 208q0 126 -82.5 192t-236.5 66zM420 1434v-512q90 10 174 10q262 0 395 -120.5t133 -332.5q0 -227 -151.5 -355t-421.5 -128q-71 0 -188.5 2t-153.5 2v1434h213z
M1186 1671l-436 -170l-58 121l418 219z" />
    <glyph glyph-name="uni042D.var.accented" unicode="&#x42d;`" horiz-adv-x="1382" 
d="M389 631v200h674q-32 200 -178 312t-369 112q-201 0 -350 -112l-84 160q80 68 207 109.5t276 41.5q158 0 291.5 -52t228.5 -146.5t148 -232t53 -302.5q0 -333 -202.5 -537t-540.5 -204q-143 0 -269.5 39.5t-210.5 107.5l93 180q166 -129 383 -129q211 0 356 120t172 333
h-678zM924 1671l-437 -170l-57 121l418 219z" />
    <glyph glyph-name="uni042E.var.accented" unicode="&#x42e;`" horiz-adv-x="2211" 
d="M207 0v1434h213v-603h276q24 179 116 320t243.5 222t339.5 81q208 0 371.5 -91.5t255.5 -259.5t92 -386q0 -212 -91.5 -380t-256 -262.5t-371.5 -94.5q-185 0 -338 80t-250 229t-115 342h-272v-631h-213zM913 717q0 -229 141 -384t347 -155q153 0 265 72t167 193t55 274
q0 237 -135 387.5t-352 150.5q-210 0 -349 -151.5t-139 -386.5zM1487 1671l-436 -170l-58 121l418 219z" />
    <glyph glyph-name="uni042F.var.accented" unicode="&#x42f;`" horiz-adv-x="1286" 
d="M866 0v514h-237l-346 -514h-240l383 555q-116 52 -192 154.5t-76 244.5q0 101 34 187t101.5 154t180.5 106.5t259 38.5q49 0 177 -3t167 -3v-1434h-211zM606 713h260v520q-82 8 -176 8q-143 0 -225 -76.5t-82 -197.5q0 -99 66 -168.5t157 -85.5zM1079 1671l-436 -170
l-57 121l418 219z" />
    <glyph glyph-name="uni0401.var.accented" unicode="&#x401;`" horiz-adv-x="1177" 
d="M225 1675q0 51 30.5 81t76.5 30q39 0 68.5 -30.5t29.5 -80.5q0 -54 -29.5 -86.5t-68.5 -32.5q-46 0 -76.5 32t-30.5 87zM821 1675q0 50 31.5 80.5t75.5 30.5q40 0 68 -30t28 -81q0 -55 -28 -87t-68 -32q-44 0 -75.5 32t-31.5 87zM823 1792l-278 -276l-72 36l180 289z
M207 0v1434h819v-201h-606v-410h545v-198h-545v-424h627v-201h-840z" />
    <glyph glyph-name="uni0430.var.accented" unicode="&#x430;`" horiz-adv-x="946" 
d="M201 705l-54 151q64 38 148.5 62t169.5 24q194 0 278 -95t84 -284v-563h-180v113q-95 -125 -285 -125q-128 0 -206 75t-78 207q0 143 94.5 219t245.5 76q61 0 122 -15t99 -42q2 132 -39 197t-154 65q-75 0 -129 -16t-116 -49zM430 160q128 0 209 102v105q-74 53 -184 53
q-73 0 -122.5 -34t-49.5 -99q0 -58 39.5 -92.5t107.5 -34.5zM743 1368l-254 -295l-118 84l217 330z" />
    <glyph glyph-name="uni0435.var.accented" unicode="&#x435;`" horiz-adv-x="1060" 
d="M864 244l60 -148q-67 -58 -159 -87t-192 -29q-223 0 -358 131.5t-135 349.5q0 207 130 344t351 137q183 0 307.5 -118t124.5 -306q0 -72 -12 -119h-686q12 -116 93 -180.5t206 -64.5q82 0 153 25.5t117 64.5zM553 768q-113 0 -181.5 -60.5t-86.5 -162.5h506
q-3 100 -66.5 161.5t-171.5 61.5zM801 1368l-254 -295l-119 84l217 330z" />
    <glyph glyph-name="uni0438.var.accented" unicode="&#x438;`" horiz-adv-x="1159" 
d="M340 0h-201v922h201v-635l479 635h201v-922h-201v635zM819 1368l-254 -295l-119 84l218 330z" />
    <glyph glyph-name="uni043E.var.accented" unicode="&#x43e;`" horiz-adv-x="1155" 
d="M80 461q0 210 137.5 345.5t360.5 135.5q222 0 358.5 -135.5t136.5 -345.5t-136.5 -345.5t-358.5 -135.5q-223 0 -360.5 135.5t-137.5 345.5zM293 461q0 -130 80.5 -213.5t204.5 -83.5t203 82t79 215q0 130 -79.5 212.5t-202.5 82.5q-122 0 -203.5 -82t-81.5 -213z
M827 1368l-254 -295l-118 84l217 330z" />
    <glyph glyph-name="uni0443.var.accented" unicode="&#x443;`" horiz-adv-x="1017" 
d="M1004 922l-367 -922q-67 -164 -123.5 -253.5t-108.5 -123t-122 -33.5q-96 0 -187 66l64 151q58 -32 100 -32q51 0 91.5 42t78.5 134l21 49l-435 922h238l244 -545q27 -67 51 -135q12 62 37 137l188 543h230zM770 1368l-254 -295l-119 84l217 330z" />
    <glyph glyph-name="uni044B.var.accented" unicode="&#x44b;`" horiz-adv-x="1349" 
d="M139 0v922h201v-265h131q87 0 154.5 -17.5t110.5 -46.5t70.5 -70.5t38.5 -86t11 -96.5q0 -67 -21.5 -125.5t-66.5 -108t-125 -78t-188 -28.5h-316zM1012 0v922h198v-922h-198zM446 487h-106v-307h104q201 0 201 152q0 155 -199 155zM885 1368l-254 -295l-119 84l217 330z
" />
    <glyph glyph-name="uni044D.var.accented" unicode="&#x44d;`" horiz-adv-x="1007" 
d="M289 393v148h432q-21 110 -100 166.5t-193 56.5q-149 0 -272 -98l-84 143q63 63 161.5 98t192.5 35q228 0 365 -131t137 -350q0 -205 -132.5 -343t-346.5 -138q-254 0 -377 126l94 138q43 -39 116 -62.5t154 -23.5q117 0 192.5 61t92.5 174h-432zM692 1368l-254 -295
l-119 84l218 330z" />
    <glyph glyph-name="uni044E.var.accented" unicode="&#x44e;`" horiz-adv-x="1568" 
d="M139 0v922h213v-353h180q33 169 157.5 271t309.5 102q219 0 353.5 -135.5t134.5 -345.5q0 -209 -136 -345t-352 -136q-191 0 -316.5 107.5t-152.5 283.5h-178v-371h-213zM750 461q0 -130 71 -206.5t185 -76.5t185 77t71 206q0 128 -69 205t-187 77q-113 0 -184.5 -77.5
t-71.5 -204.5zM1040 1368l-254 -295l-118 84l217 330z" />
    <glyph glyph-name="uni044F.var.accented" unicode="&#x44f;`" horiz-adv-x="999" 
d="M565 922h295v-922h-201v291h-153l-207 -291h-236l256 338q-75 23 -131.5 92t-56.5 174q0 66 23.5 121t73 100.5t136 71t201.5 25.5zM344 594q0 -61 49 -100t111 -39h155v286h-127q-94 0 -141 -41.5t-47 -105.5zM815 1368l-254 -295l-119 84l217 330z" />
    <glyph glyph-name="uni0451.var.accented" unicode="&#x451;`" horiz-adv-x="1060" 
d="M172 1219q0 43 27 68.5t67 25.5q36 0 63 -26t27 -68q0 -45 -27 -73t-63 -28q-40 0 -67 27.5t-27 73.5zM737 1219q0 43 28.5 68.5t68.5 25.5q37 0 62.5 -25.5t25.5 -68.5q0 -46 -25.5 -73.5t-62.5 -27.5q-40 0 -68.5 27.5t-28.5 73.5zM752 1368l-252 -295l-94 66l217 329z
M864 244l60 -148q-67 -58 -159 -87t-192 -29q-223 0 -358 131.5t-135 349.5q0 207 130 344t351 137q183 0 307.5 -118t124.5 -306q0 -72 -12 -119h-686q12 -116 93 -180.5t206 -64.5q82 0 153 25.5t117 64.5zM553 768q-113 0 -181.5 -60.5t-86.5 -162.5h506
q-3 100 -66.5 161.5t-171.5 61.5z" />
    <glyph glyph-name="fi" unicode="fi" horiz-adv-x="1069" 
d="M743 0v733h-389v-733h-198v1040q0 208 105.5 311t291.5 103q251 0 365 -172l-144 -115q-71 101 -188 101q-115 0 -173.5 -57.5t-58.5 -188.5v-100h588v-922h-199z" />
    <glyph glyph-name="fl" unicode="fl" horiz-adv-x="1159" 
d="M694 250v964q-74 54 -157 54q-183 0 -183 -215v-131h189v-189h-189v-733h-198v1071q0 190 83.5 286.5t239.5 96.5q149 0 238 -61h176v-1057q0 -87 22.5 -127.5t71.5 -40.5q48 0 107 41l45 -154q-91 -73 -232 -73q-213 0 -213 268z" />
    <glyph glyph-name=".notdef" horiz-adv-x="446" 
 />
    <glyph glyph-name=".null" horiz-adv-x="0" 
 />
    <glyph glyph-name="nonmarkingreturn" horiz-adv-x="682" 
 />
    <glyph glyph-name="space" unicode=" " horiz-adv-x="446" 
 />
    <glyph glyph-name="exclam" unicode="!" horiz-adv-x="634" 
d="M211 467v967h211v-967h-211zM180 131q0 51 40 91t104 40q53 0 90 -40.5t37 -90.5q0 -56 -36.5 -97.5t-90.5 -41.5q-65 0 -104.5 41t-39.5 98z" />
    <glyph glyph-name="quotedbl" unicode="&#x22;" horiz-adv-x="868" 
d="M512 958v476h201v-476h-201zM156 958v476h200v-476h-200z" />
    <glyph glyph-name="numbersign" unicode="#" horiz-adv-x="1462" 
d="M645 33l129 352h-344l-151 -405l-156 53l131 352h-172v172h235l117 320h-352v172h418l151 405l156 -55l-131 -350h344l151 405l156 -53l-131 -352h184v-172h-250l-116 -320h366v-172h-430l-151 -405zM610 877l-116 -320h346l114 320h-344z" />
    <glyph glyph-name="dollar" unicode="$" horiz-adv-x="1216" 
d="M848 373q0 51 -23 92t-62 70t-90 54.5t-107 49.5t-112 50t-107 61t-90 77.5t-62 104.5t-23 137q0 140 94 244t254 133v172h201v-168q200 -31 307 -147l-115 -160q-58 58 -121 85t-151 27q-117 0 -180.5 -49.5t-63.5 -134.5q0 -66 37.5 -115t97 -81t131.5 -61t144 -64.5
t131.5 -80.5t97 -119.5t37.5 -172.5q0 -153 -97 -257t-255 -132v-193h-201v191q-124 18 -225 73.5t-143 139.5l122 145q60 -80 154.5 -123t187.5 -43q103 0 167.5 51t64.5 144z" />
    <glyph glyph-name="percent" unicode="%" horiz-adv-x="1830" 
d="M336 59l1044 1395l113 -84l-1042 -1390zM86 1094q0 160 109 258t280 98q169 0 279 -98.5t110 -257.5q0 -158 -110 -257.5t-279 -99.5q-170 0 -279.5 99t-109.5 258zM272 1094q0 -87 58.5 -141t144.5 -54t143.5 53.5t57.5 141.5q0 87 -58 140.5t-143 53.5
q-87 0 -145 -53.5t-58 -140.5zM969 340q0 160 109 258t280 98q169 0 279 -98.5t110 -257.5q0 -158 -110 -257t-279 -99q-170 0 -279.5 98.5t-109.5 257.5zM1155 340q0 -87 58.5 -141t144.5 -54t143.5 53.5t57.5 141.5q0 87 -58 141t-143 54q-87 0 -145 -54t-58 -141z" />
    <glyph glyph-name="ampersand" unicode="&#x26;" horiz-adv-x="1531" 
d="M1171 0l-135 168q-159 -188 -430 -188q-211 0 -342 114.5t-131 294.5q0 70 18.5 132.5t47 109.5t75 94.5t88.5 80.5t101 73q-82 33 -130 103.5t-48 168.5q0 135 96.5 219t230.5 84q136 0 233 -84t97 -219q0 -97 -58 -174.5t-143 -99.5l316 -406q106 206 106 451h197
q0 -171 -48 -331t-136 -280l245 -311h-250zM610 178q200 0 305 150l-325 434q-118 -92 -175 -167.5t-57 -164.5q0 -107 74 -179.5t178 -72.5zM471 1151q0 -57 40.5 -98t100.5 -41t101 41t41 98q0 59 -42 101t-100 42q-60 0 -100.5 -41t-40.5 -102z" />
    <glyph glyph-name="quotesingle" unicode="'" horiz-adv-x="512" 
d="M156 958v476h200v-476h-200z" />
    <glyph glyph-name="parenleft" unicode="(" horiz-adv-x="622" 
d="M623 -311l-127 -111q-414 357 -414 883q0 242 96.5 461t319.5 421l125 -110q-178 -170 -259 -356.5t-81 -415.5q0 -223 90.5 -426t249.5 -346z" />
    <glyph glyph-name="parenright" unicode=")" horiz-adv-x="622" 
d="M127 -422l-127 111q159 143 249.5 346t90.5 426q0 229 -81 415.5t-259 356.5l125 110q223 -202 319.5 -421t96.5 -461q0 -526 -414 -883z" />
    <glyph glyph-name="asterisk" unicode="*" horiz-adv-x="1044" 
d="M397 1327q0 51 37.5 89t89.5 38t89.5 -38t37.5 -89q0 -55 -37 -91t-90 -36t-90 36t-37 91zM393 725q0 53 37.5 92t89.5 39t89.5 -39t37.5 -92t-37.5 -90t-89.5 -37t-89.5 37t-37.5 90zM659 1180q0 53 37.5 91t89.5 38t89.5 -38t37.5 -91q0 -52 -37.5 -89.5t-89.5 -37.5
t-89.5 37.5t-37.5 89.5zM659 877q0 53 37.5 91t89.5 38t89.5 -38t37.5 -91t-37.5 -90t-89.5 -37t-89.5 37t-37.5 90zM129 877q0 53 37 91t88 38q55 0 93 -38t38 -91t-38 -90t-93 -37q-51 0 -88 37.5t-37 89.5zM129 1180q0 53 37 91t88 38q55 0 93 -38t38 -91t-38 -90
t-93 -37q-51 0 -88 37.5t-37 89.5z" />
    <glyph glyph-name="plus" unicode="+" horiz-adv-x="1216" 
d="M139 651v172h373v381h188v-381h377v-172h-377v-385h-188v385h-373z" />
    <glyph glyph-name="comma" unicode="," horiz-adv-x="487" 
d="M102 113q0 58 37 93.5t103 35.5q73 0 118.5 -59t45.5 -154q0 -121 -66 -207.5t-178 -120.5l-56 94q102 39 130 123q22 73 8 98q-10 -16 -49 -16q-36 0 -64.5 33.5t-28.5 79.5z" />
    <glyph glyph-name="hyphen" unicode="-" horiz-adv-x="782" 
d="M139 467v184h504v-184h-504z" />
    <glyph glyph-name="period" unicode="." horiz-adv-x="462" 
d="M98 131q0 50 39.5 90.5t100.5 40.5q55 0 92 -40.5t37 -90.5q0 -56 -37 -97.5t-92 -41.5q-62 0 -101 41.5t-39 97.5z" />
    <glyph glyph-name="slash" unicode="/" horiz-adv-x="710" 
d="M-61 -369l679 1823l154 -57l-678 -1823z" />
    <glyph glyph-name="zero" unicode="0" horiz-adv-x="1144" 
d="M98 717q0 222 49.5 383.5t157.5 255.5t268 94q119 0 210 -53t147.5 -151t85 -231t28.5 -298q0 -222 -48 -383.5t-154 -255.5t-264 -94q-160 0 -269.5 94t-160 256t-50.5 383zM311 717q0 -547 267 -547q135 0 194 134t59 413q0 277 -61 411t-197 134q-137 0 -199.5 -136
t-62.5 -409z" />
    <glyph glyph-name="one" unicode="1" horiz-adv-x="786" 
d="M57 1169l357 271h143v-1440h-201v1155l-192 -149z" />
    <glyph glyph-name="two" unicode="2" horiz-adv-x="1077" 
d="M84 0v160q206 202 279 282q328 356 339 583v15q0 95 -53.5 152t-152.5 57q-85 0 -148 -55t-86 -154l-168 72q27 156 143 247t279 91q98 0 175.5 -31.5t125 -84.5t72 -117.5t24.5 -135.5q0 -82 -26.5 -171t-66 -164.5t-97 -155.5t-107.5 -137.5t-111 -118t-93.5 -89.5
t-67.5 -59h627v-186h-887z" />
    <glyph glyph-name="three" unicode="3" horiz-adv-x="1087" 
d="M504 -20q-156 0 -273 63.5t-174 177.5l115 146q53 -90 138.5 -139.5t181.5 -49.5q122 0 190 64.5t68 163.5q0 106 -76 166.5t-203 60.5h-109v198h97q96 0 165.5 63t69.5 161q0 92 -54.5 146t-152.5 54q-179 0 -282 -165l-113 139q54 109 160.5 167t251.5 58
q183 0 293 -97.5t110 -264.5q0 -120 -56.5 -208.5t-164.5 -133.5v-7q130 -23 203.5 -118t73.5 -226q0 -191 -130.5 -305t-328.5 -114z" />
    <glyph glyph-name="four" unicode="4" horiz-adv-x="1142" 
d="M694 0v344h-657v148l573 942h230l-545 -889h399v377h199v-377h192v-201h-192v-344h-199z" />
    <glyph glyph-name="five" unicode="5" horiz-adv-x="1054" 
d="M184 692l92 742h662v-201h-487l-45 -336q38 12 98 12q196 0 323 -122.5t127 -327.5q0 -147 -65.5 -257.5t-173.5 -166t-240 -55.5q-124 0 -239.5 53.5t-178.5 154.5l115 152q48 -75 134 -118.5t173 -43.5q114 0 188 76.5t74 196.5q0 121 -88.5 199.5t-238.5 78.5
q-63 0 -128.5 -11t-101.5 -26z" />
    <glyph glyph-name="six" unicode="6" horiz-adv-x="1138" 
d="M98 508q0 127 30 247t82 216t120.5 179t147 143t160 101t161.5 60l82 -151q-94 -25 -180 -74.5t-160 -121.5t-128.5 -170.5t-80.5 -213.5q100 162 317 162q173 0 289.5 -123.5t116.5 -315.5q0 -106 -39 -195.5t-103 -148t-145 -90.5t-166 -32q-155 0 -271 72.5
t-174.5 191.5t-58.5 264zM309 508q0 -142 77 -236t216 -94q105 0 173.5 74.5t68.5 177.5q0 117 -68.5 192.5t-193.5 75.5q-101 0 -172 -56.5t-101 -133.5z" />
    <glyph glyph-name="seven" unicode="7" horiz-adv-x="1005" 
d="M57 1233v201h881v-131l-520 -1303h-217l495 1233h-639z" />
    <glyph glyph-name="eight" unicode="8" horiz-adv-x="1224" 
d="M590 836h45q86 0 147.5 63t61.5 148q0 97 -67 152.5t-169 55.5q-100 0 -163.5 -57.5t-63.5 -150.5q0 -86 60.5 -148.5t148.5 -62.5zM635 637h-41q-105 0 -180.5 -63.5t-75.5 -163.5t75.5 -166t196.5 -66q130 0 203.5 64.5t71.5 167.5q0 106 -71.5 166.5t-178.5 60.5z
M612 -20q-135 0 -245 46t-176 136t-66 209q0 134 71.5 230.5t186.5 131.5v6q-91 35 -153 128t-62 212q0 166 127 270.5t315 104.5q123 0 224.5 -46t162 -132.5t60.5 -196.5q0 -107 -62.5 -201.5t-167.5 -136.5v-6q116 -21 193.5 -116t77.5 -232q0 -126 -66 -220t-175 -140.5
t-245 -46.5z" />
    <glyph glyph-name="nine" unicode="9" horiz-adv-x="1132" 
d="M1036 913q0 -201 -56 -369.5t-154.5 -285t-230.5 -188.5t-286 -90l-67 155q231 46 375.5 190.5t181.5 370.5q-44 -72 -120 -112.5t-177 -40.5q-184 0 -307 126.5t-123 315.5q0 106 41 196.5t107.5 149t149 91t167.5 32.5q156 0 270 -71t171.5 -192t57.5 -278zM823 913
q0 93 -29.5 168.5t-95 124.5t-159.5 49q-107 0 -181.5 -76.5t-74.5 -179.5q0 -111 72.5 -190.5t195.5 -79.5q104 0 173 53.5t99 130.5z" />
    <glyph glyph-name="colon" unicode=":" horiz-adv-x="653" 
d="M193 811q0 51 39 91t100 40q55 0 92 -40.5t37 -90.5q0 -56 -37 -97.5t-92 -41.5q-62 0 -100.5 41t-38.5 98zM193 131q0 51 39 91t100 40q55 0 92 -40.5t37 -90.5q0 -56 -37 -97.5t-92 -41.5q-62 0 -100.5 41t-38.5 98z" />
    <glyph glyph-name="semicolon" unicode=";" horiz-adv-x="663" 
d="M193 811q0 51 39 91t100 40q55 0 92 -40.5t37 -90.5q0 -56 -37 -97.5t-92 -41.5q-62 0 -100.5 41t-38.5 98zM193 113q0 58 36.5 93.5t102.5 35.5q73 0 118.5 -59t45.5 -154q0 -121 -66 -207.5t-178 -120.5l-55 94q101 38 129 123q22 73 8 98q-10 -16 -49 -16
q-36 0 -64 33.5t-28 79.5z" />
    <glyph glyph-name="less" unicode="&#x3c;" horiz-adv-x="1216" 
d="M1034 147l-925 551v84l925 547v-215l-649 -373l649 -376v-218z" />
    <glyph glyph-name="equal" unicode="=" horiz-adv-x="1216" 
d="M139 840v172h938v-172h-938zM139 463v172h938v-172h-938z" />
    <glyph glyph-name="greater" unicode="&#x3e;" horiz-adv-x="1216" 
d="M1106 698l-926 -551v218l651 376l-651 373v215l926 -547v-84z" />
    <glyph glyph-name="question" unicode="?" horiz-adv-x="962" 
d="M692 1055q0 84 -63.5 142t-157.5 58q-87 0 -151.5 -35t-118.5 -106l-119 133q58 93 164 150t237 57q194 0 308 -102t114 -254q0 -82 -23.5 -148.5t-61 -110.5t-81.5 -82t-86.5 -71t-75.5 -68t-48 -82.5t-5 -105.5h-182q-13 66 -4.5 120.5t30.5 91.5t55 71t69 59t71.5 55
t64 59.5t46.5 73t18 95.5zM299 131q0 51 39 91t100 40q56 0 93.5 -40.5t37.5 -90.5q0 -56 -37 -97.5t-94 -41.5q-62 0 -100.5 41t-38.5 98z" />
    <glyph glyph-name="at" unicode="@" horiz-adv-x="2050" 
d="M1257 0v86q-52 -48 -122.5 -77t-147.5 -29q-208 0 -331.5 131.5t-123.5 349.5q0 203 148.5 342t376.5 139q111 0 218 -29.5t181 -76.5v-650h43q105 0 171.5 104t66.5 267q0 127 -49.5 240t-138 196.5t-219.5 132t-286 48.5q-151 0 -285.5 -51t-233.5 -142.5
t-156.5 -226.5t-57.5 -293q0 -202 98 -366t265.5 -255.5t369.5 -91.5q113 0 222 25l12 -187q-111 -24 -234 -24q-261 0 -471 116t-329 322t-119 461q0 186 70 352t191 286t292.5 190.5t365.5 70.5q249 0 449 -99.5t316 -283.5t116 -420q0 -107 -30 -204.5t-87 -176.5
t-147.5 -127t-202.5 -49h-201zM1022 164q68 0 131.5 32t103.5 78v431q-102 51 -204 51q-140 0 -224 -88t-84 -217q0 -133 76.5 -210t200.5 -77z" />
    <glyph glyph-name="A" unicode="A" horiz-adv-x="1454" 
d="M23 0l612 1440h184l611 -1440h-226l-168 401h-633l-165 -401h-215zM721 1161l-234 -561h467z" />
    <glyph glyph-name="B" unicode="B" horiz-adv-x="1263" 
d="M207 2v1428q200 10 403 10q125 0 217 -27t145.5 -76.5t79 -112t25.5 -139.5q0 -123 -61 -205.5t-164 -121.5v-4q126 -26 200 -111.5t74 -226.5q0 -107 -40 -189.5t-111.5 -133t-166.5 -76t-210 -25.5q-251 0 -391 10zM625 635h-205v-434q82 -8 194 -8q143 0 221 59
t78 174q0 102 -75 155.5t-213 53.5zM606 1241q-92 0 -186 -8v-412h198q107 0 176.5 56t69.5 159q0 99 -67 152t-191 53z" />
    <glyph glyph-name="C" unicode="C" horiz-adv-x="1343" 
d="M1204 299l82 -160q-70 -73 -194.5 -116t-260.5 -43q-215 0 -381.5 90.5t-259 258.5t-92.5 388q0 155 49 289t139 234t228 157t307 57q279 0 436 -141l-96 -158q-148 100 -338 100q-220 0 -359.5 -148t-139.5 -390q0 -240 146 -389.5t380 -149.5q202 0 354 121z" />
    <glyph glyph-name="D" unicode="D" horiz-adv-x="1515" 
d="M207 0v1434h26q42 0 182.5 3t198.5 3q167 0 303 -37.5t228 -102.5t154 -155.5t90 -193t28 -218.5q0 -123 -32.5 -232.5t-99.5 -202t-163 -160t-230 -105t-294 -37.5q-42 0 -170 2t-195 2h-26zM610 1241q-64 0 -190 -8v-1032q82 -4 184 -4q279 0 433.5 146t154.5 390
q0 230 -152.5 369t-429.5 139z" />
    <glyph glyph-name="E" unicode="E" horiz-adv-x="1177" 
d="M207 0v1434h819v-201h-606v-410h545v-198h-545v-424h627v-201h-840z" />
    <glyph glyph-name="F" unicode="F" horiz-adv-x="1101" 
d="M207 0v1434h813v-201h-600v-455h538v-200h-538v-578h-213z" />
    <glyph glyph-name="G" unicode="G" horiz-adv-x="1488" 
d="M805 551v199h567v-572q-91 -91 -243.5 -144.5t-292.5 -53.5q-342 0 -540 200t-198 537q0 154 50.5 289t141 234t224.5 156.5t293 57.5q279 0 455 -141l-91 -170q-58 53 -149 82.5t-191 29.5q-226 0 -366.5 -146t-140.5 -392q0 -245 141.5 -392t374.5 -147q90 0 185 33
t146 80v260h-366z" />
    <glyph glyph-name="H" unicode="H" horiz-adv-x="1560" 
d="M1143 0v631h-723v-631h-213v1434h213v-603h723v603h211v-1434h-211z" />
    <glyph glyph-name="I" unicode="I" horiz-adv-x="698" 
d="M242 0v1434h213v-1434h-213z" />
    <glyph glyph-name="J" unicode="J" horiz-adv-x="782" 
d="M575 1434v-1102q0 -170 -81 -261t-248 -91q-73 0 -136.5 24t-93.5 57l70 162q59 -45 131 -45q78 0 111.5 49.5t33.5 141.5v1065h213z" />
    <glyph glyph-name="K" unicode="K" horiz-adv-x="1355" 
d="M1290 1434l-614 -672l651 -762h-272l-621 748l600 686h256zM207 0v1434h213v-1434h-213z" />
    <glyph glyph-name="L" unicode="L" horiz-adv-x="1122" 
d="M207 0v1434h213v-1233h676v-201h-889z" />
    <glyph glyph-name="M" unicode="M" horiz-adv-x="1835" 
d="M207 0v1434h215l514 -703l491 703h203v-1434h-213v1098l-479 -676h-33l-485 670v-1092h-213z" />
    <glyph glyph-name="N" unicode="N" horiz-adv-x="1626" 
d="M1417 0h-168l-843 1061v-1061h-199v1434h170l842 -1065v1065h198v-1434z" />
    <glyph glyph-name="O" unicode="O" horiz-adv-x="1671" 
d="M98 717q0 154 55 290t151 234.5t234 155.5t298 57q157 0 293.5 -53.5t234.5 -149t154.5 -233.5t56.5 -301q0 -211 -96.5 -379.5t-265 -263t-377.5 -94.5q-210 0 -377.5 91t-264 260t-96.5 386zM324 717q0 -229 148 -384t364 -155q154 0 272 71.5t180 193.5t62 274
q0 234 -147.5 386t-366.5 152q-221 0 -366.5 -151.5t-145.5 -386.5z" />
    <glyph glyph-name="P" unicode="P" horiz-adv-x="1236" 
d="M420 0h-213v1434q38 0 190 2t201 2q121 0 216 -25.5t155.5 -68t100 -101.5t55.5 -122.5t16 -135.5q0 -91 -33.5 -172.5t-96.5 -145.5t-163.5 -101.5t-226.5 -37.5q-122 0 -201 7v-535zM618 1237q-130 0 -198 -4v-496q105 -10 194 -10q138 0 219.5 67.5t81.5 192.5
q0 122 -74 186t-223 64z" />
    <glyph glyph-name="Q" unicode="Q" horiz-adv-x="1671" 
d="M98 717q0 154 55 290t151 234.5t234 155.5t298 57q157 0 293.5 -53.5t234.5 -149t154.5 -233.5t56.5 -301q0 -154 -54.5 -289t-152.5 -233l168 -195h-250l-65 78q-165 -98 -385 -98q-210 0 -377.5 91t-264 260t-96.5 386zM324 717q0 -229 148 -384t364 -155q129 0 249 60
l-122 145l139 125l127 -152q121 146 121 361q0 234 -147.5 386t-366.5 152q-221 0 -366.5 -151.5t-145.5 -386.5z" />
    <glyph glyph-name="R" unicode="R" horiz-adv-x="1331" 
d="M420 0h-213v1434q45 0 220 2t191 2q141 0 243.5 -33.5t160.5 -94.5t84.5 -136.5t26.5 -169.5q0 -84 -26 -155.5t-69.5 -121t-93.5 -82.5t-104 -49l463 -596h-261l-417 555h-205v-555zM606 1237q-118 0 -186 -4v-479h186q124 0 212.5 67t88.5 180q0 107 -70 171.5
t-231 64.5z" />
    <glyph glyph-name="S" unicode="S" horiz-adv-x="1128" 
d="M807 373q0 51 -23 92t-62 70t-90 54.5t-107 49.5t-112 50t-107 61t-90 77.5t-62 104.5t-23 137q0 165 119 275t319 110q128 0 234.5 -40t169.5 -111l-115 -160q-109 112 -272 112q-106 0 -168 -50t-62 -134q0 -66 37.5 -115t97 -81t131.5 -61t144 -64.5t131.5 -80.5
t97 -119.5t37.5 -172.5q0 -177 -136 -287t-339 -110q-143 0 -276 59t-183 160l121 145q60 -79 155 -122.5t187 -43.5q106 0 176 51.5t70 143.5z" />
    <glyph glyph-name="T" unicode="T" horiz-adv-x="1220" 
d="M20 1233v201h1180v-201h-483v-1233h-213v1233h-484z" />
    <glyph glyph-name="U" unicode="U" horiz-adv-x="1538" 
d="M1352 1434v-838q0 -128 -30.5 -232t-82.5 -174.5t-124.5 -118.5t-154 -69.5t-172.5 -21.5q-132 0 -241.5 40t-190.5 117t-125.5 198t-44.5 275v824h213v-781q0 -221 99.5 -347t289.5 -126q171 0 261 116.5t90 342.5v795h213z" />
    <glyph glyph-name="V" unicode="V" horiz-adv-x="1343" 
d="M1339 1434l-581 -1440h-160l-596 1440h227l457 -1123l440 1123h213z" />
    <glyph glyph-name="W" unicode="W" horiz-adv-x="2002" 
d="M1987 1434l-412 -1434h-199l-368 1094l-363 -1094h-199l-430 1434h238l311 -1082l346 1082h209l355 -1082l307 1082h205z" />
    <glyph glyph-name="X" unicode="X" horiz-adv-x="1363" 
d="M1315 1434l-496 -705l516 -729h-252l-403 567l-399 -567h-250l514 729l-492 705h250l385 -545l377 545h250z" />
    <glyph glyph-name="Y" unicode="Y" horiz-adv-x="1261" 
d="M1247 1434l-512 -828v-606h-213v606l-506 828h242l381 -627l377 627h231z" />
    <glyph glyph-name="Z" unicode="Z" horiz-adv-x="1306" 
d="M123 1233v201h1081v-146l-835 -1087h856v-201h-1143v143l836 1090h-795z" />
    <glyph glyph-name="bracketleft" unicode="[" horiz-adv-x="686" 
d="M123 -410v1741h536v-188h-335v-1366h335v-187h-536z" />
    <glyph glyph-name="backslash" unicode="\" horiz-adv-x="710" 
d="M92 1454l680 -1823l-158 -57l-675 1823z" />
    <glyph glyph-name="bracketright" unicode="]" horiz-adv-x="686" 
d="M563 1331v-1741h-538v187h340v1366h-340v188h538z" />
    <glyph glyph-name="asciicircum" unicode="^" horiz-adv-x="1024" 
d="M72 922l374 528h136l368 -528h-217l-221 327l-225 -327h-215z" />
    <glyph glyph-name="underscore" unicode="_" horiz-adv-x="671" 
d="M0 -410v201h672v-201h-672z" />
    <glyph glyph-name="grave" unicode="`" horiz-adv-x="618" 
d="M377 1073l-254 291l158 119l215 -326z" />
    <glyph glyph-name="a" unicode="a" horiz-adv-x="946" 
d="M201 705l-54 151q64 38 148.5 62t169.5 24q194 0 278 -95t84 -284v-563h-180v113q-95 -125 -285 -125q-128 0 -206 75t-78 207q0 143 94.5 219t245.5 76q61 0 122 -15t99 -42q2 132 -39 197t-154 65q-75 0 -129 -16t-116 -49zM430 160q128 0 209 102v105q-74 53 -184 53
q-73 0 -122.5 -34t-49.5 -99q0 -58 39.5 -92.5t107.5 -34.5z" />
    <glyph glyph-name="b" unicode="b" horiz-adv-x="1122" 
d="M139 82v1352h201v-586q48 42 118.5 68t145.5 26q202 0 320 -129.5t118 -337.5q0 -227 -140.5 -361t-377.5 -134q-110 0 -214 28.5t-171 73.5zM557 756q-66 0 -124.5 -30.5t-92.5 -74.5v-430q85 -57 192 -57q129 0 213 80.5t84 216.5q0 139 -75.5 217t-196.5 78z" />
    <glyph glyph-name="c" unicode="c" horiz-adv-x="999" 
d="M844 281l94 -146q-57 -75 -153.5 -115t-206.5 -40q-224 0 -361 131.5t-137 349.5q0 203 134 342t339 139q242 0 365 -123l-93 -155q-97 92 -247 92q-115 0 -200 -83t-85 -212q0 -133 87 -215t212 -82q147 0 252 117z" />
    <glyph glyph-name="d" unicode="d" horiz-adv-x="1136" 
d="M799 0v106q-115 -122 -279 -122q-201 0 -320.5 128t-119.5 341q0 216 142 352.5t364 136.5q131 0 213 -53v545h198v-1434h-198zM559 170q67 0 130 31t110 78v413q-104 64 -205 64q-126 0 -213.5 -81t-87.5 -216q0 -134 75 -211.5t191 -77.5z" />
    <glyph glyph-name="e" unicode="e" horiz-adv-x="1060" 
d="M864 244l60 -148q-67 -58 -159 -87t-192 -29q-223 0 -358 131.5t-135 349.5q0 207 130 344t351 137q183 0 307.5 -118t124.5 -306q0 -72 -12 -119h-686q12 -116 93 -180.5t206 -64.5q82 0 153 25.5t117 64.5zM553 768q-113 0 -181.5 -60.5t-86.5 -162.5h506
q-3 100 -66.5 161.5t-171.5 61.5z" />
    <glyph glyph-name="f" unicode="f" horiz-adv-x="671" 
d="M156 0v1071q0 190 83.5 286.5t239.5 96.5q80 0 147.5 -23t106.5 -59l-69 -153q-55 49 -148 49q-76 0 -119 -53t-43 -162v-131h279v-189h-279v-733h-198z" />
    <glyph glyph-name="g" unicode="g" horiz-adv-x="1015" 
d="M16 -129q0 103 78 177.5t217 103.5q-18 37 -18 71q0 39 20 72q-102 40 -156.5 123.5t-54.5 183.5q0 143 106 241.5t279 98.5q137 0 234 -65l274 63l9 -162l-164 -37q32 -69 32 -139q0 -141 -107 -238.5t-278 -97.5h-38q-7 -28 -7 -43q0 -23 13 -55q6 0 17 1t17 1
q211 0 342.5 -76.5t131.5 -222.5q0 -98 -63.5 -166.5t-168 -99.5t-242.5 -31q-213 0 -343 74.5t-130 222.5zM201 -129q0 -65 77.5 -101t210.5 -36q132 0 209.5 36t77.5 101q0 64 -76 100.5t-211 36.5q-136 0 -212 -37t-76 -100zM291 602q0 -78 53.5 -127t142.5 -49
q87 0 142 48.5t55 127.5q0 76 -53.5 128t-143.5 52q-88 0 -142 -52t-54 -128z" />
    <glyph glyph-name="h" unicode="h" horiz-adv-x="1122" 
d="M139 0v1434h201v-607q48 48 124.5 79.5t158.5 31.5q181 0 281 -99t100 -307v-532h-201v504q0 121 -59.5 183.5t-172.5 62.5q-65 0 -127.5 -27.5t-103.5 -71.5v-651h-201z" />
    <glyph glyph-name="i" unicode="i" horiz-adv-x="557" 
d="M180 0v922h199v-922h-199zM156 1262q0 51 36.5 83.5t90.5 32.5q46 0 82 -33t36 -83q0 -58 -35.5 -92.5t-82.5 -34.5q-55 0 -91 34t-36 93z" />
    <glyph glyph-name="j" unicode="j" horiz-adv-x="563" 
d="M389 922v-990q0 -358 -289 -358q-66 0 -125 17.5t-90 43.5l56 160q58 -35 112 -35q135 0 135 189v973h201zM168 1262q0 51 36.5 83.5t90.5 32.5q47 0 83 -33t36 -83q0 -58 -35.5 -92.5t-83.5 -34.5q-55 0 -91 34t-36 93z" />
    <glyph glyph-name="k" unicode="k" horiz-adv-x="1028" 
d="M967 922l-369 -426l414 -496h-262l-392 481l355 441h254zM139 0v1434h201v-1434h-201z" />
    <glyph glyph-name="l" unicode="l" horiz-adv-x="602" 
d="M139 250v1184h201v-1098q0 -88 22 -128t72 -40q43 0 107 41l41 -154q-87 -73 -230 -73q-213 0 -213 268z" />
    <glyph glyph-name="m" unicode="m" horiz-adv-x="1642" 
d="M1524 602v-602h-201v549q0 201 -178 201q-73 0 -129.5 -32.5t-85.5 -86.5v-631h-199v575q0 80 -45 127.5t-129 47.5q-70 0 -127 -30t-90 -81v-639h-201v922h201v-111q49 58 129 92.5t166 34.5q104 0 176 -42t98 -112q52 71 134 112.5t184 41.5q297 0 297 -336z" />
    <glyph glyph-name="n" unicode="n" horiz-adv-x="1122" 
d="M139 0v922h201v-103q45 52 121.5 85.5t161.5 33.5q381 0 381 -401v-537h-201v500q0 250 -234 250q-133 0 -229 -103v-647h-201z" />
    <glyph glyph-name="o" unicode="o" horiz-adv-x="1155" 
d="M80 461q0 210 137.5 345.5t360.5 135.5q222 0 358.5 -135.5t136.5 -345.5t-136.5 -345.5t-358.5 -135.5q-223 0 -360.5 135.5t-137.5 345.5zM293 461q0 -130 80.5 -213.5t204.5 -83.5t203 82t79 215q0 130 -79.5 212.5t-202.5 82.5q-122 0 -203.5 -82t-81.5 -213z" />
    <glyph glyph-name="p" unicode="p" horiz-adv-x="1140" 
d="M139 -410v1332h201v-99q45 52 127 85.5t172 33.5q191 0 306.5 -130.5t115.5 -336.5q0 -214 -134 -354.5t-349 -140.5q-156 0 -238 53v-443h-201zM578 756q-68 0 -131 -31t-107 -82v-416q97 -63 219 -63q132 0 210.5 86t78.5 219q0 128 -72 207.5t-198 79.5z" />
    <glyph glyph-name="q" unicode="q" horiz-adv-x="1142" 
d="M803 -410v471q-51 -39 -117 -60t-129 -21q-219 0 -348 131t-129 350q0 203 148 342t374 139q112 0 220 -29.5t182 -76.5v-1246h-201zM582 164q63 0 124.5 28.5t96.5 69.5v443q-94 51 -201 51q-142 0 -225.5 -88t-83.5 -217q0 -126 79.5 -206.5t209.5 -80.5z" />
    <glyph glyph-name="r" unicode="r" horiz-adv-x="710" 
d="M139 0v922h201v-99q39 54 90 84.5t131 30.5q94 0 144 -35l-72 -186q-35 19 -59.5 26t-61.5 7q-117 0 -172 -115v-635h-201z" />
    <glyph glyph-name="s" unicode="s" horiz-adv-x="894" 
d="M606 254q0 34 -27.5 58t-71 40t-96.5 31t-106.5 36.5t-97 51.5t-71 81.5t-27.5 119.5q0 126 91 198t234 72q113 0 199.5 -32.5t134.5 -78.5l-84 -147q-44 38 -108.5 64t-131.5 26q-59 0 -95 -29t-36 -69q0 -35 27.5 -60t71.5 -41t97 -31t106 -36t97 -49t71.5 -77.5
t27.5 -115.5q0 -136 -102.5 -211t-262.5 -75q-113 0 -220 47.5t-142 101.5l104 135q40 -45 124 -81t151 -36q61 0 102 28.5t41 78.5z" />
    <glyph glyph-name="t" unicode="t" horiz-adv-x="729" 
d="M119 350v828h200v-256h316v-189h-316v-368q0 -197 136 -197q73 0 143 53l61 -155q-42 -36 -108.5 -60t-144.5 -24q-151 0 -219 92.5t-68 275.5z" />
    <glyph glyph-name="u" unicode="u" horiz-adv-x="1101" 
d="M961 922v-922h-199v123q-51 -62 -131 -102.5t-180 -40.5q-152 0 -242 96.5t-90 288.5v557h200v-512q0 -246 205 -246q68 0 131 34.5t107 92.5v631h199z" />
    <glyph glyph-name="v" unicode="v" horiz-adv-x="978" 
d="M977 922l-404 -928h-145l-426 928h236l196 -447q45 -96 74 -207q38 131 74 211l184 443h211z" />
    <glyph glyph-name="w" unicode="w" horiz-adv-x="1462" 
d="M1446 922l-293 -928h-178l-213 555q-6 19 -16.5 55.5t-16.5 54.5q-9 -44 -35 -114l-209 -551h-168l-301 928h213l164 -541q6 -19 31 -127q16 64 37 127l190 541h176l193 -541q18 -45 41 -129q7 40 33 137l151 533h201z" />
    <glyph glyph-name="x" unicode="x" horiz-adv-x="1052" 
d="M989 922l-317 -443l338 -479h-244l-242 352l-250 -352h-231l338 469l-318 453h244l223 -328l228 328h231z" />
    <glyph glyph-name="y" unicode="y" horiz-adv-x="1017" 
d="M1004 922l-367 -922q-67 -164 -123.5 -253.5t-108.5 -123t-122 -33.5q-96 0 -187 66l64 151q58 -32 100 -32q51 0 91.5 42t78.5 134l21 49l-435 922h238l244 -545q27 -67 51 -135q12 62 37 137l188 543h230z" />
    <glyph glyph-name="z" unicode="z" horiz-adv-x="999" 
d="M119 733v189h790v-144l-540 -592h528v-186h-807v143l537 590h-508z" />
    <glyph glyph-name="braceleft" unicode="{" horiz-adv-x="712" 
d="M225 -123v295q0 59 -17 101t-45 63t-58.5 30t-63.5 7v176q31 0 60.5 10t59 33t47 70t17.5 112v256q0 155 69 228t234 73h144v-188h-94q-86 0 -119 -39.5t-33 -140.5v-267q0 -99 -42.5 -161.5t-113.5 -71.5q70 -8 113 -65t43 -169v-270q0 -98 38 -140t126 -42h82v-187
h-156q-145 0 -218 67.5t-73 219.5z" />
    <glyph glyph-name="bar" unicode="|" horiz-adv-x="686" 
d="M242 0v1434h200v-1434h-200z" />
    <glyph glyph-name="braceright" unicode="}" horiz-adv-x="712" 
d="M487 172v-295q0 -153 -72 -220t-218 -67h-156v187h84q88 0 126 42t38 140v270q0 112 41.5 169t111.5 65q-70 9 -111.5 71.5t-41.5 161.5v267q0 101 -33.5 140.5t-118.5 39.5h-96v188h145q165 0 233 -73t68 -228v-256q0 -65 18 -112t47.5 -70t59 -33t60.5 -10v-176
q-33 2 -63.5 -7t-59 -30t-45.5 -63t-17 -101z" />
    <glyph glyph-name="asciitilde" unicode="~" horiz-adv-x="1216" 
d="M182 610l-88 127q66 72 142 114t147 42q56 0 123 -22.5t118.5 -49t117 -49t118.5 -22.5q44 0 93 26t89 68l80 -139q-61 -58 -131 -92.5t-135 -34.5q-55 0 -121 22t-117 48.5t-113.5 48.5t-111.5 22q-98 0 -211 -109z" />
    <glyph glyph-name="uni00A0" unicode="&#xa0;" horiz-adv-x="446" 
 />
    <glyph glyph-name="exclamdown" unicode="&#xa1;" horiz-adv-x="634" 
d="M424 467v-967h-211v967h211zM455 803q0 -51 -40 -91t-104 -40q-53 0 -90 40.5t-37 90.5q0 56 36.5 97.5t90.5 41.5q65 0 104.5 -41t39.5 -98z" />
    <glyph glyph-name="cent" unicode="&#xa2;" horiz-adv-x="1216" 
d="M942 281l94 -146q-94 -125 -280 -151v-230h-199v238q-173 33 -275 158t-102 311q0 177 104 308t273 165v223h199v-219q168 -26 264 -119l-94 -155q-97 92 -246 92q-117 0 -202 -83t-85 -212q0 -133 87.5 -215t211.5 -82q148 0 250 117z" />
    <glyph glyph-name="sterling" unicode="&#xa3;" horiz-adv-x="1216" 
d="M147 553v160h162q-9 20 -34.5 73t-37.5 82t-24 80.5t-12 104.5q0 169 125.5 283t324.5 114q254 0 398 -160l-111 -155q-120 114 -279 114q-104 0 -168.5 -60.5t-64.5 -148.5q0 -61 19 -114t50.5 -112t45.5 -101h319v-160h-295q-4 -128 -112 -262q55 -8 188 -53t205 -45
q63 0 114 19.5t109 72.5l88 -156q-137 -137 -315 -137q-79 0 -233.5 53t-233.5 53q-108 0 -223 -112l-82 157q79 91 184 131q108 143 98 279h-205z" />
    <glyph glyph-name="currency" unicode="&#xa4;" horiz-adv-x="1216" 
d="M139 705q0 142 78 266l-164 168l123 123l166 -168q117 73 266 73q147 0 264 -73l172 172l123 -123l-170 -172q80 -122 80 -266q0 -146 -78 -267l164 -164l-123 -122l-163 163q-116 -77 -269 -77q-152 0 -268 77l-170 -172l-123 123l170 172q-78 119 -78 267zM328 705
q0 -124 76 -207.5t204 -83.5q132 0 206.5 83t74.5 208q0 127 -76 208.5t-205 81.5q-128 0 -204 -82t-76 -208z" />
    <glyph glyph-name="yen" unicode="&#xa5;" horiz-adv-x="1216" 
d="M137 606v160h271l-377 668h243l340 -627l340 627h232l-383 -668h274v-160h-364v-192h364v-162h-364v-252h-213v252h-363v162h363v192h-363z" />
    <glyph glyph-name="brokenbar" unicode="&#xa6;" horiz-adv-x="686" 
d="M442 901h-200v533h200v-533zM242 532h200v-532h-200v532z" />
    <glyph glyph-name="section" unicode="&#xa7;" horiz-adv-x="1073" 
d="M125 510q0 126 68.5 222t191.5 134q-70 41 -114 113t-44 164q0 124 91 207.5t249 83.5q181 0 285 -140l-119 -133q-25 28 -41.5 42.5t-48.5 28t-70 13.5q-61 0 -104 -41t-43 -100q0 -130 164 -219q167 -15 261.5 -118.5t94.5 -256.5q0 -126 -68.5 -222t-191.5 -134
q69 -43 111.5 -113t42.5 -160q0 -125 -90 -208t-250 -83q-95 0 -167 39t-118 101l121 133q23 -27 40.5 -42.5t49.5 -29.5t70 -14q60 0 102.5 41.5t42.5 101.5q0 131 -164 215q-164 18 -258 122t-94 253zM324 510q0 -82 59 -142.5t154 -60.5q97 0 154 60t57 143
q0 82 -58.5 143.5t-152.5 61.5q-95 0 -154 -61t-59 -144z" />
    <glyph glyph-name="dieresis" unicode="&#xa8;" horiz-adv-x="878" 
d="M123 1237q0 51 34 83t81 32q42 0 74 -32.5t32 -82.5q0 -54 -32 -86.5t-74 -32.5q-48 0 -81.5 32t-33.5 87zM535 1237q0 51 33.5 83t80.5 32q43 0 75 -32t32 -83q0 -55 -31.5 -87t-75.5 -32q-48 0 -81 32t-33 87z" />
    <glyph glyph-name="copyright" unicode="&#xa9;" horiz-adv-x="2084" 
d="M152 453q0 184 68.5 348.5t186 283.5t283.5 188.5t352 69.5t352 -69.5t284 -188.5t186.5 -283.5t68.5 -348.5q0 -147 -43.5 -283.5t-124.5 -246t-190 -191t-246.5 -126t-286.5 -44.5t-286.5 44.5t-246 126t-189.5 191t-124.5 246t-43.5 283.5zM324 451
q0 -146 54.5 -277.5t149 -228.5t229 -154t287.5 -57q201 0 365.5 97t257 261t92.5 359q0 197 -92.5 361t-257 260.5t-365.5 96.5q-204 0 -369.5 -96.5t-258 -260.5t-92.5 -361zM1323 281l94 -146q-57 -75 -152.5 -115t-207.5 -40q-222 0 -359 132t-137 349q0 203 134 342
t337 139q246 0 369 -123l-94 -155q-97 92 -246 92q-117 0 -202 -83t-85 -212q0 -133 87.5 -215t211.5 -82q148 0 250 117z" />
    <glyph glyph-name="ordfeminine" unicode="&#xaa;" horiz-adv-x="890" 
d="M242 1153l-74 117q116 78 283 78q129 0 216 -70t87 -201v-430h-176v92q-82 -100 -254 -100q-102 0 -164 62.5t-62 154.5q0 109 69 169t191 60q135 0 220 -49q-3 164 -160 164q-105 0 -176 -47zM412 786q85 0 166 62v78q-83 37 -160 37q-61 0 -98 -25.5t-37 -65.5
q0 -38 34 -62t95 -24z" />
    <glyph glyph-name="guillemotleft" unicode="&#xab;" horiz-adv-x="1118" 
d="M881 53l-387 455v8l395 453l129 -117l-293 -340l291 -344zM471 53l-387 455v8l395 453l129 -117l-293 -340l291 -344z" />
    <glyph glyph-name="logicalnot" unicode="&#xac;" horiz-adv-x="1216" 
d="M113 651v172h991v-442h-174v270h-817z" />
    <glyph glyph-name="uni00AD" unicode="&#xad;" horiz-adv-x="782" 
d="M139 467v184h504v-184h-504z" />
    <glyph glyph-name="registered" unicode="&#xae;" horiz-adv-x="1310" 
d="M98 1018q0 151 74 278.5t203 202t284 74.5q112 0 215 -44t177.5 -118t118.5 -177t44 -216q0 -154 -74.5 -283.5t-202.5 -204.5t-278 -75q-155 0 -284 75t-203 204.5t-74 283.5zM258 1016q0 -164 116.5 -281t280.5 -117t281 117t117 281t-117 280.5t-281 116.5
t-280.5 -116.5t-116.5 -280.5zM578 737h-136v574h222q116 0 170.5 -50t54.5 -135q0 -60 -33 -104.5t-82 -60.5l135 -224h-157l-109 193h-65v-193zM643 1212h-65v-184h69q49 0 78 27t29 69t-28 65t-83 23z" />
    <glyph glyph-name="macron" unicode="&#xaf;" horiz-adv-x="802" 
d="M123 1157v162h557v-162h-557z" />
    <glyph glyph-name="degree" unicode="&#xb0;" horiz-adv-x="856" 
d="M98 1163q0 141 96 237.5t232 96.5q139 0 235.5 -91.5t96.5 -231.5q0 -139 -97.5 -238.5t-234.5 -99.5q-136 0 -232 95t-96 232zM270 1167q0 -64 46.5 -109.5t109.5 -45.5q65 0 111.5 45.5t46.5 109.5t-46.5 110t-111.5 46q-63 0 -109.5 -46t-46.5 -110z" />
    <glyph glyph-name="plusminus" unicode="&#xb1;" horiz-adv-x="1216" 
d="M139 831v175h373v380h188v-380h377v-175h-377v-231h-188v231h-373zM139 328v174h938v-174h-938z" />
    <glyph glyph-name="twosuperior" unicode="&#xb2;" horiz-adv-x="729" 
d="M66 717v127q183 114 250 167q134 107 135 185q0 43 -29 70.5t-78 27.5q-45 0 -83 -33.5t-44 -76.5l-145 49q17 98 94 153.5t194 55.5q132 0 203.5 -61.5t71.5 -161.5q0 -192 -340 -355h375v-147h-604z" />
    <glyph glyph-name="threesuperior" unicode="&#xb3;" horiz-adv-x="729" 
d="M352 705q-103 0 -186 37.5t-123 109.5l100 94q23 -43 74 -70.5t107 -27.5q69 0 105 24.5t36 65.5q0 35 -34 57.5t-99 22.5h-66v123h60q50 0 81 24.5t31 63.5q0 34 -29 54t-81 20q-111 0 -178 -86l-84 94q37 61 111 98t185 37q117 0 191 -49.5t74 -132.5q0 -63 -42 -107.5
t-114 -62.5v-2q86 -6 133 -54t47 -116q0 -98 -87 -157.5t-212 -59.5z" />
    <glyph glyph-name="acute" unicode="&#xb4;" horiz-adv-x="618" 
d="M496 1368l-254 -295l-119 84l217 330z" />
    <glyph glyph-name="mu" unicode="&#xb5;" horiz-adv-x="1114" 
d="M973 922v-922h-199v123q-51 -62 -131 -102.5t-180 -40.5q-75 0 -131 24v-414h-201v1332h201v-523q0 -112 50.5 -173.5t154.5 -61.5q68 0 130.5 34.5t106.5 92.5v631h199z" />
    <glyph glyph-name="mu" unicode="&#x3bc;" horiz-adv-x="1114" 
d="M973 922v-922h-199v123q-51 -62 -131 -102.5t-180 -40.5q-75 0 -131 24v-414h-201v1332h201v-523q0 -112 50.5 -173.5t154.5 -61.5q68 0 130.5 34.5t106.5 92.5v631h199z" />
    <glyph glyph-name="paragraph" unicode="&#xb6;" horiz-adv-x="974" 
d="M84 985q0 206 124 327.5t322 121.5h388v-189h-193v-1249q0 -422 -360 -422q-72 0 -142 27t-108 65l82 146q69 -52 155 -52q51 0 86.5 18.5t54 53.5t26 75.5t7.5 94.5v537q-118 1 -217.5 52.5t-162 154.5t-62.5 239z" />
    <glyph glyph-name="periodcentered" unicode="&#xb7;" horiz-adv-x="446" 
d="M90 614q0 51 39 91t100 40q55 0 92 -40.5t37 -90.5q0 -56 -37 -97.5t-92 -41.5q-62 0 -100.5 41t-38.5 98z" />
    <glyph glyph-name="cedilla" unicode="&#xb8;" horiz-adv-x="745" 
d="M123 -344l59 94q66 -49 146 -49q42 0 69 16t27 45q0 70 -100 70h-13v168h103v-80q104 -6 156.5 -49.5t52.5 -120.5t-71 -124.5t-200 -47.5q-54 0 -101.5 13.5t-71 27.5t-56.5 37z" />
    <glyph glyph-name="onesuperior" unicode="&#xb9;" horiz-adv-x="532" 
d="M39 1284l223 150h125v-717h-174v516l-109 -68z" />
    <glyph glyph-name="ordmasculine" unicode="&#xba;" horiz-adv-x="999" 
d="M111 991q0 160 109.5 258.5t279.5 98.5q169 0 279 -99t110 -258q0 -158 -110 -257t-279 -99q-170 0 -279.5 98.5t-109.5 257.5zM297 991q0 -87 58.5 -140.5t144.5 -53.5t143 53t57 141q0 87 -57.5 141t-142.5 54q-87 0 -145 -54t-58 -141z" />
    <glyph glyph-name="guillemotright" unicode="&#xbb;" horiz-adv-x="1118" 
d="M1032 508l-385 -455l-135 115l291 344l-295 340l131 117l393 -453v-8zM623 508l-385 -455l-136 115l291 344l-295 340l131 117l394 -453v-8z" />
    <glyph glyph-name="onequarter" unicode="&#xbc;" horiz-adv-x="1398" 
d="M55 1284l224 150h124v-717h-174v516l-108 -68zM98 59l1045 1395l112 -84l-1042 -1390zM1079 0v152h-395v116l330 449h166l-320 -428h219v172h162v-172h117v-137h-117v-152h-162z" />
    <glyph glyph-name="onehalf" unicode="&#xbd;" horiz-adv-x="1433" 
d="M55 1284l224 150h124v-717h-174v516l-108 -68zM66 59l1044 1395l113 -84l-1043 -1390zM745 0v127q183 114 250 167q135 107 135 185q0 44 -28.5 71.5t-77.5 27.5q-45 0 -83 -34t-44 -77l-145 49q17 98 94 153.5t194 55.5q132 0 203.5 -61.5t71.5 -161.5q0 -192 -340 -355
h375v-147h-605z" />
    <glyph glyph-name="threequarters" unicode="&#xbe;" horiz-adv-x="1511" 
d="M229 59l1045 1395l112 -84l-1042 -1390zM1192 0v152h-395v116l329 449h166l-319 -428h219v172h162v-172h116v-137h-116v-152h-162zM365 705q-103 0 -186.5 37.5t-123.5 109.5l101 94q23 -43 74 -70.5t106 -27.5q69 0 105 24.5t36 65.5q0 35 -34 57.5t-99 22.5h-65v123h59
q51 0 82 24.5t31 63.5q0 34 -29.5 54t-81.5 20q-111 0 -178 -86l-84 94q37 60 111 97.5t186 37.5q117 0 190.5 -49t73.5 -133q0 -63 -42 -107.5t-114 -62.5v-2q86 -6 133.5 -54t47.5 -116q0 -98 -87 -157.5t-212 -59.5z" />
    <glyph glyph-name="questiondown" unicode="&#xbf;" horiz-adv-x="962" 
d="M270 -121q0 -84 64 -142.5t158 -58.5q87 0 151.5 35.5t118.5 106.5l119 -133q-58 -92 -164.5 -149.5t-237.5 -57.5q-194 0 -308 102t-114 254q0 82 23.5 148.5t61 110.5t81.5 82t86.5 71t75.5 68t48 82.5t5 105.5h183q13 -66 4.5 -120.5t-30.5 -91.5t-55 -71t-69 -59
t-72 -55t-64.5 -59.5t-46.5 -73t-18 -95.5zM664 803q0 -50 -39.5 -90.5t-100.5 -40.5q-56 0 -93.5 40.5t-37.5 90.5q0 56 37 97.5t94 41.5q62 0 101 -41.5t39 -97.5z" />
    <glyph glyph-name="Agrave" unicode="&#xc0;" horiz-adv-x="1454" 
d="M23 0l612 1440h184l611 -1440h-226l-168 401h-633l-165 -401h-215zM721 1161l-234 -561h467zM825 1501l-438 170l74 170l420 -219z" />
    <glyph glyph-name="Aacute" unicode="&#xc1;" horiz-adv-x="1454" 
d="M23 0l612 1440h184l611 -1440h-226l-168 401h-633l-165 -401h-215zM721 1161l-234 -561h467zM1067 1671l-436 -170l-58 121l418 219z" />
    <glyph glyph-name="Acircumflex" unicode="&#xc2;" horiz-adv-x="1454" 
d="M23 0l612 1440h184l611 -1440h-226l-168 401h-633l-165 -401h-215zM721 1161l-234 -561h467zM365 1608l354 221h8l363 -219l-82 -115l-285 152l-287 -152z" />
    <glyph glyph-name="Atilde" unicode="&#xc3;" horiz-adv-x="1454" 
d="M23 0l612 1440h184l611 -1440h-226l-168 401h-633l-165 -401h-215zM721 1161l-234 -561h467zM426 1550l-64 125q42 49 101.5 77t116.5 28q63 0 154 -38t145 -38q97 0 155 65l53 -127q-83 -114 -221 -114q-52 0 -148.5 39t-156.5 39q-68 0 -135 -56z" />
    <glyph glyph-name="Adieresis" unicode="&#xc4;" horiz-adv-x="1454" 
d="M23 0l612 1440h184l611 -1440h-226l-168 401h-633l-165 -401h-215zM721 1161l-234 -561h467zM356 1677q0 50 39.5 79.5t96.5 29.5q50 0 88 -30t38 -79q0 -54 -37.5 -85t-88.5 -31q-58 0 -97 30.5t-39 85.5zM831 1677q0 50 39.5 79.5t96.5 29.5q52 0 89.5 -29.5
t37.5 -79.5q0 -54 -37 -85t-90 -31q-58 0 -97 30.5t-39 85.5z" />
    <glyph glyph-name="Aring" unicode="&#xc5;" horiz-adv-x="1454" 
d="M455 1630q0 104 74.5 156.5t193.5 52.5q123 0 199.5 -52.5t76.5 -156.5q0 -79 -48 -131.5t-128 -73.5l607 -1425h-226l-168 401h-633l-165 -401h-215l604 1425q-78 20 -125 72.5t-47 132.5zM721 1161l-234 -561h467zM602 1630q0 -51 34 -77.5t89 -26.5t90 27t35 77
t-34.5 74.5t-90.5 24.5t-89.5 -24.5t-33.5 -74.5z" />
    <glyph glyph-name="AE" unicode="&#xc6;" horiz-adv-x="1953" 
d="M-45 0l1032 1434h815v-201h-606v-410h545v-198h-545v-424h627v-201h-840v406h-496l-284 -406h-248zM627 606h356v504z" />
    <glyph glyph-name="Ccedilla" unicode="&#xc7;" horiz-adv-x="1343" 
d="M543 -340l63 102q33 -24 75.5 -42.5t76.5 -18.5q44 0 71 15.5t27 45.5q0 70 -102 70h-13v152q-291 28 -467 226t-176 507q0 155 49 289t139 234t228 157t307 57q279 0 436 -141l-96 -158q-148 100 -338 100q-220 0 -359.5 -148t-139.5 -390q0 -240 146 -389.5t380 -149.5
q202 0 354 121l82 -160q-67 -70 -186.5 -113t-253.5 -46v-60q223 -11 223 -170q0 -76 -70.5 -124t-191.5 -48q-147 0 -264 82z" />
    <glyph glyph-name="Egrave" unicode="&#xc8;" horiz-adv-x="1177" 
d="M207 0v1434h819v-201h-606v-410h545v-198h-545v-424h627v-201h-840zM741 1501l-438 170l74 170l420 -219z" />
    <glyph glyph-name="Eacute" unicode="&#xc9;" horiz-adv-x="1177" 
d="M207 0v1434h819v-201h-606v-410h545v-198h-545v-424h627v-201h-840zM948 1671l-436 -170l-57 121l417 219z" />
    <glyph glyph-name="Ecircumflex" unicode="&#xca;" horiz-adv-x="1177" 
d="M207 0v1434h819v-201h-606v-410h545v-198h-545v-424h627v-201h-840zM256 1608l354 221h8l363 -219l-82 -115l-285 152l-286 -152z" />
    <glyph glyph-name="Edieresis" unicode="&#xcb;" horiz-adv-x="1177" 
d="M207 0v1434h819v-201h-606v-410h545v-198h-545v-424h627v-201h-840zM254 1677q0 50 39 79.5t96 29.5q50 0 88.5 -30t38.5 -79q0 -54 -38 -85t-89 -31q-58 0 -96.5 30.5t-38.5 85.5zM729 1677q0 50 39 79.5t96 29.5q52 0 89.5 -29.5t37.5 -79.5q0 -54 -37 -85t-90 -31
q-58 0 -96.5 30.5t-38.5 85.5z" />
    <glyph glyph-name="Igrave" unicode="&#xcc;" horiz-adv-x="698" 
d="M242 0v1434h213v-1434h-213zM428 1501l-438 170l73 170l420 -219z" />
    <glyph glyph-name="Iacute" unicode="&#xcd;" horiz-adv-x="698" 
d="M242 0v1434h213v-1434h-213zM711 1671l-437 -170l-57 121l418 219z" />
    <glyph glyph-name="Icircumflex" unicode="&#xce;" horiz-adv-x="698" 
d="M242 0v1434h213v-1434h-213zM-12 1608l354 221h8l363 -219l-82 -115l-285 152l-287 -152z" />
    <glyph glyph-name="Idieresis" unicode="&#xcf;" horiz-adv-x="698" 
d="M242 0v1434h213v-1434h-213zM-20 1677q0 50 39 79.5t96 29.5q50 0 88.5 -30t38.5 -79q0 -54 -38 -85t-89 -31q-58 0 -96.5 30.5t-38.5 85.5zM455 1677q0 50 39 79.5t96 29.5q52 0 89.5 -29.5t37.5 -79.5q0 -54 -37 -85t-90 -31q-58 0 -96.5 30.5t-38.5 85.5z" />
    <glyph glyph-name="Eth" unicode="&#xd0;" horiz-adv-x="1540" 
d="M20 627v188h209v619h27q42 0 182 3t199 3q167 0 303 -37.5t228.5 -102.5t155 -155.5t90.5 -193t28 -218.5q0 -123 -32.5 -232.5t-99.5 -202t-163 -160t-231 -105t-295 -37.5q-42 0 -170 2t-195 2h-27v627h-209zM633 1241q-59 0 -191 -8v-418h373v-188h-373v-426
q82 -4 185 -4q279 0 434.5 146t155.5 390q0 230 -153 369t-431 139z" />
    <glyph glyph-name="Ntilde" unicode="&#xd1;" horiz-adv-x="1626" 
d="M1417 0h-168l-843 1061v-1061h-199v1434h170l842 -1065v1065h198v-1434zM526 1550l-63 125q42 49 101.5 77t115.5 28q63 0 154 -38t145 -38q98 0 156 65l53 -127q-83 -114 -221 -114q-52 0 -148.5 39t-156.5 39q-69 0 -136 -56z" />
    <glyph glyph-name="Ograve" unicode="&#xd2;" horiz-adv-x="1671" 
d="M98 717q0 154 55 290t151 234.5t234 155.5t298 57q157 0 293.5 -53.5t234.5 -149t154.5 -233.5t56.5 -301q0 -211 -96.5 -379.5t-265 -263t-377.5 -94.5q-210 0 -377.5 91t-264 260t-96.5 386zM324 717q0 -229 148 -384t364 -155q154 0 272 71.5t180 193.5t62 274
q0 234 -147.5 386t-366.5 152q-221 0 -366.5 -151.5t-145.5 -386.5zM987 1501l-438 170l74 170l419 -219z" />
    <glyph glyph-name="Oacute" unicode="&#xd3;" horiz-adv-x="1671" 
d="M98 717q0 154 55 290t151 234.5t234 155.5t298 57q157 0 293.5 -53.5t234.5 -149t154.5 -233.5t56.5 -301q0 -211 -96.5 -379.5t-265 -263t-377.5 -94.5q-210 0 -377.5 91t-264 260t-96.5 386zM324 717q0 -229 148 -384t364 -155q154 0 272 71.5t180 193.5t62 274
q0 234 -147.5 386t-366.5 152q-221 0 -366.5 -151.5t-145.5 -386.5zM1180 1671l-437 -170l-57 121l418 219z" />
    <glyph glyph-name="Ocircumflex" unicode="&#xd4;" horiz-adv-x="1671" 
d="M98 717q0 154 55 290t151 234.5t234 155.5t298 57q157 0 293.5 -53.5t234.5 -149t154.5 -233.5t56.5 -301q0 -211 -96.5 -379.5t-265 -263t-377.5 -94.5q-210 0 -377.5 91t-264 260t-96.5 386zM324 717q0 -229 148 -384t364 -155q154 0 272 71.5t180 193.5t62 274
q0 234 -147.5 386t-366.5 152q-221 0 -366.5 -151.5t-145.5 -386.5zM479 1608l355 221h8l362 -219l-82 -115l-284 152l-287 -152z" />
    <glyph glyph-name="Otilde" unicode="&#xd5;" horiz-adv-x="1671" 
d="M98 717q0 154 55 290t151 234.5t234 155.5t298 57q157 0 293.5 -53.5t234.5 -149t154.5 -233.5t56.5 -301q0 -211 -96.5 -379.5t-265 -263t-377.5 -94.5q-210 0 -377.5 91t-264 260t-96.5 386zM324 717q0 -229 148 -384t364 -155q154 0 272 71.5t180 193.5t62 274
q0 234 -147.5 386t-366.5 152q-221 0 -366.5 -151.5t-145.5 -386.5zM530 1550l-63 125q42 49 101.5 77t115.5 28q63 0 154 -38t145 -38q98 0 156 65l53 -127q-83 -114 -221 -114q-52 0 -148.5 39t-156.5 39q-69 0 -136 -56z" />
    <glyph glyph-name="Odieresis" unicode="&#xd6;" horiz-adv-x="1671" 
d="M98 717q0 154 55 290t151 234.5t234 155.5t298 57q157 0 293.5 -53.5t234.5 -149t154.5 -233.5t56.5 -301q0 -211 -96.5 -379.5t-265 -263t-377.5 -94.5q-210 0 -377.5 91t-264 260t-96.5 386zM324 717q0 -229 148 -384t364 -155q154 0 272 71.5t180 193.5t62 274
q0 234 -147.5 386t-366.5 152q-221 0 -366.5 -151.5t-145.5 -386.5zM463 1677q0 50 39 79.5t96 29.5q50 0 88.5 -30t38.5 -79q0 -54 -38 -85t-89 -31q-58 0 -96.5 30.5t-38.5 85.5zM938 1677q0 50 39 79.5t96 29.5q52 0 89.5 -29.5t37.5 -79.5q0 -54 -37 -85t-90 -31
q-58 0 -96.5 30.5t-38.5 85.5z" />
    <glyph glyph-name="multiply" unicode="&#xd7;" horiz-adv-x="1216" 
d="M215 1008l125 122l268 -270l269 270l122 -122l-268 -271l273 -270l-123 -125l-273 272l-272 -272l-123 125l270 270z" />
    <glyph glyph-name="Oslash" unicode="&#xd8;" horiz-adv-x="1671" 
d="M98 717q0 154 55 290t151 234.5t234 155.5t298 57q272 0 462 -151l86 86l115 -119l-82 -80q158 -202 158 -473q0 -211 -96.5 -379.5t-265 -263t-377.5 -94.5q-288 0 -486 165l-88 -88l-119 119l93 90q-138 187 -138 451zM1350 717q0 175 -93 315l-749 -733
q133 -121 328 -121q154 0 272 71.5t180 193.5t62 274zM324 717q0 -165 75 -291l746 727q-136 102 -309 102q-221 0 -366.5 -151.5t-145.5 -386.5z" />
    <glyph glyph-name="Ugrave" unicode="&#xd9;" horiz-adv-x="1538" 
d="M1352 1434v-838q0 -128 -30.5 -232t-82.5 -174.5t-124.5 -118.5t-154 -69.5t-172.5 -21.5q-132 0 -241.5 40t-190.5 117t-125.5 198t-44.5 275v824h213v-781q0 -221 99.5 -347t289.5 -126q171 0 261 116.5t90 342.5v795h213zM893 1501l-438 170l73 170l420 -219z" />
    <glyph glyph-name="Uacute" unicode="&#xda;" horiz-adv-x="1538" 
d="M1352 1434v-838q0 -128 -30.5 -232t-82.5 -174.5t-124.5 -118.5t-154 -69.5t-172.5 -21.5q-132 0 -241.5 40t-190.5 117t-125.5 198t-44.5 275v824h213v-781q0 -221 99.5 -347t289.5 -126q171 0 261 116.5t90 342.5v795h213zM1106 1671l-436 -170l-58 121l418 219z" />
    <glyph glyph-name="Ucircumflex" unicode="&#xdb;" horiz-adv-x="1538" 
d="M1352 1434v-838q0 -128 -30.5 -232t-82.5 -174.5t-124.5 -118.5t-154 -69.5t-172.5 -21.5q-132 0 -241.5 40t-190.5 117t-125.5 198t-44.5 275v824h213v-781q0 -221 99.5 -347t289.5 -126q171 0 261 116.5t90 342.5v795h213zM406 1608l354 221h8l362 -219l-81 -115
l-285 152l-287 -152z" />
    <glyph glyph-name="Udieresis" unicode="&#xdc;" horiz-adv-x="1538" 
d="M1352 1434v-838q0 -128 -30.5 -232t-82.5 -174.5t-124.5 -118.5t-154 -69.5t-172.5 -21.5q-132 0 -241.5 40t-190.5 117t-125.5 198t-44.5 275v824h213v-781q0 -221 99.5 -347t289.5 -126q171 0 261 116.5t90 342.5v795h213zM389 1677q0 50 39 79.5t96 29.5
q50 0 88.5 -30t38.5 -79q0 -54 -38 -85t-89 -31q-58 0 -96.5 30.5t-38.5 85.5zM864 1677q0 50 39 79.5t96 29.5q52 0 89.5 -29.5t37.5 -79.5q0 -54 -37 -85t-90 -31q-58 0 -96.5 30.5t-38.5 85.5z" />
    <glyph glyph-name="Yacute" unicode="&#xdd;" horiz-adv-x="1261" 
d="M1247 1434l-512 -828v-606h-213v606l-506 828h242l381 -627l377 627h231zM973 1671l-436 -170l-58 121l418 219z" />
    <glyph glyph-name="Thorn" unicode="&#xde;" horiz-adv-x="1236" 
d="M420 0h-213v1434h213v-213q22 0 91 2t87 2q121 0 216 -25t155.5 -67.5t100 -101.5t55.5 -122t16 -135q0 -92 -33.5 -173.5t-96.5 -146t-163.5 -102t-226.5 -37.5q-125 0 -201 9v-324zM602 1024q-96 0 -182 -4v-496q105 -10 194 -10q138 0 219.5 68t81.5 192
q0 121 -79 185.5t-234 64.5z" />
    <glyph glyph-name="germandbls" unicode="&#xdf;" horiz-adv-x="1122" 
d="M840 322q0 41 -19.5 76.5t-51 62t-69.5 52t-76.5 52.5t-70 56.5t-51 71t-19.5 89.5q0 57 18.5 103.5t45.5 77t53.5 57.5t45 59t18.5 68q0 52 -43 86.5t-105 34.5q-92 0 -134 -61.5t-42 -194.5v-1016h-201v1036q0 422 406 422q142 0 237 -78t95 -192q0 -56 -18.5 -101
t-45.5 -74t-53.5 -55.5t-45 -59.5t-18.5 -73q0 -41 19.5 -75t51 -59.5t69.5 -50t76.5 -53.5t70 -63.5t51 -87t19.5 -117.5q0 -140 -92 -237.5t-230 -97.5q-100 0 -176 35t-121 91l66 152q86 -94 184 -94q65 0 110.5 43t45.5 115z" />
    <glyph glyph-name="agrave" unicode="&#xe0;" horiz-adv-x="946" 
d="M201 705l-54 151q64 38 148.5 62t169.5 24q194 0 278 -95t84 -284v-563h-180v113q-95 -125 -285 -125q-128 0 -206 75t-78 207q0 143 94.5 219t245.5 76q61 0 122 -15t99 -42q2 132 -39 197t-154 65q-75 0 -129 -16t-116 -49zM430 160q128 0 209 102v105q-74 53 -184 53
q-73 0 -122.5 -34t-49.5 -99q0 -58 39.5 -92.5t107.5 -34.5zM512 1073l-254 291l158 119l215 -326z" />
    <glyph glyph-name="aacute" unicode="&#xe1;" horiz-adv-x="946" 
d="M201 705l-54 151q64 38 148.5 62t169.5 24q194 0 278 -95t84 -284v-563h-180v113q-95 -125 -285 -125q-128 0 -206 75t-78 207q0 143 94.5 219t245.5 76q61 0 122 -15t99 -42q2 132 -39 197t-154 65q-75 0 -129 -16t-116 -49zM430 160q128 0 209 102v105q-74 53 -184 53
q-73 0 -122.5 -34t-49.5 -99q0 -58 39.5 -92.5t107.5 -34.5zM702 1368l-253 -295l-119 84l217 330z" />
    <glyph glyph-name="acircumflex" unicode="&#xe2;" horiz-adv-x="946" 
d="M201 705l-54 151q64 38 148.5 62t169.5 24q194 0 278 -95t84 -284v-563h-180v113q-95 -125 -285 -125q-128 0 -206 75t-78 207q0 143 94.5 219t245.5 76q61 0 122 -15t99 -42q2 132 -39 197t-154 65q-75 0 -129 -16t-116 -49zM430 160q128 0 209 102v105q-74 53 -184 53
q-73 0 -122.5 -34t-49.5 -99q0 -58 39.5 -92.5t107.5 -34.5zM477 1446l297 -272l-94 -119l-209 176l-211 -174l-92 119l301 270h8z" />
    <glyph glyph-name="atilde" unicode="&#xe3;" horiz-adv-x="946" 
d="M201 705l-54 151q64 38 148.5 62t169.5 24q194 0 278 -95t84 -284v-563h-180v113q-95 -125 -285 -125q-128 0 -206 75t-78 207q0 143 94.5 219t245.5 76q61 0 122 -15t99 -42q2 132 -39 197t-154 65q-75 0 -129 -16t-116 -49zM430 160q128 0 209 102v105q-74 53 -184 53
q-73 0 -122.5 -34t-49.5 -99q0 -58 39.5 -92.5t107.5 -34.5zM205 1122l-82 90q109 131 237 131q48 0 120 -43t114 -43q40 0 67.5 14t75.5 52l68 -100q-118 -127 -227 -127q-45 0 -118.5 44t-119.5 44q-50 0 -135 -62z" />
    <glyph glyph-name="adieresis" unicode="&#xe4;" horiz-adv-x="946" 
d="M201 705l-54 151q64 38 148.5 62t169.5 24q194 0 278 -95t84 -284v-563h-180v113q-95 -125 -285 -125q-128 0 -206 75t-78 207q0 143 94.5 219t245.5 76q61 0 122 -15t99 -42q2 132 -39 197t-154 65q-75 0 -129 -16t-116 -49zM430 160q128 0 209 102v105q-74 53 -184 53
q-73 0 -122.5 -34t-49.5 -99q0 -58 39.5 -92.5t107.5 -34.5zM160 1237q0 51 33.5 83t80.5 32q42 0 74.5 -32.5t32.5 -82.5q0 -54 -32 -86.5t-75 -32.5q-48 0 -81 32t-33 87zM571 1237q0 51 34 83t81 32q43 0 75 -32t32 -83q0 -55 -31.5 -87t-75.5 -32q-48 0 -81.5 32
t-33.5 87z" />
    <glyph glyph-name="aring" unicode="&#xe5;" horiz-adv-x="946" 
d="M201 705l-54 151q64 38 148.5 62t169.5 24q194 0 278 -95t84 -284v-563h-180v113q-95 -125 -285 -125q-128 0 -206 75t-78 207q0 143 94.5 219t245.5 76q61 0 122 -15t99 -42q2 132 -39 197t-154 65q-75 0 -129 -16t-116 -49zM430 160q128 0 209 102v105q-74 53 -184 53
q-73 0 -122.5 -34t-49.5 -99q0 -58 39.5 -92.5t107.5 -34.5zM233 1253q0 99 70.5 168.5t175.5 69.5q106 0 178 -69.5t72 -168.5q0 -96 -72 -164.5t-178 -68.5q-105 0 -175.5 68.5t-70.5 164.5zM362 1257q0 -53 34.5 -90t86.5 -37q50 0 83.5 37t33.5 90q0 52 -33.5 87.5
t-83.5 35.5q-52 0 -86.5 -35.5t-34.5 -87.5z" />
    <glyph glyph-name="ae" unicode="&#xe6;" horiz-adv-x="1570" 
d="M465 942q204 0 287 -106q128 106 319 106q183 0 307.5 -118t124.5 -306q0 -72 -12 -119h-664v-108q34 -64 106 -100.5t169 -36.5q82 0 154 25.5t118 64.5l60 -148q-68 -58 -160 -87t-189 -29q-226 0 -360 131q-151 -127 -326 -127q-154 0 -237.5 76.5t-83.5 215.5
q0 134 94.5 211.5t245.5 77.5q53 0 119 -11.5t98 -25.5q15 240 -182 240q-55 0 -103.5 -10.5t-76.5 -22t-72 -33.5l-54 154q64 38 148.5 62t169.5 24zM827 563v-18h473q-5 102 -68 162.5t-175 60.5q-73 0 -135.5 -33t-98.5 -96q0 -12 2 -37t2 -39zM430 164q69 0 115.5 25.5
t87.5 68.5l2 133q-92 29 -180 29q-72 0 -122 -35t-50 -98q0 -56 40 -89.5t107 -33.5z" />
    <glyph glyph-name="ccedilla" unicode="&#xe7;" horiz-adv-x="999" 
d="M305 -344l60 94q66 -49 143 -49q44 0 71 15.5t27 45.5q0 70 -102 70h-12v152q-189 25 -300.5 152.5t-111.5 324.5q0 203 134 342t339 139q242 0 365 -123l-93 -155q-97 92 -247 92q-115 0 -200 -83t-85 -212q0 -133 87 -215t212 -82q147 0 252 117l94 -146
q-56 -72 -146.5 -112t-195.5 -43v-60q104 -6 157.5 -49.5t53.5 -120.5t-70.5 -124.5t-199.5 -47.5q-55 0 -103 13.5t-73.5 28t-55.5 36.5z" />
    <glyph glyph-name="egrave" unicode="&#xe8;" horiz-adv-x="1060" 
d="M864 244l60 -148q-67 -58 -159 -87t-192 -29q-223 0 -358 131.5t-135 349.5q0 207 130 344t351 137q183 0 307.5 -118t124.5 -306q0 -72 -12 -119h-686q12 -116 93 -180.5t206 -64.5q82 0 153 25.5t117 64.5zM553 768q-113 0 -181.5 -60.5t-86.5 -162.5h506
q-3 100 -66.5 161.5t-171.5 61.5zM588 1073l-254 291l158 119l215 -326z" />
    <glyph glyph-name="eacute" unicode="&#xe9;" horiz-adv-x="1060" 
d="M864 244l60 -148q-67 -58 -159 -87t-192 -29q-223 0 -358 131.5t-135 349.5q0 207 130 344t351 137q183 0 307.5 -118t124.5 -306q0 -72 -12 -119h-686q12 -116 93 -180.5t206 -64.5q82 0 153 25.5t117 64.5zM553 768q-113 0 -181.5 -60.5t-86.5 -162.5h506
q-3 100 -66.5 161.5t-171.5 61.5zM811 1368l-254 -295l-119 84l217 330z" />
    <glyph glyph-name="ecircumflex" unicode="&#xea;" horiz-adv-x="1060" 
d="M864 244l60 -148q-67 -58 -159 -87t-192 -29q-223 0 -358 131.5t-135 349.5q0 207 130 344t351 137q183 0 307.5 -118t124.5 -306q0 -72 -12 -119h-686q12 -116 93 -180.5t206 -64.5q82 0 153 25.5t117 64.5zM553 768q-113 0 -181.5 -60.5t-86.5 -162.5h506
q-3 100 -66.5 161.5t-171.5 61.5zM555 1446l297 -272l-94 -119l-209 176l-211 -174l-92 119l301 270h8z" />
    <glyph glyph-name="edieresis" unicode="&#xeb;" horiz-adv-x="1060" 
d="M864 244l60 -148q-67 -58 -159 -87t-192 -29q-223 0 -358 131.5t-135 349.5q0 207 130 344t351 137q183 0 307.5 -118t124.5 -306q0 -72 -12 -119h-686q12 -116 93 -180.5t206 -64.5q82 0 153 25.5t117 64.5zM553 768q-113 0 -181.5 -60.5t-86.5 -162.5h506
q-3 100 -66.5 161.5t-171.5 61.5zM231 1237q0 51 34 83t81 32q42 0 74.5 -32.5t32.5 -82.5q0 -54 -32 -86.5t-75 -32.5q-48 0 -81.5 32t-33.5 87zM643 1237q0 51 34 83t81 32q43 0 74.5 -32t31.5 -83q0 -55 -31 -87t-75 -32q-48 0 -81.5 32t-33.5 87z" />
    <glyph glyph-name="igrave" unicode="&#xec;" horiz-adv-x="557" 
d="M180 0v922h199v-922h-199zM256 1073l-254 291l158 119l215 -326z" />
    <glyph glyph-name="iacute" unicode="&#xed;" horiz-adv-x="557" 
d="M180 0v922h199v-922h-199zM516 1368l-254 -295l-119 84l217 330z" />
    <glyph glyph-name="icircumflex" unicode="&#xee;" horiz-adv-x="557" 
d="M180 0v922h199v-922h-199zM285 1446l297 -272l-95 -119l-208 176l-211 -174l-93 119l301 270h9z" />
    <glyph glyph-name="idieresis" unicode="&#xef;" horiz-adv-x="557" 
d="M180 0v922h199v-922h-199zM-37 1237q0 51 34 83t81 32q42 0 74 -32.5t32 -82.5q0 -54 -32 -86.5t-74 -32.5q-48 0 -81.5 32t-33.5 87zM375 1237q0 51 33.5 83t80.5 32q43 0 75 -32t32 -83q0 -55 -31.5 -87t-75.5 -32q-48 0 -81 32t-33 87z" />
    <glyph glyph-name="eth" unicode="&#xf0;" horiz-adv-x="1155" 
d="M393 1028l-57 178l184 72q-92 80 -196 143l225 33q84 -46 153 -106l216 84l55 -179l-133 -51q112 -145 172.5 -321t60.5 -344q0 -260 -134.5 -408.5t-360.5 -148.5q-223 0 -360.5 135.5t-137.5 345.5t137.5 345.5t360.5 135.5q74 0 136.5 -34.5t96.5 -92.5
q-40 163 -156 315zM293 461q0 -130 80.5 -213.5t204.5 -83.5q133 0 212 103.5t70 279.5q-21 89 -97 149t-185 60q-122 0 -203.5 -82t-81.5 -213z" />
    <glyph glyph-name="ntilde" unicode="&#xf1;" horiz-adv-x="1122" 
d="M139 0v922h201v-103q45 52 121.5 85.5t161.5 33.5q381 0 381 -401v-537h-201v500q0 250 -234 250q-133 0 -229 -103v-647h-201zM297 1122l-82 90q109 131 238 131q48 0 119.5 -43t113.5 -43q40 0 67.5 14t75.5 52l68 -100q-118 -127 -227 -127q-45 0 -118.5 44t-119.5 44
q-50 0 -135 -62z" />
    <glyph glyph-name="ograve" unicode="&#xf2;" horiz-adv-x="1155" 
d="M80 461q0 210 137.5 345.5t360.5 135.5q222 0 358.5 -135.5t136.5 -345.5t-136.5 -345.5t-358.5 -135.5q-223 0 -360.5 135.5t-137.5 345.5zM293 461q0 -130 80.5 -213.5t204.5 -83.5t203 82t79 215q0 130 -79.5 212.5t-202.5 82.5q-122 0 -203.5 -82t-81.5 -213z
M588 1073l-254 291l158 119l215 -326z" />
    <glyph glyph-name="oacute" unicode="&#xf3;" horiz-adv-x="1155" 
d="M80 461q0 210 137.5 345.5t360.5 135.5q222 0 358.5 -135.5t136.5 -345.5t-136.5 -345.5t-358.5 -135.5q-223 0 -360.5 135.5t-137.5 345.5zM293 461q0 -130 80.5 -213.5t204.5 -83.5t203 82t79 215q0 130 -79.5 212.5t-202.5 82.5q-122 0 -203.5 -82t-81.5 -213z
M819 1368l-254 -295l-119 84l218 330z" />
    <glyph glyph-name="ocircumflex" unicode="&#xf4;" horiz-adv-x="1155" 
d="M80 461q0 210 137.5 345.5t360.5 135.5q222 0 358.5 -135.5t136.5 -345.5t-136.5 -345.5t-358.5 -135.5q-223 0 -360.5 135.5t-137.5 345.5zM293 461q0 -130 80.5 -213.5t204.5 -83.5t203 82t79 215q0 130 -79.5 212.5t-202.5 82.5q-122 0 -203.5 -82t-81.5 -213z
M584 1446l297 -272l-95 -119l-208 176l-211 -174l-93 119l301 270h9z" />
    <glyph glyph-name="otilde" unicode="&#xf5;" horiz-adv-x="1155" 
d="M80 461q0 210 137.5 345.5t360.5 135.5q222 0 358.5 -135.5t136.5 -345.5t-136.5 -345.5t-358.5 -135.5q-223 0 -360.5 135.5t-137.5 345.5zM293 461q0 -130 80.5 -213.5t204.5 -83.5t203 82t79 215q0 130 -79.5 212.5t-202.5 82.5q-122 0 -203.5 -82t-81.5 -213z
M313 1122l-82 90q109 131 238 131q48 0 119.5 -43t113.5 -43q40 0 68 14t76 52l67 -100q-118 -127 -227 -127q-45 0 -118 44t-119 44q-51 0 -136 -62z" />
    <glyph glyph-name="odieresis" unicode="&#xf6;" horiz-adv-x="1155" 
d="M80 461q0 210 137.5 345.5t360.5 135.5q222 0 358.5 -135.5t136.5 -345.5t-136.5 -345.5t-358.5 -135.5q-223 0 -360.5 135.5t-137.5 345.5zM293 461q0 -130 80.5 -213.5t204.5 -83.5t203 82t79 215q0 130 -79.5 212.5t-202.5 82.5q-122 0 -203.5 -82t-81.5 -213z
M270 1237q0 51 34 83t81 32q42 0 74.5 -32.5t32.5 -82.5q0 -54 -32 -86.5t-75 -32.5q-48 0 -81.5 32t-33.5 87zM682 1237q0 51 34 83t81 32q43 0 74.5 -32t31.5 -83q0 -55 -31 -87t-75 -32q-48 0 -81.5 32t-33.5 87z" />
    <glyph glyph-name="divide" unicode="&#xf7;" horiz-adv-x="1216" 
d="M487 1147q0 46 33 81.5t88 35.5q53 0 86 -35.5t33 -81.5q0 -49 -33 -86t-86 -37q-56 0 -88.5 37t-32.5 86zM487 328q0 45 33 80.5t88 35.5q51 0 85 -36t34 -80q0 -50 -33 -86.5t-86 -36.5q-56 0 -88.5 36.5t-32.5 86.5zM139 651v172h938v-172h-938z" />
    <glyph glyph-name="oslash" unicode="&#xf8;" horiz-adv-x="1169" 
d="M180 -14l-88 102l84 78q-96 126 -96 295q0 209 141 345t365 136q182 0 317 -98l88 82l86 -99l-82 -77q95 -126 95 -289q0 -209 -140.5 -345t-363.5 -136q-181 0 -314 90zM328 307l426 398q-70 51 -168 51q-128 0 -210.5 -81.5t-82.5 -213.5q0 -86 35 -154zM586 164
q129 0 210 82t81 215q0 77 -33 145l-422 -397q70 -45 164 -45z" />
    <glyph glyph-name="ugrave" unicode="&#xf9;" horiz-adv-x="1101" 
d="M961 922v-922h-199v123q-51 -62 -131 -102.5t-180 -40.5q-152 0 -242 96.5t-90 288.5v557h200v-512q0 -246 205 -246q68 0 131 34.5t107 92.5v631h199zM553 1073l-254 291l158 119l215 -326z" />
    <glyph glyph-name="uacute" unicode="&#xfa;" horiz-adv-x="1101" 
d="M961 922v-922h-199v123q-51 -62 -131 -102.5t-180 -40.5q-152 0 -242 96.5t-90 288.5v557h200v-512q0 -246 205 -246q68 0 131 34.5t107 92.5v631h199zM799 1368l-254 -295l-119 84l217 330z" />
    <glyph glyph-name="ucircumflex" unicode="&#xfb;" horiz-adv-x="1101" 
d="M961 922v-922h-199v123q-51 -62 -131 -102.5t-180 -40.5q-152 0 -242 96.5t-90 288.5v557h200v-512q0 -246 205 -246q68 0 131 34.5t107 92.5v631h199zM551 1446l297 -272l-94 -119l-209 176l-211 -174l-92 119l301 270h8z" />
    <glyph glyph-name="udieresis" unicode="&#xfc;" horiz-adv-x="1101" 
d="M961 922v-922h-199v123q-51 -62 -131 -102.5t-180 -40.5q-152 0 -242 96.5t-90 288.5v557h200v-512q0 -246 205 -246q68 0 131 34.5t107 92.5v631h199zM229 1237q0 51 34 83t81 32q42 0 74.5 -32.5t32.5 -82.5q0 -54 -32 -86.5t-75 -32.5q-48 0 -81.5 32t-33.5 87z
M641 1237q0 51 34 83t81 32q43 0 74.5 -32t31.5 -83q0 -55 -31 -87t-75 -32q-48 0 -81.5 32t-33.5 87z" />
    <glyph glyph-name="yacute" unicode="&#xfd;" horiz-adv-x="1017" 
d="M1004 922l-367 -922q-67 -164 -123.5 -253.5t-108.5 -123t-122 -33.5q-96 0 -187 66l64 151q58 -32 100 -32q51 0 91.5 42t78.5 134l21 49l-435 922h238l244 -545q27 -67 51 -135q12 62 37 137l188 543h230zM745 1368l-253 -295l-119 84l217 330z" />
    <glyph glyph-name="thorn" unicode="&#xfe;" horiz-adv-x="1140" 
d="M139 -410v1844h201v-598q52 48 129.5 77t169.5 29q191 0 306.5 -130.5t115.5 -336.5q0 -214 -134 -354.5t-349 -140.5q-156 0 -238 53v-443h-201zM578 756q-68 0 -131 -31t-107 -82v-416q97 -63 219 -63q132 0 210.5 86t78.5 219q0 128 -72 207.5t-198 79.5z" />
    <glyph glyph-name="ydieresis" unicode="&#xff;" horiz-adv-x="1017" 
d="M1004 922l-367 -922q-67 -164 -123.5 -253.5t-108.5 -123t-122 -33.5q-96 0 -187 66l64 151q58 -32 100 -32q51 0 91.5 42t78.5 134l21 49l-435 922h238l244 -545q27 -67 51 -135q12 62 37 137l188 543h230zM205 1237q0 51 33.5 83t80.5 32q42 0 74.5 -32.5t32.5 -82.5
q0 -54 -32 -86.5t-75 -32.5q-48 0 -81 32t-33 87zM616 1237q0 51 34 83t81 32q43 0 75 -32t32 -83q0 -55 -31.5 -87t-75.5 -32q-48 0 -81.5 32t-33.5 87z" />
    <glyph glyph-name="Amacron" unicode="&#x100;" horiz-adv-x="1454" 
d="M23 0l612 1440h184l611 -1440h-226l-168 401h-633l-165 -401h-215zM721 1161l-234 -561h467zM412 1567v162h626v-162h-626z" />
    <glyph glyph-name="amacron" unicode="&#x101;" horiz-adv-x="946" 
d="M201 705l-54 151q64 38 148.5 62t169.5 24q194 0 278 -95t84 -284v-563h-180v113q-95 -125 -285 -125q-128 0 -206 75t-78 207q0 143 94.5 219t245.5 76q61 0 122 -15t99 -42q2 132 -39 197t-154 65q-75 0 -129 -16t-116 -49zM430 160q128 0 209 102v105q-74 53 -184 53
q-73 0 -122.5 -34t-49.5 -99q0 -58 39.5 -92.5t107.5 -34.5zM201 1157v162h557v-162h-557z" />
    <glyph glyph-name="Abreve" unicode="&#x102;" horiz-adv-x="1454" 
d="M23 0l612 1440h184l611 -1440h-226l-168 401h-633l-165 -401h-215zM721 1161l-234 -561h467zM354 1720l88 103q116 -131 293 -131q94 0 167 37.5t120 93.5l76 -105q-54 -84 -151 -142t-212 -58q-127 0 -230 62t-151 140z" />
    <glyph glyph-name="abreve" unicode="&#x103;" horiz-adv-x="946" 
d="M201 705l-54 151q64 38 148.5 62t169.5 24q194 0 278 -95t84 -284v-563h-180v113q-95 -125 -285 -125q-128 0 -206 75t-78 207q0 143 94.5 219t245.5 76q61 0 122 -15t99 -42q2 132 -39 197t-154 65q-75 0 -129 -16t-116 -49zM430 160q128 0 209 102v105q-74 53 -184 53
q-73 0 -122.5 -34t-49.5 -99q0 -58 39.5 -92.5t107.5 -34.5zM152 1294l90 101q21 -24 38 -40t46 -37t66 -32.5t79 -11.5q73 0 133 34.5t101 84.5l69 -99q-26 -37 -50.5 -63t-62 -55.5t-88 -45.5t-110.5 -16q-61 0 -115.5 18.5t-92.5 49t-62 57.5t-41 55z" />
    <glyph glyph-name="Aogonek" unicode="&#x104;" horiz-adv-x="1454" 
d="M1362 -229l59 -123q-25 -24 -80 -41t-112 -17q-51 0 -96 10.5t-83 32t-60.5 59.5t-22.5 89q0 84 64 141.5t169 85.5l-164 393h-633l-165 -401h-215l612 1440h184l611 -1440h-41q-90 -3 -156 -48.5t-66 -105.5q0 -50 33 -73t74 -23q42 0 88 21zM721 1161l-234 -561h467z
" />
    <glyph glyph-name="aogonek" unicode="&#x105;" horiz-adv-x="946" 
d="M788 -229l60 -123q-25 -24 -80.5 -41t-112.5 -17q-51 0 -96 10.5t-83 32t-60.5 59.5t-22.5 89q0 87 70.5 145.5t183.5 87.5v99q-95 -125 -285 -125q-128 0 -206 75t-78 207q0 143 94.5 219t245.5 76q61 0 122 -15t99 -42q2 132 -39 197t-154 65q-75 0 -129 -16t-116 -49
l-54 151q64 38 148.5 62t169.5 24q194 0 278 -95t84 -284v-563q-94 0 -163.5 -46.5t-69.5 -107.5q0 -50 32.5 -73t73.5 -23q42 0 88 21zM430 160q128 0 209 102v105q-74 53 -184 53q-73 0 -122.5 -34t-49.5 -99q0 -58 39.5 -92.5t107.5 -34.5z" />
    <glyph glyph-name="Cacute" unicode="&#x106;" horiz-adv-x="1343" 
d="M1204 299l82 -160q-70 -73 -194.5 -116t-260.5 -43q-215 0 -381.5 90.5t-259 258.5t-92.5 388q0 155 49 289t139 234t228 157t307 57q279 0 436 -141l-96 -158q-148 100 -338 100q-220 0 -359.5 -148t-139.5 -390q0 -240 146 -389.5t380 -149.5q202 0 354 121zM1120 1671
l-436 -170l-57 121l417 219z" />
    <glyph glyph-name="cacute" unicode="&#x107;" horiz-adv-x="999" 
d="M844 281l94 -146q-57 -75 -153.5 -115t-206.5 -40q-224 0 -361 131.5t-137 349.5q0 203 134 342t339 139q242 0 365 -123l-93 -155q-97 92 -247 92q-115 0 -200 -83t-85 -212q0 -133 87 -215t212 -82q147 0 252 117zM793 1368l-254 -295l-119 84l217 330z" />
    <glyph glyph-name="Ccircumflex" unicode="&#x108;" horiz-adv-x="1343" 
d="M1204 299l82 -160q-70 -73 -194.5 -116t-260.5 -43q-215 0 -381.5 90.5t-259 258.5t-92.5 388q0 155 49 289t139 234t228 157t307 57q279 0 436 -141l-96 -158q-148 100 -338 100q-220 0 -359.5 -148t-139.5 -390q0 -240 146 -389.5t380 -149.5q202 0 354 121zM434 1608
l354 221h9l362 -219l-82 -115l-284 152l-287 -152z" />
    <glyph glyph-name="ccircumflex" unicode="&#x109;" horiz-adv-x="999" 
d="M844 281l94 -146q-57 -75 -153.5 -115t-206.5 -40q-224 0 -361 131.5t-137 349.5q0 203 134 342t339 139q242 0 365 -123l-93 -155q-97 92 -247 92q-115 0 -200 -83t-85 -212q0 -133 87 -215t212 -82q147 0 252 117zM571 1446l297 -272l-94 -119l-209 176l-211 -174
l-92 119l301 270h8z" />
    <glyph glyph-name="Cdotaccent" unicode="&#x10a;" horiz-adv-x="1343" 
d="M1204 299l82 -160q-70 -73 -194.5 -116t-260.5 -43q-215 0 -381.5 90.5t-259 258.5t-92.5 388q0 155 49 289t139 234t228 157t307 57q279 0 436 -141l-96 -158q-148 100 -338 100q-220 0 -359.5 -148t-139.5 -390q0 -240 146 -389.5t380 -149.5q202 0 354 121zM643 1688
q0 56 40.5 90t98.5 34q54 0 92.5 -34t38.5 -90q0 -62 -38.5 -97t-92.5 -35q-59 0 -99 35t-40 97z" />
    <glyph glyph-name="cdotaccent" unicode="&#x10b;" horiz-adv-x="999" 
d="M844 281l94 -146q-57 -75 -153.5 -115t-206.5 -40q-224 0 -361 131.5t-137 349.5q0 203 134 342t339 139q242 0 365 -123l-93 -155q-97 92 -247 92q-115 0 -200 -83t-85 -212q0 -133 87 -215t212 -82q147 0 252 117zM438 1262q0 51 36.5 83.5t90.5 32.5q47 0 83 -33
t36 -83q0 -58 -35.5 -92.5t-83.5 -34.5q-55 0 -91 34t-36 93z" />
    <glyph glyph-name="Ccaron" unicode="&#x10c;" horiz-adv-x="1343" 
d="M1204 299l82 -160q-70 -73 -194.5 -116t-260.5 -43q-215 0 -381.5 90.5t-259 258.5t-92.5 388q0 155 49 289t139 234t228 157t307 57q279 0 436 -141l-96 -158q-148 100 -338 100q-220 0 -359.5 -148t-139.5 -390q0 -240 146 -389.5t380 -149.5q202 0 354 121zM797 1507
l-363 222l80 112l287 -164l284 164l74 -112l-354 -222h-8z" />
    <glyph glyph-name="ccaron" unicode="&#x10d;" horiz-adv-x="999" 
d="M844 281l94 -146q-57 -75 -153.5 -115t-206.5 -40q-224 0 -361 131.5t-137 349.5q0 203 134 342t339 139q242 0 365 -123l-93 -155q-97 92 -247 92q-115 0 -200 -83t-85 -212q0 -133 87 -215t212 -82q147 0 252 117zM553 1063l-299 272l94 119l211 -199l211 197l90 -117
l-299 -272h-8z" />
    <glyph glyph-name="Dcaron" unicode="&#x10e;" horiz-adv-x="1515" 
d="M207 0v1434h26q42 0 182.5 3t198.5 3q167 0 303 -37.5t228 -102.5t154 -155.5t90 -193t28 -218.5q0 -123 -32.5 -232.5t-99.5 -202t-163 -160t-230 -105t-294 -37.5q-42 0 -170 2t-195 2h-26zM610 1241q-64 0 -190 -8v-1032q82 -4 184 -4q279 0 433.5 146t154.5 390
q0 230 -152.5 369t-429.5 139zM686 1507l-362 222l79 112l287 -164l285 164l74 -112l-355 -222h-8z" />
    <glyph glyph-name="dcaron" unicode="&#x10f;" horiz-adv-x="1136" 
d="M799 0v106q-115 -122 -279 -122q-201 0 -320.5 128t-119.5 341q0 216 142 352.5t364 136.5q131 0 213 -53v545h198v-1434h-198zM559 170q67 0 130 31t110 78v413q-104 64 -205 64q-126 0 -213.5 -81t-87.5 -216q0 -134 75 -211.5t191 -77.5zM1161 1434h195q14 -28 14 -74
q0 -124 -55 -208.5t-135 -127.5l-90 86q44 41 69 100t25 125q0 51 -23 99z" />
    <glyph glyph-name="Dcroat" unicode="&#x110;" horiz-adv-x="1540" 
d="M20 627v188h209v619h27q42 0 182 3t199 3q167 0 303 -37.5t228.5 -102.5t155 -155.5t90.5 -193t28 -218.5q0 -123 -32.5 -232.5t-99.5 -202t-163 -160t-231 -105t-295 -37.5q-42 0 -170 2t-195 2h-27v627h-209zM633 1241q-59 0 -191 -8v-418h373v-188h-373v-426
q82 -4 185 -4q279 0 434.5 146t155.5 390q0 230 -153 369t-431 139z" />
    <glyph glyph-name="dcroat" unicode="&#x111;" horiz-adv-x="1136" 
d="M504 1079v162h295v193h198v-193h174v-162h-174v-1079h-198v106q-115 -122 -279 -122q-201 0 -320.5 128t-119.5 341q0 216 142 352.5t364 136.5q131 0 213 -53v190h-295zM559 170q67 0 130 31t110 78v413q-104 64 -205 64q-126 0 -213.5 -81t-87.5 -216q0 -134 75 -211.5
t191 -77.5z" />
    <glyph glyph-name="Emacron" unicode="&#x112;" horiz-adv-x="1177" 
d="M207 0v1434h819v-201h-606v-410h545v-198h-545v-424h627v-201h-840zM303 1567v162h627v-162h-627z" />
    <glyph glyph-name="emacron" unicode="&#x113;" horiz-adv-x="1060" 
d="M864 244l60 -148q-67 -58 -159 -87t-192 -29q-223 0 -358 131.5t-135 349.5q0 207 130 344t351 137q183 0 307.5 -118t124.5 -306q0 -72 -12 -119h-686q12 -116 93 -180.5t206 -64.5q82 0 153 25.5t117 64.5zM553 768q-113 0 -181.5 -60.5t-86.5 -162.5h506
q-3 100 -66.5 161.5t-171.5 61.5zM262 1157v162h557v-162h-557z" />
    <glyph glyph-name="Edotaccent" unicode="&#x116;" horiz-adv-x="1177" 
d="M207 0v1434h819v-201h-606v-410h545v-198h-545v-424h627v-201h-840zM487 1688q0 56 41 90t99 34q54 0 92.5 -34t38.5 -90q0 -62 -38.5 -97t-92.5 -35q-59 0 -99.5 35t-40.5 97z" />
    <glyph glyph-name="edotaccent" unicode="&#x117;" horiz-adv-x="1060" 
d="M864 244l60 -148q-67 -58 -159 -87t-192 -29q-223 0 -358 131.5t-135 349.5q0 207 130 344t351 137q183 0 307.5 -118t124.5 -306q0 -72 -12 -119h-686q12 -116 93 -180.5t206 -64.5q82 0 153 25.5t117 64.5zM553 768q-113 0 -181.5 -60.5t-86.5 -162.5h506
q-3 100 -66.5 161.5t-171.5 61.5zM422 1262q0 51 36.5 83.5t90.5 32.5q47 0 83 -33t36 -83q0 -58 -35.5 -92.5t-83.5 -34.5q-55 0 -91 34t-36 93z" />
    <glyph glyph-name="Eogonek" unicode="&#x118;" horiz-adv-x="1177" 
d="M207 0v1434h819v-201h-606v-410h545v-198h-545v-424h627v-201h-11q-91 -3 -157 -48.5t-66 -105.5q0 -50 33.5 -73t75.5 -23q43 0 86 21l61 -123q-27 -24 -81 -41t-111 -17q-70 0 -127 17.5t-96.5 62t-39.5 111.5q0 78 54.5 133t146.5 86h-608z" />
    <glyph glyph-name="eogonek" unicode="&#x119;" horiz-adv-x="1060" 
d="M864 244l60 -148q-57 -51 -136 -80q-137 -86 -137 -170q0 -50 34.5 -73t76.5 -23q43 0 86 21l61 -123q-27 -24 -81 -41t-111 -17q-70 0 -127 17.5t-97 62t-40 111.5q0 111 149 199h-29q-223 0 -358 131.5t-135 349.5q0 207 130 344t351 137q183 0 307.5 -118t124.5 -306
q0 -72 -12 -119h-686q12 -116 93 -180.5t206 -64.5q82 0 153 25.5t117 64.5zM553 768q-113 0 -181.5 -60.5t-86.5 -162.5h506q-3 100 -66.5 161.5t-171.5 61.5z" />
    <glyph glyph-name="Ecaron" unicode="&#x11a;" horiz-adv-x="1177" 
d="M207 0v1434h819v-201h-606v-410h545v-198h-545v-424h627v-201h-840zM633 1507l-363 222l80 112l287 -164l285 164l73 -112l-354 -222h-8z" />
    <glyph glyph-name="ecaron" unicode="&#x11b;" horiz-adv-x="1060" 
d="M864 244l60 -148q-67 -58 -159 -87t-192 -29q-223 0 -358 131.5t-135 349.5q0 207 130 344t351 137q183 0 307.5 -118t124.5 -306q0 -72 -12 -119h-686q12 -116 93 -180.5t206 -64.5q82 0 153 25.5t117 64.5zM553 768q-113 0 -181.5 -60.5t-86.5 -162.5h506
q-3 100 -66.5 161.5t-171.5 61.5zM555 1063l-299 272l94 119l211 -199l211 197l90 -117l-299 -272h-8z" />
    <glyph glyph-name="Gcircumflex" unicode="&#x11c;" horiz-adv-x="1488" 
d="M805 551v199h567v-572q-91 -91 -243.5 -144.5t-292.5 -53.5q-342 0 -540 200t-198 537q0 154 50.5 289t141 234t224.5 156.5t293 57.5q279 0 455 -141l-91 -170q-58 53 -149 82.5t-191 29.5q-226 0 -366.5 -146t-140.5 -392q0 -245 141.5 -392t374.5 -147q90 0 185 33
t146 80v260h-366zM434 1608l354 221h9l362 -219l-82 -115l-284 152l-287 -152z" />
    <glyph glyph-name="gcircumflex" unicode="&#x11d;" horiz-adv-x="1015" 
d="M16 -129q0 103 78 177.5t217 103.5q-18 37 -18 71q0 39 20 72q-102 40 -156.5 123.5t-54.5 183.5q0 143 106 241.5t279 98.5q137 0 234 -65l274 63l9 -162l-164 -37q32 -69 32 -139q0 -141 -107 -238.5t-278 -97.5h-38q-7 -28 -7 -43q0 -23 13 -55q6 0 17 1t17 1
q211 0 342.5 -76.5t131.5 -222.5q0 -98 -63.5 -166.5t-168 -99.5t-242.5 -31q-213 0 -343 74.5t-130 222.5zM201 -129q0 -65 77.5 -101t210.5 -36q132 0 209.5 36t77.5 101q0 64 -76 100.5t-211 36.5q-136 0 -212 -37t-76 -100zM291 602q0 -78 53.5 -127t142.5 -49
q87 0 142 48.5t55 127.5q0 76 -53.5 128t-143.5 52q-88 0 -142 -52t-54 -128zM502 1446l297 -272l-94 -119l-209 176l-211 -174l-92 119l301 270h8z" />
    <glyph glyph-name="Gbreve" unicode="&#x11e;" horiz-adv-x="1488" 
d="M805 551v199h567v-572q-91 -91 -243.5 -144.5t-292.5 -53.5q-342 0 -540 200t-198 537q0 154 50.5 289t141 234t224.5 156.5t293 57.5q279 0 455 -141l-91 -170q-58 53 -149 82.5t-191 29.5q-226 0 -366.5 -146t-140.5 -392q0 -245 141.5 -392t374.5 -147q90 0 185 33
t146 80v260h-366zM451 1720l88 103q116 -131 292 -131q94 0 167 37.5t120 93.5l76 -105q-54 -84 -151 -142t-212 -58q-127 0 -229.5 62t-150.5 140z" />
    <glyph glyph-name="gbreve" unicode="&#x11f;" horiz-adv-x="1015" 
d="M16 -129q0 103 78 177.5t217 103.5q-18 37 -18 71q0 39 20 72q-102 40 -156.5 123.5t-54.5 183.5q0 143 106 241.5t279 98.5q137 0 234 -65l274 63l9 -162l-164 -37q32 -69 32 -139q0 -141 -107 -238.5t-278 -97.5h-38q-7 -28 -7 -43q0 -23 13 -55q6 0 17 1t17 1
q211 0 342.5 -76.5t131.5 -222.5q0 -98 -63.5 -166.5t-168 -99.5t-242.5 -31q-213 0 -343 74.5t-130 222.5zM201 -129q0 -65 77.5 -101t210.5 -36q132 0 209.5 36t77.5 101q0 64 -76 100.5t-211 36.5q-136 0 -212 -37t-76 -100zM291 602q0 -78 53.5 -127t142.5 -49
q87 0 142 48.5t55 127.5q0 76 -53.5 128t-143.5 52q-88 0 -142 -52t-54 -128zM178 1294l90 101q28 -32 52 -54t73.5 -44.5t104.5 -22.5q135 0 233 119l70 -99q-26 -36 -50.5 -63t-62.5 -56t-88.5 -45t-110.5 -16q-61 0 -115.5 18.5t-92.5 49t-62 57.5t-41 55z" />
    <glyph glyph-name="Gdotaccent" unicode="&#x120;" horiz-adv-x="1488" 
d="M805 551v199h567v-572q-91 -91 -243.5 -144.5t-292.5 -53.5q-342 0 -540 200t-198 537q0 154 50.5 289t141 234t224.5 156.5t293 57.5q279 0 455 -141l-91 -170q-58 53 -149 82.5t-191 29.5q-226 0 -366.5 -146t-140.5 -392q0 -245 141.5 -392t374.5 -147q90 0 185 33
t146 80v260h-366zM639 1688q0 56 40.5 90t98.5 34q54 0 92.5 -34t38.5 -90q0 -62 -38.5 -97t-92.5 -35q-59 0 -99 35t-40 97z" />
    <glyph glyph-name="gdotaccent" unicode="&#x121;" horiz-adv-x="1015" 
d="M16 -129q0 103 78 177.5t217 103.5q-18 37 -18 71q0 39 20 72q-102 40 -156.5 123.5t-54.5 183.5q0 143 106 241.5t279 98.5q137 0 234 -65l274 63l9 -162l-164 -37q32 -69 32 -139q0 -141 -107 -238.5t-278 -97.5h-38q-7 -28 -7 -43q0 -23 13 -55q6 0 17 1t17 1
q211 0 342.5 -76.5t131.5 -222.5q0 -98 -63.5 -166.5t-168 -99.5t-242.5 -31q-213 0 -343 74.5t-130 222.5zM201 -129q0 -65 77.5 -101t210.5 -36q132 0 209.5 36t77.5 101q0 64 -76 100.5t-211 36.5q-136 0 -212 -37t-76 -100zM291 602q0 -78 53.5 -127t142.5 -49
q87 0 142 48.5t55 127.5q0 76 -53.5 128t-143.5 52q-88 0 -142 -52t-54 -128zM367 1262q0 51 36.5 83.5t90.5 32.5q46 0 82 -33t36 -83q0 -58 -35.5 -92.5t-82.5 -34.5q-55 0 -91 34t-36 93z" />
    <glyph glyph-name="uni0122" unicode="&#x122;" horiz-adv-x="1488" 
d="M805 551v199h567v-572q-91 -91 -243.5 -144.5t-292.5 -53.5q-342 0 -540 200t-198 537q0 154 50.5 289t141 234t224.5 156.5t293 57.5q279 0 455 -141l-91 -170q-58 53 -149 82.5t-191 29.5q-226 0 -366.5 -146t-140.5 -392q0 -245 141.5 -392t374.5 -147q90 0 185 33
t146 80v260h-366zM707 -127l192 45q20 -7 34.5 -32.5t14.5 -65.5q0 -97 -70 -160t-163 -80l-58 88q50 21 70.5 51t20.5 74q0 60 -41 80z" />
    <glyph glyph-name="uni0123" unicode="&#x123;" horiz-adv-x="1015" 
d="M16 -129q0 103 78 177.5t217 103.5q-18 37 -18 71q0 39 20 72q-102 40 -156.5 123.5t-54.5 183.5q0 143 106 241.5t279 98.5q137 0 234 -65l274 63l9 -162l-164 -37q32 -69 32 -139q0 -141 -107 -238.5t-278 -97.5h-38q-7 -28 -7 -43q0 -23 13 -55q6 0 17 1t17 1
q211 0 342.5 -76.5t131.5 -222.5q0 -98 -63.5 -166.5t-168 -99.5t-242.5 -31q-213 0 -343 74.5t-130 222.5zM201 -129q0 -65 77.5 -101t210.5 -36q132 0 209.5 36t77.5 101q0 64 -76 100.5t-211 36.5q-136 0 -212 -37t-76 -100zM291 602q0 -78 53.5 -127t142.5 -49
q87 0 142 48.5t55 127.5q0 76 -53.5 128t-143.5 52q-88 0 -142 -52t-54 -128zM602 1145l-192 -45q-21 7 -35.5 32.5t-14.5 65.5q0 97 70 160t164 80l57 -88q-50 -21 -70 -51t-20 -74q0 -60 41 -80z" />
    <glyph glyph-name="Hcircumflex" unicode="&#x124;" horiz-adv-x="1560" 
d="M1143 0v631h-723v-631h-213v1434h213v-603h723v603h211v-1434h-211zM422 1608l354 221h8l363 -219l-82 -115l-285 152l-286 -152z" />
    <glyph glyph-name="hcircumflex" unicode="&#x125;" horiz-adv-x="1122" 
d="M139 0v1434h201v-607q48 48 124.5 79.5t158.5 31.5q181 0 281 -99t100 -307v-532h-201v504q0 121 -59.5 183.5t-172.5 62.5q-65 0 -127.5 -27.5t-103.5 -71.5v-651h-201zM-43 1608l354 221h8l363 -219l-82 -115l-285 152l-286 -152z" />
    <glyph glyph-name="Hbar" unicode="&#x126;" horiz-adv-x="1581" 
d="M49 1044v187h168v203h213v-203h721v203h213v-203h168v-187h-168v-1044h-213v631h-721v-631h-213v1044h-168zM430 831h721v213h-721v-213z" />
    <glyph glyph-name="hbar" unicode="&#x127;" horiz-adv-x="1183" 
d="M-25 1049v188h228v197h198v-197h320v-188h-320v-222q53 49 128 80t155 31q182 0 281.5 -99t99.5 -307v-532h-199v504q0 121 -59 183.5t-172 62.5q-65 0 -127.5 -27.5t-106.5 -71.5v-651h-198v1049h-228z" />
    <glyph glyph-name="Imacron" unicode="&#x12a;" horiz-adv-x="698" 
d="M242 0v1434h213v-1434h-213zM41 1567v162h627v-162h-627z" />
    <glyph glyph-name="imacron" unicode="&#x12b;" horiz-adv-x="557" 
d="M180 0v922h199v-922h-199zM0 1157v162h557v-162h-557z" />
    <glyph glyph-name="Iogonek" unicode="&#x12e;" horiz-adv-x="698" 
d="M418 -229l61 -123q-29 -24 -82.5 -41t-111.5 -17q-51 0 -96 10.5t-83 32t-60.5 59.5t-22.5 89q0 80 60 136.5t159 86.5v1430h213v-1434q-94 0 -164 -46.5t-70 -107.5q0 -50 34 -73t75 -23q42 0 88 21z" />
    <glyph glyph-name="iogonek" unicode="&#x12f;" horiz-adv-x="557" 
d="M340 -229l61 -123q-29 -24 -82.5 -41t-111.5 -17q-51 0 -96 10.5t-83 32t-60.5 59.5t-22.5 89q0 84 65 142.5t170 84.5v914h199v-922h-10q-92 -3 -159 -48.5t-67 -105.5q0 -50 34 -73t75 -23q42 0 88 21zM152 1262q0 51 36.5 83.5t90.5 32.5q45 0 80.5 -33t35.5 -83
q0 -58 -35 -92.5t-81 -34.5q-55 0 -91 34t-36 93z" />
    <glyph glyph-name="Idotaccent" unicode="&#x130;" horiz-adv-x="698" 
d="M242 0v1434h213v-1434h-213zM213 1688q0 56 40.5 90t98.5 34q54 0 92.5 -34t38.5 -90q0 -62 -38.5 -97t-92.5 -35q-59 0 -99 35t-40 97z" />
    <glyph glyph-name="dotlessi" unicode="&#x131;" horiz-adv-x="557" 
d="M180 0v922h199v-922h-199z" />
    <glyph glyph-name="Jcircumflex" unicode="&#x134;" horiz-adv-x="782" 
d="M575 1434v-1102q0 -170 -81 -261t-248 -91q-73 0 -136.5 24t-93.5 57l70 162q59 -45 131 -45q78 0 111.5 49.5t33.5 141.5v1065h213zM100 1608l355 221h8l362 -219l-82 -115l-284 152l-287 -152z" />
    <glyph glyph-name="jcircumflex" unicode="&#x135;" horiz-adv-x="563" 
d="M389 922v-990q0 -358 -289 -358q-66 0 -125 17.5t-90 43.5l56 160q58 -35 112 -35q135 0 135 189v973h201zM295 1446l297 -272l-94 -119l-209 176l-211 -174l-92 119l301 270h8z" />
    <glyph glyph-name="uni0136" unicode="&#x136;" horiz-adv-x="1355" 
d="M1290 1434l-614 -672l651 -762h-272l-621 748l600 686h256zM207 0v1434h213v-1434h-213zM553 -127l192 45q21 -7 35.5 -32.5t14.5 -65.5q0 -97 -70 -160t-164 -80l-57 88q50 21 70 51t20 74q0 60 -41 80z" />
    <glyph glyph-name="uni0137" unicode="&#x137;" horiz-adv-x="1028" 
d="M967 922l-369 -426l414 -496h-262l-392 481l355 441h254zM139 0v1434h201v-1434h-201zM373 -127l192 45q20 -7 34.5 -32.5t14.5 -65.5q0 -97 -70 -160t-163 -80l-57 88q50 21 70 51t20 74q0 60 -41 80z" />
    <glyph glyph-name="Lacute" unicode="&#x139;" horiz-adv-x="1122" 
d="M207 0v1434h213v-1233h676v-201h-889zM911 1671l-436 -170l-57 121l418 219z" />
    <glyph glyph-name="lacute" unicode="&#x13a;" horiz-adv-x="602" 
d="M139 250v1184h201v-1098q0 -88 22 -128t72 -40q43 0 107 41l41 -154q-87 -73 -230 -73q-213 0 -213 268zM637 1671l-436 -170l-58 121l418 219z" />
    <glyph glyph-name="uni013B" unicode="&#x13b;" horiz-adv-x="1122" 
d="M207 0v1434h213v-1233h676v-201h-889zM516 -127l193 45q20 -7 34.5 -32.5t14.5 -65.5q0 -97 -70 -160t-164 -80l-57 88q50 21 70 51t20 74q0 60 -41 80z" />
    <glyph glyph-name="uni013C" unicode="&#x13c;" horiz-adv-x="602" 
d="M139 250v1184h201v-1098q0 -88 22 -128t72 -40q43 0 107 41l41 -154q-87 -73 -230 -73q-213 0 -213 268zM233 -127l193 45q20 -7 34.5 -32.5t14.5 -65.5q0 -97 -70 -160t-163 -80l-58 88q50 21 70 51t20 74q0 60 -41 80z" />
    <glyph glyph-name="Lcaron" unicode="&#x13d;" horiz-adv-x="1122" 
d="M207 0v1434h213v-1233h676v-201h-889zM729 1434h195q14 -28 14 -74q0 -124 -55 -208.5t-135 -127.5l-91 86q44 41 69.5 100t25.5 125q0 51 -23 99z" />
    <glyph glyph-name="lcaron" unicode="&#x13e;" horiz-adv-x="602" 
d="M139 250v1184h201v-1098q0 -88 22 -128t72 -40q43 0 107 41l41 -154q-87 -73 -230 -73q-213 0 -213 268zM514 1434h195q14 -28 14 -74q0 -124 -55.5 -208.5t-135.5 -127.5l-90 86q44 41 69.5 100t25.5 125q0 51 -23 99z" />
    <glyph glyph-name="Ldot" unicode="&#x13f;" horiz-adv-x="1122" 
d="M207 0v1434h213v-1233h676v-201h-889zM741 766q0 50 39.5 90.5t100.5 40.5q55 0 92 -40.5t37 -90.5q0 -56 -37 -97.5t-92 -41.5q-62 0 -101 41.5t-39 97.5z" />
    <glyph glyph-name="ldot" unicode="&#x140;" horiz-adv-x="690" 
d="M139 250v1184h201v-1098q0 -88 22 -128t72 -40q43 0 107 41l41 -154q-87 -73 -230 -73q-213 0 -213 268zM465 680q0 52 36.5 84.5t90.5 32.5q46 0 82.5 -33t36.5 -84q0 -58 -35.5 -92.5t-83.5 -34.5q-55 0 -91 34t-36 93z" />
    <glyph glyph-name="Lslash" unicode="&#x141;" horiz-adv-x="1142" 
d="M49 434v205l178 84v711h213v-611l346 164v-203l-346 -166v-417h676v-201h-889v518z" />
    <glyph glyph-name="lslash" unicode="&#x142;" horiz-adv-x="663" 
d="M29 434v205l151 74v721h201v-629l203 96v-205l-203 -96v-264q0 -88 22 -128t72 -40q43 0 107 41l41 -154q-87 -73 -230 -73q-213 0 -213 268v256z" />
    <glyph glyph-name="Nacute" unicode="&#x143;" horiz-adv-x="1626" 
d="M1417 0h-168l-843 1061v-1061h-199v1434h170l842 -1065v1065h198v-1434zM1169 1671l-436 -170l-57 121l418 219z" />
    <glyph glyph-name="nacute" unicode="&#x144;" horiz-adv-x="1122" 
d="M139 0v922h201v-103q45 52 121.5 85.5t161.5 33.5q381 0 381 -401v-537h-201v500q0 250 -234 250q-133 0 -229 -103v-647h-201zM815 1368l-254 -295l-119 84l217 330z" />
    <glyph glyph-name="uni0145" unicode="&#x145;" horiz-adv-x="1626" 
d="M1417 0h-168l-843 1061v-1061h-199v1434h170l842 -1065v1065h198v-1434zM692 -127l193 45q20 -7 34.5 -32.5t14.5 -65.5q0 -97 -70 -160t-164 -80l-57 88q50 21 70 51t20 74q0 60 -41 80z" />
    <glyph glyph-name="uni0146" unicode="&#x146;" horiz-adv-x="1122" 
d="M139 0v922h201v-103q45 52 121.5 85.5t161.5 33.5q381 0 381 -401v-537h-201v500q0 250 -234 250q-133 0 -229 -103v-647h-201zM440 -127l193 45q20 -7 34.5 -32.5t14.5 -65.5q0 -97 -70 -160t-163 -80l-58 88q50 21 70 51t20 74q0 60 -41 80z" />
    <glyph glyph-name="Ncaron" unicode="&#x147;" horiz-adv-x="1626" 
d="M1417 0h-168l-843 1061v-1061h-199v1434h170l842 -1065v1065h198v-1434zM813 1507l-362 222l79 112l287 -164l285 164l74 -112l-355 -222h-8z" />
    <glyph glyph-name="ncaron" unicode="&#x148;" horiz-adv-x="1122" 
d="M139 0v922h201v-103q45 52 121.5 85.5t161.5 33.5q381 0 381 -401v-537h-201v500q0 250 -234 250q-133 0 -229 -103v-647h-201zM553 1063l-299 272l94 119l211 -199l211 197l90 -117l-299 -272h-8z" />
    <glyph glyph-name="Eng" unicode="&#x14a;" horiz-adv-x="1626" 
d="M1417 1434v-1508q0 -352 -319 -352q-72 0 -134 24.5t-92 57.5l70 162q59 -45 129 -45q148 0 148 190v37l-813 1053v-1053h-199v1434h170l842 -1096v1096h198z" />
    <glyph glyph-name="eng" unicode="&#x14b;" horiz-adv-x="1122" 
d="M139 0v922h201v-103q45 52 121.5 85.5t161.5 33.5q381 0 381 -401v-605q0 -358 -289 -358q-66 0 -125 17.5t-90 43.5l55 160q58 -35 113 -35q135 0 135 189v551q0 250 -234 250q-133 0 -229 -103v-647h-201z" />
    <glyph glyph-name="Omacron" unicode="&#x14c;" horiz-adv-x="1671" 
d="M98 717q0 154 55 290t151 234.5t234 155.5t298 57q157 0 293.5 -53.5t234.5 -149t154.5 -233.5t56.5 -301q0 -211 -96.5 -379.5t-265 -263t-377.5 -94.5q-210 0 -377.5 91t-264 260t-96.5 386zM324 717q0 -229 148 -384t364 -155q154 0 272 71.5t180 193.5t62 274
q0 234 -147.5 386t-366.5 152q-221 0 -366.5 -151.5t-145.5 -386.5zM535 1567v162h626v-162h-626z" />
    <glyph glyph-name="omacron" unicode="&#x14d;" horiz-adv-x="1155" 
d="M80 461q0 210 137.5 345.5t360.5 135.5q222 0 358.5 -135.5t136.5 -345.5t-136.5 -345.5t-358.5 -135.5q-223 0 -360.5 135.5t-137.5 345.5zM293 461q0 -130 80.5 -213.5t204.5 -83.5t203 82t79 215q0 130 -79.5 212.5t-202.5 82.5q-122 0 -203.5 -82t-81.5 -213z
M311 1157v162h557v-162h-557z" />
    <glyph glyph-name="Ohungarumlaut" unicode="&#x150;" horiz-adv-x="1671" 
d="M98 717q0 154 55 290t151 234.5t234 155.5t298 57q157 0 293.5 -53.5t234.5 -149t154.5 -233.5t56.5 -301q0 -211 -96.5 -379.5t-265 -263t-377.5 -94.5q-210 0 -377.5 91t-264 260t-96.5 386zM324 717q0 -229 148 -384t364 -155q154 0 272 71.5t180 193.5t62 274
q0 234 -147.5 386t-366.5 152q-221 0 -366.5 -151.5t-145.5 -386.5zM1372 1716l-379 -215l-82 86l324 254zM961 1753l-332 -252l-86 80l248 260z" />
    <glyph glyph-name="ohungarumlaut" unicode="&#x151;" horiz-adv-x="1155" 
d="M80 461q0 210 137.5 345.5t360.5 135.5q222 0 358.5 -135.5t136.5 -345.5t-136.5 -345.5t-358.5 -135.5q-223 0 -360.5 135.5t-137.5 345.5zM293 461q0 -130 80.5 -213.5t204.5 -83.5t203 82t79 215q0 130 -79.5 212.5t-202.5 82.5q-122 0 -203.5 -82t-81.5 -213z
M1008 1360l-263 -287l-120 84l235 313zM651 1382l-233 -309l-119 84l209 332z" />
    <glyph glyph-name="OE" unicode="&#x152;" horiz-adv-x="2129" 
d="M1159 0v49q-138 -69 -328 -69q-215 0 -381.5 90.5t-259 258.5t-92.5 388q0 155 49 289t139 234t228 157t307 57q190 0 338 -74v54h819v-201h-606v-410h545v-198h-545v-424h627v-201h-840zM850 178q170 0 309 88v889q-148 100 -336 100q-220 0 -359.5 -148t-139.5 -390
q0 -240 146 -389.5t380 -149.5z" />
    <glyph glyph-name="oe" unicode="&#x153;" horiz-adv-x="1710" 
d="M1513 244l60 -148q-65 -58 -157 -87t-191 -29q-199 0 -326 100q-127 -100 -321 -100q-223 0 -360.5 135.5t-137.5 345.5t137.5 345.5t360.5 135.5q192 0 319 -102q130 102 315 102q182 0 306 -118t124 -306q0 -72 -12 -119h-686q12 -117 92 -181t205 -64q84 0 156 25.5
t116 64.5zM578 164q118 0 200 72q-49 94 -49 225q0 124 49 225q-88 70 -200 70q-124 0 -205.5 -82t-81.5 -213q0 -130 81 -213.5t206 -83.5zM1200 768q-112 0 -180 -60.5t-86 -162.5h508q-3 100 -68 161.5t-174 61.5z" />
    <glyph glyph-name="Racute" unicode="&#x154;" horiz-adv-x="1331" 
d="M420 0h-213v1434q45 0 220 2t191 2q141 0 243.5 -33.5t160.5 -94.5t84.5 -136.5t26.5 -169.5q0 -84 -26 -155.5t-69.5 -121t-93.5 -82.5t-104 -49l463 -596h-261l-417 555h-205v-555zM606 1237q-118 0 -186 -4v-479h186q124 0 212.5 67t88.5 180q0 107 -70 171.5
t-231 64.5zM920 1671l-437 -170l-57 121l418 219z" />
    <glyph glyph-name="racute" unicode="&#x155;" horiz-adv-x="710" 
d="M139 0v922h201v-99q39 54 90 84.5t131 30.5q94 0 144 -35l-72 -186q-35 19 -59.5 26t-61.5 7q-117 0 -172 -115v-635h-201zM639 1368l-254 -295l-119 84l217 330z" />
    <glyph glyph-name="uni0156" unicode="&#x156;" horiz-adv-x="1331" 
d="M420 0h-213v1434q45 0 220 2t191 2q141 0 243.5 -33.5t160.5 -94.5t84.5 -136.5t26.5 -169.5q0 -84 -26 -155.5t-69.5 -121t-93.5 -82.5t-104 -49l463 -596h-261l-417 555h-205v-555zM606 1237q-118 0 -186 -4v-479h186q124 0 212.5 67t88.5 180q0 107 -70 171.5
t-231 64.5zM541 -127l192 45q20 -7 34.5 -32.5t14.5 -65.5q0 -97 -70 -160t-163 -80l-57 88q50 21 70 51t20 74q0 60 -41 80z" />
    <glyph glyph-name="uni0157" unicode="&#x157;" horiz-adv-x="710" 
d="M139 0v922h201v-99q39 54 90 84.5t131 30.5q94 0 144 -35l-72 -186q-35 19 -59.5 26t-61.5 7q-117 0 -172 -115v-635h-201zM217 -127l193 45q20 -7 34.5 -32.5t14.5 -65.5q0 -97 -70 -160t-164 -80l-57 88q50 21 70 51t20 74q0 60 -41 80z" />
    <glyph glyph-name="Rcaron" unicode="&#x158;" horiz-adv-x="1331" 
d="M420 0h-213v1434q45 0 220 2t191 2q141 0 243.5 -33.5t160.5 -94.5t84.5 -136.5t26.5 -169.5q0 -84 -26 -155.5t-69.5 -121t-93.5 -82.5t-104 -49l463 -596h-261l-417 555h-205v-555zM606 1237q-118 0 -186 -4v-479h186q124 0 212.5 67t88.5 180q0 107 -70 171.5
t-231 64.5zM606 1507l-362 222l80 112l286 -164l285 164l74 -112l-355 -222h-8z" />
    <glyph glyph-name="rcaron" unicode="&#x159;" horiz-adv-x="710" 
d="M139 0v922h201v-99q39 54 90 84.5t131 30.5q94 0 144 -35l-72 -186q-35 19 -59.5 26t-61.5 7q-117 0 -172 -115v-635h-201zM395 1063l-299 272l94 119l211 -199l211 197l90 -117l-299 -272h-8z" />
    <glyph glyph-name="Sacute" unicode="&#x15a;" horiz-adv-x="1128" 
d="M807 373q0 51 -23 92t-62 70t-90 54.5t-107 49.5t-112 50t-107 61t-90 77.5t-62 104.5t-23 137q0 165 119 275t319 110q128 0 234.5 -40t169.5 -111l-115 -160q-109 112 -272 112q-106 0 -168 -50t-62 -134q0 -66 37.5 -115t97 -81t131.5 -61t144 -64.5t131.5 -80.5
t97 -119.5t37.5 -172.5q0 -177 -136 -287t-339 -110q-143 0 -276 59t-183 160l121 145q60 -79 155 -122.5t187 -43.5q106 0 176 51.5t70 143.5zM928 1671l-436 -170l-58 121l418 219z" />
    <glyph glyph-name="sacute" unicode="&#x15b;" horiz-adv-x="894" 
d="M606 254q0 34 -27.5 58t-71 40t-96.5 31t-106.5 36.5t-97 51.5t-71 81.5t-27.5 119.5q0 126 91 198t234 72q113 0 199.5 -32.5t134.5 -78.5l-84 -147q-44 38 -108.5 64t-131.5 26q-59 0 -95 -29t-36 -69q0 -35 27.5 -60t71.5 -41t97 -31t106 -36t97 -49t71.5 -77.5
t27.5 -115.5q0 -136 -102.5 -211t-262.5 -75q-113 0 -220 47.5t-142 101.5l104 135q40 -45 124 -81t151 -36q61 0 102 28.5t41 78.5zM684 1368l-254 -295l-119 84l217 330z" />
    <glyph glyph-name="Scircumflex" unicode="&#x15c;" horiz-adv-x="1128" 
d="M807 373q0 51 -23 92t-62 70t-90 54.5t-107 49.5t-112 50t-107 61t-90 77.5t-62 104.5t-23 137q0 165 119 275t319 110q128 0 234.5 -40t169.5 -111l-115 -160q-109 112 -272 112q-106 0 -168 -50t-62 -134q0 -66 37.5 -115t97 -81t131.5 -61t144 -64.5t131.5 -80.5
t97 -119.5t37.5 -172.5q0 -177 -136 -287t-339 -110q-143 0 -276 59t-183 160l121 145q60 -79 155 -122.5t187 -43.5q106 0 176 51.5t70 143.5zM201 1608l354 221h8l363 -219l-82 -115l-285 152l-287 -152z" />
    <glyph glyph-name="scircumflex" unicode="&#x15d;" horiz-adv-x="894" 
d="M606 254q0 34 -27.5 58t-71 40t-96.5 31t-106.5 36.5t-97 51.5t-71 81.5t-27.5 119.5q0 126 91 198t234 72q113 0 199.5 -32.5t134.5 -78.5l-84 -147q-44 38 -108.5 64t-131.5 26q-59 0 -95 -29t-36 -69q0 -35 27.5 -60t71.5 -41t97 -31t106 -36t97 -49t71.5 -77.5
t27.5 -115.5q0 -136 -102.5 -211t-262.5 -75q-113 0 -220 47.5t-142 101.5l104 135q40 -45 124 -81t151 -36q61 0 102 28.5t41 78.5zM455 1446l297 -272l-95 -119l-208 176l-211 -174l-93 119l301 270h9z" />
    <glyph glyph-name="Scedilla" unicode="&#x15e;" horiz-adv-x="1128" 
d="M295 -340l65 102q31 -24 73.5 -42.5t78.5 -18.5q42 0 69 16t27 45q0 70 -100 70h-12v150q-131 13 -242.5 70.5t-155.5 146.5l121 145q60 -79 155 -122.5t187 -43.5q106 0 176 51.5t70 143.5q0 51 -23 92t-62 70t-90 54.5t-107 49.5t-112 50t-107 61t-90 77.5t-62 104.5
t-23 137q0 165 119 275t319 110q128 0 234.5 -40t169.5 -111l-115 -160q-109 112 -272 112q-106 0 -168 -50t-62 -134q0 -66 37.5 -115t97 -81t131.5 -61t144 -64.5t131.5 -80.5t97 -119.5t37.5 -172.5q0 -167 -123 -276t-311 -121v-60q221 -11 221 -170q0 -77 -69.5 -124.5
t-192.5 -47.5q-145 0 -262 82z" />
    <glyph glyph-name="scedilla" unicode="&#x15f;" horiz-adv-x="894" 
d="M182 -344l60 94q66 -49 143 -49q44 0 71 15.5t27 45.5q0 70 -102 70h-12v154q-94 13 -175.5 56t-109.5 87l104 135q40 -45 124 -81t151 -36q61 0 102 28.5t41 78.5q0 34 -27.5 58t-71 40t-96.5 31t-106.5 36.5t-97 51.5t-71 81.5t-27.5 119.5q0 126 91 198t234 72
q113 0 199.5 -32.5t134.5 -78.5l-84 -147q-44 38 -108.5 64t-131.5 26q-59 0 -95 -29t-36 -69q0 -35 27.5 -60t71.5 -41t97 -31t106 -36t97 -49t71.5 -77.5t27.5 -115.5q0 -131 -94.5 -205.5t-243.5 -80.5v-60q104 -6 157.5 -49.5t53.5 -120.5t-70.5 -124.5t-199.5 -47.5
q-55 0 -103 13.5t-73.5 28t-55.5 36.5z" />
    <glyph glyph-name="Scaron" unicode="&#x160;" horiz-adv-x="1128" 
d="M807 373q0 51 -23 92t-62 70t-90 54.5t-107 49.5t-112 50t-107 61t-90 77.5t-62 104.5t-23 137q0 165 119 275t319 110q128 0 234.5 -40t169.5 -111l-115 -160q-109 112 -272 112q-106 0 -168 -50t-62 -134q0 -66 37.5 -115t97 -81t131.5 -61t144 -64.5t131.5 -80.5
t97 -119.5t37.5 -172.5q0 -177 -136 -287t-339 -110q-143 0 -276 59t-183 160l121 145q60 -79 155 -122.5t187 -43.5q106 0 176 51.5t70 143.5zM571 1507l-362 222l80 112l286 -164l285 164l74 -112l-354 -222h-9z" />
    <glyph glyph-name="scaron" unicode="&#x161;" horiz-adv-x="894" 
d="M606 254q0 34 -27.5 58t-71 40t-96.5 31t-106.5 36.5t-97 51.5t-71 81.5t-27.5 119.5q0 126 91 198t234 72q113 0 199.5 -32.5t134.5 -78.5l-84 -147q-44 38 -108.5 64t-131.5 26q-59 0 -95 -29t-36 -69q0 -35 27.5 -60t71.5 -41t97 -31t106 -36t97 -49t71.5 -77.5
t27.5 -115.5q0 -136 -102.5 -211t-262.5 -75q-113 0 -220 47.5t-142 101.5l104 135q40 -45 124 -81t151 -36q61 0 102 28.5t41 78.5zM442 1063l-299 272l95 119l211 -199l210 197l91 -117l-299 -272h-9z" />
    <glyph glyph-name="uni0162" unicode="&#x162;" horiz-adv-x="1220" 
d="M360 -340l66 102q31 -24 73.5 -42.5t78.5 -18.5q42 0 69 16t27 45q0 70 -101 70h-12v168h-57v1233h-484v201h1180v-201h-483v-1233h-53v-80q221 -11 221 -170q0 -77 -69.5 -124.5t-192.5 -47.5q-146 0 -263 82z" />
    <glyph glyph-name="uni0163" unicode="&#x163;" horiz-adv-x="729" 
d="M123 -344l61 94q63 -49 144 -49q43 0 70.5 15.5t27.5 45.5q0 70 -115 70v164q-186 52 -186 354v828h199v-256h319v-189h-319v-368q0 -197 139 -197q73 0 143 53l62 -155q-105 -81 -254 -84v-62q104 -6 157.5 -49.5t53.5 -120.5t-71 -124.5t-200 -47.5q-54 0 -102 13.5
t-72.5 27.5t-56.5 37z" />
    <glyph glyph-name="Tcaron" unicode="&#x164;" horiz-adv-x="1220" 
d="M20 1233v201h1180v-201h-483v-1233h-213v1233h-484zM602 1507l-362 222l79 112l287 -164l285 164l74 -112l-355 -222h-8z" />
    <glyph glyph-name="tcaron" unicode="&#x165;" horiz-adv-x="729" 
d="M119 350v828h200v-256h316v-189h-316v-368q0 -197 136 -197q73 0 143 53l61 -155q-42 -36 -108.5 -60t-144.5 -24q-151 0 -219 92.5t-68 275.5zM510 1434h195q14 -28 14 -74q0 -124 -55.5 -208.5t-135.5 -127.5l-90 86q44 41 69 100t25 125q0 53 -22 99z" />
    <glyph glyph-name="Umacron" unicode="&#x16a;" horiz-adv-x="1538" 
d="M1352 1434v-838q0 -128 -30.5 -232t-82.5 -174.5t-124.5 -118.5t-154 -69.5t-172.5 -21.5q-132 0 -241.5 40t-190.5 117t-125.5 198t-44.5 275v824h213v-781q0 -221 99.5 -347t289.5 -126q171 0 261 116.5t90 342.5v795h213zM467 1567v162h627v-162h-627z" />
    <glyph glyph-name="umacron" unicode="&#x16b;" horiz-adv-x="1101" 
d="M961 922v-922h-199v123q-51 -62 -131 -102.5t-180 -40.5q-152 0 -242 96.5t-90 288.5v557h200v-512q0 -246 205 -246q68 0 131 34.5t107 92.5v631h199zM266 1157v162h557v-162h-557z" />
    <glyph glyph-name="Ubreve" unicode="&#x16c;" horiz-adv-x="1538" 
d="M1352 1434v-838q0 -128 -30.5 -232t-82.5 -174.5t-124.5 -118.5t-154 -69.5t-172.5 -21.5q-132 0 -241.5 40t-190.5 117t-125.5 198t-44.5 275v824h213v-781q0 -221 99.5 -347t289.5 -126q171 0 261 116.5t90 342.5v795h213zM391 1720l88 103q116 -131 293 -131
q94 0 167 37.5t120 93.5l76 -105q-54 -84 -151 -142t-212 -58q-127 0 -230 62t-151 140z" />
    <glyph glyph-name="ubreve" unicode="&#x16d;" horiz-adv-x="1101" 
d="M961 922v-922h-199v123q-51 -62 -131 -102.5t-180 -40.5q-152 0 -242 96.5t-90 288.5v557h200v-512q0 -246 205 -246q68 0 131 34.5t107 92.5v631h199zM229 1294l90 101q28 -32 52 -54t73.5 -44.5t104.5 -22.5q135 0 233 119l70 -99q-26 -37 -50.5 -63t-62 -55.5
t-88 -45.5t-110.5 -16q-61 0 -115.5 19t-93 49t-62.5 57t-41 55z" />
    <glyph glyph-name="Uring" unicode="&#x16e;" horiz-adv-x="1538" 
d="M1352 1434v-838q0 -128 -30.5 -232t-82.5 -174.5t-124.5 -118.5t-154 -69.5t-172.5 -21.5q-132 0 -241.5 40t-190.5 117t-125.5 198t-44.5 275v824h213v-781q0 -221 99.5 -347t289.5 -126q171 0 261 116.5t90 342.5v795h213zM500 1630q0 104 75 156.5t195 52.5
q121 0 197.5 -52.5t76.5 -156.5q0 -103 -77 -159t-197 -56q-118 0 -194 56t-76 159zM647 1630q0 -51 34 -77.5t89 -26.5t91 27t36 77t-35.5 74.5t-91.5 24.5t-89.5 -24.5t-33.5 -74.5z" />
    <glyph glyph-name="uring" unicode="&#x16f;" horiz-adv-x="1101" 
d="M961 922v-922h-199v123q-51 -62 -131 -102.5t-180 -40.5q-152 0 -242 96.5t-90 288.5v557h200v-512q0 -246 205 -246q68 0 131 34.5t107 92.5v631h199zM295 1253q0 99 70.5 168.5t175.5 69.5q106 0 178 -69.5t72 -168.5q0 -96 -72 -164.5t-178 -68.5q-105 0 -175.5 68.5
t-70.5 164.5zM424 1257q0 -53 34.5 -90t86.5 -37q50 0 83.5 37t33.5 90q0 52 -33.5 87.5t-83.5 35.5q-52 0 -86.5 -35.5t-34.5 -87.5z" />
    <glyph glyph-name="Uhungarumlaut" unicode="&#x170;" horiz-adv-x="1538" 
d="M1352 1434v-838q0 -128 -30.5 -232t-82.5 -174.5t-124.5 -118.5t-154 -69.5t-172.5 -21.5q-132 0 -241.5 40t-190.5 117t-125.5 198t-44.5 275v824h213v-781q0 -221 99.5 -347t289.5 -126q171 0 261 116.5t90 342.5v795h213zM1276 1716l-379 -215l-82 86l324 254z
M864 1753l-332 -252l-86 80l248 260z" />
    <glyph glyph-name="uhungarumlaut" unicode="&#x171;" horiz-adv-x="1101" 
d="M961 922v-922h-199v123q-51 -62 -131 -102.5t-180 -40.5q-152 0 -242 96.5t-90 288.5v557h200v-512q0 -246 205 -246q68 0 131 34.5t107 92.5v631h199zM975 1360l-262 -287l-121 84l235 313zM618 1382l-233 -309l-119 84l209 332z" />
    <glyph glyph-name="Uogonek" unicode="&#x172;" horiz-adv-x="1538" 
d="M1352 1434v-838q0 -252 -109.5 -401t-288.5 -195q-147 -70 -147 -154q0 -50 33 -73t73 -23q42 0 91 21l59 -123q-27 -24 -82 -41t-113 -17q-50 0 -95 10.5t-83.5 32t-61 59.5t-22.5 89q0 120 164 199q-129 3 -235 44t-184.5 118t-121.5 196.5t-43 271.5v824h213v-781
q0 -221 99.5 -347t289.5 -126q171 0 261 116.5t90 342.5v795h213z" />
    <glyph glyph-name="uogonek" unicode="&#x173;" horiz-adv-x="1101" 
d="M922 -229l61 -123q-27 -24 -81 -41t-111 -17q-70 0 -127 17.5t-96.5 62t-39.5 111.5q0 84 65 142.5t169 84.5v115q-51 -62 -131 -102.5t-180 -40.5q-152 0 -242 96.5t-90 288.5v557h200v-512q0 -246 205 -246q68 0 131 34.5t107 92.5v631h199v-922h-11q-91 -3 -157 -48.5
t-66 -105.5q0 -50 33.5 -73t75.5 -23q43 0 86 21z" />
    <glyph glyph-name="Ydieresis" unicode="&#x178;" horiz-adv-x="1261" 
d="M1247 1434l-512 -828v-606h-213v606l-506 828h242l381 -627l377 627h231zM262 1677q0 50 39 79.5t96 29.5q50 0 88.5 -30t38.5 -79q0 -54 -38 -85t-89 -31q-58 0 -96.5 30.5t-38.5 85.5zM737 1677q0 50 39 79.5t96 29.5q52 0 89.5 -29.5t37.5 -79.5q0 -54 -37 -85
t-90 -31q-58 0 -96.5 30.5t-38.5 85.5z" />
    <glyph glyph-name="Zacute" unicode="&#x179;" horiz-adv-x="1306" 
d="M123 1233v201h1081v-146l-835 -1087h856v-201h-1143v143l836 1090h-795zM1004 1671l-437 -170l-57 121l418 219z" />
    <glyph glyph-name="zacute" unicode="&#x17a;" horiz-adv-x="999" 
d="M119 733v189h790v-144l-540 -592h528v-186h-807v143l537 590h-508zM750 1368l-254 -295l-119 84l217 330z" />
    <glyph glyph-name="Zdotaccent" unicode="&#x17b;" horiz-adv-x="1306" 
d="M123 1233v201h1081v-146l-835 -1087h856v-201h-1143v143l836 1090h-795zM520 1688q0 56 40.5 90t98.5 34q54 0 93 -34t39 -90q0 -61 -39 -96.5t-93 -35.5q-59 0 -99 35t-40 97z" />
    <glyph glyph-name="zdotaccent" unicode="&#x17c;" horiz-adv-x="999" 
d="M119 733v189h790v-144l-540 -592h528v-186h-807v143l537 590h-508zM371 1262q0 51 36.5 83.5t90.5 32.5q46 0 82 -33t36 -83q0 -58 -35.5 -92.5t-82.5 -34.5q-55 0 -91 34t-36 93z" />
    <glyph glyph-name="Zcaron" unicode="&#x17d;" horiz-adv-x="1306" 
d="M123 1233v201h1081v-146l-835 -1087h856v-201h-1143v143l836 1090h-795zM662 1507l-363 222l80 112l287 -164l284 164l74 -112l-354 -222h-8z" />
    <glyph glyph-name="zcaron" unicode="&#x17e;" horiz-adv-x="999" 
d="M119 733v189h790v-144l-540 -592h528v-186h-807v143l537 590h-508zM508 1063l-299 272l94 119l211 -199l211 197l90 -117l-299 -272h-8z" />
    <glyph glyph-name="longs" unicode="&#x17f;" horiz-adv-x="524" 
d="M156 0v1071q0 190 83.5 286.5t239.5 96.5q80 0 147.5 -23t106.5 -59l-69 -153q-55 49 -148 49q-76 0 -119 -53t-43 -162v-1053h-198z" />
    <glyph glyph-name="uni018F" unicode="&#x18f;" horiz-adv-x="1597" 
d="M98 831h1172q-31 199 -174.5 311.5t-364.5 112.5q-204 0 -350 -112l-82 160q80 68 206 109.5t275 41.5q158 0 291 -52t227.5 -146.5t147.5 -232t53 -302.5q0 -219 -87.5 -387t-251 -261t-378.5 -93q-162 0 -296.5 60.5t-226.5 169.5t-135.5 269.5t-25.5 351.5zM778 178
q210 0 341 120.5t159 332.5h-961q7 -125 62.5 -226.5t159.5 -164t239 -62.5z" />
    <glyph glyph-name="florin" unicode="&#x192;" horiz-adv-x="1216" 
d="M799 1053l-25 -131h266v-189h-299l-139 -801q-17 -90 -40 -152.5t-59.5 -111t-91.5 -71.5t-130 -23q-67 0 -126.5 17.5t-88.5 43.5l53 160q58 -35 114 -35q136 0 168 191l140 782h-262v189h294l25 149q38 200 117 291.5t229 91.5q80 0 147.5 -23t104.5 -59l-70 -153
q-52 49 -147 49q-74 0 -116 -50.5t-64 -164.5z" />
    <glyph glyph-name="uni01DD" unicode="&#x1dd;" horiz-adv-x="1060" 
d="M205 678l-58 145q65 59 160.5 89t196.5 30q222 0 349.5 -130.5t127.5 -350.5q0 -136 -53 -243.5t-161 -172.5t-255 -65q-191 0 -317.5 117t-126.5 306q0 79 12 125h692q-11 107 -89 173.5t-198 66.5q-84 0 -159.5 -25.5t-120.5 -64.5zM518 154q111 0 180.5 63t81.5 168
h-506q2 -108 66.5 -169.5t177.5 -61.5z" />
    <glyph glyph-name="uni0218" unicode="&#x218;" horiz-adv-x="1128" 
d="M807 373q0 51 -23 92t-62 70t-90 54.5t-107 49.5t-112 50t-107 61t-90 77.5t-62 104.5t-23 137q0 165 119 275t319 110q128 0 234.5 -40t169.5 -111l-115 -160q-109 112 -272 112q-106 0 -168 -50t-62 -134q0 -66 37.5 -115t97 -81t131.5 -61t144 -64.5t131.5 -80.5
t97 -119.5t37.5 -172.5q0 -177 -136 -287t-339 -110q-143 0 -276 59t-183 160l121 145q60 -79 155 -122.5t187 -43.5q106 0 176 51.5t70 143.5zM461 -127l192 45q20 -7 34.5 -32.5t14.5 -65.5q0 -97 -70 -160t-163 -80l-57 88q50 21 70 51t20 74q0 60 -41 80z" />
    <glyph glyph-name="uni0219" unicode="&#x219;" horiz-adv-x="894" 
d="M606 254q0 34 -27.5 58t-71 40t-96.5 31t-106.5 36.5t-97 51.5t-71 81.5t-27.5 119.5q0 126 91 198t234 72q113 0 199.5 -32.5t134.5 -78.5l-84 -147q-44 38 -108.5 64t-131.5 26q-59 0 -95 -29t-36 -69q0 -35 27.5 -60t71.5 -41t97 -31t106 -36t97 -49t71.5 -77.5
t27.5 -115.5q0 -136 -102.5 -211t-262.5 -75q-113 0 -220 47.5t-142 101.5l104 135q40 -45 124 -81t151 -36q61 0 102 28.5t41 78.5zM340 -127l192 45q21 -7 35.5 -32.5t14.5 -65.5q0 -97 -70 -160t-164 -80l-57 88q50 21 70 51t20 74q0 60 -41 80z" />
    <glyph glyph-name="uni021A" unicode="&#x21a;" horiz-adv-x="1220" 
d="M20 1233v201h1180v-201h-483v-1233h-213v1233h-484zM487 -127l193 45q20 -7 34.5 -32.5t14.5 -65.5q0 -97 -70 -160t-163 -80l-58 88q50 21 70 51t20 74q0 60 -41 80z" />
    <glyph glyph-name="uni021B" unicode="&#x21b;" horiz-adv-x="729" 
d="M119 350v828h200v-256h316v-189h-316v-368q0 -197 136 -197q73 0 143 53l61 -155q-42 -36 -108.5 -60t-144.5 -24q-151 0 -219 92.5t-68 275.5zM250 -127l192 45q21 -7 35.5 -32.5t14.5 -65.5q0 -97 -70 -160t-164 -80l-57 88q50 21 70 51t20 74q0 60 -41 80z" />
    <glyph glyph-name="uni0237" unicode="&#x237;" horiz-adv-x="563" 
d="M389 922v-990q0 -358 -289 -358q-66 0 -125 17.5t-90 43.5l56 160q58 -35 112 -35q135 0 135 189v973h201z" />
    <glyph glyph-name="uni0259" unicode="&#x259;" horiz-adv-x="1060" 
d="M205 678l-58 145q65 59 160.5 89t196.5 30q222 0 349.5 -130.5t127.5 -350.5q0 -136 -53 -243.5t-161 -172.5t-255 -65q-191 0 -317.5 117t-126.5 306q0 79 12 125h692q-11 107 -89 173.5t-198 66.5q-84 0 -159.5 -25.5t-120.5 -64.5zM518 154q111 0 180.5 63t81.5 168
h-506q2 -108 66.5 -169.5t177.5 -61.5z" />
    <glyph glyph-name="uni02BC" unicode="&#x2bc;" horiz-adv-x="528" 
d="M172 1288l168 98q31 -31 48.5 -79t17.5 -99q0 -120 -55.5 -202.5t-133.5 -126.5l-94 86q94 76 94 200q0 81 -45 123z" />
    <glyph glyph-name="circumflex" unicode="&#x2c6;" horiz-adv-x="851" 
d="M432 1446l297 -272l-94 -119l-209 176l-211 -174l-92 119l301 270h8z" />
    <glyph glyph-name="caron" unicode="&#x2c7;" horiz-adv-x="851" 
d="M422 1063l-299 272l94 119l211 -199l211 197l90 -117l-299 -272h-8z" />
    <glyph glyph-name="breve" unicode="&#x2d8;" horiz-adv-x="868" 
d="M123 1294l90 101q21 -24 38 -40t46 -37t66 -32.5t79 -11.5q73 0 133 34.5t101 84.5l69 -99q-26 -37 -50.5 -63t-62 -55.5t-88 -45.5t-110.5 -16q-61 0 -115.5 18.5t-92.5 49t-62 57.5t-41 55z" />
    <glyph glyph-name="dotaccent" unicode="&#x2d9;" horiz-adv-x="491" 
d="M123 1262q0 51 36.5 83.5t90.5 32.5q47 0 83 -33t36 -83q0 -58 -35.5 -92.5t-83.5 -34.5q-55 0 -91 34t-36 93z" />
    <glyph glyph-name="ring" unicode="&#x2da;" horiz-adv-x="741" 
d="M123 1253q0 99 70.5 168.5t175.5 69.5q106 0 177.5 -69.5t71.5 -168.5q0 -96 -71.5 -164.5t-177.5 -68.5q-105 0 -175.5 68.5t-70.5 164.5zM252 1257q0 -53 34.5 -90t86.5 -37q50 0 83 37t33 90q0 52 -33 87.5t-83 35.5q-52 0 -86.5 -35.5t-34.5 -87.5z" />
    <glyph glyph-name="ogonek" unicode="&#x2db;" horiz-adv-x="700" 
d="M518 -229l60 -123q-25 -24 -80.5 -41t-112.5 -17q-51 0 -96 10.5t-83 32t-60.5 59.5t-22.5 89q0 82 68 142.5t164 87t202 26.5v-37q-94 0 -163.5 -46.5t-69.5 -107.5q0 -50 32.5 -73t73.5 -23q42 0 88 21z" />
    <glyph glyph-name="tilde" unicode="&#x2dc;" horiz-adv-x="927" 
d="M205 1122l-82 90q109 131 237 131q48 0 120 -43t114 -43q40 0 67.5 14t75.5 52l68 -100q-118 -127 -227 -127q-45 0 -118.5 44t-119.5 44q-50 0 -135 -62z" />
    <glyph glyph-name="hungarumlaut" unicode="&#x2dd;" horiz-adv-x="954" 
d="M831 1360l-262 -287l-120 84l235 313zM475 1382l-233 -309l-119 84l209 332z" />
    <glyph glyph-name="gravecomb" unicode="&#x300;" horiz-adv-x="0" 
d="M-549 1073l-254 291l158 119l215 -326z" />
    <glyph glyph-name="acutecomb" unicode="&#x301;" horiz-adv-x="0" 
d="M-274 1368l-252 -295l-121 84l217 330z" />
    <glyph glyph-name="Delta" unicode="&#x394;" horiz-adv-x="1503" 
d="M57 0l619 1450h135l635 -1450h-1389zM737 1092l-372 -891h763z" />
    <glyph glyph-name="Delta" unicode="&#x2206;" horiz-adv-x="1503" 
d="M57 0l619 1450h135l635 -1450h-1389zM737 1092l-372 -891h763z" />
    <glyph glyph-name="uni03A9" unicode="&#x3a9;" horiz-adv-x="1679" 
d="M125 0v201h334q-135 43 -239.5 202t-104.5 365q0 153 56.5 282.5t154 217.5t230.5 137t284 49q206 0 370.5 -84t259.5 -241t95 -361q0 -110 -30.5 -208.5t-80.5 -169.5t-110.5 -119.5t-124.5 -69.5h333v-201h-614v201q181 46 291 196.5t110 335.5q0 105 -35.5 199.5
t-98.5 166t-158 114t-207 42.5q-116 0 -211.5 -42.5t-158 -114.5t-96.5 -167t-34 -202q0 -113 46 -222t139 -194t214 -112v-201h-614z" />
    <glyph glyph-name="uni03A9" unicode="&#x2126;" horiz-adv-x="1679" 
d="M125 0v201h334q-135 43 -239.5 202t-104.5 365q0 153 56.5 282.5t154 217.5t230.5 137t284 49q206 0 370.5 -84t259.5 -241t95 -361q0 -110 -30.5 -208.5t-80.5 -169.5t-110.5 -119.5t-124.5 -69.5h333v-201h-614v201q181 46 291 196.5t110 335.5q0 105 -35.5 199.5
t-98.5 166t-158 114t-207 42.5q-116 0 -211.5 -42.5t-158 -114.5t-96.5 -167t-34 -202q0 -113 46 -222t139 -194t214 -112v-201h-614z" />
    <glyph glyph-name="pi" unicode="&#x3c0;" horiz-adv-x="1292" 
d="M90 733v189h1096v-189h-170v-414q0 -80 17 -115.5t57 -35.5q43 0 102 41l45 -154q-94 -73 -227 -73q-195 0 -195 251v500h-344v-106q0 -154 -17.5 -266.5t-48.5 -184.5t-82 -115t-110 -60t-139 -17l-17 196q45 -2 79.5 14.5t65 60.5t48 129.5t20.5 209.5v139h-180z" />
    <glyph glyph-name="uni0401" unicode="&#x401;" horiz-adv-x="1177" 
d="M207 0v1434h819v-201h-606v-410h545v-198h-545v-424h627v-201h-840zM264 1677q0 50 39 79.5t96 29.5q50 0 88.5 -30t38.5 -79q0 -54 -38 -85t-89 -31q-58 0 -96.5 30.5t-38.5 85.5zM739 1677q0 50 39 79.5t96 29.5q52 0 89.5 -29.5t37.5 -79.5q0 -54 -37 -85t-90 -31
q-58 0 -96.5 30.5t-38.5 85.5z" />
    <glyph glyph-name="uni0402" unicode="&#x402;" horiz-adv-x="1562" 
d="M1466 418q0 -220 -96.5 -329t-265.5 -109q-73 0 -138.5 25t-91.5 56l72 162q59 -45 131 -45q176 0 176 236q0 254 -258 254q-61 0 -118 -16t-85 -30t-75 -42v-580h-213v1233h-484v201h1180v-201h-483v-459q143 92 319 92q75 0 137.5 -13.5t117.5 -46.5t93 -83.5t60 -128
t22 -176.5z" />
    <glyph glyph-name="uni0403" unicode="&#x403;" horiz-adv-x="1036" 
d="M207 0v1434h805v-201h-592v-1233h-213zM1016 1671l-436 -170l-58 121l418 219z" />
    <glyph glyph-name="uni0404" unicode="&#x404;" horiz-adv-x="1382" 
d="M991 831v-200h-676q27 -216 180 -334.5t369 -118.5q209 0 375 129l80 -180q-82 -68 -205 -107.5t-266 -39.5q-343 0 -546.5 198.5t-203.5 538.5q0 215 91 383t254.5 261t373.5 93q149 0 275 -41.5t206 -109.5l-94 -160q-146 112 -350 112q-219 0 -361.5 -113.5
t-173.5 -310.5h672z" />
    <glyph glyph-name="uni0405" unicode="&#x405;" horiz-adv-x="1128" 
d="M807 373q0 51 -23 92t-62 70t-90 54.5t-107 49.5t-112 50t-107 61t-90 77.5t-62 104.5t-23 137q0 165 119 275t319 110q128 0 234.5 -40t169.5 -111l-115 -160q-109 112 -272 112q-106 0 -168 -50t-62 -134q0 -66 37.5 -115t97 -81t131.5 -61t144 -64.5t131.5 -80.5
t97 -119.5t37.5 -172.5q0 -177 -136 -287t-339 -110q-143 0 -276 59t-183 160l121 145q60 -79 155 -122.5t187 -43.5q106 0 176 51.5t70 143.5z" />
    <glyph glyph-name="uni0406" unicode="&#x406;" horiz-adv-x="698" 
d="M242 0v1434h213v-1434h-213z" />
    <glyph glyph-name="uni0407" unicode="&#x407;" horiz-adv-x="698" 
d="M70 1677q0 50 33.5 79.5t84.5 29.5q45 0 78 -30t33 -79q0 -54 -32.5 -85t-78.5 -31q-52 0 -85 30.5t-33 85.5zM401 1677q0 50 34 79.5t85 29.5q45 0 78 -30t33 -79q0 -54 -32.5 -85t-78.5 -31q-52 0 -85.5 30.5t-33.5 85.5zM242 0v1434h213v-1434h-213z" />
    <glyph glyph-name="uni0408" unicode="&#x408;" horiz-adv-x="782" 
d="M575 1434v-1102q0 -170 -81 -261t-248 -91q-73 0 -136.5 24t-93.5 57l70 162q59 -45 131 -45q78 0 111.5 49.5t33.5 141.5v1065h213z" />
    <glyph glyph-name="uni0409" unicode="&#x409;" horiz-adv-x="2082" 
d="M1071 0v1233h-469l-27 -270q-25 -256 -63.5 -438t-84 -288.5t-108.5 -163.5t-125 -70.5t-145 -2.5l4 213q27 -3 48.5 0.5t51.5 23t54 56t51.5 107t49 167.5t41 245.5t32.5 334.5l20 287h881v-512q90 10 176 10q261 0 395 -121t134 -332q0 -228 -152 -355.5t-424 -127.5
q-70 0 -187 2t-153 2zM1442 733q-61 0 -160 -12v-520q25 0 75 -2t79 -2q159 0 242 70t83 208q0 125 -83 191.5t-236 66.5z" />
    <glyph glyph-name="uni040A" unicode="&#x40a;" horiz-adv-x="2134" 
d="M207 0v1434h213v-553h702v553h211v-545q96 8 174 8q263 0 396 -115.5t133 -318.5q0 -219 -152 -343t-422 -124q-64 0 -171 2t-142 2h-27v680h-702v-680h-213zM1333 688v-487q25 0 75 -2t79 -2q158 0 240.5 66t82.5 196q0 115 -82.5 177t-236.5 62q-79 0 -158 -10z" />
    <glyph glyph-name="uni040B" unicode="&#x40b;" horiz-adv-x="1564" 
d="M20 1233v201h1180v-201h-483v-459q137 92 325 92q87 0 160.5 -25t134 -76.5t95 -142.5t34.5 -212v-410h-213v348q0 320 -266 320q-130 0 -270 -90v-578h-213v1233h-484z" />
    <glyph glyph-name="uni040C" unicode="&#x40c;" horiz-adv-x="1355" 
d="M1290 1434l-614 -672l651 -762h-272l-621 748l600 686h256zM207 0v1434h213v-1434h-213zM1092 1671l-437 -170l-57 121l418 219z" />
    <glyph glyph-name="uni040E" unicode="&#x40e;" horiz-adv-x="1380" 
d="M1354 1434l-492 -1102q-76 -171 -163 -251.5t-210 -80.5q-50 0 -102 15.5t-84 37.5l76 180q53 -34 108 -34q100 0 160 123l21 51l-639 1061h239l502 -850l369 850h215zM324 1772h200q35 -125 197 -125q77 0 126.5 31t59.5 94h199q-9 -123 -117.5 -199t-267.5 -76
q-170 0 -276 75.5t-121 199.5z" />
    <glyph glyph-name="uni040F" unicode="&#x40f;" horiz-adv-x="1527" 
d="M207 0v1434h213v-1233h688v1233h213v-1434h-459v-315h-198v315h-457z" />
    <glyph glyph-name="uni0410" unicode="&#x410;" horiz-adv-x="1454" 
d="M23 0l612 1440h184l611 -1440h-226l-168 401h-633l-165 -401h-215zM721 1161l-234 -561h467z" />
    <glyph glyph-name="uni0411" unicode="&#x411;" horiz-adv-x="1255" 
d="M207 0v1434h825v-201h-612v-365q102 13 207 13q230 0 360.5 -115t130.5 -311q0 -223 -145 -343t-408 -120q-87 0 -206 4t-152 4zM610 680q-85 0 -190 -12v-467q118 -8 178 -8q155 0 231 64t76 181q0 111 -74 176.5t-221 65.5z" />
    <glyph glyph-name="uni0412" unicode="&#x412;" horiz-adv-x="1263" 
d="M207 2v1428q200 10 403 10q125 0 217 -27t145.5 -76.5t79 -112t25.5 -139.5q0 -123 -61 -205.5t-164 -121.5v-4q126 -26 200 -111.5t74 -226.5q0 -107 -40 -189.5t-111.5 -133t-166.5 -76t-210 -25.5q-251 0 -391 10zM625 635h-205v-434q82 -8 194 -8q143 0 221 59
t78 174q0 102 -75 155.5t-213 53.5zM606 1241q-92 0 -186 -8v-412h198q107 0 176.5 56t69.5 159q0 99 -67 152t-191 53z" />
    <glyph glyph-name="uni0413" unicode="&#x413;" horiz-adv-x="1036" 
d="M207 0v1434h805v-201h-592v-1233h-213z" />
    <glyph glyph-name="uni0414" unicode="&#x414;" horiz-adv-x="1540" 
d="M29 -262v463h151q27 32 58.5 102t67.5 183t65 287.5t39 373.5l14 287h866v-1233h195v-463h-199v262h-1059v-262h-198zM610 981q-22 -290 -83.5 -504.5t-110.5 -275.5h661v1032h-446z" />
    <glyph glyph-name="uni0415" unicode="&#x415;" horiz-adv-x="1177" 
d="M207 0v1434h819v-201h-606v-410h545v-198h-545v-424h627v-201h-840z" />
    <glyph glyph-name="uni0416" unicode="&#x416;" horiz-adv-x="1933" 
d="M1880 1434l-559 -684l582 -750h-248l-565 745l544 689h246zM860 0v1434h213v-1434h-213zM612 748l-559 686h246l545 -689l-568 -745h-245z" />
    <glyph glyph-name="uni0417" unicode="&#x417;" horiz-adv-x="1191" 
d="M557 -20q-166 0 -291.5 68t-187.5 165l115 143q67 -79 166 -128.5t186 -49.5q129 0 212 63t83 181q0 97 -70 154t-197 57h-155v198h145q89 0 156 61.5t67 156.5q0 100 -65 153t-170 53q-182 0 -309 -157l-123 141q72 98 193 156.5t261 58.5q192 0 308 -101.5t116 -283.5
q0 -93 -50.5 -181.5t-147.5 -142.5v-4q125 -28 189.5 -120t64.5 -220t-70 -225.5t-181.5 -146.5t-244.5 -49z" />
    <glyph glyph-name="uni0418" unicode="&#x418;" horiz-adv-x="1626" 
d="M393 0h-186v1434h213v-1084l811 1084h186v-1434h-213v1081z" />
    <glyph glyph-name="uni0419" unicode="&#x419;" horiz-adv-x="1626" 
d="M393 0h-186v1434h213v-1084l811 1084h186v-1434h-213v1081zM434 1772h201q35 -125 196 -125q77 0 127 31t60 94h199q-9 -123 -118 -199t-268 -76q-170 0 -276 75.5t-121 199.5z" />
    <glyph glyph-name="uni041A" unicode="&#x41a;" horiz-adv-x="1355" 
d="M1290 1434l-614 -672l651 -762h-272l-621 748l600 686h256zM207 0v1434h213v-1434h-213z" />
    <glyph glyph-name="uni041B" unicode="&#x41b;" horiz-adv-x="1490" 
d="M1071 0v1233h-469l-27 -270q-25 -256 -63.5 -438t-84 -288.5t-108.5 -163.5t-125 -70.5t-145 -2.5l4 213q27 -3 48.5 0.5t51.5 23t54 56t51.5 107t49 167.5t41 245.5t32.5 334.5l20 287h881v-1434h-211z" />
    <glyph glyph-name="uni041C" unicode="&#x41c;" horiz-adv-x="1835" 
d="M207 0v1434h215l514 -703l491 703h203v-1434h-213v1098l-479 -676h-33l-485 670v-1092h-213z" />
    <glyph glyph-name="uni041D" unicode="&#x41d;" horiz-adv-x="1560" 
d="M1143 0v631h-723v-631h-213v1434h213v-603h723v603h211v-1434h-211z" />
    <glyph glyph-name="uni041E" unicode="&#x41e;" horiz-adv-x="1671" 
d="M98 717q0 154 55 290t151 234.5t234 155.5t298 57q157 0 293.5 -53.5t234.5 -149t154.5 -233.5t56.5 -301q0 -211 -96.5 -379.5t-265 -263t-377.5 -94.5q-210 0 -377.5 91t-264 260t-96.5 386zM324 717q0 -229 148 -384t364 -155q154 0 272 71.5t180 193.5t62 274
q0 234 -147.5 386t-366.5 152q-221 0 -366.5 -151.5t-145.5 -386.5z" />
    <glyph glyph-name="uni041F" unicode="&#x41f;" horiz-adv-x="1548" 
d="M1128 0v1233h-708v-1233h-213v1434h1134v-1434h-213z" />
    <glyph glyph-name="uni0420" unicode="&#x420;" horiz-adv-x="1236" 
d="M420 0h-213v1434q38 0 190 2t201 2q121 0 216 -25.5t155.5 -68t100 -101.5t55.5 -122.5t16 -135.5q0 -91 -33.5 -172.5t-96.5 -145.5t-163.5 -101.5t-226.5 -37.5q-122 0 -201 7v-535zM618 1237q-130 0 -198 -4v-496q105 -10 194 -10q138 0 219.5 67.5t81.5 192.5
q0 122 -74 186t-223 64z" />
    <glyph glyph-name="uni0421" unicode="&#x421;" horiz-adv-x="1343" 
d="M1204 299l82 -160q-70 -73 -194.5 -116t-260.5 -43q-215 0 -381.5 90.5t-259 258.5t-92.5 388q0 155 49 289t139 234t228 157t307 57q279 0 436 -141l-96 -158q-148 100 -338 100q-220 0 -359.5 -148t-139.5 -390q0 -240 146 -389.5t380 -149.5q202 0 354 121z" />
    <glyph glyph-name="uni0422" unicode="&#x422;" horiz-adv-x="1220" 
d="M20 1233v201h1180v-201h-483v-1233h-213v1233h-484z" />
    <glyph glyph-name="uni0423" unicode="&#x423;" horiz-adv-x="1380" 
d="M1354 1434l-492 -1102q-76 -171 -163 -251.5t-210 -80.5q-50 0 -102 15.5t-84 37.5l76 180q53 -34 108 -34q100 0 160 123l21 51l-639 1061h239l502 -850l369 850h215z" />
    <glyph glyph-name="uni0424" unicode="&#x424;" horiz-adv-x="1712" 
d="M750 -16v188q-306 0 -489 149t-183 416q0 265 182.5 414t489.5 152v147h213v-147q305 -3 489 -153.5t184 -412.5q0 -177 -86 -305t-236.5 -193.5t-350.5 -66.5v-188h-213zM1411 737q0 169 -115.5 267.5t-332.5 101.5v-737q216 0 332 93.5t116 274.5zM303 737
q0 -179 117.5 -273.5t329.5 -94.5v737q-213 -1 -330 -100.5t-117 -268.5z" />
    <glyph glyph-name="uni0425" unicode="&#x425;" horiz-adv-x="1363" 
d="M1315 1434l-496 -705l516 -729h-252l-403 567l-399 -567h-250l514 729l-492 705h250l385 -545l377 545h250z" />
    <glyph glyph-name="uni0426" unicode="&#x426;" horiz-adv-x="1581" 
d="M207 0v1434h213v-1233h698v1233h213v-1233h195v-463h-199v262h-1120z" />
    <glyph glyph-name="uni0427" unicode="&#x427;" horiz-adv-x="1347" 
d="M1143 1434v-1434h-213v606q-62 -42 -156.5 -72t-204.5 -30q-88 0 -162.5 24.5t-137 76.5t-98.5 143t-36 213v473h213v-414q0 -318 277 -318q152 0 305 101v631h213z" />
    <glyph glyph-name="uni0428" unicode="&#x428;" horiz-adv-x="2039" 
d="M207 0v1434h213v-1233h493v1233h213v-1233h494v1233h213v-1434h-1626z" />
    <glyph glyph-name="uni0429" unicode="&#x429;" horiz-adv-x="2084" 
d="M207 0v1434h213v-1233h493v1233h213v-1233h494v1233h213v-1233h195v-463h-201v262h-1620z" />
    <glyph glyph-name="uni042A" unicode="&#x42a;" horiz-adv-x="1374" 
d="M12 1233v201h541v-512q90 10 184 10q269 0 405 -120.5t136 -332.5q0 -228 -154.5 -355.5t-435.5 -127.5q-69 0 -189.5 2t-158.5 2v1233h-328zM721 733q-69 0 -168 -12v-520q25 0 79 -2t83 -2q163 0 250.5 68.5t87.5 209.5q0 126 -88 192t-244 66z" />
    <glyph glyph-name="uni042B" unicode="&#x42b;" horiz-adv-x="1748" 
d="M1331 0v1434h213v-1434h-213zM578 733q-64 0 -158 -12v-520q25 0 74.5 -2t78.5 -2q158 0 241 70t83 208q0 126 -82.5 192t-236.5 66zM420 1434v-512q90 10 174 10q262 0 395 -120.5t133 -332.5q0 -227 -151.5 -355t-421.5 -128q-71 0 -188.5 2t-153.5 2v1434h213z" />
    <glyph glyph-name="uni042C" unicode="&#x42c;" horiz-adv-x="1241" 
d="M586 733q-72 0 -166 -12v-520q25 0 79 -2t83 -2q161 0 248.5 68.5t87.5 209.5q0 127 -87.5 192.5t-244.5 65.5zM420 1434v-512q90 10 182 10q270 0 405.5 -120.5t135.5 -332.5q0 -228 -153.5 -355.5t-432.5 -127.5q-71 0 -192.5 2t-157.5 2v1434h213z" />
    <glyph glyph-name="uni042D" unicode="&#x42d;" horiz-adv-x="1382" 
d="M389 631v200h674q-32 200 -178 312t-369 112q-201 0 -350 -112l-84 160q80 68 207 109.5t276 41.5q158 0 291.5 -52t228.5 -146.5t148 -232t53 -302.5q0 -333 -202.5 -537t-540.5 -204q-143 0 -269.5 39.5t-210.5 107.5l93 180q166 -129 383 -129q211 0 356 120t172 333
h-678z" />
    <glyph glyph-name="uni042E" unicode="&#x42e;" horiz-adv-x="2211" 
d="M207 0v1434h213v-603h276q24 179 116 320t243.5 222t339.5 81q208 0 371.5 -91.5t255.5 -259.5t92 -386q0 -212 -91.5 -380t-256 -262.5t-371.5 -94.5q-185 0 -338 80t-250 229t-115 342h-272v-631h-213zM913 717q0 -229 141 -384t347 -155q153 0 265 72t167 193t55 274
q0 237 -135 387.5t-352 150.5q-210 0 -349 -151.5t-139 -386.5z" />
    <glyph glyph-name="uni042F" unicode="&#x42f;" horiz-adv-x="1286" 
d="M866 0v514h-237l-346 -514h-240l383 555q-116 52 -192 154.5t-76 244.5q0 101 34 187t101.5 154t180.5 106.5t259 38.5q49 0 177 -3t167 -3v-1434h-211zM606 713h260v520q-82 8 -176 8q-143 0 -225 -76.5t-82 -197.5q0 -99 66 -168.5t157 -85.5z" />
    <glyph glyph-name="uni0430" unicode="&#x430;" horiz-adv-x="946" 
d="M201 705l-54 151q64 38 148.5 62t169.5 24q194 0 278 -95t84 -284v-563h-180v113q-95 -125 -285 -125q-128 0 -206 75t-78 207q0 143 94.5 219t245.5 76q61 0 122 -15t99 -42q2 132 -39 197t-154 65q-75 0 -129 -16t-116 -49zM430 160q128 0 209 102v105q-74 53 -184 53
q-73 0 -122.5 -34t-49.5 -99q0 -58 39.5 -92.5t107.5 -34.5z" />
    <glyph glyph-name="uni0431" unicode="&#x431;" horiz-adv-x="1126" 
d="M842 1454l104 -160q-40 -51 -94.5 -78.5t-104.5 -35t-124 -25t-134 -45.5q-192 -87 -215 -395h5q43 86 138.5 140t205.5 54q193 0 307 -124t114 -332q0 -198 -134 -335.5t-343 -137.5q-229 0 -361 155t-132 422q0 596 344 741q67 29 139.5 46t116.5 23t89.5 26.5
t78.5 60.5zM287 516q0 -156 76 -254t198 -98q121 0 195.5 80.5t74.5 197.5q0 124 -68 201.5t-192 77.5q-109 0 -185 -59.5t-99 -145.5z" />
    <glyph glyph-name="uni0432" unicode="&#x432;" horiz-adv-x="1019" 
d="M139 0v922q33 0 152 4t196 4q408 0 408 -238q0 -82 -50 -139.5t-128 -69.5v-4q205 -43 205 -215q0 -272 -430 -272q-61 0 -188 4t-165 4zM512 401h-172v-241q82 -8 172 -8q95 0 148 33.5t53 93.5q0 61 -52 91.5t-149 30.5zM504 770q-65 0 -164 -6v-240h180q72 0 118 33.5
t46 93.5q0 59 -49.5 89t-130.5 30z" />
    <glyph glyph-name="uni0433" unicode="&#x433;" horiz-adv-x="753" 
d="M139 0v922h602v-189h-401v-733h-201z" />
    <glyph glyph-name="uni0434" unicode="&#x434;" horiz-adv-x="1122" 
d="M20 -221v407h115q51 63 88.5 199t46.5 303l17 234h653v-736h154v-407h-189v221h-698v-221h-187zM463 610q-13 -149 -46.5 -262.5t-70.5 -161.5h395v547h-270z" />
    <glyph glyph-name="uni0435" unicode="&#x435;" horiz-adv-x="1060" 
d="M864 244l60 -148q-67 -58 -159 -87t-192 -29q-223 0 -358 131.5t-135 349.5q0 207 130 344t351 137q183 0 307.5 -118t124.5 -306q0 -72 -12 -119h-686q12 -116 93 -180.5t206 -64.5q82 0 153 25.5t117 64.5zM553 768q-113 0 -181.5 -60.5t-86.5 -162.5h506
q-3 100 -66.5 161.5t-171.5 61.5z" />
    <glyph glyph-name="uni0436" unicode="&#x436;" horiz-adv-x="1421" 
d="M1372 922l-319 -447l344 -475h-240l-326 475l302 447h239zM606 0v922h201v-922h-201zM360 475l-319 447h246l295 -447l-320 -475h-239z" />
    <glyph glyph-name="uni0437" unicode="&#x437;" horiz-adv-x="956" 
d="M455 -20q-116 0 -231 39.5t-161 99.5l103 135q50 -47 126 -77t140 -30q98 0 156.5 36.5t58.5 95.5q0 53 -42 81.5t-118 28.5h-163v148h153q62 0 101.5 34t39.5 86q0 55 -48 86t-132 31q-141 0 -262 -104l-82 133q59 67 159.5 103t221.5 36q172 0 264 -67.5t92 -186.5
q0 -70 -41.5 -126.5t-123.5 -84.5v-4q93 -13 143.5 -73.5t50.5 -143.5q0 -127 -112 -201.5t-293 -74.5z" />
    <glyph glyph-name="uni0438" unicode="&#x438;" horiz-adv-x="1159" 
d="M340 0h-201v922h201v-635l479 635h201v-922h-201v635z" />
    <glyph glyph-name="uni0439" unicode="&#x439;" horiz-adv-x="1159" 
d="M340 0h-201v922h201v-635l479 635h201v-922h-201v635zM274 1389h185q3 -73 35.5 -114.5t95.5 -41.5q60 0 91 41.5t34 114.5h184q0 -132 -82.5 -218t-226.5 -86q-155 0 -235.5 84t-80.5 220z" />
    <glyph glyph-name="uni043A" unicode="&#x43a;" horiz-adv-x="1036" 
d="M979 922l-379 -439l420 -483h-266l-392 467l361 455h256zM139 0v922h201v-922h-201z" />
    <glyph glyph-name="uni043B" unicode="&#x43b;" horiz-adv-x="1097" 
d="M758 0v721h-283l-8 -127q-13 -152 -37.5 -260t-57 -176t-80 -107t-98 -53t-120.5 -14l-17 196q25 -3 49 6t52 38.5t50 78.5t39.5 134.5t24.5 197.5l15 287h671v-922h-200z" />
    <glyph glyph-name="uni043C" unicode="&#x43c;" horiz-adv-x="1286" 
d="M139 0v922h180l336 -422l316 422h176v-922h-201v618l-295 -387h-6l-305 387v-618h-201z" />
    <glyph glyph-name="uni043D" unicode="&#x43d;" horiz-adv-x="1136" 
d="M797 0v371h-457v-371h-201v922h201v-365h457v365h198v-922h-198z" />
    <glyph glyph-name="uni043E" unicode="&#x43e;" horiz-adv-x="1155" 
d="M80 461q0 210 137.5 345.5t360.5 135.5q222 0 358.5 -135.5t136.5 -345.5t-136.5 -345.5t-358.5 -135.5q-223 0 -360.5 135.5t-137.5 345.5zM293 461q0 -130 80.5 -213.5t204.5 -83.5t203 82t79 215q0 130 -79.5 212.5t-202.5 82.5q-122 0 -203.5 -82t-81.5 -213z" />
    <glyph glyph-name="uni043F" unicode="&#x43f;" horiz-adv-x="1126" 
d="M786 0v733h-446v-733h-201v922h848v-922h-201z" />
    <glyph glyph-name="uni0440" unicode="&#x440;" horiz-adv-x="1140" 
d="M139 -410v1332h201v-99q45 52 127 85.5t172 33.5q191 0 306.5 -130.5t115.5 -336.5q0 -214 -134 -354.5t-349 -140.5q-156 0 -238 53v-443h-201zM578 756q-68 0 -131 -31t-107 -82v-416q97 -63 219 -63q132 0 210.5 86t78.5 219q0 128 -72 207.5t-198 79.5z" />
    <glyph glyph-name="uni0441" unicode="&#x441;" horiz-adv-x="999" 
d="M844 281l94 -146q-57 -75 -153.5 -115t-206.5 -40q-224 0 -361 131.5t-137 349.5q0 203 134 342t339 139q242 0 365 -123l-93 -155q-97 92 -247 92q-115 0 -200 -83t-85 -212q0 -133 87 -215t212 -82q147 0 252 117z" />
    <glyph glyph-name="uni0442" unicode="&#x442;" horiz-adv-x="905" 
d="M33 721v201h839v-201h-319v-721h-201v721h-319z" />
    <glyph glyph-name="uni0443" unicode="&#x443;" horiz-adv-x="1017" 
d="M1004 922l-367 -922q-67 -164 -123.5 -253.5t-108.5 -123t-122 -33.5q-96 0 -187 66l64 151q58 -32 100 -32q51 0 91.5 42t78.5 134l21 49l-435 922h238l244 -545q27 -67 51 -135q12 62 37 137l188 543h230z" />
    <glyph glyph-name="uni0444" unicode="&#x444;" horiz-adv-x="1394" 
d="M598 -410v390h-18q-233 0 -366.5 134.5t-133.5 346.5q0 95 33.5 181t95 153t157.5 107t212 40h20v492h199v-492h22q114 0 208 -37t157 -102t97 -153t34 -189q0 -214 -129 -347.5t-367 -133.5h-22v-390h-199zM293 461q0 -133 76 -215t217 -82h12v592h-23
q-138 0 -210 -83.5t-72 -211.5zM819 756h-22v-592h14q141 0 216 81t75 216q0 123 -75 209t-208 86z" />
    <glyph glyph-name="uni0445" unicode="&#x445;" horiz-adv-x="1052" 
d="M989 922l-317 -443l338 -479h-244l-242 352l-250 -352h-231l338 469l-318 453h244l223 -328l228 328h231z" />
    <glyph glyph-name="uni0446" unicode="&#x446;" horiz-adv-x="1155" 
d="M139 0v922h201v-736h434v736h201v-736h151v-407h-186v221h-801z" />
    <glyph glyph-name="uni0447" unicode="&#x447;" horiz-adv-x="995" 
d="M856 922v-922h-199v338q-99 -59 -243 -59q-170 0 -250 88.5t-80 267.5v287h213v-263q0 -97 45 -145.5t129 -48.5q113 0 186 47v410h199z" />
    <glyph glyph-name="uni0448" unicode="&#x448;" horiz-adv-x="1478" 
d="M139 0v922h201v-736h299v736h199v-736h301v736h198v-922h-1198z" />
    <glyph glyph-name="uni0449" unicode="&#x449;" horiz-adv-x="1519" 
d="M139 0v922h201v-736h299v736h199v-736h301v736h198v-736h154v-407h-188v221h-1164z" />
    <glyph glyph-name="uni044A" unicode="&#x44a;" horiz-adv-x="1069" 
d="M20 733v189h451v-265h150q107 0 184.5 -26t120 -72t61.5 -100t19 -119q0 -67 -21.5 -125.5t-67 -108t-126.5 -78t-189 -28.5h-330v733h-252zM594 487h-123v-307h123q199 0 199 152q0 155 -199 155z" />
    <glyph glyph-name="uni044B" unicode="&#x44b;" horiz-adv-x="1349" 
d="M139 0v922h201v-265h131q87 0 154.5 -17.5t110.5 -46.5t70.5 -70.5t38.5 -86t11 -96.5q0 -67 -21.5 -125.5t-66.5 -108t-125 -78t-188 -28.5h-316zM1012 0v922h198v-922h-198zM446 487h-106v-307h104q201 0 201 152q0 155 -199 155z" />
    <glyph glyph-name="uni044C" unicode="&#x44c;" horiz-adv-x="935" 
d="M139 0v922h201v-265h147q107 0 184.5 -26t120 -72t61.5 -100t19 -119q0 -53 -12.5 -101t-43 -92t-76 -76.5t-115.5 -51.5t-158 -19h-328zM461 487h-121v-307h119q200 0 200 152q0 155 -198 155z" />
    <glyph glyph-name="uni044D" unicode="&#x44d;" horiz-adv-x="1007" 
d="M289 393v148h432q-21 110 -100 166.5t-193 56.5q-149 0 -272 -98l-84 143q63 63 161.5 98t192.5 35q228 0 365 -131t137 -350q0 -205 -132.5 -343t-346.5 -138q-254 0 -377 126l94 138q43 -39 116 -62.5t154 -23.5q117 0 192.5 61t92.5 174h-432z" />
    <glyph glyph-name="uni044E" unicode="&#x44e;" horiz-adv-x="1568" 
d="M139 0v922h213v-353h180q33 169 157.5 271t309.5 102q219 0 353.5 -135.5t134.5 -345.5q0 -209 -136 -345t-352 -136q-191 0 -316.5 107.5t-152.5 283.5h-178v-371h-213zM750 461q0 -130 71 -206.5t185 -76.5t185 77t71 206q0 128 -69 205t-187 77q-113 0 -184.5 -77.5
t-71.5 -204.5z" />
    <glyph glyph-name="uni044F" unicode="&#x44f;" horiz-adv-x="999" 
d="M565 922h295v-922h-201v291h-153l-207 -291h-236l256 338q-75 23 -131.5 92t-56.5 174q0 66 23.5 121t73 100.5t136 71t201.5 25.5zM344 594q0 -61 49 -100t111 -39h155v286h-127q-94 0 -141 -41.5t-47 -105.5z" />
    <glyph glyph-name="uni0451" unicode="&#x451;" horiz-adv-x="1060" 
d="M864 244l60 -148q-67 -58 -159 -87t-192 -29q-223 0 -358 131.5t-135 349.5q0 207 130 344t351 137q183 0 307.5 -118t124.5 -306q0 -72 -12 -119h-686q12 -116 93 -180.5t206 -64.5q82 0 153 25.5t117 64.5zM553 768q-113 0 -181.5 -60.5t-86.5 -162.5h506
q-3 100 -66.5 161.5t-171.5 61.5zM236 1237q0 51 33.5 83t80.5 32q42 0 74.5 -32.5t32.5 -82.5q0 -54 -32 -86.5t-75 -32.5q-48 0 -81 32t-33 87zM647 1237q0 51 34 83t81 32q43 0 74.5 -32t31.5 -83q0 -55 -31 -87t-75 -32q-48 0 -81.5 32t-33.5 87z" />
    <glyph glyph-name="uni0452" unicode="&#x452;" horiz-adv-x="1214" 
d="M12 913v162h254v359h201v-359h344v-162h-344v-276q48 49 124.5 81t158.5 32q180 0 280 -98.5t100 -303.5q0 -251 -95.5 -452.5t-252.5 -305.5h-213q177 133 268 321.5t91 387.5q0 262 -230 262q-66 0 -128 -27.5t-103 -72.5v-461h-201v913h-254z" />
    <glyph glyph-name="uni0453" unicode="&#x453;" horiz-adv-x="753" 
d="M139 0v922h602v-189h-401v-733h-201zM723 1368l-254 -295l-119 84l217 330z" />
    <glyph glyph-name="uni0454" unicode="&#x454;" horiz-adv-x="1007" 
d="M719 541v-148h-434q20 -113 103.5 -174t203.5 -61q75 0 143.5 23.5t112.5 62.5l90 -138q-126 -126 -365 -126q-223 0 -358 136.5t-135 344.5q0 219 137.5 350t366.5 131q93 0 191.5 -35t160.5 -98l-82 -143q-113 98 -274 98q-113 0 -192.5 -56.5t-100.5 -166.5h432z" />
    <glyph glyph-name="uni0455" unicode="&#x455;" horiz-adv-x="894" 
d="M606 254q0 34 -27.5 58t-71 40t-96.5 31t-106.5 36.5t-97 51.5t-71 81.5t-27.5 119.5q0 126 91 198t234 72q113 0 199.5 -32.5t134.5 -78.5l-84 -147q-44 38 -108.5 64t-131.5 26q-59 0 -95 -29t-36 -69q0 -35 27.5 -60t71.5 -41t97 -31t106 -36t97 -49t71.5 -77.5
t27.5 -115.5q0 -136 -102.5 -211t-262.5 -75q-113 0 -220 47.5t-142 101.5l104 135q40 -45 124 -81t151 -36q61 0 102 28.5t41 78.5z" />
    <glyph glyph-name="uni0456" unicode="&#x456;" horiz-adv-x="557" 
d="M180 0v922h199v-922h-199zM156 1262q0 51 36.5 83.5t90.5 32.5q46 0 82 -33t36 -83q0 -58 -35.5 -92.5t-82.5 -34.5q-55 0 -91 34t-36 93z" />
    <glyph glyph-name="uni0457" unicode="&#x457;" horiz-adv-x="622" 
d="M61 1233q0 45 31 73.5t76 28.5q37 0 65.5 -29t28.5 -73q0 -47 -28.5 -76t-65.5 -29q-46 0 -76.5 28.5t-30.5 76.5zM360 1233q0 44 31 73t74 29q39 0 67.5 -28.5t28.5 -73.5q0 -48 -28 -76.5t-68 -28.5q-43 0 -74 28.5t-31 76.5zM225 0v922h199v-922h-199z" />
    <glyph glyph-name="uni0458" unicode="&#x458;" horiz-adv-x="563" 
d="M389 922v-990q0 -358 -289 -358q-66 0 -125 17.5t-90 43.5l56 160q58 -35 112 -35q135 0 135 189v973h201zM168 1262q0 51 36.5 83.5t90.5 32.5q47 0 83 -33t36 -83q0 -58 -35.5 -92.5t-83.5 -34.5q-55 0 -91 34t-36 93z" />
    <glyph glyph-name="uni0459" unicode="&#x459;" horiz-adv-x="1519" 
d="M758 0v721h-283l-8 -127q-13 -152 -37.5 -260t-57 -176t-80 -107t-98 -53t-120.5 -14l-17 196q25 -3 49 6t52 38.5t50 78.5t39.5 134.5t24.5 197.5l15 287h671v-265h113q107 0 184.5 -26t120 -72t61.5 -100t19 -119q0 -67 -21.5 -125.5t-66.5 -108t-126 -78t-189 -28.5
h-295zM1044 487h-86v-307h86q199 0 199 152q0 155 -199 155z" />
    <glyph glyph-name="uni045A" unicode="&#x45a;" horiz-adv-x="1560" 
d="M139 0v922h201v-349h457v349h198v-279h115q87 0 154.5 -17t110.5 -45t70.5 -69t38.5 -84.5t11 -95.5q0 -67 -21.5 -124t-66.5 -105t-125.5 -75.5t-189.5 -27.5h-295v385h-457v-385h-201zM1085 471h-90v-291h86q108 0 154.5 35t46.5 109q0 75 -46.5 111t-150.5 36z" />
    <glyph glyph-name="uni045B" unicode="&#x45b;" horiz-adv-x="1214" 
d="M12 913v162h254v359h201v-359h344v-162h-344v-276q48 49 124.5 81t158.5 32q181 0 280.5 -99.5t99.5 -308.5v-342h-200v315q0 120 -59.5 183t-172.5 63q-66 0 -128 -27.5t-103 -72.5v-461h-201v913h-254z" />
    <glyph glyph-name="uni045C" unicode="&#x45c;" horiz-adv-x="1036" 
d="M979 922l-379 -439l420 -483h-266l-392 467l361 455h256zM139 0v922h201v-922h-201zM768 1368l-254 -295l-119 84l217 330z" />
    <glyph glyph-name="uni045E" unicode="&#x45e;" horiz-adv-x="1017" 
d="M1004 922l-367 -922q-67 -164 -123.5 -253.5t-108.5 -123t-122 -33.5q-96 0 -187 66l64 151q58 -32 100 -32q51 0 91.5 42t78.5 134l21 49l-435 922h238l244 -545q27 -67 51 -135q12 62 37 137l188 543h230zM209 1389h184q3 -73 35.5 -114.5t95.5 -41.5q60 0 91 41.5
t34 114.5h185q0 -132 -83 -218t-227 -86q-155 0 -235 84t-80 220z" />
    <glyph glyph-name="uni045F" unicode="&#x45f;" horiz-adv-x="1105" 
d="M139 0v922h201v-736h426v736h201v-922h-320v-250h-188v250h-320z" />
    <glyph glyph-name="uni0462" unicode="&#x462;" horiz-adv-x="1318" 
d="M496 1434v-185h313v-200h-313v-179q136 11 184 11q541 0 541 -426q0 -225 -152 -342t-436 -117q-70 0 -191 2t-157 2v1049h-260v200h260v185h211zM664 680q-58 0 -168 -10v-469q26 0 80 -2t83 -2q166 0 251 58t85 194q0 125 -84 178t-247 53z" />
    <glyph glyph-name="uni0463" unicode="&#x463;" horiz-adv-x="1048" 
d="M12 750v172h254v512h199v-512h293v-172h-293v-154h133q109 0 186 -22t119.5 -63.5t61 -92t18.5 -115.5q0 -66 -21 -119.5t-67 -95.5t-125.5 -65t-189.5 -23h-314v750h-254zM586 432h-121v-260h121q100 0 142 32t42 99q0 64 -43 96.5t-141 32.5z" />
    <glyph glyph-name="uni0472" unicode="&#x472;" horiz-adv-x="1671" 
d="M98 717q0 154 55 290t151 234.5t234 155.5t298 57q157 0 293.5 -53.5t234.5 -149t154.5 -233.5t56.5 -301q0 -211 -96.5 -379.5t-265 -263t-377.5 -94.5q-210 0 -377.5 91t-264 260t-96.5 386zM606 713q-70 0 -144 -36t-126 -83q37 -184 176 -300t324 -116
q211 0 347 128.5t160 332.5q-137 -86 -258 -86q-56 0 -109 16.5t-96 40t-84.5 47t-90.5 40t-99 16.5zM1100 741q57 0 124.5 29.5t112.5 67.5q-38 188 -176 302.5t-325 114.5q-200 0 -340 -125t-168 -327q145 96 278 96q56 0 110 -16.5t97.5 -39.5t86.5 -46t94.5 -39.5
t105.5 -16.5z" />
    <glyph glyph-name="uni0473" unicode="&#x473;" horiz-adv-x="1179" 
d="M80 461q0 210 139.5 345.5t370.5 135.5q230 0 369 -135.5t139 -345.5t-139 -345.5t-369 -135.5q-231 0 -370.5 135.5t-139.5 345.5zM430 449q-78 0 -143 -68q22 -116 106.5 -179t196.5 -63q116 0 200.5 67.5t102.5 192.5q-75 -63 -156 -63q-44 0 -89 17.5t-75.5 39
t-69.5 39t-73 17.5zM762 473q77 0 131 57q-21 120 -106 186t-197 66q-116 0 -202.5 -68.5t-104.5 -193.5q82 64 155 64q45 0 93.5 -17.5t82.5 -38t75 -38t73 -17.5z" />
    <glyph glyph-name="uni0474" unicode="&#x474;" horiz-adv-x="1351" 
d="M1137 1028l-379 -1034h-160l-596 1440h227l455 -1119l287 824q55 164 118 237t166 74q65 0 138 -20l-29 -185q-31 10 -55 11t-44 -10t-35.5 -26t-32 -47t-29 -63t-31.5 -82z" />
    <glyph glyph-name="uni0475" unicode="&#x475;" horiz-adv-x="999" 
d="M815 569l-233 -575h-148l-432 928h236l204 -447q39 -82 74 -205q25 108 66 209l80 213q50 133 105.5 190t150.5 56q44 0 122 -20l-28 -189q-30 13 -54.5 12.5t-42.5 -10t-36 -35.5t-31 -53t-33 -74z" />
    <glyph glyph-name="uni0490" unicode="&#x490;" horiz-adv-x="1036" 
d="M207 0v1434h604v247h201v-448h-592v-1233h-213z" />
    <glyph glyph-name="uni0491" unicode="&#x491;" horiz-adv-x="753" 
d="M139 0v922h414v206h188v-395h-401v-733h-201z" />
    <glyph glyph-name="uni0492" unicode="&#x492;" horiz-adv-x="1036" 
d="M207 0v618h-176v201h176v615h805v-201h-592v-414h334v-201h-334v-618h-213z" />
    <glyph glyph-name="uni0493" unicode="&#x493;" horiz-adv-x="759" 
d="M145 0v330h-135v186h135v406h603v-189h-402v-217h264v-186h-264v-330h-201z" />
    <glyph glyph-name="uni0494" unicode="&#x494;" horiz-adv-x="1263" 
d="M205 0v1434h805v-201h-592v-459q143 92 319 92q430 0 430 -444v-410q0 -220 -96.5 -329t-265.5 -109q-73 0 -138.5 25.5t-91.5 56.5l72 162q59 -45 131 -45q176 0 176 233v408q0 254 -258 254q-61 0 -118 -16t-85 -30t-75 -42v-580h-213z" />
    <glyph glyph-name="uni0495" unicode="&#x495;" horiz-adv-x="1054" 
d="M139 0v922h602v-189h-401v-250q47 49 120 79t154 30q173 0 265 -106t92 -296q0 -178 -73.5 -333t-217.5 -267h-213q167 137 234 278.5t67 291.5q0 113 -51 178t-150 65q-65 0 -126 -26t-101 -70v-307h-201z" />
    <glyph glyph-name="uni0496" unicode="&#x496;" horiz-adv-x="1933" 
d="M1880 1434l-559 -684l426 -549h174v-463h-199v262h-67l-565 745l544 689h246zM612 748l-559 686h246l545 -689l-568 -745h-245zM860 0v1434h213v-1434h-213z" />
    <glyph glyph-name="uni0497" unicode="&#x497;" horiz-adv-x="1421" 
d="M1372 922l-319 -447l209 -289h141v-407h-186v221h-60l-326 475l302 447h239zM360 475l-319 447h246l295 -447l-320 -475h-239zM606 0v922h201v-922h-201z" />
    <glyph glyph-name="uni0498" unicode="&#x498;" horiz-adv-x="1191" 
d="M664 -315h-199v301q-134 18 -234.5 81.5t-152.5 145.5l115 143q67 -79 166 -128.5t186 -49.5q129 0 212 63t83 181q0 97 -70 154t-197 57h-155v198h145q89 0 156 61.5t67 156.5q0 100 -65 153t-170 53q-182 0 -309 -157l-123 141q72 98 193 156.5t261 58.5
q192 0 308 -101.5t116 -283.5q0 -93 -50.5 -181.5t-147.5 -142.5v-4q125 -28 189.5 -120t64.5 -220q0 -164 -110.5 -274t-278.5 -137v-305z" />
    <glyph glyph-name="uni0499" unicode="&#x499;" horiz-adv-x="956" 
d="M559 -250h-188v236q-98 11 -184.5 47t-123.5 86l103 135q50 -47 126 -77t140 -30q98 0 156.5 36.5t58.5 95.5q0 53 -42 81.5t-118 28.5h-163v148h153q62 0 101.5 34t39.5 86q0 55 -48 86t-132 31q-141 0 -262 -104l-82 133q59 67 159.5 103t221.5 36q172 0 264 -67.5
t92 -186.5q0 -70 -41.5 -126.5t-123.5 -84.5v-4q93 -13 143.5 -73.5t50.5 -143.5q0 -107 -82 -178t-219 -90v-238z" />
    <glyph glyph-name="uni049A" unicode="&#x49a;" horiz-adv-x="1355" 
d="M1290 1434l-614 -672l479 -561h176v-463h-198v262h-78l-621 748l600 686h256zM207 0v1434h213v-1434h-213z" />
    <glyph glyph-name="uni049B" unicode="&#x49b;" horiz-adv-x="1036" 
d="M979 922l-379 -439l258 -297h141v-407h-186v221h-59l-392 467l361 455h256zM139 0v922h201v-922h-201z" />
    <glyph glyph-name="uni049C" unicode="&#x49c;" horiz-adv-x="1406" 
d="M492 319v820h184v-199l409 494h256l-583 -672l620 -762h-272l-430 545v-226h-184zM207 0v1434h213v-1434h-213z" />
    <glyph glyph-name="uni049D" unicode="&#x49d;" horiz-adv-x="1083" 
d="M401 158v594h177v-95l202 265h256l-368 -439l399 -483h-266l-223 281v-123h-177zM139 0v922h201v-922h-201z" />
    <glyph glyph-name="uni04A0" unicode="&#x4a0;" horiz-adv-x="1488" 
d="M340 0v1233h-328v201h541v-1434h-213zM1423 1434l-614 -672l651 -762h-272l-621 748l600 686h256z" />
    <glyph glyph-name="uni04A1" unicode="&#x4a1;" horiz-adv-x="1169" 
d="M272 0v733h-252v189h453v-922h-201zM1112 922l-379 -439l420 -483h-266l-391 467l360 455h256z" />
    <glyph glyph-name="uni04A2" unicode="&#x4a2;" horiz-adv-x="1603" 
d="M1143 0v631h-723v-631h-213v1434h213v-603h723v603h211v-1233h194v-463h-198v262h-207z" />
    <glyph glyph-name="uni04A3" unicode="&#x4a3;" horiz-adv-x="1175" 
d="M797 0v371h-457v-371h-201v922h201v-365h457v365h198v-736h152v-407h-186v221h-164z" />
    <glyph glyph-name="uni04A4" unicode="&#x4a4;" horiz-adv-x="1923" 
d="M1333 1233v-1233h-211v631h-702v-631h-213v1434h213v-603h702v603h776v-201h-565z" />
    <glyph glyph-name="uni04A5" unicode="&#x4a5;" horiz-adv-x="1376" 
d="M774 0v371h-432v-371h-201v922h201v-365h432v365h590v-189h-391v-733h-199z" />
    <glyph glyph-name="uni04AA" unicode="&#x4aa;" horiz-adv-x="1343" 
d="M1204 299l82 -160q-56 -59 -149.5 -99t-200.5 -52v-303h-199v301q-289 28 -464 225.5t-175 505.5q0 155 49 289t139 234t228 157t307 57q279 0 436 -141l-96 -158q-148 100 -338 100q-220 0 -359.5 -148t-139.5 -390q0 -240 146 -389.5t380 -149.5q202 0 354 121z" />
    <glyph glyph-name="uni04AB" unicode="&#x4ab;" horiz-adv-x="999" 
d="M844 281l94 -146q-89 -117 -264 -147v-238h-189v236q-186 26 -295.5 153.5t-109.5 321.5q0 203 134 342t339 139q242 0 365 -123l-93 -155q-97 92 -247 92q-115 0 -200 -83t-85 -212q0 -133 87 -215t212 -82q147 0 252 117z" />
    <glyph glyph-name="uni04AE" unicode="&#x4ae;" horiz-adv-x="1261" 
d="M1247 1434l-512 -828v-606h-213v606l-506 828h242l381 -627l377 627h231z" />
    <glyph glyph-name="uni04AF" unicode="&#x4af;" horiz-adv-x="999" 
d="M987 922l-383 -922v-410h-201v410l-391 922h238l213 -545q26 -68 41 -135q9 49 39 137l215 543h229z" />
    <glyph glyph-name="uni04B0" unicode="&#x4b0;" horiz-adv-x="1261" 
d="M1247 1434l-448 -723h223v-201h-287v-510h-213v510h-286v201h223l-443 723h242l381 -627l377 627h231z" />
    <glyph glyph-name="uni04B1" unicode="&#x4b1;" horiz-adv-x="989" 
d="M883 186v-186h-279v-410h-201v410h-278v186h199l-312 736h238l213 -545q26 -68 41 -135q13 68 39 137l215 543h229l-305 -736h201z" />
    <glyph glyph-name="uni04B2" unicode="&#x4b2;" horiz-adv-x="1363" 
d="M1315 1434l-496 -705l373 -528h164v-463h-199v262h-74l-403 567l-399 -567h-250l514 729l-492 705h250l385 -545l377 545h250z" />
    <glyph glyph-name="uni04B3" unicode="&#x4b3;" horiz-adv-x="1052" 
d="M989 922l-317 -443l207 -293h141v-407h-186v221h-68l-242 352l-250 -352h-231l338 469l-318 453h244l223 -328l228 328h231z" />
    <glyph glyph-name="uni04B6" unicode="&#x4b6;" horiz-adv-x="1392" 
d="M1143 1434v-1233h194v-463h-198v262h-209v606q-62 -42 -156.5 -72t-204.5 -30q-88 0 -162.5 24.5t-137 76.5t-98.5 143t-36 213v473h213v-414q0 -318 277 -318q152 0 305 101v631h213z" />
    <glyph glyph-name="uni04B7" unicode="&#x4b7;" horiz-adv-x="1036" 
d="M856 922v-736h152v-407h-187v221h-164v338q-99 -59 -243 -59q-170 0 -250 88.5t-80 267.5v287h213v-263q0 -97 45 -145.5t129 -48.5q113 0 186 47v410h199z" />
    <glyph glyph-name="uni04B8" unicode="&#x4b8;" horiz-adv-x="1347" 
d="M1143 1434v-1434h-213v606q-79 -55 -189 -82v-215h-192v195q-84 2 -156 28.5t-131 78.5t-93 141.5t-34 208.5v473h213v-414q0 -269 201 -311v297h192v-289q96 23 189 86v631h213z" />
    <glyph glyph-name="uni04B9" unicode="&#x4b9;" horiz-adv-x="995" 
d="M856 922v-922h-199v338q-39 -22 -82 -33v-158h-176v142q-162 3 -238.5 89.5t-76.5 256.5v287h213v-263q0 -145 102 -176v207h176v-207q48 9 82 29v410h199z" />
    <glyph glyph-name="uni04BA" unicode="&#x4ba;" horiz-adv-x="1349" 
d="M207 0v1434h213v-670q63 43 156.5 72.5t203.5 29.5q88 0 162.5 -24.5t137 -76t98.5 -142.5t36 -213v-410h-213v350q0 318 -276 318q-152 0 -305 -101v-567h-213z" />
    <glyph glyph-name="uni04BB" unicode="&#x4bb;" horiz-adv-x="1122" 
d="M139 0v1434h201v-607q48 48 124.5 79.5t158.5 31.5q181 0 281 -99t100 -307v-532h-201v504q0 121 -59.5 183.5t-172.5 62.5q-65 0 -127.5 -27.5t-103.5 -71.5v-651h-201z" />
    <glyph glyph-name="uni04C0" unicode="&#x4c0;" horiz-adv-x="698" 
d="M242 0v1434h213v-1434h-213z" />
    <glyph glyph-name="uni04CB" unicode="&#x4cb;" horiz-adv-x="1347" 
d="M1143 1434v-1434h-209v-262h-199v463h195v405q-62 -42 -156.5 -72t-204.5 -30q-88 0 -162.5 24.5t-137 76.5t-98.5 143t-36 213v473h213v-414q0 -318 277 -318q152 0 305 101v631h213z" />
    <glyph glyph-name="uni04CC" unicode="&#x4cc;" horiz-adv-x="995" 
d="M856 922v-922h-164v-221h-186v407h151v152q-99 -59 -243 -59q-170 0 -250 88.5t-80 267.5v287h213v-263q0 -97 45 -145.5t129 -48.5q113 0 186 47v410h199z" />
    <glyph glyph-name="uni04CF" unicode="&#x4cf;" horiz-adv-x="698" 
d="M242 0v1434h213v-1434h-213z" />
    <glyph glyph-name="uni04D0" unicode="&#x4d0;" horiz-adv-x="1454" 
d="M23 0l612 1440h184l611 -1440h-226l-168 401h-633l-165 -401h-215zM721 1161l-234 -561h467zM328 1772h200q35 -125 197 -125q77 0 126.5 31t59.5 94h199q-9 -123 -117.5 -199t-267.5 -76q-170 0 -276 75.5t-121 199.5z" />
    <glyph glyph-name="uni04D1" unicode="&#x4d1;" horiz-adv-x="948" 
d="M201 705l-54 151q64 38 148.5 62t169.5 24q194 0 278 -95t84 -284v-563h-180v113q-95 -125 -285 -125q-128 0 -206 75t-78 207q0 143 94.5 219t245.5 76q61 0 122 -15t99 -42q2 132 -39 197t-154 65q-75 0 -129 -16t-116 -49zM430 160q128 0 209 102v105q-74 53 -184 53
q-73 0 -122.5 -34t-49.5 -99q0 -58 39.5 -92.5t107.5 -34.5zM160 1389h184q3 -73 35.5 -114.5t95.5 -41.5q60 0 91 41.5t34 114.5h184q0 -132 -82.5 -218t-226.5 -86q-155 0 -235 84t-80 220z" />
    <glyph glyph-name="uni04D2" unicode="&#x4d2;" horiz-adv-x="1464" 
d="M23 0l612 1440h184l611 -1440h-226l-168 401h-633l-165 -401h-215zM721 1161l-234 -561h467zM342 1677q0 50 39 79.5t96 29.5q50 0 88.5 -30t38.5 -79q0 -54 -38 -85t-89 -31q-58 0 -96.5 30.5t-38.5 85.5zM817 1677q0 50 39 79.5t96 29.5q52 0 89.5 -29.5t37.5 -79.5
q0 -54 -37 -85t-90 -31q-58 0 -96.5 30.5t-38.5 85.5z" />
    <glyph glyph-name="uni04D3" unicode="&#x4d3;" horiz-adv-x="946" 
d="M201 705l-54 151q64 38 148.5 62t169.5 24q194 0 278 -95t84 -284v-563h-180v113q-95 -125 -285 -125q-128 0 -206 75t-78 207q0 143 94.5 219t245.5 76q61 0 122 -15t99 -42q2 132 -39 197t-154 65q-75 0 -129 -16t-116 -49zM430 160q128 0 209 102v105q-74 53 -184 53
q-73 0 -122.5 -34t-49.5 -99q0 -58 39.5 -92.5t107.5 -34.5zM152 1196q0 51 33.5 83t80.5 32q42 0 74.5 -32.5t32.5 -82.5q0 -54 -32 -86.5t-75 -32.5q-48 0 -81 32t-33 87zM563 1196q0 51 34 83t81 32q43 0 74.5 -32t31.5 -83q0 -55 -31 -87t-75 -32q-48 0 -81.5 32
t-33.5 87z" />
    <glyph glyph-name="uni04D4" unicode="&#x4d4;" horiz-adv-x="1953" 
d="M-45 0l1032 1434h815v-201h-606v-410h545v-198h-545v-424h627v-201h-840v406h-496l-284 -406h-248zM627 606h356v504z" />
    <glyph glyph-name="uni04D5" unicode="&#x4d5;" horiz-adv-x="1570" 
d="M465 942q204 0 287 -106q128 106 319 106q183 0 307.5 -118t124.5 -306q0 -72 -12 -119h-664v-108q34 -64 106 -100.5t169 -36.5q82 0 154 25.5t118 64.5l60 -148q-68 -58 -160 -87t-189 -29q-226 0 -360 131q-151 -127 -326 -127q-154 0 -237.5 76.5t-83.5 215.5
q0 134 94.5 211.5t245.5 77.5q53 0 119 -11.5t98 -25.5q15 240 -182 240q-55 0 -103.5 -10.5t-76.5 -22t-72 -33.5l-54 154q64 38 148.5 62t169.5 24zM827 563v-18h473q-5 102 -68 162.5t-175 60.5q-73 0 -135.5 -33t-98.5 -96q0 -12 2 -37t2 -39zM430 164q69 0 115.5 25.5
t87.5 68.5l2 133q-92 29 -180 29q-72 0 -122 -35t-50 -98q0 -56 40 -89.5t107 -33.5z" />
    <glyph glyph-name="uni04D6" unicode="&#x4d6;" horiz-adv-x="1177" 
d="M207 0v1434h819v-201h-606v-410h545v-198h-545v-424h627v-201h-840zM213 1772h201q35 -125 196 -125q77 0 127 31t60 94h198q-9 -123 -117.5 -199t-267.5 -76q-170 0 -276 75.5t-121 199.5z" />
    <glyph glyph-name="uni04D7" unicode="&#x4d7;" horiz-adv-x="1060" 
d="M864 244l60 -148q-67 -58 -159 -87t-192 -29q-223 0 -358 131.5t-135 349.5q0 207 130 344t351 137q183 0 307.5 -118t124.5 -306q0 -72 -12 -119h-686q12 -116 93 -180.5t206 -64.5q82 0 153 25.5t117 64.5zM553 768q-113 0 -181.5 -60.5t-86.5 -162.5h506
q-3 100 -66.5 161.5t-171.5 61.5zM233 1389h185q3 -73 35.5 -114.5t95.5 -41.5q60 0 91 41.5t34 114.5h184q0 -132 -82.5 -218t-226.5 -86q-155 0 -235.5 84t-80.5 220z" />
    <glyph glyph-name="uni04D8" unicode="&#x4d8;" horiz-adv-x="1597" 
d="M98 831h1172q-31 199 -174.5 311.5t-364.5 112.5q-204 0 -350 -112l-82 160q80 68 206 109.5t275 41.5q158 0 291 -52t227.5 -146.5t147.5 -232t53 -302.5q0 -219 -87.5 -387t-251 -261t-378.5 -93q-162 0 -296.5 60.5t-226.5 169.5t-135.5 269.5t-25.5 351.5zM778 178
q210 0 341 120.5t159 332.5h-961q7 -125 62.5 -226.5t159.5 -164t239 -62.5z" />
    <glyph glyph-name="uni04D9" unicode="&#x4d9;" horiz-adv-x="1060" 
d="M205 678l-58 145q65 59 160.5 89t196.5 30q222 0 349.5 -130.5t127.5 -350.5q0 -136 -53 -243.5t-161 -172.5t-255 -65q-191 0 -317.5 117t-126.5 306q0 79 12 125h692q-11 107 -89 173.5t-198 66.5q-84 0 -159.5 -25.5t-120.5 -64.5zM518 154q111 0 180.5 63t81.5 168
h-506q2 -108 66.5 -169.5t177.5 -61.5z" />
    <glyph glyph-name="uni04DC" unicode="&#x4dc;" horiz-adv-x="1933" 
d="M1880 1434l-559 -684l582 -750h-248l-565 745l544 689h246zM860 0v1434h213v-1434h-213zM612 748l-559 686h246l545 -689l-568 -745h-245zM588 1677q0 50 39 79.5t96 29.5q50 0 88.5 -30t38.5 -79q0 -54 -38 -85t-89 -31q-58 0 -96.5 30.5t-38.5 85.5zM1063 1677
q0 50 39 79.5t96 29.5q52 0 89.5 -29.5t37.5 -79.5q0 -54 -37 -85t-90 -31q-58 0 -96.5 30.5t-38.5 85.5z" />
    <glyph glyph-name="uni04DD" unicode="&#x4dd;" horiz-adv-x="1421" 
d="M1372 922l-319 -447l344 -475h-240l-326 475l302 447h239zM606 0v922h201v-922h-201zM360 475l-319 447h246l295 -447l-320 -475h-239zM395 1196q0 51 34 83t81 32q42 0 74 -32.5t32 -82.5q0 -54 -32 -86.5t-74 -32.5q-48 0 -81.5 32t-33.5 87zM807 1196q0 51 34 83
t81 32q43 0 74.5 -32t31.5 -83q0 -55 -31 -87t-75 -32q-48 0 -81.5 32t-33.5 87z" />
    <glyph glyph-name="uni04DE" unicode="&#x4de;" horiz-adv-x="1191" 
d="M557 -20q-166 0 -291.5 68t-187.5 165l115 143q67 -79 166 -128.5t186 -49.5q129 0 212 63t83 181q0 97 -70 154t-197 57h-155v198h145q89 0 156 61.5t67 156.5q0 100 -65 153t-170 53q-182 0 -309 -157l-123 141q72 98 193 156.5t261 58.5q192 0 308 -101.5t116 -283.5
q0 -93 -50.5 -181.5t-147.5 -142.5v-4q125 -28 189.5 -120t64.5 -220t-70 -225.5t-181.5 -146.5t-244.5 -49zM178 1677q0 50 39 79.5t96 29.5q50 0 88.5 -30t38.5 -79q0 -54 -38 -85t-89 -31q-58 0 -96.5 30.5t-38.5 85.5zM653 1677q0 50 39 79.5t96 29.5q52 0 89.5 -29.5
t37.5 -79.5q0 -54 -37 -85t-90 -31q-58 0 -96.5 30.5t-38.5 85.5z" />
    <glyph glyph-name="uni04DF" unicode="&#x4df;" horiz-adv-x="956" 
d="M455 -20q-116 0 -231 39.5t-161 99.5l103 135q50 -47 126 -77t140 -30q98 0 156.5 36.5t58.5 95.5q0 53 -42 81.5t-118 28.5h-163v148h153q62 0 101.5 34t39.5 86q0 55 -48 86t-132 31q-141 0 -262 -104l-82 133q59 67 159.5 103t221.5 36q172 0 264 -67.5t92 -186.5
q0 -70 -41.5 -126.5t-123.5 -84.5v-4q93 -13 143.5 -73.5t50.5 -143.5q0 -127 -112 -201.5t-293 -74.5zM141 1196q0 51 34 83t81 32q42 0 74 -32.5t32 -82.5q0 -54 -32 -86.5t-74 -32.5q-48 0 -81.5 32t-33.5 87zM553 1196q0 51 34 83t81 32q43 0 74.5 -32t31.5 -83
q0 -55 -31 -87t-75 -32q-48 0 -81.5 32t-33.5 87z" />
    <glyph glyph-name="uni04E2" unicode="&#x4e2;" horiz-adv-x="1626" 
d="M393 0h-186v1434h213v-1084l811 1084h186v-1434h-213v1081zM496 1567v162h626v-162h-626z" />
    <glyph glyph-name="uni04E3" unicode="&#x4e3;" horiz-adv-x="1159" 
d="M340 0h-201v922h201v-635l479 635h201v-922h-201v635zM297 1157v162h557v-162h-557z" />
    <glyph glyph-name="uni04E4" unicode="&#x4e4;" horiz-adv-x="1626" 
d="M393 0h-186v1434h213v-1084l811 1084h186v-1434h-213v1081zM422 1677q0 50 39 79.5t96 29.5q50 0 88.5 -30t38.5 -79q0 -54 -38 -85t-89 -31q-58 0 -96.5 30.5t-38.5 85.5zM897 1677q0 50 39 79.5t96 29.5q52 0 89.5 -29.5t37.5 -79.5q0 -54 -37 -85t-90 -31
q-58 0 -96.5 30.5t-38.5 85.5z" />
    <glyph glyph-name="uni04E5" unicode="&#x4e5;" horiz-adv-x="1159" 
d="M340 0h-201v922h201v-635l479 635h201v-922h-201v635zM252 1196q0 51 34 83t81 32q42 0 74 -32.5t32 -82.5q0 -54 -32 -86.5t-74 -32.5q-48 0 -81.5 32t-33.5 87zM664 1196q0 51 33.5 83t80.5 32q43 0 75 -32t32 -83q0 -55 -31.5 -87t-75.5 -32q-48 0 -81 32t-33 87z" />
    <glyph glyph-name="uni04E6" unicode="&#x4e6;" horiz-adv-x="1671" 
d="M98 717q0 154 55 290t151 234.5t234 155.5t298 57q157 0 293.5 -53.5t234.5 -149t154.5 -233.5t56.5 -301q0 -211 -96.5 -379.5t-265 -263t-377.5 -94.5q-210 0 -377.5 91t-264 260t-96.5 386zM324 717q0 -229 148 -384t364 -155q154 0 272 71.5t180 193.5t62 274
q0 234 -147.5 386t-366.5 152q-221 0 -366.5 -151.5t-145.5 -386.5zM449 1677q0 50 39 79.5t96 29.5q50 0 88.5 -30t38.5 -79q0 -54 -38 -85t-89 -31q-58 0 -96.5 30.5t-38.5 85.5zM924 1677q0 50 39 79.5t96 29.5q52 0 89.5 -29.5t37.5 -79.5q0 -54 -37 -85t-90 -31
q-58 0 -96.5 30.5t-38.5 85.5z" />
    <glyph glyph-name="uni04E7" unicode="&#x4e7;" horiz-adv-x="1155" 
d="M80 461q0 210 137.5 345.5t360.5 135.5q222 0 358.5 -135.5t136.5 -345.5t-136.5 -345.5t-358.5 -135.5q-223 0 -360.5 135.5t-137.5 345.5zM293 461q0 -130 80.5 -213.5t204.5 -83.5t203 82t79 215q0 130 -79.5 212.5t-202.5 82.5q-122 0 -203.5 -82t-81.5 -213z
M246 1196q0 51 33.5 83t80.5 32q42 0 74.5 -32.5t32.5 -82.5q0 -54 -32 -86.5t-75 -32.5q-48 0 -81 32t-33 87zM657 1196q0 51 34 83t81 32q43 0 75 -32t32 -83q0 -55 -31.5 -87t-75.5 -32q-48 0 -81.5 32t-33.5 87z" />
    <glyph glyph-name="uni04E8" unicode="&#x4e8;" horiz-adv-x="1671" 
d="M98 717q0 154 55 290t151 234.5t234 155.5t298 57q157 0 293.5 -53.5t234.5 -149t154.5 -233.5t56.5 -301q0 -211 -96.5 -379.5t-265 -263t-377.5 -94.5q-210 0 -377.5 91t-264 260t-96.5 386zM836 178q209 0 344.5 126.5t162.5 326.5h-1013q28 -198 169.5 -325.5
t336.5 -127.5zM836 1255q-192 0 -330 -116.5t-172 -307.5h1005q-35 190 -174.5 307t-328.5 117z" />
    <glyph glyph-name="uni04E9" unicode="&#x4e9;" horiz-adv-x="1155" 
d="M80 461q0 210 137.5 345.5t360.5 135.5q222 0 358.5 -135.5t136.5 -345.5t-136.5 -345.5t-358.5 -135.5q-223 0 -360.5 135.5t-137.5 345.5zM578 164q100 0 172.5 56t97.5 151h-545q26 -94 100 -150.5t175 -56.5zM578 756q-97 0 -171 -53.5t-102 -145.5h541
q-26 91 -98 145t-170 54z" />
    <glyph glyph-name="uni04EE" unicode="&#x4ee;" horiz-adv-x="1380" 
d="M1354 1434l-492 -1102q-76 -171 -163 -251.5t-210 -80.5q-50 0 -102 15.5t-84 37.5l76 180q53 -34 108 -34q100 0 160 123l21 51l-639 1061h239l502 -850l369 850h215zM412 1567v162h626v-162h-626z" />
    <glyph glyph-name="uni04EF" unicode="&#x4ef;" horiz-adv-x="1017" 
d="M1004 922l-367 -922q-67 -164 -123.5 -253.5t-108.5 -123t-122 -33.5q-96 0 -187 66l64 151q58 -32 100 -32q51 0 91.5 42t78.5 134l21 49l-435 922h238l244 -545q27 -67 51 -135q12 62 37 137l188 543h230zM231 1157v162h557v-162h-557z" />
    <glyph glyph-name="uni04F0" unicode="&#x4f0;" horiz-adv-x="1380" 
d="M1354 1434l-492 -1102q-76 -171 -163 -251.5t-210 -80.5q-50 0 -102 15.5t-84 37.5l76 180q53 -34 108 -34q100 0 160 123l21 51l-639 1061h239l502 -850l369 850h215zM322 1677q0 50 39 79.5t96 29.5q50 0 88.5 -30t38.5 -79q0 -54 -38 -85t-89 -31q-58 0 -96.5 30.5
t-38.5 85.5zM797 1677q0 50 39 79.5t96 29.5q52 0 89.5 -29.5t37.5 -79.5q0 -54 -37 -85t-90 -31q-58 0 -96.5 30.5t-38.5 85.5z" />
    <glyph glyph-name="uni04F1" unicode="&#x4f1;" horiz-adv-x="1017" 
d="M1004 922l-367 -922q-67 -164 -123.5 -253.5t-108.5 -123t-122 -33.5q-96 0 -187 66l64 151q58 -32 100 -32q51 0 91.5 42t78.5 134l21 49l-435 922h238l244 -545q27 -67 51 -135q12 62 37 137l188 543h230zM193 1196q0 51 33.5 83t80.5 32q42 0 74.5 -32.5t32.5 -82.5
q0 -54 -32 -86.5t-75 -32.5q-48 0 -81 32t-33 87zM604 1196q0 51 34 83t81 32q43 0 74.5 -32t31.5 -83q0 -55 -31 -87t-75 -32q-48 0 -81.5 32t-33.5 87z" />
    <glyph glyph-name="uni04F2" unicode="&#x4f2;" horiz-adv-x="1380" 
d="M1354 1434l-492 -1102q-76 -171 -163 -251.5t-210 -80.5q-50 0 -102 15.5t-84 37.5l76 180q53 -34 108 -34q100 0 160 123l21 51l-639 1061h239l502 -850l369 850h215zM1217 1716l-379 -215l-82 86l323 254zM805 1753l-332 -252l-86 80l248 260z" />
    <glyph glyph-name="uni04F3" unicode="&#x4f3;" horiz-adv-x="1017" 
d="M1004 922l-367 -922q-67 -164 -123.5 -253.5t-108.5 -123t-122 -33.5q-96 0 -187 66l64 151q58 -32 100 -32q51 0 91.5 42t78.5 134l21 49l-435 922h238l244 -545q27 -67 51 -135q12 62 37 137l188 543h230zM905 1360l-262 -287l-121 84l236 313zM549 1382l-234 -309
l-118 84l209 332z" />
    <glyph glyph-name="uni04F4" unicode="&#x4f4;" horiz-adv-x="1347" 
d="M1143 1434v-1434h-213v606q-62 -42 -156.5 -72t-204.5 -30q-88 0 -162.5 24.5t-137 76.5t-98.5 143t-36 213v473h213v-414q0 -318 277 -318q152 0 305 101v631h213zM268 1677q0 50 39 79.5t96 29.5q50 0 88.5 -30t38.5 -79q0 -54 -38 -85t-89 -31q-58 0 -96.5 30.5
t-38.5 85.5zM743 1677q0 50 39.5 79.5t96.5 29.5q52 0 89.5 -29.5t37.5 -79.5q0 -54 -37 -85t-90 -31q-58 0 -97 30.5t-39 85.5z" />
    <glyph glyph-name="uni04F5" unicode="&#x4f5;" horiz-adv-x="995" 
d="M856 922v-922h-199v338q-99 -59 -243 -59q-170 0 -250 88.5t-80 267.5v287h213v-263q0 -97 45 -145.5t129 -48.5q113 0 186 47v410h199zM156 1196q0 51 33.5 83t80.5 32q42 0 74.5 -32.5t32.5 -82.5q0 -54 -32 -86.5t-75 -32.5q-48 0 -81 32t-33 87zM567 1196q0 51 34 83
t81 32q43 0 74.5 -32t31.5 -83q0 -55 -31 -87t-75 -32q-48 0 -81.5 32t-33.5 87z" />
    <glyph glyph-name="uni04F6" unicode="&#x4f6;" horiz-adv-x="1036" 
d="M207 0v1434h805v-201h-592v-1032h194v-463h-198v262h-209z" />
    <glyph glyph-name="uni04F7" unicode="&#x4f7;" horiz-adv-x="753" 
d="M139 0v922h602v-189h-401v-547h152v-407h-187v221h-166z" />
    <glyph glyph-name="uni04F8" unicode="&#x4f8;" horiz-adv-x="1748" 
d="M1331 0v1434h213v-1434h-213zM578 733q-64 0 -158 -12v-520q25 0 74.5 -2t78.5 -2q158 0 241 70t83 208q0 126 -82.5 192t-236.5 66zM420 1434v-512q90 10 174 10q262 0 395 -120.5t133 -332.5q0 -227 -151.5 -355t-421.5 -128q-71 0 -188.5 2t-153.5 2v1434h213z
M496 1677q0 50 39 79.5t96 29.5q50 0 88.5 -30t38.5 -79q0 -54 -38 -85t-89 -31q-58 0 -96.5 30.5t-38.5 85.5zM971 1677q0 50 39 79.5t96 29.5q52 0 89.5 -29.5t37.5 -79.5q0 -54 -37 -85t-90 -31q-58 0 -96.5 30.5t-38.5 85.5z" />
    <glyph glyph-name="uni04F9" unicode="&#x4f9;" horiz-adv-x="1349" 
d="M139 0v922h201v-265h131q87 0 154.5 -17.5t110.5 -46.5t70.5 -70.5t38.5 -86t11 -96.5q0 -67 -21.5 -125.5t-66.5 -108t-125 -78t-188 -28.5h-316zM1012 0v922h198v-922h-198zM446 487h-106v-307h104q201 0 201 152q0 155 -199 155zM362 1196q0 51 34 83t81 32
q42 0 74.5 -32.5t32.5 -82.5q0 -54 -32 -86.5t-75 -32.5q-48 0 -81.5 32t-33.5 87zM774 1196q0 51 34 83t81 32q43 0 74.5 -32t31.5 -83q0 -55 -31 -87t-75 -32q-48 0 -81.5 32t-33.5 87z" />
    <glyph glyph-name="uni1E9E" unicode="&#x1e9e;" horiz-adv-x="1349" 
d="M1014 365q0 26 -8 53t-19 49.5t-34.5 50t-41.5 46.5t-53.5 47t-57 44.5t-66.5 46.5t-67 44t-72 46q-7 5 -11 7l272 381q-26 32 -80 53.5t-117 21.5q-109 0 -174 -66.5t-65 -201.5v-991h-213v979q0 124 34.5 217.5t97 150t145.5 84t186 27.5q124 0 241.5 -57t202.5 -168
l-278 -367q403 -235 403 -528q0 -79 -32 -147t-83.5 -112.5t-115 -69.5t-127.5 -25q-119 0 -197.5 34.5t-144.5 91.5l92 168q46 -37 65 -51t58 -29.5t80 -15.5q74 0 127 51.5t53 135.5z" />
    <glyph glyph-name="uni2010" unicode="&#x2010;" horiz-adv-x="782" 
d="M139 467v184h504v-184h-504z" />
    <glyph glyph-name="uni2011" unicode="&#x2011;" horiz-adv-x="782" 
d="M139 467v184h504v-184h-504z" />
    <glyph glyph-name="figuredash" unicode="&#x2012;" horiz-adv-x="1220" 
d="M180 639v172h862v-172h-862z" />
    <glyph glyph-name="endash" unicode="&#x2013;" horiz-adv-x="1220" 
d="M180 467v172h862v-172h-862z" />
    <glyph glyph-name="emdash" unicode="&#x2014;" horiz-adv-x="1656" 
d="M180 467v172h1299v-172h-1299z" />
    <glyph glyph-name="uni2015" unicode="&#x2015;" horiz-adv-x="1656" 
d="M180 467v172h1299v-172h-1299z" />
    <glyph glyph-name="quoteleft" unicode="&#x2018;" horiz-adv-x="491" 
d="M348 1128l-168 -100q-30 32 -47.5 81t-17.5 99q0 120 55.5 203t132.5 127l94 -88q-45 -33 -69.5 -85.5t-24.5 -111.5q0 -83 45 -125z" />
    <glyph glyph-name="quoteright" unicode="&#x2019;" horiz-adv-x="491" 
d="M143 1432l168 98q31 -31 48.5 -79t17.5 -99q0 -120 -55.5 -203t-133.5 -127l-94 86q94 76 94 201q0 81 -45 123z" />
    <glyph glyph-name="quotesinglbase" unicode="&#x201a;" horiz-adv-x="491" 
d="M143 70l168 98q31 -31 48.5 -79t17.5 -99q0 -120 -55.5 -203t-133.5 -127l-94 86q94 76 94 201q0 81 -45 123z" />
    <glyph glyph-name="quotedblleft" unicode="&#x201c;" horiz-adv-x="806" 
d="M664 1128l-168 -100q-30 32 -48 81t-18 99q0 120 55.5 203t132.5 127l95 -88q-45 -33 -70 -85.5t-25 -111.5q0 -82 46 -125zM348 1128l-168 -100q-30 32 -47.5 81t-17.5 99q0 120 55.5 203t132.5 127l94 -88q-45 -33 -69.5 -85.5t-24.5 -111.5q0 -83 45 -125z" />
    <glyph glyph-name="quotedblright" unicode="&#x201d;" horiz-adv-x="806" 
d="M459 1432l168 98q30 -30 47.5 -78t17.5 -100q0 -120 -55.5 -203t-132.5 -127l-94 86q94 76 94 201q0 81 -45 123zM143 1432l168 98q31 -31 48.5 -79t17.5 -99q0 -120 -55.5 -203t-133.5 -127l-94 86q94 76 94 201q0 81 -45 123z" />
    <glyph glyph-name="quotedblbase" unicode="&#x201e;" horiz-adv-x="806" 
d="M459 70l168 98q30 -30 47.5 -78t17.5 -100q0 -120 -55.5 -203t-132.5 -127l-94 86q94 76 94 201q0 81 -45 123zM143 70l168 98q31 -31 48.5 -79t17.5 -99q0 -120 -55.5 -203t-133.5 -127l-94 86q94 76 94 201q0 81 -45 123z" />
    <glyph glyph-name="dagger" unicode="&#x2020;" horiz-adv-x="972" 
d="M82 823v176h311v435h187v-435h311v-176h-311v-1028h-187v1028h-311z" />
    <glyph glyph-name="daggerdbl" unicode="&#x2021;" horiz-adv-x="972" 
d="M82 823v176h311v435h187v-435h311v-176h-311v-356h311v-176h-311v-496h-187v496h-311v176h311v356h-311z" />
    <glyph glyph-name="bullet" unicode="&#x2022;" horiz-adv-x="528" 
d="M57 541q0 85 60 146t145 61q86 0 147.5 -61t61.5 -146t-61.5 -147t-147.5 -62q-84 0 -144.5 62t-60.5 147z" />
    <glyph glyph-name="ellipsis" unicode="&#x2026;" horiz-adv-x="1753" 
d="M1358 131q0 51 39 91t100 40q55 0 92 -40.5t37 -90.5q0 -56 -37 -97.5t-92 -41.5q-62 0 -100.5 41t-38.5 98zM743 131q0 50 39.5 90.5t100.5 40.5q55 0 92 -40.5t37 -90.5q0 -56 -37 -97.5t-92 -41.5q-62 0 -101 41.5t-39 97.5zM129 131q0 51 39 91t100 40q55 0 92 -40.5
t37 -90.5q0 -56 -37 -97.5t-92 -41.5q-62 0 -100.5 41t-38.5 98z" />
    <glyph glyph-name="perthousand" unicode="&#x2030;" horiz-adv-x="2707" 
d="M1847 340q0 160 109 258t280 98q169 0 279.5 -98.5t110.5 -257.5q0 -158 -110.5 -257t-279.5 -99q-170 0 -279.5 98.5t-109.5 257.5zM2034 340q0 -87 58.5 -141t143.5 -54q86 0 143.5 53.5t57.5 141.5q0 87 -58 141t-143 54q-87 0 -144.5 -53.5t-57.5 -141.5zM336 59
l1044 1395l113 -84l-1042 -1390zM86 1094q0 160 109 258t280 98q169 0 279 -98.5t110 -257.5q0 -158 -110 -257.5t-279 -99.5q-170 0 -279.5 99t-109.5 258zM272 1094q0 -87 58.5 -141t144.5 -54t143.5 53.5t57.5 141.5q0 87 -58 140.5t-143 53.5q-87 0 -145 -53.5
t-58 -140.5zM969 340q0 160 109 258t280 98q169 0 279 -98.5t110 -257.5q0 -158 -110 -257t-279 -99q-170 0 -279.5 98.5t-109.5 257.5zM1155 340q0 -87 58.5 -141t144.5 -54t143.5 53.5t57.5 141.5q0 87 -58 141t-143 54q-87 0 -145 -54t-58 -141z" />
    <glyph glyph-name="guilsinglleft" unicode="&#x2039;" horiz-adv-x="708" 
d="M471 53l-387 455v8l395 453l129 -117l-293 -340l291 -344z" />
    <glyph glyph-name="guilsinglright" unicode="&#x203a;" horiz-adv-x="708" 
d="M623 508l-385 -455l-136 115l291 344l-295 340l131 117l394 -453v-8z" />
    <glyph glyph-name="fraction" unicode="&#x2044;" horiz-adv-x="419" 
d="M-369 59l1045 1395l112 -84l-1042 -1390z" />
    <glyph glyph-name="zerosuperior" unicode="&#x2070;" horiz-adv-x="800" 
d="M78 1075q0 161 84 264t239 103q153 0 238.5 -105t85.5 -262q0 -159 -85 -262.5t-239 -103.5q-155 0 -239 101t-84 265zM262 1075q0 -111 37 -165t102 -54q70 0 103 53t33 166q0 219 -136 219q-139 0 -139 -219z" />
    <glyph glyph-name="foursuperior" unicode="&#x2074;" horiz-adv-x="743" 
d="M424 717v151h-395v117l329 449h166l-319 -428h219v172h162v-172h116v-138h-116v-151h-162z" />
    <glyph glyph-name="fivesuperior" unicode="&#x2075;" horiz-adv-x="700" 
d="M127 1034l41 400h446v-136h-323l-21 -139q60 15 99 15q118 0 189 -59.5t71 -160.5q0 -117 -84 -183t-217 -66q-212 0 -289 118l90 95q27 -34 73.5 -56t96.5 -22q70 0 106.5 28t36.5 78q0 47 -44 76t-128 29q-97 0 -143 -17z" />
    <glyph glyph-name="sixsuperior" unicode="&#x2076;" horiz-adv-x="794" 
d="M70 987q0 122 67.5 225t184 165t256.5 69l36 -119q-132 -15 -226.5 -79.5t-129.5 -162.5q34 34 87.5 56t117.5 22q120 0 192 -59.5t72 -159.5q0 -104 -89.5 -171.5t-221.5 -67.5q-166 0 -256 77.5t-90 204.5zM258 963q0 -49 42 -86t116 -37q56 0 90.5 29t34.5 71
q0 43 -34.5 71.5t-96.5 28.5q-51 0 -91 -22.5t-61 -54.5z" />
    <glyph glyph-name="sevensuperior" unicode="&#x2077;" horiz-adv-x="657" 
d="M33 1286v148h594v-107l-320 -610h-188l305 569h-391z" />
    <glyph glyph-name="eightsuperior" unicode="&#x2078;" horiz-adv-x="823" 
d="M401 1147h25q49 0 80 24t31 58q0 37 -35.5 59.5t-91.5 22.5q-53 0 -87 -23t-34 -61q0 -35 32 -57.5t80 -22.5zM424 1024h-18q-61 0 -102.5 -25.5t-41.5 -64.5q0 -42 39.5 -68t110.5 -26q66 0 107.5 26t41.5 68t-39 66t-98 24zM414 705q-145 0 -234.5 53.5t-89.5 144.5
q0 135 143 180v4q-118 42 -118 170q0 84 83.5 136.5t213.5 52.5t213.5 -52.5t83.5 -136.5q0 -56 -33 -102t-98 -68v-2q69 -12 112 -57.5t43 -112.5q0 -99 -87.5 -154.5t-231.5 -55.5z" />
    <glyph glyph-name="ninesuperior" unicode="&#x2079;" horiz-adv-x="794" 
d="M725 1141q0 -129 -67 -227.5t-183 -151.5t-266 -57l-29 122q150 14 250 80t107 158q-32 -41 -86.5 -66.5t-118.5 -25.5q-118 0 -192 64.5t-74 160.5q0 111 89 179.5t222 68.5q169 0 258.5 -81.5t89.5 -223.5zM537 1176q-3 59 -44 97t-116 38q-54 0 -88.5 -29.5
t-34.5 -71.5q0 -45 34.5 -79.5t96.5 -34.5q51 0 91 23.5t61 56.5z" />
    <glyph glyph-name="uni207A" unicode="&#x207a;" horiz-adv-x="737" 
d="M90 1016v137h209v203h135v-203h213v-137h-213v-205h-135v205h-209z" />
    <glyph glyph-name="uni207B" unicode="&#x207b;" horiz-adv-x="737" 
d="M90 1016v137h557v-137h-557z" />
    <glyph glyph-name="uni207C" unicode="&#x207c;" horiz-adv-x="737" 
d="M90 868v138h557v-138h-557zM90 1163v137h557v-137h-557z" />
    <glyph glyph-name="uni207D" unicode="&#x207d;" horiz-adv-x="458" 
d="M438 729l-102 -100q-75 38 -130 91.5t-85.5 113t-45 118.5t-14.5 119q0 121 67 237t208 203l92 -98q-99 -69 -145.5 -150t-46.5 -192q0 -211 202 -342z" />
    <glyph glyph-name="uni207E" unicode="&#x207e;" horiz-adv-x="458" 
d="M20 1409l103 102q97 -50 161 -128t88.5 -155t24.5 -159q0 -121 -67.5 -237t-208.5 -203l-92 100q99 65 145.5 146.5t46.5 193.5q0 108 -54.5 194.5t-146.5 145.5z" />
    <glyph glyph-name="zeroinferior" unicode="&#x2080;" horiz-adv-x="800" 
d="M78 358q0 161 84 264t239 103q153 0 238.5 -105t85.5 -262q0 -159 -85 -262.5t-239 -103.5q-155 0 -239 101t-84 265zM262 358q0 -111 37 -165t102 -54q70 0 103 53t33 166q0 220 -136 220q-68 0 -103.5 -56t-35.5 -164z" />
    <glyph glyph-name="oneinferior" unicode="&#x2081;" horiz-adv-x="532" 
d="M39 567l223 150h125v-717h-174v516l-109 -67z" />
    <glyph glyph-name="twoinferior" unicode="&#x2082;" horiz-adv-x="729" 
d="M66 0v127q183 114 250 167q134 107 135 185q0 43 -29 71t-78 28q-45 0 -83 -34t-44 -77l-145 49q17 98 94 153.5t194 55.5q132 0 203.5 -61.5t71.5 -161.5q0 -192 -340 -355h375v-147h-604z" />
    <glyph glyph-name="threeinferior" unicode="&#x2083;" horiz-adv-x="729" 
d="M352 -12q-103 0 -186 37.5t-123 109.5l100 94q23 -43 74 -70.5t107 -27.5q69 0 105 24.5t36 65.5q0 35 -34 57.5t-99 22.5h-66v123h60q50 0 81 24.5t31 63.5q0 34 -29 54t-81 20q-111 0 -178 -86l-84 94q37 61 111 98t185 37q117 0 191 -49.5t74 -132.5q0 -63 -42 -107.5
t-114 -62.5v-2q86 -6 133 -54t47 -116q0 -98 -87 -157.5t-212 -59.5z" />
    <glyph glyph-name="fourinferior" unicode="&#x2084;" horiz-adv-x="743" 
d="M424 0v152h-395v116l329 449h166l-319 -428h219v172h162v-172h116v-137h-116v-152h-162z" />
    <glyph glyph-name="fiveinferior" unicode="&#x2085;" horiz-adv-x="700" 
d="M127 317l41 400h446v-135h-323l-21 -140q60 15 99 15q118 0 189 -59t71 -160q0 -117 -84 -183.5t-217 -66.5q-212 0 -289 118l90 95q27 -34 73.5 -56t96.5 -22q70 0 106.5 28t36.5 78q0 47 -44 76t-128 29q-97 0 -143 -17z" />
    <glyph glyph-name="sixinferior" unicode="&#x2086;" horiz-adv-x="794" 
d="M70 270q0 122 67.5 225t184 165t256.5 69l36 -119q-132 -15 -226.5 -79t-129.5 -162q33 33 87 55t118 22q120 0 192 -59.5t72 -159.5q0 -104 -89.5 -171.5t-221.5 -67.5q-166 0 -256 77.5t-90 204.5zM258 246q0 -49 42 -86t116 -37q56 0 90.5 29t34.5 71q0 43 -34.5 72
t-96.5 29q-51 0 -90.5 -23t-61.5 -55z" />
    <glyph glyph-name="seveninferior" unicode="&#x2087;" horiz-adv-x="657" 
d="M33 569v148h594v-107l-320 -610h-188l305 569h-391z" />
    <glyph glyph-name="eightinferior" unicode="&#x2088;" horiz-adv-x="823" 
d="M401 430h25q49 0 80 24t31 58q0 37 -35.5 59.5t-91.5 22.5q-53 0 -87 -23t-34 -61q0 -35 32 -57.5t80 -22.5zM424 307h-18q-61 0 -102.5 -25.5t-41.5 -64.5q0 -42 39.5 -68t110.5 -26q66 0 107.5 26t41.5 68t-39 66t-98 24zM414 -12q-145 0 -234.5 53.5t-89.5 144.5
q0 68 38 114t105 67v4q-118 42 -118 170q0 84 83.5 136t213.5 52t213.5 -52t83.5 -136q0 -56 -33 -102t-98 -68v-2q69 -12 112 -57.5t43 -112.5q0 -99 -87.5 -155t-231.5 -56z" />
    <glyph glyph-name="nineinferior" unicode="&#x2089;" horiz-adv-x="794" 
d="M725 424q0 -129 -67 -227.5t-183 -151.5t-266 -57l-29 123q150 14 250 79.5t107 157.5q-32 -41 -86.5 -66.5t-118.5 -25.5q-118 0 -192 64.5t-74 160.5q0 111 89 179.5t222 68.5q169 0 258.5 -81.5t89.5 -223.5zM537 459q-3 59 -44 97t-116 38q-54 0 -88.5 -29t-34.5 -71
q0 -45 34.5 -80t96.5 -35q51 0 91 23.5t61 56.5z" />
    <glyph glyph-name="uni208A" unicode="&#x208a;" horiz-adv-x="737" 
d="M90 299v137h209v203h135v-203h213v-137h-213v-205h-135v205h-209z" />
    <glyph glyph-name="uni208B" unicode="&#x208b;" horiz-adv-x="737" 
d="M90 299v137h557v-137h-557z" />
    <glyph glyph-name="uni208C" unicode="&#x208c;" horiz-adv-x="737" 
d="M90 152v137h557v-137h-557zM90 446v138h557v-138h-557z" />
    <glyph glyph-name="uni208D" unicode="&#x208d;" horiz-adv-x="458" 
d="M438 12l-102 -100q-75 38 -130 91.5t-85.5 113t-45 118.5t-14.5 119q0 122 67 238t208 203l92 -99q-99 -69 -145.5 -150t-46.5 -192q0 -211 202 -342z" />
    <glyph glyph-name="uni208E" unicode="&#x208e;" horiz-adv-x="458" 
d="M20 692l103 103q74 -38 129 -91.5t85.5 -113.5t45 -119t14.5 -119q0 -121 -67.5 -237t-208.5 -203l-92 100q99 65 145.5 146.5t46.5 193.5q0 108 -54.5 194.5t-146.5 145.5z" />
    <glyph glyph-name="Euro" unicode="&#x20ac;" horiz-adv-x="1216" 
d="M37 827l61 160h154q68 212 241 339.5t420 127.5q76 0 152.5 -16t122.5 -41l-76 -185q-81 43 -199 43q-140 0 -251.5 -70t-169.5 -198h561l-62 -160h-549q-8 -74 -8 -110q0 -45 6 -82h500l-53 -162h-404q60 -138 182 -216.5t279 -78.5q114 0 186 35l35 -193
q-75 -40 -239 -40q-252 0 -434 131.5t-250 361.5h-203l61 162h113q-4 50 -4 82q0 36 8 110h-180z" />
    <glyph glyph-name="uni20AE" unicode="&#x20ae;" horiz-adv-x="1228" 
d="M246 582v166l262 118v367h-442v201h1097v-201h-442v-268l262 120v-163l-262 -121v-193l262 121v-164l-262 -121v-444h-213v346l-262 -121v166l262 119v192z" />
    <glyph glyph-name="uni20B4" unicode="&#x20b4;" horiz-adv-x="1228" 
d="M143 831v164h607q24 46 24 99q0 76 -42.5 118.5t-121.5 42.5q-145 0 -254 -98l-102 150q63 72 159.5 109.5t209.5 37.5q167 0 267.5 -87.5t100.5 -227.5q0 -88 -37 -144h131v-164h-235q-33 -34 -136 -112l-104 -78h475v-162h-618q-47 -53 -47 -127q0 -81 64 -127.5
t163 -46.5q165 0 283 129l106 -135q-66 -92 -174.5 -142t-243.5 -50q-102 0 -190.5 37.5t-147.5 116.5t-59 185q0 98 43 160h-121v162h242q54 50 244 190h-486z" />
    <glyph glyph-name="uni20B8" unicode="&#x20b8;" horiz-adv-x="1228" 
d="M86 874v201h1057v-201h-422v-874h-213v874h-422zM86 1270v164h1057v-164h-1057z" />
    <glyph glyph-name="uni20BA" unicode="&#x20ba;" horiz-adv-x="1228" 
d="M41 776v166l174 80v412h213v-314l352 162v-164l-352 -164v-190l352 162v-164l-352 -164v-397h109q194 0 289.5 124t93.5 361h215q0 -324 -152 -505t-414 -183l-354 2v500l-174 -80v166l174 80v190z" />
    <glyph glyph-name="uni20BD" unicode="&#x20bd;" horiz-adv-x="1228" 
d="M33 621v161h209v652q38 0 189 2t200 2q545 0 545 -414q0 -184 -134.5 -293.5t-386.5 -109.5h-200v-193h344v-162h-344v-266h-213v266h-209v162h209v193h-209zM653 1237q-132 0 -198 -4v-451h192q142 0 222.5 55.5t80.5 170.5q0 119 -73 174t-224 55z" />
    <glyph glyph-name="uni20BF" unicode="&#x20bf;" horiz-adv-x="1228" 
d="M193 2v1428q22 0 116 4v184h176v-180q37 2 111 2q28 0 82 -4v182h176v-219q209 -82 209 -314q0 -123 -61 -205.5t-164 -121.5v-4q126 -26 200 -111.5t74 -226.5q0 -143 -68 -238t-190 -141v-242h-176v203q-46 -6 -94 -6h-99v-197h-176v201zM610 635h-204v-434
q82 -8 194 -8q143 0 221 59t78 174q0 102 -75.5 155.5t-213.5 53.5zM592 1241q-92 0 -186 -8v-412h198q107 0 176.5 56t69.5 159q0 99 -67 152t-191 53z" />
    <glyph glyph-name="uni20C0" unicode="&#x20c0;" horiz-adv-x="1228" 
d="M88 0v164h1083v-164h-1083zM1034 616l82 -159q-72 -75 -183.5 -117.5t-244.5 -42.5q-120 0 -221 32.5t-171 88t-118.5 129.5t-71 155.5t-22.5 167.5q0 111 39.5 213.5t114 186.5t194.5 134t268 50q253 0 410 -141l-96 -158q-76 52 -144.5 76t-169.5 24
q-98 0 -174.5 -32.5t-123 -87.5t-70 -122.5t-23.5 -142.5q0 -69 22.5 -132.5t67.5 -119t124.5 -89t183.5 -33.5q176 0 327 120z" />
    <glyph glyph-name="uni2116" unicode="&#x2116;" horiz-adv-x="2420" 
d="M1376 0h-168l-802 1061v-1061h-199v1434h170l801 -1065v1065h198v-1434zM1505 991q0 159 110 258t279 99t279.5 -99t110.5 -258q0 -158 -110.5 -257t-279.5 -99t-279 99t-110 257zM1692 991q0 -87 59 -140.5t143 -53.5q87 0 145 53.5t58 140.5t-58.5 141t-144.5 54
q-87 0 -144.5 -53.5t-57.5 -141.5zM1579 340v184h629v-184h-629z" />
    <glyph glyph-name="trademark" unicode="&#x2122;" horiz-adv-x="1753" 
d="M778 788v646h168l258 -254l246 254h164v-646h-189v408l-225 -233h-4l-229 233v-408h-189zM33 1253v181h655v-181h-233v-465h-189v465h-233z" />
    <glyph glyph-name="arrowleft" unicode="&#x2190;" horiz-adv-x="1316" 
d="M662 1139l141 -144l-340 -336h772v-200h-772l340 -340l-141 -139l-580 579z" />
    <glyph glyph-name="arrowup" unicode="&#x2191;" horiz-adv-x="1323" 
d="M221 432l-139 141l577 580l582 -580l-143 -141l-338 338v-770h-199v770z" />
    <glyph glyph-name="arrowright" unicode="&#x2192;" horiz-adv-x="1316" 
d="M514 995l141 144l580 -580l-580 -579l-141 139l338 340h-770v200h770z" />
    <glyph glyph-name="arrowdown" unicode="&#x2193;" horiz-adv-x="1323" 
d="M82 539l139 141l340 -340v772h199v-772l338 340l143 -141l-582 -580z" />
    <glyph glyph-name="partialdiff" unicode="&#x2202;" horiz-adv-x="1210" 
d="M80 414q0 142 63 262t181.5 193t267.5 73q121 0 204.5 -46.5t121.5 -113.5q0 217 -127.5 349t-380.5 145l28 178q329 -9 510.5 -187t181.5 -495q0 -128 -23.5 -244.5t-73 -216.5t-119.5 -173.5t-168 -115.5t-214 -42q-202 0 -327 124t-125 310zM293 430
q0 -111 72.5 -188.5t191.5 -77.5q73 0 135 36t104.5 96.5t69 136.5t35.5 161q-110 162 -299 162q-132 0 -220.5 -96t-88.5 -230z" />
    <glyph glyph-name="product" unicode="&#x220f;" horiz-adv-x="1804" 
d="M1384 -410v1643h-964v-1643h-213v1844h1390v-1844h-213z" />
    <glyph glyph-name="summation" unicode="&#x2211;" horiz-adv-x="1306" 
d="M680 512l-598 776v146h1143v-201h-844l545 -721l-557 -721h856v-201h-1143v144z" />
    <glyph glyph-name="minus" unicode="&#x2212;" horiz-adv-x="1216" 
d="M139 651v172h938v-172h-938z" />
    <glyph glyph-name="uni2215" unicode="&#x2215;" horiz-adv-x="710" 
d="M-61 -369l679 1823l154 -57l-678 -1823z" />
    <glyph glyph-name="radical" unicode="&#x221a;" horiz-adv-x="1255" 
d="M12 721v201h348l328 -586l258 1098h586v-201h-410l-303 -1239h-172l-424 727h-211z" />
    <glyph glyph-name="infinity" unicode="&#x221e;" horiz-adv-x="1538" 
d="M1126 360q-113 0 -199.5 53t-160.5 144q-70 -93 -148.5 -145t-187.5 -52q-84 0 -158.5 39.5t-124 118.5t-49.5 180q0 139 93.5 240.5t242.5 101.5q71 0 135 -30t107.5 -71.5t89.5 -102.5q33 46 64.5 79t74.5 63t97.5 46t119.5 16q145 0 232.5 -98t87.5 -252
q0 -134 -87.5 -232t-228.5 -98zM1090 868q-66 0 -117 -43t-107 -125q63 -81 117.5 -124.5t118.5 -43.5q69 0 110 48.5t41 115.5q0 72 -43.5 122t-119.5 50zM451 532q67 0 117 40.5t100 115.5q-33 46 -53 71t-48.5 54t-56.5 42t-59 13q-75 0 -121.5 -49.5t-46.5 -120.5
q0 -76 50 -121t118 -45z" />
    <glyph glyph-name="integral" unicode="&#x222b;" horiz-adv-x="671" 
d="M354 -25q0 -190 -56.5 -289t-199.5 -108q-41 -5 -98 2q-94 9 -152 55l56 160q58 -35 112 -35q80 0 110 59t30 169v1083q0 178 75 274t215 105q45 5 103 -4q113 -11 184 -74l-69 -153q-48 38 -111 43q-55 6 -98 -9q-46 -16 -73.5 -66t-27.5 -134v-1078z" />
    <glyph glyph-name="approxequal" unicode="&#x2248;" horiz-adv-x="1216" 
d="M182 422l-88 127q66 72 142 114t147 42q56 0 123 -22.5t118.5 -49.5t117 -49.5t118.5 -22.5q44 0 93 26t89 68l80 -139q-61 -58 -131 -92.5t-135 -34.5q-55 0 -121 22t-117 48.5t-113.5 48.5t-111.5 22q-99 0 -211 -108zM182 799l-88 127q66 72 142 113.5t147 41.5
q56 0 123 -22.5t118.5 -49t117 -49t118.5 -22.5q44 0 93 26t89 68l80 -139q-61 -58 -131 -92.5t-135 -34.5q-55 0 -121 22t-117 48.5t-113.5 48.5t-111.5 22q-99 0 -211 -108z" />
    <glyph glyph-name="notequal" unicode="&#x2260;" horiz-adv-x="1216" 
d="M139 840v174h479l166 440l154 -57l-143 -383h282v-174h-348l-74 -205h422v-174h-487l-180 -481l-156 57l158 424h-273v174h338l76 205h-414z" />
    <glyph glyph-name="lessequal" unicode="&#x2264;" horiz-adv-x="1216" 
d="M109 508v184l925 -540v-193zM1034 338l-925 551v84l925 547v-217l-649 -373l649 -375v-217z" />
    <glyph glyph-name="greaterequal" unicode="&#x2265;" horiz-adv-x="1216" 
d="M1106 692v-184l-926 -549v193zM1106 889l-926 -551v217l651 375l-651 373v217l926 -547v-84z" />
    <glyph glyph-name="angleleft" unicode="&#x2329;" horiz-adv-x="862" 
d="M776 1434l-434 -717l434 -717h-227l-434 713v8l434 713h227z" />
    <glyph glyph-name="angleright" unicode="&#x232a;" horiz-adv-x="862" 
d="M520 717l-434 717h227l435 -713v-8l-435 -713h-227z" />
    <glyph glyph-name="lozenge" unicode="&#x25ca;" horiz-adv-x="989" 
d="M414 -6l-342 516l344 547h159l343 -525l-345 -538h-159zM274 512l222 -334l221 354l-221 328z" />
    <glyph glyph-name="spade" unicode="&#x2660;" horiz-adv-x="1294" 
d="M647 1044q112 -70 230.5 -181.5t206 -239t87.5 -215.5q0 -87 -60.5 -150t-178.5 -63q-163 0 -268 147q28 -119 79 -203.5t140 -138.5h-471q150 107 215 336q-103 -141 -265 -141q-118 0 -178.5 63.5t-60.5 151.5q0 66 51.5 157t130 179t169.5 167.5t173 130.5z" />
    <glyph glyph-name="club" unicode="&#x2663;" horiz-adv-x="1253" 
d="M362 780q0 109 78 186.5t187 77.5t186.5 -77.5t77.5 -186.5q0 -15 -4 -39q102 -8 172.5 -83.5t70.5 -178.5q0 -109 -77.5 -186.5t-186.5 -77.5q-65 0 -121 29.5t-92 79.5q64 -236 209 -324h-471q130 92 205 319q-37 -46 -93 -75t-116 -29q-109 0 -186.5 77.5t-77.5 186.5
q0 103 70.5 178.5t171.5 83.5q-3 18 -3 39z" />
    <glyph glyph-name="heart" unicode="&#x2665;" horiz-adv-x="1329" 
d="M666 0q-86 65 -179 158.5t-175.5 197.5t-135.5 212.5t-53 189.5q0 51 14.5 97t43.5 84.5t78 61.5t112 23q182 0 295 -213q109 213 292 213q83 0 141 -40t82.5 -98t24.5 -126q0 -82 -53 -191t-135 -213t-174 -197.5t-178 -158.5z" />
    <glyph glyph-name="diamond" unicode="&#x2666;" horiz-adv-x="1193" 
d="M1071 510q-222 -222 -475 -549q-213 280 -473 549q221 231 473 551q256 -324 475 -551z" />
    <glyph glyph-name="uniF350" unicode="&#xf350;" horiz-adv-x="1228" 
d="M18 0l502 1079h189l503 -1079h-229l-115 254h-520l-115 -254h-215zM610 827l-172 -374h340z" />
    <glyph glyph-name="uniF351" unicode="&#xf351;" horiz-adv-x="1085" 
d="M166 0v1075h735v-198h-524v-211q60 8 184 8q198 0 306 -84.5t108 -241.5q0 -179 -118.5 -267.5t-342.5 -88.5q-78 0 -200 4t-148 4zM537 475q-107 0 -160 -8v-270q98 -4 160 -4q119 0 172 36t53 107q0 69 -54 104t-171 35z" />
    <glyph glyph-name="uniF352" unicode="&#xf352;" horiz-adv-x="1089" 
d="M166 2v1071q264 8 383 8q202 0 297.5 -73.5t95.5 -192.5q0 -90 -48.5 -156t-135.5 -94v-4q106 -15 163.5 -76t57.5 -166q0 -161 -122 -244t-320 -83q-254 0 -371 10zM561 449h-184v-248q58 -8 176 -8q213 0 213 133q0 60 -53 91.5t-152 31.5zM545 881q-94 0 -168 -4v-242
h176q76 0 126 32.5t50 92.5q0 121 -184 121z" />
    <glyph glyph-name="uniF353" unicode="&#xf353;" horiz-adv-x="888" 
d="M166 0v1075h698v-198h-487v-877h-211z" />
    <glyph glyph-name="uniF354" unicode="&#xf354;" horiz-adv-x="1290" 
d="M20 -188v389h130q51 56 110 232t72 427l12 215h741v-874h162v-389h-198v188h-828v-188h-201zM530 713q-18 -195 -63 -333t-84 -179h489v676h-323z" />
    <glyph glyph-name="uniF355" unicode="&#xf355;" horiz-adv-x="1009" 
d="M166 0v1075h715v-198h-504v-234h454v-201h-454v-241h522v-201h-733z" />
    <glyph glyph-name="uniF356" unicode="&#xf356;" horiz-adv-x="1640" 
d="M481 561l-440 514h258l416 -510v510h213v-510l413 510h258l-440 -510l459 -565h-258l-432 555v-555h-213v555l-432 -555h-258z" />
    <glyph glyph-name="uniF357" unicode="&#xf357;" horiz-adv-x="1036" 
d="M492 -20q-150 0 -265.5 56t-169.5 130l119 143q57 -58 139.5 -93.5t178.5 -35.5q105 0 162 36t57 103q0 58 -51.5 92.5t-157.5 34.5h-160v201h152q70 0 120 33.5t50 87.5q0 60 -45.5 90.5t-124.5 30.5q-183 0 -279 -113l-123 144q61 77 167.5 123.5t240.5 46.5
q165 0 270 -79t105 -220q0 -76 -37 -138.5t-109 -93.5v-6q95 -18 145 -87.5t50 -166.5q0 -148 -119.5 -233.5t-314.5 -85.5z" />
    <glyph glyph-name="uniF358" unicode="&#xf358;" horiz-adv-x="1351" 
d="M352 0h-186v1075h211v-737l622 737h185v-1075h-211v737z" />
    <glyph glyph-name="uniF359" unicode="&#xf359;" horiz-adv-x="1351" 
d="M352 0h-186v1075h211v-737l622 737h185v-1075h-211v737zM348 1413h187q0 -121 141 -121q61 0 96 30.5t35 90.5h186q0 -126 -85 -198t-232 -72q-161 0 -244.5 70.5t-83.5 199.5z" />
    <glyph glyph-name="uniF35A" unicode="&#xf35a;" horiz-adv-x="1167" 
d="M166 0v1075h211v-510l461 510h276l-481 -497l510 -578h-287l-479 555v-555h-211z" />
    <glyph glyph-name="uniF35B" unicode="&#xf35b;" horiz-adv-x="1243" 
d="M864 0v877h-346l-22 -205q-21 -198 -56.5 -332.5t-86 -209.5t-110 -106t-137.5 -30q-32 0 -69 6l4 205q33 -4 59 2.5t59.5 43t58.5 104t49.5 196.5t39.5 309l17 215h753v-1075h-213z" />
    <glyph glyph-name="uniF35C" unicode="&#xf35c;" horiz-adv-x="1536" 
d="M166 0v1075h215l403 -481l385 481h203v-1075h-213v752l-375 -453h-30l-377 446v-745h-211z" />
    <glyph glyph-name="uniF35D" unicode="&#xf35d;" horiz-adv-x="1318" 
d="M942 0v449h-565v-449h-211v1075h211v-428h565v428h213v-1075h-213z" />
    <glyph glyph-name="uniF35E" unicode="&#xf35e;" horiz-adv-x="1345" 
d="M78 537q0 116 43.5 217.5t121 175.5t189 117t240.5 43q171 0 307 -67.5t213.5 -194t77.5 -291.5q0 -161 -77.5 -288.5t-214 -198t-306.5 -70.5q-259 0 -426.5 153t-167.5 404zM303 537q0 -153 106.5 -255t262.5 -102q174 0 273 100.5t99 256.5t-106.5 254t-265.5 98
q-161 0 -265 -97.5t-104 -254.5z" />
    <glyph glyph-name="uniF35F" unicode="&#xf35f;" horiz-adv-x="1318" 
d="M942 0v877h-565v-877h-211v1075h987v-1075h-211z" />
    <glyph glyph-name="uniF360" unicode="&#xf360;" horiz-adv-x="1044" 
d="M377 0h-211v1075q31 0 163 2t175 2q103 0 183 -19.5t132 -53t86 -81.5t48 -101t14 -115q0 -163 -115 -268t-320 -105q-102 0 -155 4v-340zM526 881q-21 0 -73.5 -2t-75.5 -2v-334q98 -8 147 -8q102 0 159.5 45.5t57.5 128.5q0 172 -215 172z" />
    <glyph glyph-name="uniF361" unicode="&#xf361;" horiz-adv-x="1118" 
d="M979 262l82 -160q-55 -55 -159.5 -88.5t-221.5 -33.5q-273 0 -437.5 152.5t-164.5 404.5q0 112 38.5 211t111 176t187.5 121.5t259 44.5q226 0 364 -109l-96 -160q-126 68 -266 68q-167 0 -270 -94.5t-103 -257.5q0 -161 107.5 -259t289.5 -98q163 0 279 82z" />
    <glyph glyph-name="uniF362" unicode="&#xf362;" horiz-adv-x="1019" 
d="M16 877v198h985v-198h-387v-877h-213v877h-385z" />
    <glyph glyph-name="uniF363" unicode="&#xf363;" horiz-adv-x="1138" 
d="M1122 1075l-405 -817q-62 -129 -140.5 -193.5t-187.5 -64.5q-92 0 -151 45l75 180q40 -26 86 -26q68 0 109 80l20 32l-508 764h267l348 -555l270 555h217z" />
    <glyph glyph-name="uniF364" unicode="&#xf364;" horiz-adv-x="1429" 
d="M606 -12v118q-250 2 -399.5 120t-149.5 327q0 206 150 324.5t399 121.5v88h213v-88q252 -3 400.5 -118t148.5 -328q0 -209 -149.5 -328t-399.5 -119v-118h-213zM1143 553q0 103 -84 177t-240 75v-506q158 3 241 71t83 183zM283 553q0 -113 84.5 -182t238.5 -72v506
q-78 -1 -141 -22.5t-102 -57t-59.5 -79.5t-20.5 -93z" />
    <glyph glyph-name="uniF365" unicode="&#xf365;" horiz-adv-x="1138" 
d="M1106 1075l-397 -526l413 -549h-262l-293 385l-288 -385h-263l414 549l-397 526h266l274 -370l271 370h262z" />
    <glyph glyph-name="uniF366" unicode="&#xf366;" horiz-adv-x="1335" 
d="M166 0v1075h211v-874h543v874h213v-874h161v-389h-198v188h-930z" />
    <glyph glyph-name="uniF367" unicode="&#xf367;" horiz-adv-x="1150" 
d="M985 1075v-1075h-211v430q-108 -70 -287 -70q-55 0 -106.5 10.5t-100.5 36t-85 63.5t-58 97.5t-22 134.5v373h213v-297q0 -219 204 -219q136 0 242 64v452h211z" />
    <glyph glyph-name="uniF368" unicode="&#xf368;" horiz-adv-x="1699" 
d="M166 0v1075h211v-874h364v874h213v-874h367v874h211v-1075h-1366z" />
    <glyph glyph-name="uniF369" unicode="&#xf369;" horiz-adv-x="1736" 
d="M166 0v1075h211v-874h364v874h213v-874h367v874h211v-874h164v-389h-201v188h-1329z" />
    <glyph glyph-name="uniF36A" unicode="&#xf36a;" horiz-adv-x="1144" 
d="M12 877v198h471v-354q80 6 135 6q227 0 339 -93t112 -261q0 -174 -130 -275.5t-366 -101.5q-63 0 -167.5 2t-135.5 2v877h-258zM602 528q-25 0 -119 -8v-319q41 -4 131 -4q107 0 168.5 42t61.5 130q0 159 -242 159z" />
    <glyph glyph-name="uniF36B" unicode="&#xf36b;" horiz-adv-x="1476" 
d="M1098 0v1075h213v-1075h-213zM492 528q-44 0 -115 -6v-321q39 -4 110 -4q234 0 234 172q0 78 -60 118.5t-169 40.5zM377 1075v-354q80 6 131 6q218 0 328 -93.5t110 -260.5q0 -173 -128 -275t-355 -102q-63 0 -165.5 2t-131.5 2v1075h211z" />
    <glyph glyph-name="uniF36C" unicode="&#xf36c;" horiz-adv-x="1040" 
d="M496 528q-18 0 -60 -2.5t-59 -3.5v-321q39 -4 115 -4q245 0 245 172q0 159 -241 159zM377 1075v-354q80 6 135 6q226 0 338.5 -93t112.5 -261q0 -174 -130.5 -275.5t-365.5 -101.5q-63 0 -167.5 2t-133.5 2v1075h211z" />
    <glyph glyph-name="uniF36D" unicode="&#xf36d;" horiz-adv-x="1146" 
d="M319 449v198h525q-31 120 -129 183t-252 63q-201 0 -322 -82l-84 160q70 54 177 88.5t237 34.5q263 0 430.5 -153.5t167.5 -403.5q0 -255 -168.5 -404t-454.5 -149q-122 0 -229.5 30.5t-171.5 79.5l92 180q133 -92 334 -92q152 0 251.5 67t125.5 200h-529z" />
    <glyph glyph-name="uniF36E" unicode="&#xf36e;" horiz-adv-x="1789" 
d="M166 0v1075h211v-428h201q33 199 181 323t376 124q266 0 421.5 -150.5t155.5 -404.5q0 -247 -156.5 -401t-420.5 -154q-226 0 -378.5 125.5t-181.5 339.5h-198v-449h-211zM795 539q0 -154 96.5 -255.5t249.5 -101.5q163 0 254.5 100t91.5 257q0 159 -94.5 256.5
t-251.5 97.5q-153 0 -249.5 -98t-96.5 -256z" />
    <glyph glyph-name="uniF36F" unicode="&#xf36f;" horiz-adv-x="1118" 
d="M741 0v348h-209l-249 -348h-254l293 393q-87 44 -142 120.5t-55 182.5q0 78 28 145.5t84 122t149.5 86t215.5 31.5q70 0 196.5 -3t155.5 -3v-1075h-213zM512 549h229v328q-11 0 -69 2t-90 2q-111 0 -171.5 -47.5t-60.5 -124.5q0 -63 48 -106.5t114 -53.5z" />
    <glyph glyph-name="uniF371" unicode="&#xf371;" horiz-adv-x="1009" 
d="M166 0v1075h715v-198h-504v-234h454v-201h-454v-241h522v-201h-733zM233 1331q0 46 34 75.5t81 29.5q40 0 72.5 -30t32.5 -75q0 -51 -31.5 -80.5t-73.5 -29.5q-48 0 -81.5 29t-33.5 81zM598 1331q0 46 34 75.5t81 29.5q42 0 74 -30t32 -75q0 -51 -31.5 -80.5t-74.5 -29.5
q-48 0 -81.5 29t-33.5 81z" />
    <glyph glyph-name="uniF372" unicode="&#xf372;" horiz-adv-x="1302" 
d="M1225 326q0 -172 -80.5 -257t-224.5 -85q-65 0 -123 21t-80 48l69 162q53 -33 107 -33q58 0 88.5 31t30.5 102q0 148 -185 148q-24 0 -47 -3.5t-39 -7t-38.5 -12t-31 -12t-31 -14.5t-26.5 -13v-401h-213v877h-385v198h985v-198h-387v-271q122 56 254 56q77 0 139.5 -18.5
t112.5 -57t77.5 -105t27.5 -155.5z" />
    <glyph glyph-name="uniF373" unicode="&#xf373;" horiz-adv-x="888" 
d="M166 0v1075h698v-198h-487v-877h-211zM762 1425l-291 -247l-98 110l266 291z" />
    <glyph glyph-name="uniF374" unicode="&#xf374;" horiz-adv-x="1146" 
d="M829 643v-201h-530q30 -130 136.5 -195t264.5 -65q187 0 324 92l78 -180q-64 -49 -169.5 -79.5t-227.5 -30.5q-288 0 -457.5 148.5t-169.5 406.5q0 246 168 400.5t430 154.5q130 0 236 -34.5t175 -88.5l-94 -160q-59 40 -145 61t-164 21q-333 0 -385 -250h530z" />
    <glyph glyph-name="uniF375" unicode="&#xf375;" horiz-adv-x="1007" 
d="M707 301q0 34 -26 60.5t-68.5 44t-97 36.5t-111 36t-111 44.5t-97 60.5t-68.5 85.5t-26 117.5q0 133 105 218.5t321 85.5q98 0 215.5 -42t174.5 -102l-99 -158q-57 44 -144.5 72.5t-156.5 28.5q-90 0 -140 -28.5t-50 -82.5q0 -36 33.5 -63t86.5 -45.5t117.5 -37t129 -45
t117.5 -62.5t86.5 -96t33.5 -138q0 -140 -117.5 -225.5t-302.5 -85.5q-133 0 -262 49t-189 129l123 145q53 -53 151 -88t193 -35q76 0 127.5 32t51.5 89z" />
    <glyph glyph-name="uniF376" unicode="&#xf376;" horiz-adv-x="591" 
d="M188 0v1075h213v-1075h-213z" />
    <glyph glyph-name="uniF377" unicode="&#xf377;" horiz-adv-x="634" 
d="M70 1329q0 44 29.5 72.5t72.5 28.5q38 0 68 -29t30 -72q0 -49 -29.5 -77.5t-68.5 -28.5q-44 0 -73 28.5t-29 77.5zM367 1329q0 44 30.5 72.5t73.5 28.5q38 0 68 -29t30 -72q0 -49 -29.5 -77.5t-68.5 -28.5q-45 0 -74.5 28.5t-29.5 77.5zM211 0v1075h213v-1075h-213z" />
    <glyph glyph-name="uniF378" unicode="&#xf378;" horiz-adv-x="667" 
d="M500 1075v-817q0 -134 -72 -204t-215 -70q-66 0 -124 20.5t-81 48.5l70 162q53 -33 104 -33q107 0 107 113v780h211z" />
    <glyph glyph-name="uniF379" unicode="&#xf379;" horiz-adv-x="1720" 
d="M864 0v877h-340l-26 -205q-21 -177 -52 -303t-72 -202t-92 -118t-112 -50t-133 1l4 213q17 -5 36 -1.5t37.5 9t38 26.5t37 50t34.5 79.5t32 116t28 159t23 208.5l17 215h753v-354q77 6 129 6q217 0 326.5 -93.5t109.5 -260.5q0 -175 -127.5 -276t-355.5 -101
q-62 0 -163.5 2t-131.5 2zM1188 528q-21 0 -111 -8v-319q35 -4 107 -4q233 0 233 172q0 78 -60 118.5t-169 40.5z" />
    <glyph glyph-name="uniF37A" unicode="&#xf37a;" horiz-adv-x="1781" 
d="M166 0v1075h211v-391h549v391h213v-383q51 4 129 4q215 0 325.5 -90t110.5 -246q0 -165 -128 -264.5t-353 -99.5q-54 0 -155 2t-142 2v483h-549v-483h-211zM1139 492v-291q37 -4 108 -4q112 0 172 40t60 115q0 70 -61 109t-169 39q-50 0 -110 -8z" />
    <glyph glyph-name="uniF37B" unicode="&#xf37b;" horiz-adv-x="1302" 
d="M16 877v198h985v-198h-387v-285q105 57 254 57q56 0 106.5 -10.5t97 -36t80 -63.5t53.5 -97.5t20 -134.5v-307h-213v246q0 205 -189 205q-110 0 -209 -54v-397h-213v877h-385z" />
    <glyph glyph-name="uniF37C" unicode="&#xf37c;" horiz-adv-x="1167" 
d="M166 0v1075h211v-510l461 510h276l-481 -497l510 -578h-287l-479 555v-555h-211zM827 1425l-290 -247l-99 110l267 291z" />
    <glyph glyph-name="uniF37E" unicode="&#xf37e;" horiz-adv-x="1138" 
d="M1122 1075l-405 -817q-62 -129 -140.5 -193.5t-187.5 -64.5q-92 0 -151 45l75 180q40 -26 86 -26q68 0 109 80l20 32l-508 764h267l348 -555l270 555h217zM256 1413h186q0 -121 142 -121q61 0 96 30.5t35 90.5h186q0 -126 -85 -198t-232 -72q-161 0 -244.5 70.5
t-83.5 199.5z" />
    <glyph glyph-name="uniF37F" unicode="&#xf37f;" horiz-adv-x="1302" 
d="M166 0v1075h211v-874h549v874h211v-1075h-387v-233h-199v233h-385z" />
    <glyph glyph-name="uniF381" unicode="&#xf381;" horiz-adv-x="1067" 
d="M12 780v174h181v121h213v-121h260v-174h-260v-110q53 6 135 6q450 0 450 -328q0 -171 -128 -261.5t-367 -90.5q-63 0 -167.5 2t-135.5 2v780h-181zM524 487q-71 0 -118 -4v-297q74 -4 114 -4q246 0 246 160q0 145 -242 145z" />
    <glyph glyph-name="uniF389" unicode="&#xf389;" horiz-adv-x="1345" 
d="M78 537q0 116 43.5 217.5t121 175.5t189 117t240.5 43q171 0 307 -67.5t213.5 -194t77.5 -291.5q0 -161 -77.5 -288.5t-214 -198t-306.5 -70.5q-259 0 -426.5 153t-167.5 404zM477 528q-90 0 -168 -69q26 -123 127 -201t236 -78q129 0 219 59t125 158q-64 -41 -135 -41
q-56 0 -115.5 27t-101 59t-93 59t-94.5 27zM897 545q77 0 139 53q-22 131 -122 211t-242 80q-122 0 -214 -58.5t-130 -160.5q74 45 151 45q50 0 98.5 -17.5t87.5 -42.5t76 -50t77.5 -42.5t78.5 -17.5z" />
    <glyph glyph-name="uniF38A" unicode="&#xf38a;" horiz-adv-x="1114" 
d="M946 741l-299 -743h-164l-487 1077h240l337 -786l199 542q49 136 107 197t149 62q56 0 123 -17v-172q-70 17 -117.5 -21t-87.5 -139z" />
    <glyph glyph-name="uniF393" unicode="&#xf393;" horiz-adv-x="901" 
d="M166 0v1075h510v176h201v-374h-500v-877h-211z" />
    <glyph glyph-name="uniF394" unicode="&#xf394;" horiz-adv-x="888" 
d="M166 0v422h-133v199h133v454h698v-198h-487v-256h334v-199h-334v-422h-211z" />
    <glyph glyph-name="uniF395" unicode="&#xf395;" horiz-adv-x="1064" 
d="M166 0v1075h698v-198h-487v-271q122 56 254 56q76 0 138.5 -18.5t112 -56.5t77.5 -103.5t28 -153.5v-414q0 -174 -80 -258t-225 -84q-65 0 -123 21.5t-80 48.5l70 161q52 -32 108 -32q117 0 117 137v385q0 79 -48 123.5t-136 44.5q-24 0 -47 -3.5t-39 -7t-38.5 -12
t-31 -12t-31 -14.5t-26.5 -13v-401h-211z" />
    <glyph glyph-name="uniF396" unicode="&#xf396;" horiz-adv-x="1640" 
d="M481 561l-440 514h258l416 -510v510h213v-510l413 510h258l-440 -510l295 -364h143v-389h-198v188h-39l-432 555v-555h-213v555l-432 -555h-258z" />
    <glyph glyph-name="uniF397" unicode="&#xf397;" horiz-adv-x="1036" 
d="M598 -250h-188v234q-121 14 -214 66t-139 116l119 143q57 -58 139.5 -93.5t178.5 -35.5q105 0 162 36t57 103q0 58 -51.5 92.5t-157.5 34.5h-160v201h152q70 0 120 33.5t50 87.5q0 60 -45.5 90.5t-124.5 30.5q-183 0 -279 -113l-123 144q61 77 167.5 123.5t240.5 46.5
q165 0 270 -79t105 -220q0 -76 -37 -138.5t-109 -93.5v-6q95 -18 145 -87.5t50 -166.5q0 -127 -88.5 -208.5t-239.5 -102.5v-238z" />
    <glyph glyph-name="uniF398" unicode="&#xf398;" horiz-adv-x="1167" 
d="M166 0v1075h211v-510l461 510h276l-481 -497l332 -377h141v-389h-199v188h-51l-479 555v-555h-211z" />
    <glyph glyph-name="uniF399" unicode="&#xf399;" horiz-adv-x="1218" 
d="M442 227v635h185v-102l262 315h276l-444 -497l473 -578h-287l-280 352v-125h-185zM166 0v1075h211v-1075h-211z" />
    <glyph glyph-name="uniF39B" unicode="&#xf39b;" horiz-adv-x="1271" 
d="M270 0v877h-258v198h469v-510l461 510h277l-482 -497l510 -578h-286l-480 555v-555h-211z" />
    <glyph glyph-name="uniF39C" unicode="&#xf39c;" horiz-adv-x="1357" 
d="M942 0v449h-565v-449h-211v1075h211v-428h565v428h213v-874h162v-389h-199v188h-176z" />
    <glyph glyph-name="uniF39D" unicode="&#xf39d;" horiz-adv-x="1634" 
d="M922 0v449h-545v-449h-211v1075h211v-428h545v428h688v-198h-477v-877h-211z" />
    <glyph glyph-name="uniF3A0" unicode="&#xf3a0;" horiz-adv-x="1118" 
d="M979 262l82 -160q-44 -44 -121 -74.5t-168 -41.5v-236h-188v236q-232 26 -369 174.5t-137 376.5q0 112 38.5 211t111 176t187.5 121.5t259 44.5q226 0 364 -109l-96 -160q-126 68 -266 68q-167 0 -270 -94.5t-103 -257.5q0 -161 107.5 -259t289.5 -98q163 0 279 82z" />
    <glyph glyph-name="uniF3A2" unicode="&#xf3a2;" horiz-adv-x="1073" 
d="M1065 1075l-424 -631v-444h-211v444l-422 631h258l279 -432l278 432h242z" />
    <glyph glyph-name="uniF3A3" unicode="&#xf3a3;" horiz-adv-x="1073" 
d="M1081 1075l-360 -534h194v-199h-258v-342h-211v342h-260v199h195l-356 534h258l278 -432l279 432h241z" />
    <glyph glyph-name="uniF3A4" unicode="&#xf3a4;" horiz-adv-x="1138" 
d="M1106 1075l-397 -526l262 -348h141v-389h-199v188h-53l-293 385l-288 -385h-263l414 549l-397 526h266l274 -370l271 370h262z" />
    <glyph glyph-name="uniF3A6" unicode="&#xf3a6;" horiz-adv-x="1187" 
d="M985 1075v-874h162v-389h-199v188h-174v430q-108 -70 -287 -70q-55 0 -106.5 10.5t-100.5 36t-85 63.5t-58 97.5t-22 134.5v373h213v-297q0 -219 204 -219q136 0 242 64v452h211z" />
    <glyph glyph-name="uniF3A7" unicode="&#xf3a7;" horiz-adv-x="1150" 
d="M985 1075v-1075h-211v430q-56 -35 -112 -49v-174h-185v153q-69 1 -130.5 19.5t-115 56.5t-85 106.5t-31.5 159.5v373h213v-297q0 -185 149 -215v228h185v-218q55 15 112 50v452h211z" />
    <glyph glyph-name="uniF3A8" unicode="&#xf3a8;" horiz-adv-x="1132" 
d="M166 0v1075h213v-469q44 24 122 41t152 17q56 0 108.5 -11t102 -37.5t86 -66t58.5 -99.5t22 -135v-315h-213v260q0 107 -59 156t-152 49q-58 0 -122 -15.5t-105 -37.5v-412h-213z" />
    <glyph glyph-name="uniF3B0" unicode="&#xf3b0;" horiz-adv-x="1150" 
d="M985 1075v-1075h-174v-188h-199v389h162v229q-108 -70 -287 -70q-55 0 -106.5 10.5t-100.5 36t-85 63.5t-58 97.5t-22 134.5v373h213v-297q0 -219 204 -219q136 0 242 64v452h211z" />
    <glyph glyph-name="uniF3B2" unicode="&#xf3b2;" horiz-adv-x="1228" 
d="M18 0l502 1079h189l503 -1079h-229l-115 254h-520l-115 -254h-215zM610 827l-172 -374h340zM287 1413h186q0 -121 141 -121q61 0 96 30.5t35 90.5h187q0 -126 -85.5 -198t-232.5 -72q-161 0 -244 70.5t-83 199.5z" />
    <glyph glyph-name="uniF3B3" unicode="&#xf3b3;" horiz-adv-x="1228" 
d="M18 0l502 1079h189l503 -1079h-229l-115 254h-520l-115 -254h-215zM610 827l-172 -374h340zM315 1331q0 46 34 75.5t81 29.5q40 0 72.5 -30t32.5 -75q0 -51 -31.5 -80.5t-73.5 -29.5q-48 0 -81.5 29t-33.5 81zM680 1331q0 46 34 75.5t81 29.5q42 0 74 -30t32 -75
q0 -51 -31.5 -80.5t-74.5 -29.5q-48 0 -81.5 29t-33.5 81z" />
    <glyph glyph-name="uniF3B4" unicode="&#xf3b4;" horiz-adv-x="1622" 
d="M805 0v254h-410l-198 -254h-246l348 438q253 319 508 637h688v-198h-479v-234h428v-201h-428v-241h495v-201h-706zM805 774l-250 -319h250v319z" />
    <glyph glyph-name="uniF3B5" unicode="&#xf3b5;" horiz-adv-x="1009" 
d="M166 0v1075h715v-198h-504v-234h454v-201h-454v-241h522v-201h-733zM203 1413h186q0 -121 141 -121q61 0 96.5 30.5t35.5 90.5h186q0 -126 -85.5 -198t-232.5 -72q-161 0 -244 70.5t-83 199.5z" />
    <glyph glyph-name="uniF3B6" unicode="&#xf3b6;" horiz-adv-x="1277" 
d="M78 647h893q-23 115 -122 178.5t-243 63.5q-91 0 -155.5 -18t-126.5 -60l-82 158q157 121 385 121q263 0 418 -151t155 -404t-159 -404t-418 -151q-134 0 -242.5 45.5t-182 130t-105.5 210.5t-15 281zM623 180q162 0 251 70.5t105 195.5h-680q2 -112 90 -189t234 -77z
" />
    <glyph glyph-name="uniF3B8" unicode="&#xf3b8;" horiz-adv-x="1640" 
d="M481 561l-440 514h258l416 -510v510h213v-510l413 510h258l-440 -510l459 -565h-258l-432 555v-555h-213v555l-432 -555h-258zM528 1331q0 46 34 75.5t81 29.5q40 0 72.5 -30t32.5 -75q0 -51 -31.5 -80.5t-73.5 -29.5q-48 0 -81.5 29t-33.5 81zM893 1331q0 46 34 75.5
t81 29.5q42 0 74 -30t32 -75q0 -51 -31.5 -80.5t-74.5 -29.5q-48 0 -81.5 29t-33.5 81z" />
    <glyph glyph-name="uniF3B9" unicode="&#xf3b9;" horiz-adv-x="1036" 
d="M492 -20q-150 0 -265.5 56t-169.5 130l119 143q57 -58 139.5 -93.5t178.5 -35.5q105 0 162 36t57 103q0 58 -51.5 92.5t-157.5 34.5h-160v201h152q70 0 120 33.5t50 87.5q0 60 -45.5 90.5t-124.5 30.5q-183 0 -279 -113l-123 144q61 77 167.5 123.5t240.5 46.5
q165 0 270 -79t105 -220q0 -76 -37 -138.5t-109 -93.5v-6q95 -18 145 -87.5t50 -166.5q0 -148 -119.5 -233.5t-314.5 -85.5zM201 1331q0 46 33.5 75.5t80.5 29.5q40 0 72.5 -30t32.5 -75q0 -51 -31.5 -80.5t-73.5 -29.5q-48 0 -81 29t-33 81zM565 1331q0 46 34 75.5t81 29.5
q42 0 74 -30t32 -75q0 -51 -31.5 -80.5t-74.5 -29.5q-48 0 -81.5 29t-33.5 81z" />
    <glyph glyph-name="uniF3BB" unicode="&#xf3bb;" horiz-adv-x="1351" 
d="M352 0h-186v1075h211v-737l622 737h185v-1075h-211v737zM393 1251v162h557v-162h-557z" />
    <glyph glyph-name="uniF3BC" unicode="&#xf3bc;" horiz-adv-x="1351" 
d="M352 0h-186v1075h211v-737l622 737h185v-1075h-211v737zM369 1331q0 46 33.5 75.5t80.5 29.5q40 0 72.5 -30t32.5 -75q0 -51 -31.5 -80.5t-73.5 -29.5q-48 0 -81 29t-33 81zM733 1331q0 46 34 75.5t81 29.5q42 0 74 -30t32 -75q0 -51 -31.5 -80.5t-74.5 -29.5
q-48 0 -81.5 29t-33.5 81z" />
    <glyph glyph-name="uniF3BD" unicode="&#xf3bd;" horiz-adv-x="1345" 
d="M78 537q0 116 43.5 217.5t121 175.5t189 117t240.5 43q171 0 307 -67.5t213.5 -194t77.5 -291.5q0 -161 -77.5 -288.5t-214 -198t-306.5 -70.5q-259 0 -426.5 153t-167.5 404zM303 537q0 -153 106.5 -255t262.5 -102q174 0 273 100.5t99 256.5t-106.5 254t-265.5 98
q-161 0 -265 -97.5t-104 -254.5zM379 1331q0 46 34 75.5t81 29.5q40 0 72 -30t32 -75q0 -51 -31.5 -80.5t-72.5 -29.5q-48 0 -81.5 29t-33.5 81zM743 1331q0 46 34 75.5t81 29.5q42 0 74.5 -30t32.5 -75q0 -51 -32 -80.5t-75 -29.5q-48 0 -81.5 29t-33.5 81z" />
    <glyph glyph-name="uniF3BE" unicode="&#xf3be;" horiz-adv-x="1345" 
d="M78 537q0 116 43.5 217.5t121 175.5t189 117t240.5 43q171 0 307 -67.5t213.5 -194t77.5 -291.5q0 -161 -77.5 -288.5t-214 -198t-306.5 -70.5q-259 0 -426.5 153t-167.5 404zM672 180q148 0 243 74.5t121 198.5h-725q29 -122 128.5 -197.5t232.5 -75.5zM672 889
q-132 0 -227.5 -66.5t-127.5 -179.5h711q-34 112 -131 179t-225 67z" />
    <glyph glyph-name="uniF3C1" unicode="&#xf3c1;" horiz-adv-x="1138" 
d="M1122 1075l-405 -817q-62 -129 -140.5 -193.5t-187.5 -64.5q-92 0 -151 45l75 180q40 -26 86 -26q68 0 109 80l20 32l-508 764h267l348 -555l270 555h217zM315 1251v162h557v-162h-557z" />
    </font>
</defs>
</svg>
