<?xml version="1.0" standalone="no"?>
<!DOCTYPE svg PUBLIC "-//W3C//DTD SVG 1.1//EN" "http://www.w3.org/Graphics/SVG/1.1/DTD/svg11.dtd" >
<svg xmlns="http://www.w3.org/2000/svg" xmlns:xlink="http://www.w3.org/1999/xlink" version="1.1">
<metadata>
Created by FontForge 20170731 at Wed Mar 15 10:29:12 2023
 By Aleksey,,,
Copyright (c) 2011 Paratype, Inc., ParaType Ltd. All rights reserved.
</metadata>
<defs>
<font id="Circe-Light" horiz-adv-x="1355" >
  <font-face 
    font-family="Circe Light"
    font-weight="300"
    font-stretch="normal"
    units-per-em="2048"
    panose-1="2 11 4 2 2 2 3 2 2 3"
    ascent="1583"
    descent="-465"
    x-height="922"
    cap-height="1434"
    bbox="-1069 -752 3453 2046"
    underline-thickness="102"
    underline-position="-307"
    unicode-range="U+0020-FEFF"
  />
<missing-glyph horiz-adv-x="481" 
 />
    <glyph glyph-name="uniF350.var.accented" unicode="&#xf350;`" horiz-adv-x="1175" 
d="M35 0l506 1083h94l506 -1083h-121l-158 342h-555l-157 -342h-115zM584 944l-230 -498h459zM823 1473l-256 -269l-55 58l246 290z" />
    <glyph glyph-name="uniF355.var.accented" unicode="&#xf355;`" horiz-adv-x="985" 
d="M182 0v1075h664v-106h-551v-371h502v-106h-502v-386h567v-106h-680zM735 1473l-256 -269l-55 58l246 290z" />
    <glyph glyph-name="uniF358.var.accented" unicode="&#xf358;`" horiz-adv-x="1331" 
d="M283 0h-101v1075h113v-897l754 897h100v-1075h-113v897zM887 1473l-256 -269l-56 58l246 290z" />
    <glyph glyph-name="uniF35E.var.accented" unicode="&#xf35e;`" horiz-adv-x="1331" 
d="M88 537q0 115 43.5 217.5t119 176t183.5 116.5t232 43q163 0 295 -70t207 -197t75 -286q0 -156 -75 -283t-207 -198.5t-295 -71.5q-164 0 -295.5 69.5t-207 196.5t-75.5 287zM207 537q0 -190 132.5 -318.5t326.5 -128.5q202 0 330 127t128 320q0 192 -131.5 319
t-326.5 127q-196 0 -327.5 -126.5t-131.5 -319.5zM891 1473l-256 -269l-55 58l245 290z" />
    <glyph glyph-name="uniF363.var.accented" unicode="&#xf363;`" horiz-adv-x="1085" 
d="M1061 1075l-406 -827q-62 -129 -127 -188.5t-153 -59.5q-76 0 -129 37l41 96q50 -29 92 -29q50 0 84.5 34t66.5 95l23 39l-526 803h139l444 -690l334 690h117zM784 1473l-256 -269l-55 58l246 290z" />
    <glyph glyph-name="uniF36B.var.accented" unicode="&#xf36b;`" horiz-adv-x="1396" 
d="M1102 0v1075h112v-1075h-112zM457 567q-67 0 -162 -6v-455q98 -4 156 -4q159 0 242 61.5t83 180.5q0 108 -81.5 165.5t-237.5 57.5zM295 1075v-407q102 6 168 6q216 0 324 -86t108 -242q0 -166 -121.5 -258t-335.5 -92q-53 0 -139.5 2t-116.5 2v1075h113zM907 1473
l-256 -269l-55 58l246 290z" />
    <glyph glyph-name="uniF36D.var.accented" unicode="&#xf36d;`" horiz-adv-x="1134" 
d="M328 496v106h602q-19 180 -144 280.5t-329 100.5q-203 0 -326 -88l-47 84q66 53 165.5 82t211.5 29q263 0 424.5 -149.5t161.5 -399.5q0 -246 -162.5 -400.5t-431.5 -154.5q-235 0 -387 112l49 92q148 -98 350 -98q199 0 325.5 109.5t141.5 294.5h-604zM702 1473
l-256 -269l-55 58l246 290z" />
    <glyph glyph-name="uniF36E.var.accented" unicode="&#xf36e;`" horiz-adv-x="1773" 
d="M182 0v1075h113v-473h280q21 213 170.5 350.5t378.5 137.5q251 0 406.5 -153.5t155.5 -397.5q0 -241 -156 -397t-406 -156q-152 0 -274.5 64t-195 180t-81.5 266h-278v-496h-113zM690 539q0 -194 122 -320.5t314 -126.5q198 0 319.5 126.5t121.5 320.5q0 195 -123 319.5
t-318 124.5q-192 0 -314 -125t-122 -319zM1032 1473l-256 -269l-55 58l246 290z" />
    <glyph glyph-name="uniF36F.var.accented" unicode="&#xf36f;`" horiz-adv-x="1052" 
d="M758 0v401h-262l-314 -401h-133l330 420q-101 37 -169.5 116.5t-68.5 188.5q0 155 112.5 255.5t328.5 100.5q55 0 156.5 -3t131.5 -3v-1075h-112zM483 508h275v461q-135 6 -189 6q-151 0 -230 -69t-79 -175q0 -84 67 -147t156 -76zM764 1473l-256 -269l-55 58l245 290z
" />
    <glyph glyph-name="uniF371.var.accented" unicode="&#xf371;`" horiz-adv-x="985" 
d="M240 1354q0 27 19.5 45t47.5 18q24 0 44 -18t20 -45q0 -29 -19.5 -48.5t-44.5 -19.5q-28 0 -47.5 19t-19.5 49zM641 1354q0 27 20 45t48 18q25 0 44 -18t19 -45q0 -30 -18.5 -49t-44.5 -19q-28 0 -48 19t-20 49zM182 0v1075h664v-106h-551v-371h502v-106h-502v-386h567
v-106h-680zM674 1473l-256 -269l-56 58l246 290z" />
    <glyph glyph-name="uni0410.var.accented" unicode="&#x410;`" horiz-adv-x="1427" 
d="M43 0l625 1446h92l624 -1446h-120l-209 487h-688l-209 -487h-115zM711 1290l-299 -696h596zM1022 1688l-373 -177l-33 64l367 203z" />
    <glyph glyph-name="uni0415.var.accented" unicode="&#x415;`" horiz-adv-x="1177" 
d="M227 0v1434h793v-107h-680v-547h618v-106h-618v-568h700v-106h-813zM903 1688l-373 -177l-32 64l366 203z" />
    <glyph glyph-name="uni0418.var.accented" unicode="&#x418;`" horiz-adv-x="1632" 
d="M328 0h-101v1434h113v-1250l965 1250h100v-1434h-113v1249zM1087 1688l-372 -177l-33 64l367 203z" />
    <glyph glyph-name="uni041E.var.accented" unicode="&#x41e;`" horiz-adv-x="1658" 
d="M111 717q0 206 92.5 374t257 264.5t368.5 96.5q151 0 284 -55t228.5 -151.5t151 -233.5t55.5 -295q0 -156 -55.5 -292.5t-151 -233.5t-228.5 -153t-284 -56t-284 55t-228.5 151.5t-150.5 233.5t-55 295zM229 717q0 -176 79 -320.5t216.5 -226.5t304.5 -82q172 0 310 82.5
t214.5 226.5t76.5 320q0 178 -79.5 322.5t-217 225.5t-304.5 81q-126 0 -237 -48t-191 -130.5t-126 -200t-46 -250.5zM1108 1688l-373 -177l-33 64l367 203z" />
    <glyph glyph-name="uni0423.var.accented" unicode="&#x423;`" horiz-adv-x="1335" 
d="M1300 1434l-499 -1110q-76 -169 -152.5 -246.5t-179.5 -77.5q-99 0 -158 47l41 96q56 -39 115 -39q116 0 203 181l26 57l-661 1092h127l590 -979l434 979h114zM991 1688l-373 -177l-32 64l366 203z" />
    <glyph glyph-name="uni042B.var.accented" unicode="&#x42b;`" horiz-adv-x="1697" 
d="M1358 0v1434h112v-1434h-112zM551 772q-108 0 -211 -12v-651q7 0 81 -3.5t122 -3.5q208 0 318 89t110 260q0 155 -107 238t-313 83zM340 1434v-566q161 11 217 11q265 0 399 -112t134 -314q0 -220 -148.5 -338.5t-411.5 -118.5q-61 0 -163 2t-140 2v1434h113zM1100 1688
l-373 -177l-33 64l367 203z" />
    <glyph glyph-name="uni042D.var.accented" unicode="&#x42d;`" horiz-adv-x="1392" 
d="M406 678v106h761q-20 261 -188 411.5t-438 150.5q-230 0 -383 -121l-47 84q78 69 198.5 106t255.5 37q324 0 520.5 -198t196.5 -531q0 -212 -88 -380t-253.5 -264.5t-381.5 -96.5q-278 0 -475 149l51 92q190 -135 422 -135q261 0 428.5 163t181.5 427h-761zM879 1688
l-373 -177l-33 64l367 203z" />
    <glyph glyph-name="uni042E.var.accented" unicode="&#x42e;`" horiz-adv-x="2203" 
d="M227 0v1434h113v-650h365q11 142 66.5 265t144.5 212t213 140t266 51q201 0 360.5 -94t248.5 -262t89 -379q0 -209 -88.5 -376.5t-248.5 -263t-361 -95.5q-189 0 -344.5 88.5t-247.5 247.5t-101 360h-362v-678h-113zM821 717q0 -132 43.5 -249t119.5 -200.5t183.5 -131.5
t229.5 -48q172 0 304.5 83t202.5 225.5t70 320.5q0 179 -73 322.5t-205 225t-299 81.5q-165 0 -296.5 -81.5t-205.5 -225t-74 -322.5zM1415 1688l-373 -177l-32 64l366 203z" />
    <glyph glyph-name="uni042F.var.accented" unicode="&#x42f;`" horiz-adv-x="1259" 
d="M920 0v561h-320l-407 -561h-130l426 578q-130 43 -220.5 150t-90.5 253q0 97 33 179t98 145.5t169 99t237 35.5q51 0 164 -3t153 -3v-1434h-112zM586 668h334v659q-171 6 -226 6q-192 0 -294.5 -97.5t-102.5 -248.5q0 -122 87 -211.5t202 -107.5zM1028 1688l-373 -177
l-32 64l366 203z" />
    <glyph glyph-name="uni0401.var.accented" unicode="&#x401;`" horiz-adv-x="1177" 
d="M299 1647q0 29 18 47t45 18q24 0 42 -18.5t18 -46.5q0 -32 -18 -52t-42 -20q-27 0 -45 19.5t-18 52.5zM834 1647q0 28 18.5 46.5t44.5 18.5q24 0 42.5 -18.5t18.5 -46.5q0 -32 -18 -52t-43 -20q-26 0 -44.5 19.5t-18.5 52.5zM831 1747l-299 -229l-38 24l251 236zM227 0
v1434h793v-107h-680v-547h618v-106h-618v-568h700v-106h-813z" />
    <glyph glyph-name="uni0430.var.accented" unicode="&#x430;`" horiz-adv-x="940" 
d="M190 768l-28 88q136 84 293 84q185 0 263.5 -93t78.5 -276v-571h-107v141q-112 -153 -315 -153q-128 0 -206.5 74.5t-78.5 199.5q0 134 98 210.5t252 76.5q152 0 250 -70q0 48 -1 79t-4.5 69.5t-10.5 62.5t-18.5 51t-29.5 43t-42.5 30t-58.5 20t-76 6q-76 0 -133.5 -17.5
t-125.5 -54.5zM408 88q56 0 102 12.5t79.5 35.5t55.5 45t45 52v154q-103 74 -239 74q-101 0 -174.5 -49.5t-73.5 -143.5q0 -84 58 -132t147 -48zM705 1403l-238 -293l-66 47l222 309z" />
    <glyph glyph-name="uni0435.var.accented" unicode="&#x435;`" horiz-adv-x="1073" 
d="M891 195l35 -82q-61 -64 -152.5 -97.5t-187.5 -33.5q-219 0 -354.5 131t-135.5 348q0 136 52.5 243t160 171.5t254.5 64.5q181 0 299.5 -115t118.5 -301q0 -48 -6 -86h-760q6 -165 108 -260.5t269 -95.5q91 0 170.5 31t128.5 82zM553 840q-149 0 -239.5 -87t-104.5 -227
h663q-3 146 -88.5 230t-230.5 84zM770 1403l-238 -293l-65 47l221 309z" />
    <glyph glyph-name="uni0438.var.accented" unicode="&#x438;`" horiz-adv-x="1150" 
d="M268 0h-106v922h106v-768l615 768h106v-922h-106v768zM782 1403l-237 -293l-66 47l221 309z" />
    <glyph glyph-name="uni043E.var.accented" unicode="&#x43e;`" horiz-adv-x="1161" 
d="M96 461q0 208 135 343.5t349 135.5t348.5 -135t134.5 -344t-134.5 -344t-348.5 -135t-349 135.5t-135 343.5zM209 461q0 -166 105 -272.5t266 -106.5q163 0 266.5 106t103.5 273q0 166 -103.5 272.5t-266.5 106.5q-161 0 -266 -106.5t-105 -272.5zM793 1403l-238 -293
l-66 47l222 309z" />
    <glyph glyph-name="uni0443.var.accented" unicode="&#x443;`" horiz-adv-x="985" 
d="M956 922l-372 -922q-67 -164 -123 -253.5t-106.5 -123t-116.5 -33.5q-77 0 -158 48l35 81q66 -30 108 -30q70 0 125.5 61t114.5 201l20 49l-454 922h127l315 -652l66 -143q5 16 51 147l248 648h120zM739 1403l-237 -293l-66 47l221 309z" />
    <glyph glyph-name="uni044B.var.accented" unicode="&#x44b;`" horiz-adv-x="1271" 
d="M162 0v922h106v-310h160q365 0 365 -303q0 -64 -19 -117t-61 -97.5t-117.5 -69.5t-179.5 -25h-254zM410 512h-142v-412h140q147 0 209.5 52t62.5 155q0 101 -63.5 153t-206.5 52zM1004 0v922h106v-922h-106zM825 1403l-237 -293l-66 47l221 309z" />
    <glyph glyph-name="uni044D.var.accented" unicode="&#x44d;`" horiz-adv-x="1003" 
d="M311 426v88h486q-15 155 -117 240.5t-258 85.5q-184 0 -299 -115l-47 80q59 64 154 99.5t190 35.5q216 0 351.5 -130.5t135.5 -348.5q0 -132 -59.5 -242t-164.5 -173.5t-234 -63.5q-243 0 -363 112l51 80q103 -92 303 -92q149 0 249 94.5t110 249.5h-488zM662 1403
l-238 -293l-66 47l222 309z" />
    <glyph glyph-name="uni044E.var.accented" unicode="&#x44e;`" horiz-adv-x="1536" 
d="M162 0v922h112v-398h234q21 185 146 300.5t315 115.5q208 0 338.5 -135t130.5 -344q0 -208 -131.5 -343.5t-337.5 -135.5q-195 0 -322 122t-141 314h-232v-418h-112zM625 461q0 -166 97.5 -269.5t250.5 -103.5q154 0 250 103.5t96 269.5q0 165 -95.5 269t-250.5 104
q-154 0 -251 -103.5t-97 -269.5zM985 1403l-237 -293l-66 47l221 309z" />
    <glyph glyph-name="uni044F.var.accented" unicode="&#x44f;`" horiz-adv-x="976" 
d="M541 922h274v-922h-106v344h-230l-264 -344h-131l291 369q-89 15 -155 85.5t-66 176.5q0 60 20 110t63.5 92t121 65.5t182.5 23.5zM266 629q0 -82 63.5 -133.5t135.5 -51.5h244v377h-187q-132 0 -194 -53t-62 -139zM793 1403l-238 -293l-66 47l222 309z" />
    <glyph glyph-name="uni0451.var.accented" unicode="&#x451;`" horiz-adv-x="1073" 
d="M238 1257q0 26 17 42t42 16q23 0 39 -16.5t16 -41.5q0 -28 -16 -44.5t-39 -16.5q-26 0 -42.5 16.5t-16.5 44.5zM737 1257q0 25 18 41.5t42 16.5q23 0 39 -16.5t16 -41.5q0 -28 -16 -44.5t-39 -16.5q-25 0 -42.5 16.5t-17.5 44.5zM715 1403l-238 -293l-53 37l221 309z
M891 195l35 -82q-61 -64 -152.5 -97.5t-187.5 -33.5q-219 0 -354.5 131t-135.5 348q0 136 52.5 243t160 171.5t254.5 64.5q181 0 299.5 -115t118.5 -301q0 -48 -6 -86h-760q6 -165 108 -260.5t269 -95.5q91 0 170.5 31t128.5 82zM553 840q-149 0 -239.5 -87t-104.5 -227h663
q-3 146 -88.5 230t-230.5 84z" />
    <glyph glyph-name="fi" unicode="fi" horiz-adv-x="1026" 
d="M737 0v821h-440v-821h-107v1057q0 197 96.5 296t266.5 99q190 0 293 -119l-76 -65q-80 84 -201 84q-272 0 -272 -314v-116h547v-922h-107z" />
    <glyph glyph-name="fl" unicode="fl" horiz-adv-x="1134" 
d="M721 238v1052q-85 62 -184 62q-120 0 -180 -72.5t-60 -226.5v-131h246v-101h-246v-821h-107v1071q0 190 81.5 285.5t236.5 95.5q142 0 231 -68h88v-1089q0 -107 30.5 -157t100.5 -50q68 0 129 45l27 -84q-79 -61 -194 -61q-102 0 -150.5 61.5t-48.5 188.5z" />
    <glyph glyph-name=".notdef" horiz-adv-x="481" 
 />
    <glyph glyph-name=".null" horiz-adv-x="0" 
 />
    <glyph glyph-name="nonmarkingreturn" horiz-adv-x="682" 
 />
    <glyph glyph-name="space" unicode=" " horiz-adv-x="481" 
 />
    <glyph glyph-name="exclam" unicode="!" horiz-adv-x="634" 
d="M260 395v1039h113v-1039h-113zM238 78q0 29 23 51.5t58 22.5q31 0 53.5 -22.5t22.5 -51.5q0 -33 -22 -57.5t-54 -24.5q-36 0 -58.5 24.5t-22.5 57.5z" />
    <glyph glyph-name="quotedbl" unicode="&#x22;" horiz-adv-x="821" 
d="M512 1008v426h106v-426h-106zM203 1008v426h106v-426h-106z" />
    <glyph glyph-name="numbersign" unicode="#" horiz-adv-x="1409" 
d="M655 12l152 412h-430l-164 -442l-84 30l152 412h-199v94h233l148 397h-381v95h416l166 442l84 -31l-154 -411h430l166 442l84 -29l-154 -413h207v-95h-242l-145 -397h387v-94h-422l-164 -442zM559 915l-147 -397h430l147 397h-430z" />
    <glyph glyph-name="dollar" unicode="$" horiz-adv-x="1206" 
d="M932 356q0 65 -25.5 116t-68.5 86t-98.5 63t-117 52t-123 49t-117 58t-98.5 74t-68.5 102t-25.5 138q0 143 100 242t273 114v168h107v-168q104 -9 192 -46.5t142 -96.5l-64 -84q-120 123 -319 123q-145 0 -228.5 -68.5t-83.5 -183.5q0 -64 25.5 -114t68.5 -83.5
t98.5 -60.5t117 -50t123 -47.5t117 -57.5t98.5 -75t68.5 -105t25.5 -143q0 -154 -106.5 -254t-274.5 -118v-191h-107v189q-127 8 -240.5 62.5t-162.5 141.5l67 78q62 -83 166.5 -130.5t206.5 -47.5q140 0 236 71t96 197z" />
    <glyph glyph-name="percent" unicode="%" horiz-adv-x="1740" 
d="M309 27l1067 1425l64 -45l-1067 -1425zM104 1110q0 146 100.5 239t252.5 93t252 -93t100 -239q0 -147 -100 -240.5t-252 -93.5t-252.5 93.5t-100.5 240.5zM205 1110q0 -109 75 -177.5t177 -68.5q105 0 178.5 68.5t73.5 177.5q0 107 -74.5 175.5t-177.5 68.5t-177.5 -68.5
t-74.5 -175.5zM932 326q0 146 100 238.5t252 92.5t252 -92.5t100 -238.5q0 -147 -100 -240.5t-252 -93.5t-252 93.5t-100 240.5zM1032 326q0 -109 75 -177.5t177 -68.5q105 0 178.5 68.5t73.5 177.5q0 107 -74.5 175t-177.5 68t-177.5 -68t-74.5 -175z" />
    <glyph glyph-name="ampersand" unicode="&#x26;" horiz-adv-x="1509" 
d="M1237 0l-174 219q-166 -237 -457 -237q-193 0 -319.5 114.5t-126.5 292.5q0 86 30.5 163.5t86 141.5t111.5 110.5t128 94.5q-92 22 -150.5 95t-58.5 173q0 122 87.5 203.5t209.5 81.5t209.5 -81.5t87.5 -203.5q0 -103 -68.5 -181t-166.5 -89l405 -516q64 110 99.5 251
t35.5 290h105q0 -172 -45 -336.5t-129 -290.5l233 -295h-133zM608 88q246 0 389 215l-413 535q-67 -49 -115.5 -92t-95 -97t-70.5 -114.5t-24 -124.5q0 -141 97 -231.5t232 -90.5zM408 1167q0 -80 57.5 -137t138.5 -57q82 0 139.5 57t57.5 137q0 81 -58.5 139t-138.5 58
q-82 0 -139 -57t-57 -140z" />
    <glyph glyph-name="quotesingle" unicode="'" horiz-adv-x="512" 
d="M203 1008v426h106v-426h-106z" />
    <glyph glyph-name="parenleft" unicode="(" horiz-adv-x="565" 
d="M565 -362l-69 -60q-414 357 -414 883q0 242 96.5 461t319.5 421l67 -59q-201 -188 -289 -388.5t-88 -434.5q0 -232 95 -446t282 -377z" />
    <glyph glyph-name="parenright" unicode=")" horiz-adv-x="565" 
d="M70 -422l-70 60q187 163 282 377t95 446q0 234 -88 434.5t-289 388.5l68 59q223 -202 319 -421t96 -461q0 -527 -413 -883z" />
    <glyph glyph-name="asterisk" unicode="*" horiz-adv-x="942" 
d="M397 1368q0 35 23 59.5t57 24.5q33 0 56.5 -24.5t23.5 -59.5q0 -31 -24 -54.5t-56 -23.5q-33 0 -56.5 23.5t-23.5 54.5zM391 850q0 33 24.5 58.5t59.5 25.5q30 0 53 -25.5t23 -58.5t-22.5 -56.5t-53.5 -23.5q-35 0 -59.5 23t-24.5 57zM608 1233q0 35 24.5 59.5t59.5 24.5
q33 0 56.5 -24.5t23.5 -59.5q0 -32 -24 -55t-56 -23q-35 0 -59.5 23t-24.5 55zM608 985q0 33 24.5 57.5t59.5 24.5q32 0 56 -25t24 -57q0 -33 -23.5 -56.5t-56.5 -23.5q-35 0 -59.5 23t-24.5 57zM170 985q0 33 24 57.5t60 24.5q31 0 54.5 -25t23.5 -57q0 -33 -23.5 -56.5
t-54.5 -23.5q-36 0 -60 23t-24 57zM170 1233q0 36 24 60t60 24q31 0 54.5 -24.5t23.5 -59.5q0 -32 -23.5 -55t-54.5 -23q-36 0 -60 22.5t-24 55.5z" />
    <glyph glyph-name="plus" unicode="+" horiz-adv-x="1206" 
d="M145 690v94h406v408h100v-408h408v-94h-408v-411h-100v411h-406z" />
    <glyph glyph-name="comma" unicode="," horiz-adv-x="409" 
d="M123 68q0 33 22.5 54t61.5 21q51 0 86 -48t35 -128q0 -100 -56 -171t-143 -97l-29 53q49 15 89.5 57.5t48.5 104.5q7 73 -21 106q-10 -20 -37 -20q-24 0 -40.5 19.5t-16.5 48.5z" />
    <glyph glyph-name="hyphen" unicode="-" horiz-adv-x="817" 
d="M174 506v100h469v-100h-469z" />
    <glyph glyph-name="period" unicode="." horiz-adv-x="376" 
d="M111 78q0 29 23.5 51.5t58.5 22.5q31 0 52 -22.5t21 -51.5q0 -33 -21 -57.5t-52 -24.5q-36 0 -59 24.5t-23 57.5z" />
    <glyph glyph-name="slash" unicode="/" horiz-adv-x="649" 
d="M-61 -393l688 1845l84 -31l-686 -1847z" />
    <glyph glyph-name="zero" unicode="0" horiz-adv-x="1171" 
d="M133 717q0 163 26.5 294t80 230.5t141.5 154t205 54.5t205 -54.5t141.5 -154t79.5 -230.5t26 -294q0 -164 -25.5 -295t-78.5 -230.5t-140 -153.5t-204 -54q-155 0 -259.5 96t-151 257t-46.5 380zM246 717q0 -147 19.5 -261t60.5 -198.5t107.5 -129t156.5 -44.5
q91 0 156.5 44t104.5 129t57 198t18 262q0 633 -340 633t-340 -633z" />
    <glyph glyph-name="one" unicode="1" horiz-adv-x="761" 
d="M92 1186l326 260h74v-1446h-107v1290l-235 -190z" />
    <glyph glyph-name="two" unicode="2" horiz-adv-x="1083" 
d="M104 0v88q60 59 85.5 84.5t92.5 93.5t102.5 108.5t96.5 111t96 120.5t79.5 118.5t68 123t40.5 115.5t17 114q0 111 -71.5 188.5t-202.5 77.5q-66 0 -125.5 -26t-107.5 -86.5t-62 -147.5l-92 35q15 104 75.5 181.5t143 114t174.5 36.5q95 0 170 -31t120 -82.5t68 -112.5
t23 -126q0 -82 -31 -176t-76 -176.5t-113 -174.5t-124 -157.5t-127.5 -139t-105 -105t-74.5 -69.5h714v-100h-854z" />
    <glyph glyph-name="three" unicode="3" horiz-adv-x="1091" 
d="M510 -18q-143 0 -254 61.5t-164 185.5l64 74q52 -109 147.5 -162t206.5 -53q148 0 236 87t88 220q0 126 -88.5 205.5t-223.5 79.5h-123v106h111q105 0 186.5 84.5t81.5 206.5q0 129 -73.5 199t-200.5 70q-218 0 -311 -197l-64 68q42 112 143.5 173.5t239.5 61.5
q175 0 277 -96t102 -264q0 -115 -59.5 -209.5t-167.5 -137.5v-6q130 -20 206 -119t76 -229q0 -186 -122.5 -297.5t-313.5 -111.5z" />
    <glyph glyph-name="four" unicode="4" horiz-adv-x="1101" 
d="M715 0v379h-666v72l627 983h123l-606 -949h522v437h106v-437h211v-106h-211v-379h-106z" />
    <glyph glyph-name="five" unicode="5" horiz-adv-x="1060" 
d="M231 745l88 689h623v-107h-530l-62 -467q66 19 142 19q199 0 325.5 -119.5t126.5 -315.5q0 -105 -36 -193.5t-97 -146.5t-141.5 -90t-169.5 -32q-124 0 -234.5 56.5t-173.5 170.5l64 76q54 -95 150 -146t196 -51q140 0 234.5 99.5t94.5 252.5q0 148 -105.5 245t-276.5 97
q-120 0 -218 -37z" />
    <glyph glyph-name="six" unicode="6" horiz-adv-x="1126" 
d="M111 508q0 152 41.5 292.5t110.5 247.5t158.5 192.5t186 138t193.5 73.5l45 -80q-105 -25 -203 -83.5t-183.5 -147.5t-145.5 -217t-81 -279q46 103 142 168.5t231 65.5q185 0 300.5 -123.5t115.5 -319.5q0 -98 -36 -183.5t-95 -144.5t-136 -92.5t-159 -33.5
q-116 0 -209.5 42.5t-153 115.5t-91 167t-31.5 201zM223 508q0 -83 23.5 -157.5t68 -133.5t116.5 -94t163 -35q131 0 223 100.5t92 239.5q0 152 -88 251t-248 99q-72 0 -134 -24.5t-104.5 -65.5t-70.5 -86.5t-41 -93.5z" />
    <glyph glyph-name="seven" unicode="7" horiz-adv-x="972" 
d="M70 1327v107h827v-66l-545 -1368h-119l533 1327h-696z" />
    <glyph glyph-name="eight" unicode="8" horiz-adv-x="1210" 
d="M573 791h64q102 0 184 80.5t82 195.5q0 128 -89.5 203.5t-211.5 75.5t-208.5 -76.5t-86.5 -202.5q0 -115 82 -195.5t184 -80.5zM635 684h-53q-133 0 -228.5 -84.5t-95.5 -210.5q0 -130 100.5 -215.5t245.5 -85.5q151 0 249.5 82.5t98.5 218.5q0 135 -91.5 215t-225.5 80z
M606 -18q-123 0 -226.5 45.5t-169 135.5t-65.5 208q0 130 80 230.5t211 131.5v6q-103 31 -172 128.5t-69 211.5q0 165 118 269t291 104t292.5 -104t119.5 -269q0 -108 -67 -203t-181 -135v-6q129 -17 213 -116t84 -240q0 -122 -65 -214t-168 -137.5t-226 -45.5z" />
    <glyph glyph-name="nine" unicode="9" horiz-adv-x="1122" 
d="M1012 920q0 -197 -53.5 -364.5t-148 -286t-222.5 -192.5t-277 -95l-39 84q258 47 424 234.5t193 481.5q-43 -99 -138 -159t-227 -60q-188 0 -307 126.5t-119 311.5q0 97 38.5 183t101.5 143.5t142.5 91t160.5 33.5q116 0 207.5 -41.5t148 -115t86 -168.5t29.5 -207z
M899 920q0 84 -21 158.5t-62.5 135.5t-111 96.5t-159.5 35.5q-133 0 -233.5 -99.5t-100.5 -236.5q0 -92 37.5 -169t116.5 -127t186 -50q94 0 170.5 40t118.5 96t59 120z" />
    <glyph glyph-name="colon" unicode=":" horiz-adv-x="659" 
d="M252 866q0 29 23.5 51.5t58.5 22.5q31 0 52.5 -22.5t21.5 -51.5q0 -33 -21 -57.5t-53 -24.5q-36 0 -59 24.5t-23 57.5zM252 78q0 29 23.5 51.5t58.5 22.5q31 0 52.5 -22.5t21.5 -51.5q0 -33 -21 -57.5t-53 -24.5q-36 0 -59 24.5t-23 57.5z" />
    <glyph glyph-name="semicolon" unicode=";" horiz-adv-x="665" 
d="M252 866q0 29 23.5 51.5t58.5 22.5q31 0 52.5 -22.5t21.5 -51.5q0 -33 -21 -57.5t-53 -24.5q-36 0 -59 24.5t-23 57.5zM252 68q0 33 22.5 54t61.5 21q51 0 86 -48t35 -128q0 -100 -56 -171t-143 -97l-29 53q49 15 89.5 57.5t48.5 104.5q7 73 -21 106q-10 -20 -37 -20
q-24 0 -40.5 19.5t-16.5 48.5z" />
    <glyph glyph-name="less" unicode="&#x3c;" horiz-adv-x="1206" 
d="M991 182l-860 537v45l860 532v-116l-710 -439l710 -442v-117z" />
    <glyph glyph-name="equal" unicode="=" horiz-adv-x="1206" 
d="M145 866v95h914v-95h-914zM145 514v94h914v-94h-914z" />
    <glyph glyph-name="greater" unicode="&#x3e;" horiz-adv-x="1206" 
d="M1073 719l-858 -537v117l711 442l-711 439v116l858 -532v-45z" />
    <glyph glyph-name="question" unicode="?" horiz-adv-x="942" 
d="M760 1081q0 113 -84 189t-213 76q-194 0 -316 -166l-65 67q57 92 161.5 148.5t227.5 56.5q185 0 293 -100.5t108 -247.5q0 -77 -23 -140t-59.5 -105.5t-81 -79t-88.5 -69t-80.5 -66t-59.5 -80.5t-23 -103q0 -18 8 -68l-96 -4q-11 61 -11 88q0 54 17.5 100t45.5 78
t64 63.5t74 56.5t74 57t64 65t45.5 80.5t17.5 103.5zM334 78q0 29 22.5 51.5t57.5 22.5q31 0 53 -22.5t22 -51.5q0 -33 -21.5 -57.5t-53.5 -24.5q-36 0 -58 24t-22 58z" />
    <glyph glyph-name="at" unicode="@" horiz-adv-x="2076" 
d="M1335 0v119q-55 -60 -138.5 -98.5t-172.5 -38.5q-208 0 -333.5 130.5t-125.5 348.5q0 202 146 340.5t364 138.5q102 0 199 -27t168 -73v-740h45q105 0 184.5 62.5t119.5 163.5t40 223q0 149 -57.5 279.5t-158.5 224t-245 147t-311 53.5q-172 0 -323 -60t-258.5 -164.5
t-169.5 -251.5t-62 -316q0 -165 62 -311.5t169.5 -252.5t259 -167.5t322.5 -61.5q112 0 221 25l10 -99q-120 -26 -231 -26q-195 0 -365.5 69t-290.5 188t-189 284t-69 352q0 184 69 348.5t188.5 284.5t290.5 190t366 70q185 0 346.5 -59.5t277 -164t182 -255t66.5 -324.5
q0 -83 -18 -162.5t-56.5 -150t-92.5 -123.5t-131.5 -84t-168.5 -31h-129zM1040 82q86 0 167.5 42.5t127.5 98.5v549q-119 68 -262 68q-169 0 -282 -111t-113 -272q0 -173 99 -274t263 -101z" />
    <glyph glyph-name="A" unicode="A" horiz-adv-x="1427" 
d="M43 0l625 1446h92l624 -1446h-120l-209 487h-688l-209 -487h-115zM711 1290l-299 -696h596z" />
    <glyph glyph-name="B" unicode="B" horiz-adv-x="1263" 
d="M227 2v1430q320 8 377 8q124 0 214 -27t141 -76.5t74.5 -111.5t23.5 -140q0 -135 -79 -221t-200 -114v-5q158 -19 246 -107.5t88 -236.5q0 -105 -38.5 -184.5t-108 -127.5t-160.5 -71.5t-203 -23.5q-207 0 -375 8zM612 682h-272v-573q256 -9 266 -9q188 0 290.5 77.5
t102.5 230.5q0 132 -100.5 203t-286.5 71zM600 1333q-89 0 -260 -6v-545h278q138 0 232 76.5t94 204.5q0 270 -344 270z" />
    <glyph glyph-name="C" unicode="C" horiz-adv-x="1343" 
d="M1229 223l45 -84q-73 -73 -194.5 -115t-250.5 -42q-158 0 -291.5 52.5t-227.5 147.5t-146.5 232.5t-52.5 302.5q0 154 49.5 288.5t139 233.5t222 156t291.5 57q271 0 434 -135l-53 -84q-148 113 -379 113q-171 0 -305 -81.5t-207.5 -224.5t-73.5 -323q0 -281 169.5 -455
t439.5 -174q226 0 391 135z" />
    <glyph glyph-name="D" unicode="D" horiz-adv-x="1509" 
d="M227 0v1434h23q48 0 163.5 3t180.5 3q167 0 303 -37.5t228.5 -102.5t155 -155t90.5 -191.5t28 -216.5q0 -124 -32.5 -234.5t-99.5 -203.5t-163.5 -160.5t-231 -105t-294.5 -37.5q-51 0 -162 2t-170 2h-19zM590 1333q-47 0 -88.5 -1t-86.5 -2.5l-75 -2.5v-1221
q234 -4 242 -4q169 0 303 48.5t219.5 135t130.5 201t45 250.5q0 127 -41.5 233.5t-124 188.5t-216.5 128t-308 46z" />
    <glyph glyph-name="E" unicode="E" horiz-adv-x="1177" 
d="M227 0v1434h793v-107h-680v-547h618v-106h-618v-568h700v-106h-813z" />
    <glyph glyph-name="F" unicode="F" horiz-adv-x="1110" 
d="M227 0v1434h801v-107h-688v-590h627v-106h-627v-631h-113z" />
    <glyph glyph-name="G" unicode="G" horiz-adv-x="1488" 
d="M831 588v106h527v-516q-91 -91 -243.5 -143.5t-293.5 -52.5q-322 0 -516 200.5t-194 534.5q0 206 85.5 372.5t245.5 264.5t365 98q270 0 442 -135l-51 -88q-137 117 -379 117q-173 0 -308 -80.5t-208.5 -223.5t-73.5 -325q0 -284 164.5 -456.5t431.5 -172.5
q118 0 238 41.5t188 108.5v350h-420z" />
    <glyph glyph-name="H" unicode="H" horiz-adv-x="1574" 
d="M1235 0v678h-895v-678h-113v1434h113v-650h895v650h113v-1434h-113z" />
    <glyph glyph-name="I" unicode="I" horiz-adv-x="665" 
d="M276 0v1434h113v-1434h-113z" />
    <glyph glyph-name="J" unicode="J" horiz-adv-x="739" 
d="M512 1434v-1119q0 -161 -67 -247t-220 -86q-61 0 -113.5 19t-82.5 46l41 88q62 -47 141 -47q56 0 94 18t58 53t28 76.5t8 96.5v1102h113z" />
    <glyph glyph-name="K" unicode="K" horiz-adv-x="1304" 
d="M1219 1434l-678 -678l706 -756h-145l-694 748l673 686h138zM227 0v1434h113v-1434h-113z" />
    <glyph glyph-name="L" unicode="L" horiz-adv-x="1130" 
d="M227 0v1434h113v-1328h756v-106h-869z" />
    <glyph glyph-name="M" unicode="M" horiz-adv-x="1810" 
d="M227 0v1434h115l578 -787l555 787h108v-1434h-113v1257l-550 -774h-19l-561 768v-1251h-113z" />
    <glyph glyph-name="N" unicode="N" horiz-adv-x="1632" 
d="M1405 0h-90l-981 1233v-1233h-107v1434h90l981 -1237v1237h107v-1434z" />
    <glyph glyph-name="O" unicode="O" horiz-adv-x="1658" 
d="M111 717q0 206 92.5 374t257 264.5t368.5 96.5q151 0 284 -55t228.5 -151.5t151 -233.5t55.5 -295q0 -156 -55.5 -292.5t-151 -233.5t-228.5 -153t-284 -56t-284 55t-228.5 151.5t-150.5 233.5t-55 295zM229 717q0 -176 79 -320.5t216.5 -226.5t304.5 -82q172 0 310 82.5
t214.5 226.5t76.5 320q0 178 -79.5 322.5t-217 225.5t-304.5 81q-126 0 -237 -48t-191 -130.5t-126 -200t-46 -250.5z" />
    <glyph glyph-name="P" unicode="P" horiz-adv-x="1198" 
d="M340 0h-113v1434q40 0 175 2t176 2q115 0 205 -25t146 -65.5t92.5 -97.5t51 -116.5t14.5 -127.5q0 -86 -30.5 -163t-90 -139.5t-159.5 -99.5t-229 -37t-238 8v-575zM588 1331q-112 0 -248 -4v-643q133 -10 233 -10q190 0 293 91t103 243q0 148 -93.5 235.5t-287.5 87.5z
" />
    <glyph glyph-name="Q" unicode="Q" horiz-adv-x="1658" 
d="M111 717q0 206 92.5 374t257 264.5t368.5 96.5q151 0 284 -55t228.5 -151.5t151 -233.5t55.5 -295q0 -164 -60.5 -305.5t-168.5 -241.5l143 -170h-135l-88 104q-180 -122 -410 -122q-151 0 -284 55t-228.5 151.5t-150.5 233.5t-55 295zM229 717q0 -176 79 -320.5
t216.5 -226.5t304.5 -82q189 0 338 100l-127 154l76 68l131 -156q87 87 135 206t48 257q0 178 -79.5 322.5t-217 225.5t-304.5 81q-126 0 -237 -48t-191 -130.5t-126 -200t-46 -250.5z" />
    <glyph glyph-name="R" unicode="R" horiz-adv-x="1292" 
d="M340 0h-113v1434q45 0 186.5 2t157.5 2q114 0 202 -22.5t144 -60t91.5 -91.5t50 -112.5t14.5 -127.5q0 -150 -96 -258.5t-244 -140.5l502 -625h-139l-478 602h-278v-602zM565 1331q-89 0 -225 -4v-618h248q92 0 175 38.5t137 112t54 164.5q0 142 -91.5 224.5t-297.5 82.5
z" />
    <glyph glyph-name="S" unicode="S" horiz-adv-x="1118" 
d="M889 356q0 65 -25.5 116t-68.5 86t-98.5 63t-117 52t-123 49t-117 58t-98.5 74t-68.5 102t-25.5 138q0 155 113 256.5t307 101.5q119 0 221.5 -39t163.5 -106l-61 -84q-123 123 -320 123q-140 0 -222.5 -68.5t-82.5 -183.5q0 -64 25.5 -114t68.5 -83.5t98.5 -60.5
t117 -50t123 -47.5t117 -57.5t98.5 -75t68.5 -105t25.5 -143q0 -168 -131 -272t-326 -104q-134 0 -261 56.5t-179 149.5l67 78q61 -83 165 -130.5t206 -47.5q90 0 166 29.5t125 91.5t49 147z" />
    <glyph glyph-name="T" unicode="T" horiz-adv-x="1214" 
d="M20 1327v107h1174v-107h-530v-1327h-113v1327h-531z" />
    <glyph glyph-name="U" unicode="U" horiz-adv-x="1538" 
d="M1331 1434v-834q0 -159 -43.5 -280t-120 -193t-172 -107.5t-207.5 -35.5q-126 0 -231.5 40t-184 117t-122 198t-43.5 275v820h112v-799q0 -258 127 -401.5t342 -143.5q197 0 314 134.5t117 400.5v809h112z" />
    <glyph glyph-name="V" unicode="V" horiz-adv-x="1343" 
d="M1321 1434l-602 -1446h-80l-616 1446h120l539 -1274l524 1274h115z" />
    <glyph glyph-name="W" unicode="W" horiz-adv-x="1961" 
d="M1933 1434l-417 -1434h-99l-430 1245l-422 -1245h-98l-438 1434h127l370 -1233l412 1233h104l422 -1235l359 1235h110z" />
    <glyph glyph-name="X" unicode="X" horiz-adv-x="1351" 
d="M1276 1434l-526 -705l544 -729h-135l-483 643l-486 -643h-133l547 729l-524 705h133l465 -619l463 619h135z" />
    <glyph glyph-name="Y" unicode="Y" horiz-adv-x="1196" 
d="M1167 1434l-516 -807v-627h-112v627l-510 807h131l440 -701l442 701h125z" />
    <glyph glyph-name="Z" unicode="Z" horiz-adv-x="1288" 
d="M123 1327v107h1063v-72l-948 -1256h968v-106h-1124v72l944 1255h-903z" />
    <glyph glyph-name="bracketleft" unicode="[" horiz-adv-x="606" 
d="M123 -410v1741h471v-100h-365v-1540h365v-101h-471z" />
    <glyph glyph-name="backslash" unicode="\" horiz-adv-x="649" 
d="M23 1452l688 -1845l-86 -33l-686 1847z" />
    <glyph glyph-name="bracketright" unicode="]" horiz-adv-x="606" 
d="M483 1331v-1741h-471v101h365v1540h-365v100h471z" />
    <glyph glyph-name="asciicircum" unicode="^" horiz-adv-x="983" 
d="M98 922l361 528h69l357 -528h-117l-274 415l-279 -415h-117z" />
    <glyph glyph-name="underscore" unicode="_" horiz-adv-x="587" 
d="M0 -410v107h588v-107h-588z" />
    <glyph glyph-name="grave" unicode="`" horiz-adv-x="550" 
d="M360 1110l-237 291l84 63l221 -307z" />
    <glyph glyph-name="a" unicode="a" horiz-adv-x="940" 
d="M190 768l-28 88q136 84 293 84q185 0 263.5 -93t78.5 -276v-571h-107v141q-112 -153 -315 -153q-128 0 -206.5 74.5t-78.5 199.5q0 134 98 210.5t252 76.5q152 0 250 -70q0 48 -1 79t-4.5 69.5t-10.5 62.5t-18.5 51t-29.5 43t-42.5 30t-58.5 20t-76 6q-76 0 -133.5 -17.5
t-125.5 -54.5zM408 88q56 0 102 12.5t79.5 35.5t55.5 45t45 52v154q-103 74 -239 74q-101 0 -174.5 -49.5t-73.5 -143.5q0 -84 58 -132t147 -48z" />
    <glyph glyph-name="b" unicode="b" horiz-adv-x="1126" 
d="M162 90v1344h106v-625q56 57 144 94t178 37q202 0 320 -129t118 -336q0 -226 -138 -359.5t-364 -133.5q-225 0 -364 108zM567 840q-90 0 -173 -43.5t-126 -98.5v-536q114 -80 264 -80q165 0 274 104t109 279q0 173 -94 274t-254 101z" />
    <glyph glyph-name="c" unicode="c" horiz-adv-x="1003" 
d="M879 209l53 -78q-57 -72 -150.5 -110.5t-197.5 -38.5q-216 0 -352 131.5t-136 347.5q0 132 59.5 242t165 173.5t234.5 63.5q238 0 358 -115l-51 -86q-112 101 -291 101q-149 0 -255.5 -108.5t-106.5 -270.5q0 -171 109 -275t274 -104q87 0 162.5 35t124.5 92z" />
    <glyph glyph-name="d" unicode="d" horiz-adv-x="1132" 
d="M864 0v131q-58 -66 -140 -106.5t-177 -40.5q-204 0 -327.5 129t-123.5 344q0 212 142.5 347.5t359.5 135.5q155 0 266 -80v574h107v-1434h-107zM567 84q86 0 167 43t130 102v527q-125 84 -264 84q-165 0 -278 -106t-113 -273q0 -175 98.5 -276t259.5 -101z" />
    <glyph glyph-name="e" unicode="e" horiz-adv-x="1073" 
d="M891 195l35 -82q-61 -64 -152.5 -97.5t-187.5 -33.5q-219 0 -354.5 131t-135.5 348q0 136 52.5 243t160 171.5t254.5 64.5q181 0 299.5 -115t118.5 -301q0 -48 -6 -86h-760q6 -165 108 -260.5t269 -95.5q91 0 170.5 31t128.5 82zM553 840q-149 0 -239.5 -87t-104.5 -227
h663q-3 146 -88.5 230t-230.5 84z" />
    <glyph glyph-name="f" unicode="f" horiz-adv-x="686" 
d="M190 0v1071q0 190 81.5 285.5t236.5 95.5q151 0 240 -78l-41 -82q-74 60 -183 60q-227 0 -227 -299v-131h352v-101h-352v-821h-107z" />
    <glyph glyph-name="g" unicode="g" horiz-adv-x="1003" 
d="M29 -135q0 106 75 177t207 99q-30 37 -30 88q0 56 34 93q-90 38 -141 115.5t-51 176.5q0 140 100.5 233t263.5 93q133 0 232 -70h2l262 70v-100l-186 -47q55 -80 55 -179q0 -140 -101.5 -232.5t-263.5 -92.5q-53 0 -92 8q-18 -26 -18 -68q0 -44 26 -73q58 4 86 4
q208 0 334.5 -76.5t126.5 -218.5q0 -139 -127 -215t-334 -76q-209 0 -334.5 74.5t-125.5 216.5zM137 -135q0 -90 95.5 -142.5t256.5 -52.5q162 0 257.5 52.5t95.5 142.5q0 91 -96 144.5t-257 53.5t-256.5 -53t-95.5 -145zM231 614q0 -98 71.5 -163.5t184.5 -65.5
q114 0 185 65.5t71 163.5q0 97 -73 163.5t-183 66.5q-111 0 -183.5 -66t-72.5 -164z" />
    <glyph glyph-name="h" unicode="h" horiz-adv-x="1128" 
d="M162 0v1434h106v-637q55 61 147 101t185 40q191 0 288 -100.5t97 -313.5v-524h-106v508q0 330 -304 330q-90 0 -175 -41.5t-132 -100.5v-696h-106z" />
    <glyph glyph-name="i" unicode="i" horiz-adv-x="534" 
d="M213 0v922h106v-922h-106zM195 1280q0 30 21.5 49t53.5 19q28 0 49 -19t21 -49q0 -34 -21 -55t-49 -21q-32 0 -53.5 21t-21.5 55z" />
    <glyph glyph-name="j" unicode="j" horiz-adv-x="532" 
d="M326 922v-990q0 -358 -289 -358q-117 0 -189 57l33 86q62 -43 133 -43q205 0 205 267v981h107zM199 1280q0 30 21.5 49t53.5 19q28 0 49 -19t21 -49q0 -34 -21 -55t-49 -21q-32 0 -53.5 21t-21.5 55z" />
    <glyph glyph-name="k" unicode="k" horiz-adv-x="968" 
d="M889 922l-430 -433l469 -489h-144l-456 481l422 441h139zM162 0v1434h106v-1434h-106z" />
    <glyph glyph-name="l" unicode="l" horiz-adv-x="577" 
d="M162 238v1196h106v-1139q0 -107 30.5 -157t102.5 -50q68 0 129 45l27 -84q-79 -61 -195 -61q-102 0 -151 61.5t-49 188.5z" />
    <glyph glyph-name="m" unicode="m" horiz-adv-x="1648" 
d="M1505 604v-604h-106v575q0 263 -234 263q-93 0 -166.5 -42.5t-115.5 -111.5q4 -16 4 -66v-618h-107v623q0 98 -60.5 156.5t-170.5 58.5q-89 0 -164 -42.5t-117 -103.5v-692h-106v922h106v-129q53 65 140 105t180 40q107 0 182 -45t100 -125q51 77 142.5 123.5t193.5 46.5
q299 0 299 -334z" />
    <glyph glyph-name="n" unicode="n" horiz-adv-x="1128" 
d="M162 0v922h106v-129q55 62 146 103.5t186 41.5q191 0 288 -99.5t97 -312.5v-526h-106v506q0 169 -75 250.5t-229 81.5q-91 0 -174.5 -41.5t-132.5 -100.5v-696h-106z" />
    <glyph glyph-name="o" unicode="o" horiz-adv-x="1161" 
d="M96 461q0 208 135 343.5t349 135.5t348.5 -135t134.5 -344t-134.5 -344t-348.5 -135t-349 135.5t-135 343.5zM209 461q0 -166 105 -272.5t266 -106.5q163 0 266.5 106t103.5 273q0 166 -103.5 272.5t-266.5 106.5q-161 0 -266 -106.5t-105 -272.5z" />
    <glyph glyph-name="p" unicode="p" horiz-adv-x="1134" 
d="M162 -410v1332h106v-123q53 62 146 101.5t192 39.5q197 0 313.5 -129t116.5 -336q0 -214 -130.5 -353.5t-342.5 -139.5q-189 0 -295 77v-469h-106zM578 840q-93 0 -178 -42t-132 -102v-530q128 -84 287 -84q166 0 267.5 108.5t101.5 278.5q0 168 -91.5 269.5
t-254.5 101.5z" />
    <glyph glyph-name="q" unicode="q" horiz-adv-x="1136" 
d="M866 -410v510q-56 -53 -137.5 -85.5t-163.5 -32.5q-214 0 -341.5 130.5t-127.5 348.5q0 202 146 340.5t364 138.5q102 0 199 -27t168 -73v-1250h-107zM578 82q84 0 165.5 41t122.5 94v555q-119 68 -262 68q-169 0 -282 -111t-113 -272q0 -169 101 -272t268 -103z" />
    <glyph glyph-name="r" unicode="r" horiz-adv-x="673" 
d="M162 0v922h106v-123q91 139 248 139q96 0 143 -35l-36 -100q-35 21 -60.5 28t-68.5 7q-82 0 -134 -41t-92 -109v-688h-106z" />
    <glyph glyph-name="s" unicode="s" horiz-adv-x="856" 
d="M639 242q0 47 -28 80t-73 52.5t-99.5 36.5t-109 38t-99.5 49.5t-73 78.5t-28 119q0 110 82 177t215 67q92 0 169.5 -29t119.5 -73l-45 -80q-43 40 -107.5 64t-134.5 24q-84 0 -135 -43t-51 -105q0 -43 22 -76t58 -52t81.5 -37t93.5 -31t93.5 -35t81.5 -48t58 -70.5
t22 -102.5q0 -129 -95 -196.5t-237 -67.5q-94 0 -188.5 41t-127.5 92l60 69q37 -47 116 -77.5t152 -30.5q86 0 146.5 43t60.5 123z" />
    <glyph glyph-name="t" unicode="t" horiz-adv-x="712" 
d="M141 350v828h107v-256h370v-101h-370v-454q0 -139 49.5 -209t157.5 -70q82 0 147 49l35 -84q-80 -65 -207 -65q-151 0 -220 90.5t-69 271.5z" />
    <glyph glyph-name="u" unicode="u" horiz-adv-x="1114" 
d="M950 922v-922h-106v145q-56 -69 -150.5 -116t-199.5 -47q-171 0 -262 100t-91 305v535h107v-512q0 -164 68.5 -246t215.5 -82q91 0 177 48t135 112v680h106z" />
    <glyph glyph-name="v" unicode="v" horiz-adv-x="966" 
d="M944 922l-416 -934h-73l-432 934h124l265 -580q47 -101 84 -203q50 137 82 209l253 574h113z" />
    <glyph glyph-name="w" unicode="w" horiz-adv-x="1421" 
d="M1393 922l-299 -934h-88l-254 669q-35 97 -41 117q-18 -63 -41 -123l-248 -663h-84l-309 934h114l209 -646q6 -19 18.5 -64.5t20.5 -70.5q25 82 45 135l236 646h88l239 -643q8 -22 48 -140q7 29 22.5 81t20.5 69l194 633h109z" />
    <glyph glyph-name="x" unicode="x" horiz-adv-x="1013" 
d="M930 922l-346 -447l366 -475h-131l-315 408l-316 -408h-125l367 471l-346 451h131l293 -381l297 381h125z" />
    <glyph glyph-name="y" unicode="y" horiz-adv-x="985" 
d="M956 922l-372 -922q-67 -164 -123 -253.5t-106.5 -123t-116.5 -33.5q-77 0 -158 48l35 81q66 -30 108 -30q70 0 125.5 61t114.5 201l20 49l-454 922h127l315 -652l66 -143q5 16 51 147l248 648h120z" />
    <glyph glyph-name="z" unicode="z" horiz-adv-x="985" 
d="M127 821v101h762v-70l-639 -752h629v-100h-783v70l637 751h-606z" />
    <glyph glyph-name="braceleft" unicode="{" horiz-adv-x="641" 
d="M225 -150v363q0 58 -16.5 99.5t-45 63t-58.5 30.5t-64 8v94q31 0 60.5 10t58.5 33.5t47 70t18 111.5v330q0 134 57 201t193 67h125v-100h-100q-91 0 -129.5 -47t-38.5 -154v-334q0 -99 -42 -161.5t-112 -71.5q70 -8 112 -65t42 -169v-340q0 -104 44.5 -151t135.5 -47h88
v-101h-125q-124 0 -187 62.5t-63 197.5z" />
    <glyph glyph-name="bar" unicode="|" horiz-adv-x="659" 
d="M276 0v1434h107v-1434h-107z" />
    <glyph glyph-name="braceright" unicode="}" horiz-adv-x="641" 
d="M416 213v-363q0 -135 -63 -197.5t-187 -62.5h-125v101h88q91 0 135.5 47t44.5 151v340q0 112 42 169t112 65q-70 9 -112 71.5t-42 161.5v334q0 107 -38.5 154t-129.5 47h-100v100h125q136 0 193 -67t57 -201v-330q0 -65 18 -111.5t47 -70t58.5 -33.5t60.5 -10v-94
q-34 1 -64 -8t-58.5 -30.5t-45 -63t-16.5 -99.5z" />
    <glyph glyph-name="asciitilde" unicode="~" horiz-adv-x="1206" 
d="M168 659l-51 70q131 131 262 131q56 0 122 -23.5t117.5 -51t116 -51t117.5 -23.5q96 0 190 94l45 -74q-121 -115 -237 -115q-55 0 -120.5 23.5t-116.5 51.5t-115 51.5t-115 23.5q-108 0 -215 -107z" />
    <glyph glyph-name="uni00A0" unicode="&#xa0;" horiz-adv-x="481" 
 />
    <glyph glyph-name="exclamdown" unicode="&#xa1;" horiz-adv-x="634" 
d="M377 541v-1039h-113v1039h113zM399 858q0 -29 -23.5 -51.5t-58.5 -22.5q-31 0 -53 22.5t-22 51.5q0 33 21.5 57.5t53.5 24.5q36 0 59 -24.5t23 -57.5z" />
    <glyph glyph-name="cent" unicode="&#xa2;" horiz-adv-x="1206" 
d="M969 209l53 -78q-53 -66 -134.5 -103.5t-176.5 -43.5v-230h-107v232q-188 22 -303 150t-115 325q0 191 118.5 326.5t299.5 150.5v223h107v-223q184 -13 293 -113l-52 -86q-112 101 -290 101q-149 0 -256 -108.5t-107 -270.5q0 -171 109 -275t274 -104q87 0 162.5 35
t124.5 92z" />
    <glyph glyph-name="sterling" unicode="&#xa3;" horiz-adv-x="1206" 
d="M166 580v88h162q-9 25 -45.5 100.5t-53 139t-16.5 145.5q0 78 29.5 149.5t83 126.5t135 88t178.5 33q119 0 219.5 -40.5t163.5 -109.5l-61 -81q-127 124 -322 124q-136 0 -221.5 -88t-85.5 -208q0 -78 19 -140.5t52 -130t46 -108.5h352v-88h-334q6 -34 6 -72
q0 -164 -106 -303h14q82 0 235.5 -53.5t229.5 -53.5q121 0 225 99l51 -82q-123 -123 -280 -123q-79 0 -233.5 53t-233.5 53q-124 0 -236 -112l-49 84q72 72 160 110q110 140 110 312q0 34 -8 88h-186z" />
    <glyph glyph-name="currency" unicode="&#xa4;" horiz-adv-x="1206" 
d="M145 711q0 163 97 293l-183 186l66 67l184 -184q124 103 295 103t295 -103l195 193l65 -66l-194 -196q98 -128 98 -293q0 -167 -98 -295l188 -187l-68 -65l-184 184q-123 -102 -297 -102q-172 0 -295 102l-196 -194l-66 65l195 199q-97 130 -97 293zM246 711
q0 -100 42 -183.5t125 -135.5t191 -52q164 0 261.5 108t97.5 263q0 156 -98.5 263t-260.5 107t-260 -107t-98 -263z" />
    <glyph glyph-name="yen" unicode="&#xa5;" horiz-adv-x="1206" 
d="M145 625v88h347l-441 721h131l422 -701l424 701h125l-442 -721h348v-88h-402v-252h402v-88h-402v-285h-112v285h-400v88h400v252h-400z" />
    <glyph glyph-name="brokenbar" unicode="&#xa6;" horiz-adv-x="659" 
d="M383 901h-107v533h107v-533zM276 532h107v-532h-107v532z" />
    <glyph glyph-name="section" unicode="&#xa7;" horiz-adv-x="1073" 
d="M145 510q0 135 80 234t213 128q-82 39 -136 110t-54 167q0 124 85.5 204.5t227.5 80.5q166 0 264 -125l-63 -74q-21 24 -33 35t-37.5 29t-57.5 26t-73 8q-86 0 -146.5 -59t-60.5 -144q0 -159 213 -249q161 -9 261 -113t100 -258q0 -135 -80 -233.5t-215 -126.5
q81 -41 134.5 -111.5t53.5 -163.5q0 -124 -85.5 -204.5t-227.5 -80.5q-170 0 -264 125l63 74q21 -24 33 -35t37.5 -29t57.5 -26t73 -8q86 0 146.5 59t60.5 144q0 160 -215 245q-159 12 -257 115.5t-98 255.5zM252 510q0 -116 83.5 -196.5t201.5 -80.5q121 0 202.5 79
t81.5 198q0 118 -82.5 198t-201.5 80q-120 0 -202.5 -79.5t-82.5 -198.5z" />
    <glyph glyph-name="dieresis" unicode="&#xa8;" horiz-adv-x="804" 
d="M123 1266q0 30 20 48.5t50 18.5q25 0 44 -19t19 -48q0 -31 -19.5 -51.5t-43.5 -20.5q-30 0 -50 20t-20 52zM549 1266q0 30 19.5 48.5t49.5 18.5q25 0 44.5 -19t19.5 -48q0 -31 -19.5 -51.5t-44.5 -20.5q-30 0 -49.5 20t-19.5 52z" />
    <glyph glyph-name="copyright" unicode="&#xa9;" horiz-adv-x="2084" 
d="M158 453q0 243 114.5 445.5t318 320.5t451.5 118q186 0 351 -69.5t282 -187.5t184.5 -281.5t67.5 -345.5t-67.5 -345.5t-184.5 -282t-282 -188t-351 -69.5t-351 69.5t-281.5 188t-184 282t-67.5 345.5zM252 453q0 -162 60 -307.5t164 -252t251.5 -169t314.5 -62.5
q223 0 405 106.5t284 287.5t102 397q0 161 -60 307t-164 252t-252 168.5t-315 62.5t-314.5 -62.5t-251.5 -168.5t-164 -251.5t-60 -307.5zM1354 209l53 -78q-57 -72 -150.5 -110.5t-197.5 -38.5q-216 0 -352 131.5t-136 347.5q0 132 59.5 242t165 173.5t234.5 63.5
q239 0 359 -115l-52 -86q-112 101 -290 101q-149 0 -256 -108.5t-107 -270.5q0 -171 109 -275t274 -104q87 0 162.5 35t124.5 92z" />
    <glyph glyph-name="ordfeminine" unicode="&#xaa;" horiz-adv-x="837" 
d="M221 1208l-43 64q101 76 240 76q123 0 195.5 -65t72.5 -187v-402h-94v107q-89 -113 -254 -113q-102 0 -164.5 58.5t-62.5 142.5q0 99 68 154t186 55q135 0 227 -56v31q0 97 -49.5 145t-141.5 48q-98 0 -180 -58zM379 768q121 0 213 92v119q-38 21 -94.5 35t-104.5 14
q-77 0 -129.5 -35t-52.5 -96q0 -57 47.5 -93t120.5 -36z" />
    <glyph glyph-name="guillemotleft" unicode="&#xab;" horiz-adv-x="1036" 
d="M829 76l-368 432v8l373 428l69 -61l-319 -371l315 -371zM473 76l-369 432v8l373 428l70 -61l-320 -371l316 -371z" />
    <glyph glyph-name="logicalnot" unicode="&#xac;" horiz-adv-x="1206" 
d="M133 690v94h938v-362h-94v268h-844z" />
    <glyph glyph-name="uni00AD" unicode="&#xad;" horiz-adv-x="817" 
d="M174 506v100h469v-100h-469z" />
    <glyph glyph-name="registered" unicode="&#xae;" horiz-adv-x="1191" 
d="M111 1018q0 200 142 341.5t345 141.5q131 0 242 -65t176 -176t65 -242q0 -203 -141.5 -345.5t-341.5 -142.5q-204 0 -345.5 142t-141.5 346zM199 1016q0 -164 116.5 -281t280.5 -117t280.5 117t116.5 281t-116.5 280.5t-280.5 116.5t-280.5 -116.5t-116.5 -280.5z
M492 737h-76v574h170q112 0 161.5 -47t49.5 -123q0 -58 -37 -103.5t-98 -58.5l178 -242h-92l-164 228h-92v-228zM578 1253h-86v-231h96q53 0 93 33.5t40 85.5q0 53 -36.5 82.5t-106.5 29.5z" />
    <glyph glyph-name="macron" unicode="&#xaf;" horiz-adv-x="761" 
d="M123 1237v88h516v-88h-516z" />
    <glyph glyph-name="degree" unicode="&#xb0;" horiz-adv-x="815" 
d="M111 1165q0 125 86.5 212t208.5 87q125 0 212 -85t87 -210t-87.5 -212t-211.5 -87q-122 0 -208.5 85.5t-86.5 209.5zM205 1167q0 -83 60 -142.5t143 -59.5t142.5 59.5t59.5 142.5t-59.5 143t-142.5 60t-143 -60t-60 -143z" />
    <glyph glyph-name="plusminus" unicode="&#xb1;" horiz-adv-x="1206" 
d="M145 852v94h406v408h100v-408h408v-94h-408v-285h-100v285h-406zM145 354v95h914v-95h-914z" />
    <glyph glyph-name="twosuperior" unicode="&#xb2;" horiz-adv-x="694" 
d="M80 717v69q11 8 50.5 35.5t59 41.5t58.5 43t61.5 49t54.5 49.5t51 54t38 52.5t27.5 55.5t8.5 54.5q0 60 -39.5 99.5t-111.5 39.5q-60 0 -109.5 -34.5t-58.5 -94.5l-82 26q14 86 87 135.5t169 49.5q120 0 183 -60t63 -153q0 -203 -383 -430h422v-82h-549z" />
    <glyph glyph-name="threesuperior" unicode="&#xb3;" horiz-adv-x="700" 
d="M336 707q-91 0 -164.5 33.5t-108.5 103.5l58 49q27 -52 83.5 -79.5t121.5 -27.5q84 0 134 39t50 99q0 54 -46.5 88.5t-121.5 34.5h-74v69h66q60 0 102.5 37.5t42.5 93.5t-41.5 86.5t-113.5 30.5q-135 0 -189 -98l-49 51q29 58 95 92.5t161 34.5q110 0 174 -48t64 -132
q0 -59 -39 -106.5t-107 -67.5v-3q82 -7 129 -56.5t47 -115.5q0 -94 -78.5 -151t-195.5 -57z" />
    <glyph glyph-name="acute" unicode="&#xb4;" horiz-adv-x="548" 
d="M426 1403l-238 -293l-65 47l221 309z" />
    <glyph glyph-name="mu" unicode="&#xb5;" horiz-adv-x="1120" 
d="M956 922v-922h-106v145q-56 -69 -150.5 -116t-199.5 -47q-159 0 -246 84v-476h-107v1332h107v-512q0 -164 69 -246t216 -82q91 0 176.5 48t134.5 112v680h106z" />
    <glyph glyph-name="mu" unicode="&#x3bc;" horiz-adv-x="1120" 
d="M956 922v-922h-106v145q-56 -69 -150.5 -116t-199.5 -47q-159 0 -246 84v-476h-107v1332h107v-512q0 -164 69 -246t216 -82q91 0 176.5 48t134.5 112v680h106z" />
    <glyph glyph-name="paragraph" unicode="&#xb6;" horiz-adv-x="894" 
d="M104 985q0 208 115 328.5t311 120.5h295v-101h-192v-1392q0 -179 -71 -273t-230 -94q-60 0 -116.5 20.5t-90.5 51.5l45 78q66 -50 154 -50q61 0 102.5 20.5t62.5 60t29 83.5t8 105v596q-181 2 -301.5 122t-120.5 324z" />
    <glyph glyph-name="periodcentered" unicode="&#xb7;" horiz-adv-x="481" 
d="M162 608q0 29 23.5 51.5t58.5 22.5q31 0 52 -22.5t21 -51.5q0 -33 -21 -57.5t-52 -24.5q-36 0 -59 24.5t-23 57.5z" />
    <glyph glyph-name="cedilla" unicode="&#xb8;" horiz-adv-x="675" 
d="M123 -356l33 55q73 -45 147 -45q63 0 103 25.5t40 68.5q0 96 -145 96h-12v156h61v-102q102 -3 152.5 -44t50.5 -112t-63 -114.5t-173 -43.5q-95 0 -194 60z" />
    <glyph glyph-name="onesuperior" unicode="&#xb9;" horiz-adv-x="489" 
d="M55 1300l203 138h66v-721h-95v608l-135 -90z" />
    <glyph glyph-name="ordmasculine" unicode="&#xba;" horiz-adv-x="937" 
d="M117 1016q0 146 100 239t252 93t252 -93t100 -239q0 -147 -100 -240.5t-252 -93.5t-252 93.5t-100 240.5zM217 1016q0 -109 75 -177.5t177 -68.5q105 0 178.5 68.5t73.5 177.5q0 107 -74.5 175.5t-177.5 68.5t-177.5 -68.5t-74.5 -175.5z" />
    <glyph glyph-name="guillemotright" unicode="&#xbb;" horiz-adv-x="1036" 
d="M932 508l-369 -432l-71 65l317 371l-320 371l70 61l373 -428v-8zM575 508l-368 -432l-72 65l318 371l-320 371l70 61l372 -428v-8z" />
    <glyph glyph-name="onequarter" unicode="&#xbc;" horiz-adv-x="1345" 
d="M84 1300l203 138h65v-721h-94v608l-135 -90zM111 27l1067 1425l63 -45l-1067 -1425zM1090 0v178h-400v60l367 479h92l-358 -463h299v207h88v-207h127v-76h-127v-178h-88z" />
    <glyph glyph-name="onehalf" unicode="&#xbd;" horiz-adv-x="1378" 
d="M84 1300l203 138h65v-721h-94v608l-135 -90zM53 27l1067 1425l64 -45l-1067 -1425zM748 0v70q9 6 57 39.5t67.5 48t65.5 49.5t68.5 56.5t57 56.5t51 62t29.5 59.5t13 62.5q0 60 -39.5 99.5t-111.5 39.5q-60 0 -109.5 -34.5t-58.5 -94.5l-82 27q14 86 87 135t169 49
q120 0 182.5 -60t62.5 -153q0 -203 -383 -430h422v-82h-548z" />
    <glyph glyph-name="threequarters" unicode="&#xbe;" horiz-adv-x="1431" 
d="M217 27l1067 1425l64 -45l-1067 -1425zM1176 0v178h-400v60l367 479h92l-358 -463h299v207h88v-207h127v-76h-127v-178h-88zM342 707q-91 0 -164 33.5t-108 103.5l57 49q27 -52 83.5 -79.5t121.5 -27.5q84 0 134 39t50 99q0 54 -46.5 88.5t-121.5 34.5h-74v69h66
q60 0 102.5 37.5t42.5 93.5t-41.5 86.5t-113.5 30.5q-135 0 -189 -98l-49 51q29 58 95 92.5t161 34.5q110 0 174 -48t64 -132q0 -59 -39 -106.5t-107 -67.5v-3q82 -7 129 -56.5t47 -115.5q0 -94 -78.5 -151t-195.5 -57z" />
    <glyph glyph-name="questiondown" unicode="&#xbf;" horiz-adv-x="942" 
d="M182 -145q0 -113 84 -189t213 -76q194 0 316 166l65 -67q-57 -92 -161.5 -148.5t-227.5 -56.5q-185 0 -293 100.5t-108 247.5q0 77 23 140t59.5 105.5t80.5 79t88.5 69t81 66t59.5 80.5t23 103q0 18 -8 68l96 4q11 -60 11 -88q0 -54 -17.5 -100t-45.5 -78t-64 -63.5
t-74 -56.5t-74 -57t-64 -65t-45.5 -80.5t-17.5 -103.5zM608 858q0 -29 -22.5 -51.5t-57.5 -22.5q-31 0 -53 22.5t-22 51.5q0 33 21.5 57.5t53.5 24.5q36 0 58 -24t22 -58z" />
    <glyph glyph-name="Agrave" unicode="&#xc0;" horiz-adv-x="1427" 
d="M43 0l625 1446h92l624 -1446h-120l-209 487h-688l-209 -487h-115zM711 1290l-299 -696h596zM784 1511l-374 177l41 90l364 -203z" />
    <glyph glyph-name="Aacute" unicode="&#xc1;" horiz-adv-x="1427" 
d="M43 0l625 1446h92l624 -1446h-120l-209 487h-688l-209 -487h-115zM711 1290l-299 -696h596zM1022 1688l-373 -177l-33 64l367 203z" />
    <glyph glyph-name="Acircumflex" unicode="&#xc2;" horiz-adv-x="1427" 
d="M43 0l625 1446h92l624 -1446h-120l-209 487h-688l-209 -487h-115zM711 1290l-299 -696h596zM362 1571l345 201h8l348 -201l-47 -62l-305 166l-308 -166z" />
    <glyph glyph-name="Atilde" unicode="&#xc3;" horiz-adv-x="1427" 
d="M43 0l625 1446h92l624 -1446h-120l-209 487h-688l-209 -487h-115zM711 1290l-299 -696h596zM406 1571l-37 67q85 82 184 82q63 0 164 -45t155 -45q89 0 152 68l33 -68q-79 -94 -191 -94q-56 0 -161 45t-164 45q-69 0 -135 -55z" />
    <glyph glyph-name="Adieresis" unicode="&#xc4;" horiz-adv-x="1427" 
d="M43 0l625 1446h92l624 -1446h-120l-209 487h-688l-209 -487h-115zM711 1290l-299 -696h596zM399 1647q0 30 22.5 47.5t55.5 17.5q30 0 52 -18t22 -47q0 -32 -22 -51t-52 -19q-34 0 -56 18.5t-22 51.5zM877 1647q0 30 23 47.5t56 17.5q29 0 50.5 -18t21.5 -47
q0 -32 -21.5 -51t-50.5 -19q-34 0 -56.5 18.5t-22.5 51.5z" />
    <glyph glyph-name="Aring" unicode="&#xc5;" horiz-adv-x="1427" 
d="M483 1608q0 89 64 134.5t164 45.5q103 0 167 -45t64 -135q0 -75 -48 -122.5t-126 -60.5l616 -1425h-120l-209 487h-688l-209 -487h-115l614 1425q-78 11 -126 58.5t-48 124.5zM711 1290l-299 -696h596zM565 1608q0 -59 41 -91t107 -32q64 0 105.5 32t41.5 91t-40.5 87.5
t-106.5 28.5q-67 0 -107.5 -28.5t-40.5 -87.5z" />
    <glyph glyph-name="AE" unicode="&#xc6;" horiz-adv-x="1966" 
d="M1808 1434v-107h-680v-547h619v-106h-619v-568h701v-106h-813v500h-541l-352 -500h-133l1026 1434h792zM1016 1264l-465 -658h465v658z" />
    <glyph glyph-name="Ccedilla" unicode="&#xc7;" horiz-adv-x="1343" 
d="M600 -354l35 57q85 -49 151 -49q63 0 103.5 25.5t40.5 68.5q0 96 -146 96h-12v140q-298 19 -479.5 217.5t-181.5 515.5q0 154 49.5 288.5t139 233.5t222 156t291.5 57q271 0 434 -135l-53 -84q-148 113 -379 113q-171 0 -305 -81.5t-207.5 -224.5t-73.5 -323
q0 -281 169.5 -455t439.5 -174q226 0 391 135l45 -84q-72 -72 -191.5 -113.5t-248.5 -43.5v-84q208 -6 208 -156q0 -70 -63 -114t-170 -44t-209 62z" />
    <glyph glyph-name="Egrave" unicode="&#xc8;" horiz-adv-x="1177" 
d="M227 0v1434h793v-107h-680v-547h618v-106h-618v-568h700v-106h-813zM733 1511l-375 177l41 90l365 -203z" />
    <glyph glyph-name="Eacute" unicode="&#xc9;" horiz-adv-x="1177" 
d="M227 0v1434h793v-107h-680v-547h618v-106h-618v-568h700v-106h-813zM891 1688l-373 -177l-33 64l367 203z" />
    <glyph glyph-name="Ecircumflex" unicode="&#xca;" horiz-adv-x="1177" 
d="M227 0v1434h793v-107h-680v-547h618v-106h-618v-568h700v-106h-813zM276 1571l345 201h8l348 -201l-47 -62l-305 166l-308 -166z" />
    <glyph glyph-name="Edieresis" unicode="&#xcb;" horiz-adv-x="1177" 
d="M227 0v1434h793v-107h-680v-547h618v-106h-618v-568h700v-106h-813zM315 1647q0 30 22.5 47.5t55.5 17.5q30 0 52 -18t22 -47q0 -32 -22 -51t-52 -19q-34 0 -56 18.5t-22 51.5zM793 1647q0 30 23 47.5t56 17.5q29 0 50.5 -18t21.5 -47q0 -32 -21.5 -51t-50.5 -19
q-34 0 -56.5 18.5t-22.5 51.5z" />
    <glyph glyph-name="Igrave" unicode="&#xcc;" horiz-adv-x="665" 
d="M276 0v1434h113v-1434h-113zM381 1511l-375 177l41 90l365 -203z" />
    <glyph glyph-name="Iacute" unicode="&#xcd;" horiz-adv-x="665" 
d="M276 0v1434h113v-1434h-113zM659 1688l-372 -177l-33 64l367 203z" />
    <glyph glyph-name="Icircumflex" unicode="&#xce;" horiz-adv-x="665" 
d="M276 0v1434h113v-1434h-113zM-16 1571l344 201h8l348 -201l-47 -62l-305 166l-307 -166z" />
    <glyph glyph-name="Idieresis" unicode="&#xcf;" horiz-adv-x="665" 
d="M276 0v1434h113v-1434h-113zM18 1647q0 30 22.5 47.5t55.5 17.5q30 0 52 -18t22 -47q0 -32 -22 -51t-52 -19q-34 0 -56 18.5t-22 51.5zM496 1647q0 30 23 47.5t56 17.5q29 0 50.5 -18t21.5 -47q0 -32 -21.5 -51t-50.5 -19q-34 0 -56.5 18.5t-22.5 51.5z" />
    <glyph glyph-name="Eth" unicode="&#xd0;" horiz-adv-x="1552" 
d="M20 680v100h250v654h23q48 0 163.5 3t180.5 3q167 0 303 -37.5t228.5 -102.5t155 -155t90.5 -191.5t28 -216.5q0 -124 -32.5 -234.5t-99.5 -203.5t-163.5 -160.5t-231 -105t-294.5 -37.5q-51 0 -162 2t-170 2h-19v680h-250zM633 1333q-47 0 -88.5 -1t-86.5 -2.5l-75 -2.5
v-547h405v-100h-405v-574q234 -4 242 -4q169 0 303 48.5t219.5 135t130.5 201t45 250.5q0 127 -41.5 233.5t-124 188.5t-216.5 128t-308 46z" />
    <glyph glyph-name="Ntilde" unicode="&#xd1;" horiz-adv-x="1632" 
d="M1405 0h-90l-981 1233v-1233h-107v1434h90l981 -1237v1237h107v-1434zM520 1571l-37 67q85 82 185 82q63 0 164 -45t155 -45q89 0 152 68l32 -68q-79 -94 -190 -94q-56 0 -161.5 45t-164.5 45q-69 0 -135 -55z" />
    <glyph glyph-name="Ograve" unicode="&#xd2;" horiz-adv-x="1658" 
d="M111 717q0 206 92.5 374t257 264.5t368.5 96.5q151 0 284 -55t228.5 -151.5t151 -233.5t55.5 -295q0 -156 -55.5 -292.5t-151 -233.5t-228.5 -153t-284 -56t-284 55t-228.5 151.5t-150.5 233.5t-55 295zM229 717q0 -176 79 -320.5t216.5 -226.5t304.5 -82q172 0 310 82.5
t214.5 226.5t76.5 320q0 178 -79.5 322.5t-217 225.5t-304.5 81q-126 0 -237 -48t-191 -130.5t-126 -200t-46 -250.5zM979 1511l-375 177l41 90l365 -203z" />
    <glyph glyph-name="Oacute" unicode="&#xd3;" horiz-adv-x="1658" 
d="M111 717q0 206 92.5 374t257 264.5t368.5 96.5q151 0 284 -55t228.5 -151.5t151 -233.5t55.5 -295q0 -156 -55.5 -292.5t-151 -233.5t-228.5 -153t-284 -56t-284 55t-228.5 151.5t-150.5 233.5t-55 295zM229 717q0 -176 79 -320.5t216.5 -226.5t304.5 -82q172 0 310 82.5
t214.5 226.5t76.5 320q0 178 -79.5 322.5t-217 225.5t-304.5 81q-126 0 -237 -48t-191 -130.5t-126 -200t-46 -250.5zM1108 1688l-373 -177l-33 64l367 203z" />
    <glyph glyph-name="Ocircumflex" unicode="&#xd4;" horiz-adv-x="1658" 
d="M111 717q0 206 92.5 374t257 264.5t368.5 96.5q151 0 284 -55t228.5 -151.5t151 -233.5t55.5 -295q0 -156 -55.5 -292.5t-151 -233.5t-228.5 -153t-284 -56t-284 55t-228.5 151.5t-150.5 233.5t-55 295zM229 717q0 -176 79 -320.5t216.5 -226.5t304.5 -82q172 0 310 82.5
t214.5 226.5t76.5 320q0 178 -79.5 322.5t-217 225.5t-304.5 81q-126 0 -237 -48t-191 -130.5t-126 -200t-46 -250.5zM487 1571l344 201h9l348 -201l-47 -62l-305 166l-308 -166z" />
    <glyph glyph-name="Otilde" unicode="&#xd5;" horiz-adv-x="1658" 
d="M111 717q0 206 92.5 374t257 264.5t368.5 96.5q151 0 284 -55t228.5 -151.5t151 -233.5t55.5 -295q0 -156 -55.5 -292.5t-151 -233.5t-228.5 -153t-284 -56t-284 55t-228.5 151.5t-150.5 233.5t-55 295zM229 717q0 -176 79 -320.5t216.5 -226.5t304.5 -82q172 0 310 82.5
t214.5 226.5t76.5 320q0 178 -79.5 322.5t-217 225.5t-304.5 81q-126 0 -237 -48t-191 -130.5t-126 -200t-46 -250.5zM524 1571l-37 67q85 82 185 82q63 0 164 -45t155 -45q89 0 152 68l33 -68q-79 -94 -191 -94q-56 0 -161.5 45t-164.5 45q-69 0 -135 -55z" />
    <glyph glyph-name="Odieresis" unicode="&#xd6;" horiz-adv-x="1658" 
d="M111 717q0 206 92.5 374t257 264.5t368.5 96.5q151 0 284 -55t228.5 -151.5t151 -233.5t55.5 -295q0 -156 -55.5 -292.5t-151 -233.5t-228.5 -153t-284 -56t-284 55t-228.5 151.5t-150.5 233.5t-55 295zM229 717q0 -176 79 -320.5t216.5 -226.5t304.5 -82q172 0 310 82.5
t214.5 226.5t76.5 320q0 178 -79.5 322.5t-217 225.5t-304.5 81q-126 0 -237 -48t-191 -130.5t-126 -200t-46 -250.5zM516 1647q0 30 22.5 47.5t55.5 17.5q30 0 52 -18t22 -47q0 -32 -22 -51t-52 -19q-34 0 -56 18.5t-22 51.5zM993 1647q0 30 23 47.5t57 17.5q29 0 50.5 -18
t21.5 -47q0 -32 -21.5 -51t-50.5 -19q-34 0 -57 19t-23 51z" />
    <glyph glyph-name="multiply" unicode="&#xd7;" horiz-adv-x="1206" 
d="M248 1026l67 68l287 -291l289 291l65 -68l-286 -289l291 -291l-66 -65l-293 289l-291 -289l-65 65l291 291z" />
    <glyph glyph-name="Oslash" unicode="&#xd8;" horiz-adv-x="1658" 
d="M111 717q0 206 92.5 374t257 264.5t368.5 96.5q141 0 266.5 -47.5t221.5 -136.5l98 94l62 -62l-99 -96q170 -204 170 -487q0 -156 -55.5 -292.5t-151 -233.5t-228.5 -153t-284 -56q-298 0 -501 194l-97 -94l-63 65l100 97q-157 196 -157 473zM1430 717q0 229 -136 405
l-882 -864q81 -81 188.5 -125.5t228.5 -44.5q172 0 310 82.5t214.5 226.5t76.5 320zM229 717q0 -225 123 -389l883 860q-79 75 -184 116.5t-222 41.5q-126 0 -237 -48t-191 -130.5t-126 -200t-46 -250.5z" />
    <glyph glyph-name="Ugrave" unicode="&#xd9;" horiz-adv-x="1538" 
d="M1331 1434v-834q0 -159 -43.5 -280t-120 -193t-172 -107.5t-207.5 -35.5q-126 0 -231.5 40t-184 117t-122 198t-43.5 275v820h112v-799q0 -258 127 -401.5t342 -143.5q197 0 314 134.5t117 400.5v809h112zM891 1511l-375 177l41 90l365 -203z" />
    <glyph glyph-name="Uacute" unicode="&#xda;" horiz-adv-x="1538" 
d="M1331 1434v-834q0 -159 -43.5 -280t-120 -193t-172 -107.5t-207.5 -35.5q-126 0 -231.5 40t-184 117t-122 198t-43.5 275v820h112v-799q0 -258 127 -401.5t342 -143.5q197 0 314 134.5t117 400.5v809h112zM1040 1688l-372 -177l-33 64l366 203z" />
    <glyph glyph-name="Ucircumflex" unicode="&#xdb;" horiz-adv-x="1538" 
d="M1331 1434v-834q0 -159 -43.5 -280t-120 -193t-172 -107.5t-207.5 -35.5q-126 0 -231.5 40t-184 117t-122 198t-43.5 275v820h112v-799q0 -258 127 -401.5t342 -143.5q197 0 314 134.5t117 400.5v809h112zM418 1571l344 201h8l348 -201l-47 -62l-305 166l-307 -166z" />
    <glyph glyph-name="Udieresis" unicode="&#xdc;" horiz-adv-x="1538" 
d="M1331 1434v-834q0 -159 -43.5 -280t-120 -193t-172 -107.5t-207.5 -35.5q-126 0 -231.5 40t-184 117t-122 198t-43.5 275v820h112v-799q0 -258 127 -401.5t342 -143.5q197 0 314 134.5t117 400.5v809h112zM449 1647q0 30 22 47.5t55 17.5q30 0 52 -18t22 -47
q0 -32 -22 -51t-52 -19q-33 0 -55 18.5t-22 51.5zM926 1647q0 30 23 47.5t57 17.5q29 0 50 -17.5t21 -47.5q0 -32 -21 -51t-50 -19q-34 0 -57 19t-23 51z" />
    <glyph glyph-name="Yacute" unicode="&#xdd;" horiz-adv-x="1196" 
d="M1167 1434l-516 -807v-627h-112v627l-510 807h131l440 -701l442 701h125zM881 1688l-373 -177l-33 64l367 203z" />
    <glyph glyph-name="Thorn" unicode="&#xde;" horiz-adv-x="1198" 
d="M340 0h-113v1434h113v-220q35 0 124.5 2.5t113.5 2.5q115 0 205 -25t146 -66t92.5 -98t51 -116.5t14.5 -127.5q0 -86 -30.5 -163t-90 -139.5t-159.5 -99t-229 -36.5t-238 8v-356zM580 1112q-158 0 -240 -6v-641q133 -10 233 -10q190 0 293 90.5t103 242.5q0 148 -96 236
t-293 88z" />
    <glyph glyph-name="germandbls" unicode="&#xdf;" horiz-adv-x="1110" 
d="M899 305q0 51 -22.5 94.5t-58.5 74.5t-79 59.5t-86.5 57t-79.5 59t-58.5 73t-22.5 92.5q0 52 22 95.5t53 74.5t62.5 60.5t53.5 67.5t22 81q0 68 -56.5 113t-132.5 45q-121 0 -178 -77t-57 -243v-1038h-107v1059q0 399 354 399q123 0 206 -68.5t83 -171.5q0 -56 -22 -101
t-53.5 -76t-62.5 -59.5t-53 -64t-22 -77.5q0 -46 22.5 -84t58.5 -66t79.5 -54.5t87 -56.5t79.5 -65t58.5 -87.5t22.5 -117.5q0 -139 -88 -230t-219 -91q-98 0 -172.5 41.5t-116.5 101.5l41 80q95 -123 223 -123q89 0 154 61.5t65 161.5z" />
    <glyph glyph-name="agrave" unicode="&#xe0;" horiz-adv-x="940" 
d="M190 768l-28 88q136 84 293 84q185 0 263.5 -93t78.5 -276v-571h-107v141q-112 -153 -315 -153q-128 0 -206.5 74.5t-78.5 199.5q0 134 98 210.5t252 76.5q152 0 250 -70q0 48 -1 79t-4.5 69.5t-10.5 62.5t-18.5 51t-29.5 43t-42.5 30t-58.5 20t-76 6q-76 0 -133.5 -17.5
t-125.5 -54.5zM408 88q56 0 102 12.5t79.5 35.5t55.5 45t45 52v154q-103 74 -239 74q-101 0 -174.5 -49.5t-73.5 -143.5q0 -84 58 -132t147 -48zM520 1110l-237 291l84 63l221 -307z" />
    <glyph glyph-name="aacute" unicode="&#xe1;" horiz-adv-x="940" 
d="M190 768l-28 88q136 84 293 84q185 0 263.5 -93t78.5 -276v-571h-107v141q-112 -153 -315 -153q-128 0 -206.5 74.5t-78.5 199.5q0 134 98 210.5t252 76.5q152 0 250 -70q0 48 -1 79t-4.5 69.5t-10.5 62.5t-18.5 51t-29.5 43t-42.5 30t-58.5 20t-76 6q-76 0 -133.5 -17.5
t-125.5 -54.5zM408 88q56 0 102 12.5t79.5 35.5t55.5 45t45 52v154q-103 74 -239 74q-101 0 -174.5 -49.5t-73.5 -143.5q0 -84 58 -132t147 -48zM664 1403l-238 -293l-66 47l222 309z" />
    <glyph glyph-name="acircumflex" unicode="&#xe2;" horiz-adv-x="940" 
d="M190 768l-28 88q136 84 293 84q185 0 263.5 -93t78.5 -276v-571h-107v141q-112 -153 -315 -153q-128 0 -206.5 74.5t-78.5 199.5q0 134 98 210.5t252 76.5q152 0 250 -70q0 48 -1 79t-4.5 69.5t-10.5 62.5t-18.5 51t-29.5 43t-42.5 30t-58.5 20t-76 6q-76 0 -133.5 -17.5
t-125.5 -54.5zM408 88q56 0 102 12.5t79.5 35.5t55.5 45t45 52v154q-103 74 -239 74q-101 0 -174.5 -49.5t-73.5 -143.5q0 -84 58 -132t147 -48zM475 1448l262 -268l-51 -66l-215 215l-219 -213l-53 64l268 268h8z" />
    <glyph glyph-name="atilde" unicode="&#xe3;" horiz-adv-x="940" 
d="M190 768l-28 88q136 84 293 84q185 0 263.5 -93t78.5 -276v-571h-107v141q-112 -153 -315 -153q-128 0 -206.5 74.5t-78.5 199.5q0 134 98 210.5t252 76.5q152 0 250 -70q0 48 -1 79t-4.5 69.5t-10.5 62.5t-18.5 51t-29.5 43t-42.5 30t-58.5 20t-76 6q-76 0 -133.5 -17.5
t-125.5 -54.5zM408 88q56 0 102 12.5t79.5 35.5t55.5 45t45 52v154q-103 74 -239 74q-101 0 -174.5 -49.5t-73.5 -143.5q0 -84 58 -132t147 -48zM201 1174l-47 51q106 106 206 106q40 0 79.5 -23.5t76.5 -47t72 -23.5t69 18t82 60l39 -55q-108 -111 -200 -111
q-37 0 -75.5 23.5t-77.5 47t-77 23.5q-60 0 -147 -69z" />
    <glyph glyph-name="adieresis" unicode="&#xe4;" horiz-adv-x="940" 
d="M190 768l-28 88q136 84 293 84q185 0 263.5 -93t78.5 -276v-571h-107v141q-112 -153 -315 -153q-128 0 -206.5 74.5t-78.5 199.5q0 134 98 210.5t252 76.5q152 0 250 -70q0 48 -1 79t-4.5 69.5t-10.5 62.5t-18.5 51t-29.5 43t-42.5 30t-58.5 20t-76 6q-76 0 -133.5 -17.5
t-125.5 -54.5zM408 88q56 0 102 12.5t79.5 35.5t55.5 45t45 52v154q-103 74 -239 74q-101 0 -174.5 -49.5t-73.5 -143.5q0 -84 58 -132t147 -48zM182 1266q0 30 20 48.5t50 18.5q25 0 44 -19t19 -48q0 -31 -19.5 -51.5t-43.5 -20.5q-30 0 -50 20t-20 52zM608 1266
q0 30 20 48.5t50 18.5q25 0 44 -19t19 -48q0 -31 -19.5 -51.5t-43.5 -20.5q-30 0 -50 20t-20 52z" />
    <glyph glyph-name="aring" unicode="&#xe5;" horiz-adv-x="940" 
d="M190 768l-28 88q136 84 293 84q185 0 263.5 -93t78.5 -276v-571h-107v141q-112 -153 -315 -153q-128 0 -206.5 74.5t-78.5 199.5q0 134 98 210.5t252 76.5q152 0 250 -70q0 48 -1 79t-4.5 69.5t-10.5 62.5t-18.5 51t-29.5 43t-42.5 30t-58.5 20t-76 6q-76 0 -133.5 -17.5
t-125.5 -54.5zM408 88q56 0 102 12.5t79.5 35.5t55.5 45t45 52v154q-103 74 -239 74q-101 0 -174.5 -49.5t-73.5 -143.5q0 -84 58 -132t147 -48zM246 1257q0 88 62.5 150.5t152.5 62.5q92 0 155.5 -62.5t63.5 -150.5t-63.5 -149t-155.5 -61q-91 0 -153 61t-62 149zM317 1257
q0 -62 42.5 -104.5t103.5 -42.5t103 42.5t42 104.5t-42 106t-103 44t-103.5 -44t-42.5 -106z" />
    <glyph glyph-name="ae" unicode="&#xe6;" horiz-adv-x="1615" 
d="M455 940q223 0 299 -145q126 145 352 145q181 0 299.5 -115t118.5 -301q0 -48 -6 -86h-721v-182q48 -84 134 -129t204 -45q91 0 170.5 31t128.5 82l34 -82q-61 -64 -152.5 -97.5t-187.5 -33.5q-247 0 -385 163q-78 -81 -162.5 -119t-187.5 -38q-141 0 -222 74t-81 200
q0 134 98 210.5t252 76.5q53 0 131.5 -9t118.5 -18q9 162 -44.5 240t-196.5 78q-76 0 -133.5 -17.5t-125.5 -54.5l-28 88q136 84 293 84zM797 571v-45h618q-3 146 -88.5 230t-230.5 84q-104 0 -182.5 -45t-122.5 -125q6 -46 6 -99zM408 88q56 0 102 12.5t79.5 35.5t55.5 45
t45 52v201q-138 27 -239 27t-174.5 -49.5t-73.5 -143.5q0 -84 58 -132t147 -48z" />
    <glyph glyph-name="ccedilla" unicode="&#xe7;" horiz-adv-x="1003" 
d="M358 -356l33 55q73 -45 148 -45q63 0 103 25.5t40 68.5q0 96 -145 96h-13v142q-192 17 -310 145.5t-118 329.5q0 132 59.5 242t165 173.5t234.5 63.5q238 0 358 -115l-51 -86q-112 101 -291 101q-149 0 -255.5 -108.5t-106.5 -270.5q0 -171 109 -275t274 -104
q87 0 162.5 35t124.5 92l53 -78q-57 -72 -150 -110.5t-196 -38.5v-84q102 -3 152 -44t50 -112t-62.5 -114.5t-172.5 -43.5q-96 0 -195 60z" />
    <glyph glyph-name="egrave" unicode="&#xe8;" horiz-adv-x="1073" 
d="M891 195l35 -82q-61 -64 -152.5 -97.5t-187.5 -33.5q-219 0 -354.5 131t-135.5 348q0 136 52.5 243t160 171.5t254.5 64.5q181 0 299.5 -115t118.5 -301q0 -48 -6 -86h-760q6 -165 108 -260.5t269 -95.5q91 0 170.5 31t128.5 82zM553 840q-149 0 -239.5 -87t-104.5 -227
h663q-3 146 -88.5 230t-230.5 84zM586 1110l-238 291l84 63l221 -307z" />
    <glyph glyph-name="eacute" unicode="&#xe9;" horiz-adv-x="1073" 
d="M891 195l35 -82q-61 -64 -152.5 -97.5t-187.5 -33.5q-219 0 -354.5 131t-135.5 348q0 136 52.5 243t160 171.5t254.5 64.5q181 0 299.5 -115t118.5 -301q0 -48 -6 -86h-760q6 -165 108 -260.5t269 -95.5q91 0 170.5 31t128.5 82zM553 840q-149 0 -239.5 -87t-104.5 -227
h663q-3 146 -88.5 230t-230.5 84zM786 1403l-237 -293l-66 47l222 309z" />
    <glyph glyph-name="ecircumflex" unicode="&#xea;" horiz-adv-x="1073" 
d="M891 195l35 -82q-61 -64 -152.5 -97.5t-187.5 -33.5q-219 0 -354.5 131t-135.5 348q0 136 52.5 243t160 171.5t254.5 64.5q181 0 299.5 -115t118.5 -301q0 -48 -6 -86h-760q6 -165 108 -260.5t269 -95.5q91 0 170.5 31t128.5 82zM553 840q-149 0 -239.5 -87t-104.5 -227
h663q-3 146 -88.5 230t-230.5 84zM563 1448l262 -268l-51 -66l-215 215l-219 -213l-53 64l268 268h8z" />
    <glyph glyph-name="edieresis" unicode="&#xeb;" horiz-adv-x="1073" 
d="M891 195l35 -82q-61 -64 -152.5 -97.5t-187.5 -33.5q-219 0 -354.5 131t-135.5 348q0 136 52.5 243t160 171.5t254.5 64.5q181 0 299.5 -115t118.5 -301q0 -48 -6 -86h-760q6 -165 108 -260.5t269 -95.5q91 0 170.5 31t128.5 82zM553 840q-149 0 -239.5 -87t-104.5 -227
h663q-3 146 -88.5 230t-230.5 84zM264 1266q0 30 20 48.5t50 18.5q25 0 44 -19t19 -48q0 -31 -19.5 -51.5t-43.5 -20.5q-30 0 -50 20t-20 52zM690 1266q0 30 20 48.5t50 18.5q25 0 44 -19t19 -48q0 -31 -19.5 -51.5t-43.5 -20.5q-30 0 -50 20t-20 52z" />
    <glyph glyph-name="igrave" unicode="&#xec;" horiz-adv-x="534" 
d="M213 0v922h106v-922h-106zM266 1110l-237 291l84 63l221 -307z" />
    <glyph glyph-name="iacute" unicode="&#xed;" horiz-adv-x="534" 
d="M213 0v922h106v-922h-106zM485 1403l-237 -293l-66 47l221 309z" />
    <glyph glyph-name="icircumflex" unicode="&#xee;" horiz-adv-x="534" 
d="M213 0v922h106v-922h-106zM274 1448l263 -268l-52 -66l-215 215l-219 -213l-53 64l268 268h8z" />
    <glyph glyph-name="idieresis" unicode="&#xef;" horiz-adv-x="534" 
d="M213 0v922h106v-922h-106zM-12 1266q0 30 19.5 48.5t49.5 18.5q25 0 44.5 -19t19.5 -48q0 -31 -19.5 -51.5t-44.5 -20.5q-30 0 -49.5 20t-19.5 52zM414 1266q0 30 19.5 48.5t49.5 18.5q25 0 44.5 -19t19.5 -48q0 -31 -19.5 -51.5t-44.5 -20.5q-30 0 -49.5 20t-19.5 52z
" />
    <glyph glyph-name="eth" unicode="&#xf0;" horiz-adv-x="1161" 
d="M416 1081l-33 95l217 102q-106 90 -233 149l118 25q111 -53 205 -131l215 104l33 -94l-170 -82q140 -145 217.5 -335.5t77.5 -385.5q0 -252 -132.5 -399t-350.5 -147q-214 0 -349 135.5t-135 343.5t135 343.5t349 135.5q113 0 203.5 -57t140.5 -158q-51 271 -248 481z
M209 461q0 -166 105 -272.5t266 -106.5q168 0 271 123.5t99 331.5q-20 120 -120.5 211.5t-249.5 91.5q-161 0 -266 -106.5t-105 -272.5z" />
    <glyph glyph-name="ntilde" unicode="&#xf1;" horiz-adv-x="1128" 
d="M162 0v922h106v-129q55 62 146 103.5t186 41.5q191 0 288 -99.5t97 -312.5v-526h-106v506q0 169 -75 250.5t-229 81.5q-91 0 -174.5 -41.5t-132.5 -100.5v-696h-106zM295 1174l-47 51q106 106 207 106q40 0 79.5 -23.5t76 -47t71.5 -23.5q63 0 152 78l38 -55
q-108 -111 -200 -111q-37 0 -75.5 23.5t-77.5 47t-77 23.5q-60 0 -147 -69z" />
    <glyph glyph-name="ograve" unicode="&#xf2;" horiz-adv-x="1161" 
d="M96 461q0 208 135 343.5t349 135.5t348.5 -135t134.5 -344t-134.5 -344t-348.5 -135t-349 135.5t-135 343.5zM209 461q0 -166 105 -272.5t266 -106.5q163 0 266.5 106t103.5 273q0 166 -103.5 272.5t-266.5 106.5q-161 0 -266 -106.5t-105 -272.5zM608 1110l-237 291
l84 63l221 -307z" />
    <glyph glyph-name="oacute" unicode="&#xf3;" horiz-adv-x="1161" 
d="M96 461q0 208 135 343.5t349 135.5t348.5 -135t134.5 -344t-134.5 -344t-348.5 -135t-349 135.5t-135 343.5zM209 461q0 -166 105 -272.5t266 -106.5q163 0 266.5 106t103.5 273q0 166 -103.5 272.5t-266.5 106.5q-161 0 -266 -106.5t-105 -272.5zM791 1403l-238 -293
l-66 47l222 309z" />
    <glyph glyph-name="ocircumflex" unicode="&#xf4;" horiz-adv-x="1161" 
d="M96 461q0 208 135 343.5t349 135.5t348.5 -135t134.5 -344t-134.5 -344t-348.5 -135t-349 135.5t-135 343.5zM209 461q0 -166 105 -272.5t266 -106.5q163 0 266.5 106t103.5 273q0 166 -103.5 272.5t-266.5 106.5q-161 0 -266 -106.5t-105 -272.5zM586 1448l262 -268
l-51 -66l-215 215l-220 -213l-53 64l269 268h8z" />
    <glyph glyph-name="otilde" unicode="&#xf5;" horiz-adv-x="1161" 
d="M96 461q0 208 135 343.5t349 135.5t348.5 -135t134.5 -344t-134.5 -344t-348.5 -135t-349 135.5t-135 343.5zM209 461q0 -166 105 -272.5t266 -106.5q163 0 266.5 106t103.5 273q0 166 -103.5 272.5t-266.5 106.5q-161 0 -266 -106.5t-105 -272.5zM311 1174l-47 51
q106 106 207 106q40 0 79.5 -23.5t76 -47t71.5 -23.5q63 0 152 78l39 -55q-108 -111 -201 -111q-30 0 -61 14.5t-53 32.5t-53 32.5t-62 14.5q-61 0 -148 -69z" />
    <glyph glyph-name="odieresis" unicode="&#xf6;" horiz-adv-x="1161" 
d="M96 461q0 208 135 343.5t349 135.5t348.5 -135t134.5 -344t-134.5 -344t-348.5 -135t-349 135.5t-135 343.5zM209 461q0 -166 105 -272.5t266 -106.5q163 0 266.5 106t103.5 273q0 166 -103.5 272.5t-266.5 106.5q-161 0 -266 -106.5t-105 -272.5zM307 1266q0 30 20 48.5
t50 18.5q25 0 44 -19t19 -48q0 -31 -19.5 -51.5t-43.5 -20.5q-30 0 -50 20t-20 52zM733 1266q0 30 20 48.5t50 18.5q25 0 44 -19t19 -48q0 -31 -19.5 -51.5t-43.5 -20.5q-30 0 -50 20t-20 52z" />
    <glyph glyph-name="divide" unicode="&#xf7;" horiz-adv-x="1206" 
d="M532 1167q0 27 20 48.5t52 21.5q29 0 49.5 -22t20.5 -48q0 -29 -20 -51t-50 -22q-32 0 -52 22t-20 51zM532 309q0 26 20 47t52 21q30 0 50 -21t20 -47q0 -30 -20 -51.5t-50 -21.5q-33 0 -52.5 21.5t-19.5 51.5zM145 690v94h914v-94h-914z" />
    <glyph glyph-name="oslash" unicode="&#xf8;" horiz-adv-x="1161" 
d="M96 461q0 208 135 343.5t349 135.5q191 0 325 -115l105 103l59 -66l-102 -102q96 -126 96 -299q0 -209 -134.5 -344t-348.5 -135q-176 0 -308 98l-108 -107l-62 68l105 102q-111 126 -111 318zM209 461q0 -144 76 -242l542 531q-99 90 -247 90q-161 0 -266 -106.5
t-105 -272.5zM950 461q0 127 -63 221l-537 -526q96 -74 230 -74q163 0 266.5 106t103.5 273z" />
    <glyph glyph-name="ugrave" unicode="&#xf9;" horiz-adv-x="1114" 
d="M950 922v-922h-106v145q-56 -69 -150.5 -116t-199.5 -47q-171 0 -262 100t-91 305v535h107v-512q0 -164 68.5 -246t215.5 -82q91 0 177 48t135 112v680h106zM582 1110l-238 291l84 63l221 -307z" />
    <glyph glyph-name="uacute" unicode="&#xfa;" horiz-adv-x="1114" 
d="M950 922v-922h-106v145q-56 -69 -150.5 -116t-199.5 -47q-171 0 -262 100t-91 305v535h107v-512q0 -164 68.5 -246t215.5 -82q91 0 177 48t135 112v680h106zM770 1403l-238 -293l-65 47l221 309z" />
    <glyph glyph-name="ucircumflex" unicode="&#xfb;" horiz-adv-x="1114" 
d="M950 922v-922h-106v145q-56 -69 -150.5 -116t-199.5 -47q-171 0 -262 100t-91 305v535h107v-512q0 -164 68.5 -246t215.5 -82q91 0 177 48t135 112v680h106zM555 1448l262 -268l-51 -66l-215 215l-219 -213l-53 64l268 268h8z" />
    <glyph glyph-name="udieresis" unicode="&#xfc;" horiz-adv-x="1114" 
d="M950 922v-922h-106v145q-56 -69 -150.5 -116t-199.5 -47q-171 0 -262 100t-91 305v535h107v-512q0 -164 68.5 -246t215.5 -82q91 0 177 48t135 112v680h106zM276 1266q0 30 20 48.5t50 18.5q25 0 44.5 -19t19.5 -48q0 -31 -19.5 -51.5t-44.5 -20.5q-30 0 -50 20t-20 52z
M702 1266q0 30 20 48.5t50 18.5q25 0 44.5 -19t19.5 -48q0 -31 -19.5 -51.5t-44.5 -20.5q-30 0 -50 20t-20 52z" />
    <glyph glyph-name="yacute" unicode="&#xfd;" horiz-adv-x="985" 
d="M956 922l-372 -922q-67 -164 -123 -253.5t-106.5 -123t-116.5 -33.5q-77 0 -158 48l35 81q66 -30 108 -30q70 0 125.5 61t114.5 201l20 49l-454 922h127l315 -652l66 -143q5 16 51 147l248 648h120zM700 1403l-237 -293l-66 47l221 309z" />
    <glyph glyph-name="thorn" unicode="&#xfe;" horiz-adv-x="1134" 
d="M162 -410v1844h106v-629q57 60 148 97.5t190 37.5q197 0 313.5 -129t116.5 -336q0 -214 -130.5 -353.5t-342.5 -139.5q-189 0 -295 77v-469h-106zM578 840q-93 0 -178 -42t-132 -102v-530q128 -84 287 -84q166 0 267.5 108.5t101.5 278.5q0 168 -91.5 269.5t-254.5 101.5
z" />
    <glyph glyph-name="ydieresis" unicode="&#xff;" horiz-adv-x="985" 
d="M956 922l-372 -922q-67 -164 -123 -253.5t-106.5 -123t-116.5 -33.5q-77 0 -158 48l35 81q66 -30 108 -30q70 0 125.5 61t114.5 201l20 49l-454 922h127l315 -652l66 -143q5 16 51 147l248 648h120zM219 1266q0 30 20 48.5t50 18.5q25 0 44 -19t19 -48q0 -31 -19.5 -51.5
t-43.5 -20.5q-30 0 -50 20t-20 52zM645 1266q0 30 20 48.5t50 18.5q25 0 44 -19t19 -48q0 -31 -19.5 -51.5t-43.5 -20.5q-30 0 -50 20t-20 52z" />
    <glyph glyph-name="Amacron" unicode="&#x100;" horiz-adv-x="1427" 
d="M43 0l625 1446h92l624 -1446h-120l-209 487h-688l-209 -487h-115zM711 1290l-299 -696h596zM406 1593v88h614v-88h-614z" />
    <glyph glyph-name="amacron" unicode="&#x101;" horiz-adv-x="940" 
d="M190 768l-28 88q136 84 293 84q185 0 263.5 -93t78.5 -276v-571h-107v141q-112 -153 -315 -153q-128 0 -206.5 74.5t-78.5 199.5q0 134 98 210.5t252 76.5q152 0 250 -70q0 48 -1 79t-4.5 69.5t-10.5 62.5t-18.5 51t-29.5 43t-42.5 30t-58.5 20t-76 6q-76 0 -133.5 -17.5
t-125.5 -54.5zM408 88q56 0 102 12.5t79.5 35.5t55.5 45t45 52v154q-103 74 -239 74q-101 0 -174.5 -49.5t-73.5 -143.5q0 -84 58 -132t147 -48zM215 1237v88h516v-88h-516z" />
    <glyph glyph-name="Abreve" unicode="&#x102;" horiz-adv-x="1427" 
d="M43 0l625 1446h92l624 -1446h-120l-209 487h-688l-209 -487h-115zM711 1290l-299 -696h596zM377 1714l49 55q116 -137 293 -137q93 0 166.5 39.5t120.5 97.5l43 -57q-49 -73 -135.5 -123.5t-194.5 -50.5q-120 0 -210.5 55.5t-131.5 120.5z" />
    <glyph glyph-name="abreve" unicode="&#x103;" horiz-adv-x="940" 
d="M190 768l-28 88q136 84 293 84q185 0 263.5 -93t78.5 -276v-571h-107v141q-112 -153 -315 -153q-128 0 -206.5 74.5t-78.5 199.5q0 134 98 210.5t252 76.5q152 0 250 -70q0 48 -1 79t-4.5 69.5t-10.5 62.5t-18.5 51t-29.5 43t-42.5 30t-58.5 20t-76 6q-76 0 -133.5 -17.5
t-125.5 -54.5zM408 88q56 0 102 12.5t79.5 35.5t55.5 45t45 52v154q-103 74 -239 74q-101 0 -174.5 -49.5t-73.5 -143.5q0 -84 58 -132t147 -48zM180 1339l49 56q22 -26 39.5 -43.5t48.5 -41t70 -36t84 -12.5q134 0 240 131l41 -54q-116 -165 -285 -165q-57 0 -107 17
t-85 45.5t-57 52.5t-38 50z" />
    <glyph glyph-name="Aogonek" unicode="&#x104;" horiz-adv-x="1427" 
d="M1341 -303l33 -68q-59 -39 -149 -39q-41 0 -79.5 9.5t-74 30t-57 58.5t-21.5 89q0 92 75 155t187 86l-200 469h-688l-209 -487h-115l625 1446h92l624 -1446h-24q-101 0 -180.5 -55t-79.5 -135q0 -37 15.5 -64.5t39.5 -41.5t47.5 -20t46.5 -6q50 0 92 19zM711 1290
l-299 -696h596z" />
    <glyph glyph-name="aogonek" unicode="&#x105;" horiz-adv-x="940" 
d="M778 -303l33 -68q-59 -39 -149 -39q-41 0 -79.5 9.5t-74 30t-57 58.5t-21.5 89q0 91 74.5 154t185.5 87v123q-112 -153 -315 -153q-128 0 -206.5 74.5t-78.5 199.5q0 134 98 210.5t252 76.5q152 0 250 -70q0 48 -1 79t-4.5 69.5t-10.5 62.5t-18.5 51t-29.5 43t-42.5 30
t-58.5 20t-76 6q-76 0 -133.5 -17.5t-125.5 -54.5l-28 88q136 84 293 84q185 0 263.5 -93t78.5 -276v-571q-101 0 -180.5 -55t-79.5 -135q0 -37 15.5 -64.5t39.5 -41.5t47.5 -20t46.5 -6q50 0 92 19zM408 88q56 0 102 12.5t79.5 35.5t55.5 45t45 52v154q-103 74 -239 74
q-101 0 -174.5 -49.5t-73.5 -143.5q0 -84 58 -132t147 -48z" />
    <glyph glyph-name="Cacute" unicode="&#x106;" horiz-adv-x="1343" 
d="M1229 223l45 -84q-73 -73 -194.5 -115t-250.5 -42q-158 0 -291.5 52.5t-227.5 147.5t-146.5 232.5t-52.5 302.5q0 154 49.5 288.5t139 233.5t222 156t291.5 57q271 0 434 -135l-53 -84q-148 113 -379 113q-171 0 -305 -81.5t-207.5 -224.5t-73.5 -323q0 -281 169.5 -455
t439.5 -174q226 0 391 135zM1069 1688l-373 -177l-32 64l366 203z" />
    <glyph glyph-name="cacute" unicode="&#x107;" horiz-adv-x="1003" 
d="M879 209l53 -78q-57 -72 -150.5 -110.5t-197.5 -38.5q-216 0 -352 131.5t-136 347.5q0 132 59.5 242t165 173.5t234.5 63.5q238 0 358 -115l-51 -86q-112 101 -291 101q-149 0 -255.5 -108.5t-106.5 -270.5q0 -171 109 -275t274 -104q87 0 162.5 35t124.5 92zM770 1403
l-238 -293l-65 47l221 309z" />
    <glyph glyph-name="Ccircumflex" unicode="&#x108;" horiz-adv-x="1343" 
d="M1229 223l45 -84q-73 -73 -194.5 -115t-250.5 -42q-158 0 -291.5 52.5t-227.5 147.5t-146.5 232.5t-52.5 302.5q0 154 49.5 288.5t139 233.5t222 156t291.5 57q271 0 434 -135l-53 -84q-148 113 -379 113q-171 0 -305 -81.5t-207.5 -224.5t-73.5 -323q0 -281 169.5 -455
t439.5 -174q226 0 391 135zM455 1571l344 201h8l348 -201l-47 -62l-305 166l-307 -166z" />
    <glyph glyph-name="ccircumflex" unicode="&#x109;" horiz-adv-x="1003" 
d="M879 209l53 -78q-57 -72 -150.5 -110.5t-197.5 -38.5q-216 0 -352 131.5t-136 347.5q0 132 59.5 242t165 173.5t234.5 63.5q238 0 358 -115l-51 -86q-112 101 -291 101q-149 0 -255.5 -108.5t-106.5 -270.5q0 -171 109 -275t274 -104q87 0 162.5 35t124.5 92zM573 1448
l263 -268l-52 -66l-215 215l-219 -213l-53 64l268 268h8z" />
    <glyph glyph-name="Cdotaccent" unicode="&#x10a;" horiz-adv-x="1343" 
d="M1229 223l45 -84q-73 -73 -194.5 -115t-250.5 -42q-158 0 -291.5 52.5t-227.5 147.5t-146.5 232.5t-52.5 302.5q0 154 49.5 288.5t139 233.5t222 156t291.5 57q271 0 434 -135l-53 -84q-148 113 -379 113q-171 0 -305 -81.5t-207.5 -224.5t-73.5 -323q0 -281 169.5 -455
t439.5 -174q226 0 391 135zM700 1651q0 33 23.5 53t56.5 20q31 0 54.5 -20.5t23.5 -52.5q0 -35 -23.5 -55.5t-54.5 -20.5q-34 0 -57 20.5t-23 55.5z" />
    <glyph glyph-name="cdotaccent" unicode="&#x10b;" horiz-adv-x="1003" 
d="M879 209l53 -78q-57 -72 -150.5 -110.5t-197.5 -38.5q-216 0 -352 131.5t-136 347.5q0 132 59.5 242t165 173.5t234.5 63.5q238 0 358 -115l-51 -86q-112 101 -291 101q-149 0 -255.5 -108.5t-106.5 -270.5q0 -171 109 -275t274 -104q87 0 162.5 35t124.5 92zM502 1280
q0 30 22 49t54 19q27 0 48 -19t21 -49q0 -34 -20.5 -55t-48.5 -21q-32 0 -54 21t-22 55z" />
    <glyph glyph-name="Ccaron" unicode="&#x10c;" horiz-adv-x="1343" 
d="M1229 223l45 -84q-73 -73 -194.5 -115t-250.5 -42q-158 0 -291.5 52.5t-227.5 147.5t-146.5 232.5t-52.5 302.5q0 154 49.5 288.5t139 233.5t222 156t291.5 57q271 0 434 -135l-53 -84q-148 113 -379 113q-171 0 -305 -81.5t-207.5 -224.5t-73.5 -323q0 -281 169.5 -455
t439.5 -174q226 0 391 135zM803 1516l-350 200l47 62l307 -170l305 170l43 -60l-344 -202h-8z" />
    <glyph glyph-name="ccaron" unicode="&#x10d;" horiz-adv-x="1003" 
d="M879 209l53 -78q-57 -72 -150.5 -110.5t-197.5 -38.5q-216 0 -352 131.5t-136 347.5q0 132 59.5 242t165 173.5t234.5 63.5q238 0 358 -115l-51 -86q-112 101 -291 101q-149 0 -255.5 -108.5t-106.5 -270.5q0 -171 109 -275t274 -104q87 0 162.5 35t124.5 92zM571 1118
l-266 271l53 63l217 -227l218 227l51 -63l-264 -271h-9z" />
    <glyph glyph-name="Dcaron" unicode="&#x10e;" horiz-adv-x="1509" 
d="M227 0v1434h23q48 0 163.5 3t180.5 3q167 0 303 -37.5t228.5 -102.5t155 -155t90.5 -191.5t28 -216.5q0 -124 -32.5 -234.5t-99.5 -203.5t-163.5 -160.5t-231 -105t-294.5 -37.5q-51 0 -162 2t-170 2h-19zM590 1333q-47 0 -88.5 -1t-86.5 -2.5l-75 -2.5v-1221
q234 -4 242 -4q169 0 303 48.5t219.5 135t130.5 201t45 250.5q0 127 -41.5 233.5t-124 188.5t-216.5 128t-308 46zM686 1516l-350 200l47 62l307 -170l305 170l43 -60l-344 -202h-8z" />
    <glyph glyph-name="dcaron" unicode="&#x10f;" horiz-adv-x="1132" 
d="M864 0v131q-58 -66 -140 -106.5t-177 -40.5q-204 0 -327.5 129t-123.5 344q0 212 142.5 347.5t359.5 135.5q155 0 266 -80v574h107v-1434h-107zM567 84q86 0 167 43t130 102v527q-125 84 -264 84q-165 0 -278 -106t-113 -273q0 -175 98.5 -276t259.5 -101zM1184 1434h102
q19 -32 19 -82q0 -102 -44.5 -175.5t-109.5 -105.5l-47 49q45 35 72.5 93t27.5 126q0 53 -20 95z" />
    <glyph glyph-name="Dcroat" unicode="&#x110;" horiz-adv-x="1552" 
d="M20 680v100h250v654h23q48 0 163.5 3t180.5 3q167 0 303 -37.5t228.5 -102.5t155 -155t90.5 -191.5t28 -216.5q0 -124 -32.5 -234.5t-99.5 -203.5t-163.5 -160.5t-231 -105t-294.5 -37.5q-51 0 -162 2t-170 2h-19v680h-250zM633 1333q-47 0 -88.5 -1t-86.5 -2.5l-75 -2.5
v-547h405v-100h-405v-574q234 -4 242 -4q169 0 303 48.5t219.5 135t130.5 201t45 250.5q0 127 -41.5 233.5t-124 188.5t-216.5 128t-308 46z" />
    <glyph glyph-name="dcroat" unicode="&#x111;" horiz-adv-x="1132" 
d="M500 1116v88h364v230h107v-230h211v-88h-211v-1116h-107v131q-58 -66 -140 -106.5t-177 -40.5q-204 0 -327.5 129t-123.5 344q0 212 142.5 347.5t359.5 135.5q155 0 266 -80v256h-364zM567 84q86 0 167 43t130 102v527q-125 84 -264 84q-165 0 -278 -106t-113 -273
q0 -175 98.5 -276t259.5 -101z" />
    <glyph glyph-name="Emacron" unicode="&#x112;" horiz-adv-x="1177" 
d="M227 0v1434h793v-107h-680v-547h618v-106h-618v-568h700v-106h-813zM315 1593v88h615v-88h-615z" />
    <glyph glyph-name="emacron" unicode="&#x113;" horiz-adv-x="1073" 
d="M891 195l35 -82q-61 -64 -152.5 -97.5t-187.5 -33.5q-219 0 -354.5 131t-135.5 348q0 136 52.5 243t160 171.5t254.5 64.5q181 0 299.5 -115t118.5 -301q0 -48 -6 -86h-760q6 -165 108 -260.5t269 -95.5q91 0 170.5 31t128.5 82zM553 840q-149 0 -239.5 -87t-104.5 -227
h663q-3 146 -88.5 230t-230.5 84zM285 1237v88h516v-88h-516z" />
    <glyph glyph-name="Edotaccent" unicode="&#x116;" horiz-adv-x="1177" 
d="M227 0v1434h793v-107h-680v-547h618v-106h-618v-568h700v-106h-813zM551 1651q0 33 23.5 53t56.5 20q31 0 54.5 -20.5t23.5 -52.5q0 -35 -23.5 -55.5t-54.5 -20.5q-34 0 -57 20.5t-23 55.5z" />
    <glyph glyph-name="edotaccent" unicode="&#x117;" horiz-adv-x="1073" 
d="M891 195l35 -82q-61 -64 -152.5 -97.5t-187.5 -33.5q-219 0 -354.5 131t-135.5 348q0 136 52.5 243t160 171.5t254.5 64.5q181 0 299.5 -115t118.5 -301q0 -48 -6 -86h-760q6 -165 108 -260.5t269 -95.5q91 0 170.5 31t128.5 82zM553 840q-149 0 -239.5 -87t-104.5 -227
h663q-3 146 -88.5 230t-230.5 84zM469 1280q0 30 22 49t54 19q27 0 48 -19t21 -49q0 -34 -20.5 -55t-48.5 -21q-32 0 -54 21t-22 55z" />
    <glyph glyph-name="Eogonek" unicode="&#x118;" horiz-adv-x="1177" 
d="M227 0v1434h793v-107h-680v-547h618v-106h-618v-568h700v-106q-101 0 -180.5 -55t-79.5 -135q0 -30 10.5 -54t26.5 -38.5t37 -23.5t39.5 -12.5t36.5 -3.5q50 0 92 19l33 -68q-59 -39 -150 -39q-41 0 -79.5 9.5t-74 30t-56.5 58.5t-21 89q0 78 53.5 135t142.5 88h-643z
" />
    <glyph glyph-name="eogonek" unicode="&#x119;" horiz-adv-x="1073" 
d="M891 195l35 -82q-67 -70 -162 -101q-150 -94 -150 -202q0 -49 27.5 -80.5t58.5 -41.5t62 -10q52 0 94 19l33 -68q-59 -39 -150 -39q-41 0 -79.5 9.5t-74 30t-56.5 58.5t-21 89q0 123 143 209q-46 -4 -65 -4q-219 0 -354.5 131t-135.5 348q0 136 52.5 243t160 171.5
t254.5 64.5q181 0 299.5 -115t118.5 -301q0 -48 -6 -86h-760q6 -165 108 -260.5t269 -95.5q91 0 170.5 31t128.5 82zM553 840q-149 0 -239.5 -87t-104.5 -227h663q-3 146 -88.5 230t-230.5 84z" />
    <glyph glyph-name="Ecaron" unicode="&#x11a;" horiz-adv-x="1177" 
d="M227 0v1434h793v-107h-680v-547h618v-106h-618v-568h700v-106h-813zM639 1516l-350 200l47 62l307 -170l305 170l43 -60l-344 -202h-8z" />
    <glyph glyph-name="ecaron" unicode="&#x11b;" horiz-adv-x="1073" 
d="M891 195l35 -82q-61 -64 -152.5 -97.5t-187.5 -33.5q-219 0 -354.5 131t-135.5 348q0 136 52.5 243t160 171.5t254.5 64.5q181 0 299.5 -115t118.5 -301q0 -48 -6 -86h-760q6 -165 108 -260.5t269 -95.5q91 0 170.5 31t128.5 82zM553 840q-149 0 -239.5 -87t-104.5 -227
h663q-3 146 -88.5 230t-230.5 84zM559 1118l-266 271l53 63l217 -227l217 227l51 -63l-264 -271h-8z" />
    <glyph glyph-name="Gcircumflex" unicode="&#x11c;" horiz-adv-x="1488" 
d="M831 588v106h527v-516q-91 -91 -243.5 -143.5t-293.5 -52.5q-322 0 -516 200.5t-194 534.5q0 206 85.5 372.5t245.5 264.5t365 98q270 0 442 -135l-51 -88q-137 117 -379 117q-173 0 -308 -80.5t-208.5 -223.5t-73.5 -325q0 -284 164.5 -456.5t431.5 -172.5
q118 0 238 41.5t188 108.5v350h-420zM455 1571l344 201h8l348 -201l-47 -62l-305 166l-307 -166z" />
    <glyph glyph-name="gcircumflex" unicode="&#x11d;" horiz-adv-x="1003" 
d="M29 -135q0 106 75 177t207 99q-30 37 -30 88q0 56 34 93q-90 38 -141 115.5t-51 176.5q0 140 100.5 233t263.5 93q133 0 232 -70h2l262 70v-100l-186 -47q55 -80 55 -179q0 -140 -101.5 -232.5t-263.5 -92.5q-53 0 -92 8q-18 -26 -18 -68q0 -44 26 -73q58 4 86 4
q208 0 334.5 -76.5t126.5 -218.5q0 -139 -127 -215t-334 -76q-209 0 -334.5 74.5t-125.5 216.5zM137 -135q0 -90 95.5 -142.5t256.5 -52.5q162 0 257.5 52.5t95.5 142.5q0 91 -96 144.5t-257 53.5t-256.5 -53t-95.5 -145zM231 614q0 -98 71.5 -163.5t184.5 -65.5
q114 0 185 65.5t71 163.5q0 97 -73 163.5t-183 66.5q-111 0 -183.5 -66t-72.5 -164zM502 1448l262 -268l-51 -66l-215 215l-219 -213l-54 64l269 268h8z" />
    <glyph glyph-name="Gbreve" unicode="&#x11e;" horiz-adv-x="1488" 
d="M831 588v106h527v-516q-91 -91 -243.5 -143.5t-293.5 -52.5q-322 0 -516 200.5t-194 534.5q0 206 85.5 372.5t245.5 264.5t365 98q270 0 442 -135l-51 -88q-137 117 -379 117q-173 0 -308 -80.5t-208.5 -223.5t-73.5 -325q0 -284 164.5 -456.5t431.5 -172.5
q118 0 238 41.5t188 108.5v350h-420zM483 1714l49 55q116 -137 293 -137q93 0 166.5 39.5t120.5 97.5l43 -57q-49 -73 -135.5 -123.5t-194.5 -50.5q-120 0 -210.5 55.5t-131.5 120.5z" />
    <glyph glyph-name="gbreve" unicode="&#x11f;" horiz-adv-x="1003" 
d="M29 -135q0 106 75 177t207 99q-30 37 -30 88q0 56 34 93q-90 38 -141 115.5t-51 176.5q0 140 100.5 233t263.5 93q133 0 232 -70h2l262 70v-100l-186 -47q55 -80 55 -179q0 -140 -101.5 -232.5t-263.5 -92.5q-53 0 -92 8q-18 -26 -18 -68q0 -44 26 -73q58 4 86 4
q208 0 334.5 -76.5t126.5 -218.5q0 -139 -127 -215t-334 -76q-209 0 -334.5 74.5t-125.5 216.5zM137 -135q0 -90 95.5 -142.5t256.5 -52.5q162 0 257.5 52.5t95.5 142.5q0 91 -96 144.5t-257 53.5t-256.5 -53t-95.5 -145zM231 614q0 -98 71.5 -163.5t184.5 -65.5
q114 0 185 65.5t71 163.5q0 97 -73 163.5t-183 66.5q-111 0 -183.5 -66t-72.5 -164zM207 1339l49 56q22 -26 39.5 -43.5t48.5 -41t70 -36t84 -12.5q133 0 239 131l41 -54q-116 -165 -284 -165q-57 0 -107 17t-85 45.5t-57 52.5t-38 50z" />
    <glyph glyph-name="Gdotaccent" unicode="&#x120;" horiz-adv-x="1488" 
d="M831 588v106h527v-516q-91 -91 -243.5 -143.5t-293.5 -52.5q-322 0 -516 200.5t-194 534.5q0 206 85.5 372.5t245.5 264.5t365 98q270 0 442 -135l-51 -88q-137 117 -379 117q-173 0 -308 -80.5t-208.5 -223.5t-73.5 -325q0 -284 164.5 -456.5t431.5 -172.5
q118 0 238 41.5t188 108.5v350h-420zM709 1651q0 33 23 53t56 20q31 0 54.5 -20.5t23.5 -52.5q0 -35 -23.5 -55.5t-54.5 -20.5q-34 0 -56.5 20.5t-22.5 55.5z" />
    <glyph glyph-name="gdotaccent" unicode="&#x121;" horiz-adv-x="1003" 
d="M29 -135q0 106 75 177t207 99q-30 37 -30 88q0 56 34 93q-90 38 -141 115.5t-51 176.5q0 140 100.5 233t263.5 93q133 0 232 -70h2l262 70v-100l-186 -47q55 -80 55 -179q0 -140 -101.5 -232.5t-263.5 -92.5q-53 0 -92 8q-18 -26 -18 -68q0 -44 26 -73q58 4 86 4
q208 0 334.5 -76.5t126.5 -218.5q0 -139 -127 -215t-334 -76q-209 0 -334.5 74.5t-125.5 216.5zM137 -135q0 -90 95.5 -142.5t256.5 -52.5q162 0 257.5 52.5t95.5 142.5q0 91 -96 144.5t-257 53.5t-256.5 -53t-95.5 -145zM231 614q0 -98 71.5 -163.5t184.5 -65.5
q114 0 185 65.5t71 163.5q0 97 -73 163.5t-183 66.5q-111 0 -183.5 -66t-72.5 -164zM420 1280q0 30 22 49t54 19q27 0 48 -19t21 -49q0 -34 -20.5 -55t-48.5 -21q-32 0 -54 21t-22 55z" />
    <glyph glyph-name="uni0122" unicode="&#x122;" horiz-adv-x="1488" 
d="M831 588v106h527v-516q-91 -91 -243.5 -143.5t-293.5 -52.5q-322 0 -516 200.5t-194 534.5q0 206 85.5 372.5t245.5 264.5t365 98q270 0 442 -135l-51 -88q-137 117 -379 117q-173 0 -308 -80.5t-208.5 -223.5t-73.5 -325q0 -284 164.5 -456.5t431.5 -172.5
q118 0 238 41.5t188 108.5v350h-420zM741 -145l93 32q32 -6 51.5 -32.5t19.5 -69.5q0 -152 -174 -199l-31 49q99 39 99 134q0 68 -58 86z" />
    <glyph glyph-name="uni0123" unicode="&#x123;" horiz-adv-x="1003" 
d="M29 -135q0 106 75 177t207 99q-30 37 -30 88q0 56 34 93q-90 38 -141 115.5t-51 176.5q0 140 100.5 233t263.5 93q133 0 232 -70h2l262 70v-100l-186 -47q55 -80 55 -179q0 -140 -101.5 -232.5t-263.5 -92.5q-53 0 -92 8q-18 -26 -18 -68q0 -44 26 -73q58 4 86 4
q208 0 334.5 -76.5t126.5 -218.5q0 -139 -127 -215t-334 -76q-209 0 -334.5 74.5t-125.5 216.5zM137 -135q0 -90 95.5 -142.5t256.5 -52.5q162 0 257.5 52.5t95.5 142.5q0 91 -96 144.5t-257 53.5t-256.5 -53t-95.5 -145zM231 614q0 -98 71.5 -163.5t184.5 -65.5
q114 0 185 65.5t71 163.5q0 97 -73 163.5t-183 66.5q-111 0 -183.5 -66t-72.5 -164zM561 1163l-92 -33q-32 6 -52 33t-20 70q0 152 174 199l31 -50q-51 -20 -74.5 -52t-23.5 -81q0 -69 57 -86z" />
    <glyph glyph-name="Hcircumflex" unicode="&#x124;" horiz-adv-x="1574" 
d="M1235 0v678h-895v-678h-113v1434h113v-650h895v650h113v-1434h-113zM438 1571l344 201h9l348 -201l-47 -62l-306 166l-307 -166z" />
    <glyph glyph-name="hcircumflex" unicode="&#x125;" horiz-adv-x="1128" 
d="M162 0v1434h106v-637q55 61 147 101t185 40q191 0 288 -100.5t97 -313.5v-524h-106v508q0 330 -304 330q-90 0 -175 -41.5t-132 -100.5v-696h-106zM-20 1571l344 201h8l348 -201l-47 -62l-305 166l-308 -166z" />
    <glyph glyph-name="Hbar" unicode="&#x126;" horiz-adv-x="1595" 
d="M55 1067v100h183v267h112v-267h895v267h113v-267h182v-100h-182v-1067h-113v678h-895v-678h-112v1067h-183zM350 784h895v283h-895v-283z" />
    <glyph glyph-name="hbar" unicode="&#x127;" horiz-adv-x="1159" 
d="M-66 1090v100h259v244h106v-244h354v-100h-354v-293q55 61 147 101t185 40q191 0 288 -100.5t97 -313.5v-524h-107v508q0 166 -75 248t-228 82q-90 0 -175 -41.5t-132 -100.5v-696h-106v1090h-259z" />
    <glyph glyph-name="Imacron" unicode="&#x12a;" horiz-adv-x="665" 
d="M276 0v1434h113v-1434h-113zM29 1593v88h614v-88h-614z" />
    <glyph glyph-name="imacron" unicode="&#x12b;" horiz-adv-x="534" 
d="M213 0v922h106v-922h-106zM8 1237v88h516v-88h-516z" />
    <glyph glyph-name="Iogonek" unicode="&#x12e;" horiz-adv-x="665" 
d="M371 -303l32 -68q-59 -39 -149 -39q-41 0 -79.5 9.5t-74 30t-56.5 58.5t-21 89q0 90 72 153t181 86v1418h113v-1434h-10q-100 -3 -175 -58t-75 -132q0 -30 10.5 -54t26.5 -38.5t37 -23.5t39.5 -12.5t36.5 -3.5q50 0 92 19z" />
    <glyph glyph-name="iogonek" unicode="&#x12f;" horiz-adv-x="534" 
d="M301 -303l33 -68q-59 -39 -150 -39q-41 0 -79.5 9.5t-74 30t-56.5 58.5t-21 89q0 91 74.5 154t185.5 87v904h106v-922h-10q-100 -3 -175 -58t-75 -132q0 -30 10.5 -54t26.5 -38.5t37 -23.5t39.5 -12.5t36.5 -3.5q50 0 92 19zM190 1280q0 30 22 49t54 19q28 0 49 -19
t21 -49q0 -34 -21 -55t-49 -21q-32 0 -54 21t-22 55z" />
    <glyph glyph-name="Idotaccent" unicode="&#x130;" horiz-adv-x="665" 
d="M276 0v1434h113v-1434h-113zM256 1651q0 33 23.5 53t56.5 20q31 0 54.5 -20.5t23.5 -52.5q0 -35 -23.5 -55.5t-54.5 -20.5q-34 0 -57 20.5t-23 55.5z" />
    <glyph glyph-name="dotlessi" unicode="&#x131;" horiz-adv-x="534" 
d="M213 0v922h106v-922h-106z" />
    <glyph glyph-name="Jcircumflex" unicode="&#x134;" horiz-adv-x="739" 
d="M512 1434v-1119q0 -161 -67 -247t-220 -86q-61 0 -113.5 19t-82.5 46l41 88q62 -47 141 -47q56 0 94 18t58 53t28 76.5t8 96.5v1102h113zM92 1571l344 201h8l349 -201l-48 -62l-305 166l-307 -166z" />
    <glyph glyph-name="jcircumflex" unicode="&#x135;" horiz-adv-x="532" 
d="M326 922v-990q0 -358 -289 -358q-117 0 -189 57l33 86q62 -43 133 -43q205 0 205 267v981h107zM279 1448l262 -268l-52 -66l-215 215l-219 -213l-53 64l268 268h9z" />
    <glyph glyph-name="uni0136" unicode="&#x136;" horiz-adv-x="1304" 
d="M1219 1434l-678 -678l706 -756h-145l-694 748l673 686h138zM227 0v1434h113v-1434h-113zM561 -145l92 32q32 -6 52 -32.5t20 -69.5q0 -152 -174 -199l-31 49q98 39 98 134q0 69 -57 86z" />
    <glyph glyph-name="uni0137" unicode="&#x137;" horiz-adv-x="968" 
d="M889 922l-430 -433l469 -489h-144l-456 481l422 441h139zM162 0v1434h106v-1434h-106zM393 -145l92 32q32 -6 52 -32.5t20 -69.5q0 -152 -174 -199l-31 49q99 39 99 134q0 68 -58 86z" />
    <glyph glyph-name="Lacute" unicode="&#x139;" horiz-adv-x="1130" 
d="M227 0v1434h113v-1328h756v-106h-869zM872 1688l-372 -177l-33 64l367 203z" />
    <glyph glyph-name="lacute" unicode="&#x13a;" horiz-adv-x="577" 
d="M162 238v1196h106v-1139q0 -107 30.5 -157t102.5 -50q68 0 129 45l27 -84q-79 -61 -195 -61q-102 0 -151 61.5t-49 188.5zM549 1688l-373 -177l-33 64l367 203z" />
    <glyph glyph-name="uni013B" unicode="&#x13b;" horiz-adv-x="1130" 
d="M227 0v1434h113v-1328h756v-106h-869zM565 -145l92 32q32 -6 52 -32.5t20 -69.5q0 -152 -174 -199l-31 49q99 39 99 134q0 68 -58 86z" />
    <glyph glyph-name="uni013C" unicode="&#x13c;" horiz-adv-x="577" 
d="M162 238v1196h106v-1139q0 -107 30.5 -157t102.5 -50q68 0 129 45l27 -84q-79 -61 -195 -61q-102 0 -151 61.5t-49 188.5zM258 -145l92 32q32 -6 52 -32.5t20 -69.5q0 -152 -174 -199l-31 49q98 39 98 134q0 69 -57 86z" />
    <glyph glyph-name="Lcaron" unicode="&#x13d;" horiz-adv-x="1130" 
d="M227 0v1434h113v-1328h756v-106h-869zM731 1434h103q18 -30 18 -82q0 -102 -44.5 -175.5t-109.5 -105.5l-47 49q45 35 73 93.5t28 125.5q0 51 -21 95z" />
    <glyph glyph-name="lcaron" unicode="&#x13e;" horiz-adv-x="577" 
d="M162 238v1196h106v-1139q0 -107 30.5 -157t102.5 -50q68 0 129 45l27 -84q-79 -61 -195 -61q-102 0 -151 61.5t-49 188.5zM489 1434h103q18 -30 18 -82q0 -102 -44.5 -175.5t-108.5 -105.5l-47 49q45 35 72.5 93t27.5 126q0 51 -21 95z" />
    <glyph glyph-name="Ldot" unicode="&#x13f;" horiz-adv-x="1130" 
d="M227 0v1434h113v-1328h756v-106h-869zM774 766q0 29 23.5 51.5t58.5 22.5q31 0 52.5 -22.5t21.5 -51.5q0 -33 -21 -57.5t-53 -24.5q-36 0 -59 24.5t-23 57.5z" />
    <glyph glyph-name="ldot" unicode="&#x140;" horiz-adv-x="620" 
d="M162 238v1196h106v-1139q0 -107 30.5 -157t102.5 -50q68 0 129 45l27 -84q-79 -61 -195 -61q-102 0 -151 61.5t-49 188.5zM459 649q0 30 22 49t54 19q27 0 48 -19t21 -49q0 -34 -20.5 -55t-48.5 -21q-32 0 -54 21t-22 55z" />
    <glyph glyph-name="Lslash" unicode="&#x141;" horiz-adv-x="1150" 
d="M55 473v113l193 96v752h112v-695l383 193v-111l-383 -194v-521h756v-106h-868v569z" />
    <glyph glyph-name="lslash" unicode="&#x142;" horiz-adv-x="638" 
d="M35 487v113l168 84v750h106v-697l232 117v-111l-232 -116v-332q0 -107 30.5 -157t102.5 -50q68 0 129 45l27 -84q-79 -61 -195 -61q-102 0 -151 61.5t-49 188.5v333z" />
    <glyph glyph-name="Nacute" unicode="&#x143;" horiz-adv-x="1632" 
d="M1405 0h-90l-981 1233v-1233h-107v1434h90l981 -1237v1237h107v-1434zM1124 1688l-372 -177l-33 64l366 203z" />
    <glyph glyph-name="nacute" unicode="&#x144;" horiz-adv-x="1128" 
d="M162 0v922h106v-129q55 62 146 103.5t186 41.5q191 0 288 -99.5t97 -312.5v-526h-106v506q0 169 -75 250.5t-229 81.5q-91 0 -174.5 -41.5t-132.5 -100.5v-696h-106zM780 1403l-237 -293l-66 47l221 309z" />
    <glyph glyph-name="uni0145" unicode="&#x145;" horiz-adv-x="1632" 
d="M1405 0h-90l-981 1233v-1233h-107v1434h90l981 -1237v1237h107v-1434zM735 -145l92 32q32 -6 52 -32.5t20 -69.5q0 -152 -174 -199l-31 49q99 39 99 134q0 68 -58 86z" />
    <glyph glyph-name="uni0146" unicode="&#x146;" horiz-adv-x="1128" 
d="M162 0v922h106v-129q55 62 146 103.5t186 41.5q191 0 288 -99.5t97 -312.5v-526h-106v506q0 169 -75 250.5t-229 81.5q-91 0 -174.5 -41.5t-132.5 -100.5v-696h-106zM492 -145l92 32q32 -6 51.5 -32.5t19.5 -69.5q0 -152 -174 -199l-30 49q98 39 98 134q0 69 -57 86z" />
    <glyph glyph-name="Ncaron" unicode="&#x147;" horiz-adv-x="1632" 
d="M1405 0h-90l-981 1233v-1233h-107v1434h90l981 -1237v1237h107v-1434zM813 1516l-350 200l47 62l307 -170l305 170l43 -60l-344 -202h-8z" />
    <glyph glyph-name="ncaron" unicode="&#x148;" horiz-adv-x="1128" 
d="M162 0v922h106v-129q55 62 146 103.5t186 41.5q191 0 288 -99.5t97 -312.5v-526h-106v506q0 169 -75 250.5t-229 81.5q-91 0 -174.5 -41.5t-132.5 -100.5v-696h-106zM559 1118l-266 271l53 63l217 -227l217 227l51 -63l-264 -271h-8z" />
    <glyph glyph-name="Eng" unicode="&#x14a;" horiz-adv-x="1632" 
d="M1405 -94q0 -162 -64.5 -248t-216.5 -86q-60 0 -112.5 19.5t-83.5 46.5l41 88q63 -48 141 -48q56 0 94 18t58 53t28 76.5t8 96.5v78l-964 1233v-1233h-107v1434h90l981 -1258v1258h107v-1528z" />
    <glyph glyph-name="eng" unicode="&#x14b;" horiz-adv-x="1128" 
d="M674 -326q205 0 205 267v565q0 169 -75 250.5t-229 81.5q-91 0 -174.5 -41.5t-132.5 -100.5v-696h-106v922h106v-129q55 62 146 103.5t186 41.5q191 0 288 -99.5t97 -312.5v-594q0 -358 -289 -358q-116 0 -188 57l33 86q62 -43 133 -43z" />
    <glyph glyph-name="Omacron" unicode="&#x14c;" horiz-adv-x="1658" 
d="M111 717q0 206 92.5 374t257 264.5t368.5 96.5q151 0 284 -55t228.5 -151.5t151 -233.5t55.5 -295q0 -156 -55.5 -292.5t-151 -233.5t-228.5 -153t-284 -56t-284 55t-228.5 151.5t-150.5 233.5t-55 295zM229 717q0 -176 79 -320.5t216.5 -226.5t304.5 -82q172 0 310 82.5
t214.5 226.5t76.5 320q0 178 -79.5 322.5t-217 225.5t-304.5 81q-126 0 -237 -48t-191 -130.5t-126 -200t-46 -250.5zM528 1593v88h615v-88h-615z" />
    <glyph glyph-name="omacron" unicode="&#x14d;" horiz-adv-x="1161" 
d="M96 461q0 208 135 343.5t349 135.5t348.5 -135t134.5 -344t-134.5 -344t-348.5 -135t-349 135.5t-135 343.5zM209 461q0 -166 105 -272.5t266 -106.5q163 0 266.5 106t103.5 273q0 166 -103.5 272.5t-266.5 106.5q-161 0 -266 -106.5t-105 -272.5zM328 1237v88h516v-88
h-516z" />
    <glyph glyph-name="Ohungarumlaut" unicode="&#x150;" horiz-adv-x="1658" 
d="M111 717q0 206 92.5 374t257 264.5t368.5 96.5q151 0 284 -55t228.5 -151.5t151 -233.5t55.5 -295q0 -156 -55.5 -292.5t-151 -233.5t-228.5 -153t-284 -56t-284 55t-228.5 151.5t-150.5 233.5t-55 295zM229 717q0 -176 79 -320.5t216.5 -226.5t304.5 -82q172 0 310 82.5
t214.5 226.5t76.5 320q0 178 -79.5 322.5t-217 225.5t-304.5 81q-126 0 -237 -48t-191 -130.5t-126 -200t-46 -250.5zM1329 1710l-346 -199l-45 50l319 217zM950 1726l-323 -215l-47 45l284 222z" />
    <glyph glyph-name="ohungarumlaut" unicode="&#x151;" horiz-adv-x="1161" 
d="M96 461q0 208 135 343.5t349 135.5t348.5 -135t134.5 -344t-134.5 -344t-348.5 -135t-349 135.5t-135 343.5zM209 461q0 -166 105 -272.5t266 -106.5q163 0 266.5 106t103.5 273q0 166 -103.5 272.5t-266.5 106.5q-161 0 -266 -106.5t-105 -272.5zM971 1399l-244 -289
l-65 47l231 301zM651 1409l-229 -299l-66 47l217 309z" />
    <glyph glyph-name="OE" unicode="&#x152;" horiz-adv-x="2140" 
d="M1190 0v74q-152 -92 -361 -92q-158 0 -291.5 52.5t-227.5 147.5t-146.5 232.5t-52.5 302.5q0 154 49.5 288.5t139 233.5t222 156t291.5 57q228 0 377 -94v76h792v-107h-679v-547h618v-106h-618v-568h700v-106h-813zM838 88q205 0 352 107v1040q-149 111 -375 111
q-171 0 -305 -81.5t-207.5 -224.5t-73.5 -323q0 -281 169.5 -455t439.5 -174z" />
    <glyph glyph-name="oe" unicode="&#x153;" horiz-adv-x="1726" 
d="M1542 195l35 -82q-61 -64 -152.5 -97.5t-187.5 -33.5q-204 0 -332 110q-128 -110 -325 -110q-214 0 -349 135.5t-135 343.5t135 343.5t349 135.5q188 0 319 -109q122 109 315 109q181 0 300.5 -115t119.5 -301q0 -36 -8 -86h-758q6 -165 108 -260.5t269 -95.5
q90 0 169 31t128 82zM580 82q151 0 254 90q-84 120 -84 289q0 172 79 291q-105 88 -249 88q-162 0 -266.5 -106t-104.5 -273q0 -166 104 -272.5t267 -106.5zM1206 840q-151 0 -241.5 -87t-102.5 -227h662q-3 146 -89 230t-229 84z" />
    <glyph glyph-name="Racute" unicode="&#x154;" horiz-adv-x="1292" 
d="M340 0h-113v1434q45 0 186.5 2t157.5 2q114 0 202 -22.5t144 -60t91.5 -91.5t50 -112.5t14.5 -127.5q0 -150 -96 -258.5t-244 -140.5l502 -625h-139l-478 602h-278v-602zM565 1331q-89 0 -225 -4v-618h248q92 0 175 38.5t137 112t54 164.5q0 142 -91.5 224.5t-297.5 82.5
zM834 1688l-373 -177l-33 64l367 203z" />
    <glyph glyph-name="racute" unicode="&#x155;" horiz-adv-x="673" 
d="M162 0v922h106v-123q91 139 248 139q96 0 143 -35l-36 -100q-35 21 -60.5 28t-68.5 7q-82 0 -134 -41t-92 -109v-688h-106zM608 1403l-237 -293l-66 47l221 309z" />
    <glyph glyph-name="uni0156" unicode="&#x156;" horiz-adv-x="1292" 
d="M340 0h-113v1434q45 0 186.5 2t157.5 2q114 0 202 -22.5t144 -60t91.5 -91.5t50 -112.5t14.5 -127.5q0 -150 -96 -258.5t-244 -140.5l502 -625h-139l-478 602h-278v-602zM565 1331q-89 0 -225 -4v-618h248q92 0 175 38.5t137 112t54 164.5q0 142 -91.5 224.5t-297.5 82.5
zM555 -145l92 32q32 -6 52 -32.5t20 -69.5q0 -152 -174 -199l-31 49q98 39 98 134q0 69 -57 86z" />
    <glyph glyph-name="uni0157" unicode="&#x157;" horiz-adv-x="673" 
d="M162 0v922h106v-123q91 139 248 139q96 0 143 -35l-36 -100q-35 21 -60.5 28t-68.5 7q-82 0 -134 -41t-92 -109v-688h-106zM236 -145l92 32q32 -6 51.5 -32.5t19.5 -69.5q0 -152 -174 -199l-30 49q98 39 98 134q0 69 -57 86z" />
    <glyph glyph-name="Rcaron" unicode="&#x158;" horiz-adv-x="1292" 
d="M340 0h-113v1434q45 0 186.5 2t157.5 2q114 0 202 -22.5t144 -60t91.5 -91.5t50 -112.5t14.5 -127.5q0 -150 -96 -258.5t-244 -140.5l502 -625h-139l-478 602h-278v-602zM565 1331q-89 0 -225 -4v-618h248q92 0 175 38.5t137 112t54 164.5q0 142 -91.5 224.5t-297.5 82.5
zM573 1516l-350 200l47 62l308 -170l305 170l43 -60l-344 -202h-9z" />
    <glyph glyph-name="rcaron" unicode="&#x159;" horiz-adv-x="673" 
d="M162 0v922h106v-123q91 139 248 139q96 0 143 -35l-36 -100q-35 21 -60.5 28t-68.5 7q-82 0 -134 -41t-92 -109v-688h-106zM387 1118l-266 271l53 63l217 -227l217 227l51 -63l-264 -271h-8z" />
    <glyph glyph-name="Sacute" unicode="&#x15a;" horiz-adv-x="1118" 
d="M889 356q0 65 -25.5 116t-68.5 86t-98.5 63t-117 52t-123 49t-117 58t-98.5 74t-68.5 102t-25.5 138q0 155 113 256.5t307 101.5q119 0 221.5 -39t163.5 -106l-61 -84q-123 123 -320 123q-140 0 -222.5 -68.5t-82.5 -183.5q0 -64 25.5 -114t68.5 -83.5t98.5 -60.5
t117 -50t123 -47.5t117 -57.5t98.5 -75t68.5 -105t25.5 -143q0 -168 -131 -272t-326 -104q-134 0 -261 56.5t-179 149.5l67 78q61 -83 165 -130.5t206 -47.5q90 0 166 29.5t125 91.5t49 147zM860 1688l-373 -177l-32 64l366 203z" />
    <glyph glyph-name="sacute" unicode="&#x15b;" horiz-adv-x="856" 
d="M639 242q0 47 -28 80t-73 52.5t-99.5 36.5t-109 38t-99.5 49.5t-73 78.5t-28 119q0 110 82 177t215 67q92 0 169.5 -29t119.5 -73l-45 -80q-43 40 -107.5 64t-134.5 24q-84 0 -135 -43t-51 -105q0 -43 22 -76t58 -52t81.5 -37t93.5 -31t93.5 -35t81.5 -48t58 -70.5
t22 -102.5q0 -129 -95 -196.5t-237 -67.5q-94 0 -188.5 41t-127.5 92l60 69q37 -47 116 -77.5t152 -30.5q86 0 146.5 43t60.5 123zM645 1403l-237 -293l-66 47l221 309z" />
    <glyph glyph-name="Scircumflex" unicode="&#x15c;" horiz-adv-x="1118" 
d="M889 356q0 65 -25.5 116t-68.5 86t-98.5 63t-117 52t-123 49t-117 58t-98.5 74t-68.5 102t-25.5 138q0 155 113 256.5t307 101.5q119 0 221.5 -39t163.5 -106l-61 -84q-123 123 -320 123q-140 0 -222.5 -68.5t-82.5 -183.5q0 -64 25.5 -114t68.5 -83.5t98.5 -60.5
t117 -50t123 -47.5t117 -57.5t98.5 -75t68.5 -105t25.5 -143q0 -168 -131 -272t-326 -104q-134 0 -261 56.5t-179 149.5l67 78q61 -83 165 -130.5t206 -47.5q90 0 166 29.5t125 91.5t49 147zM209 1571l344 201h8l348 -201l-47 -62l-305 166l-307 -166z" />
    <glyph glyph-name="scircumflex" unicode="&#x15d;" horiz-adv-x="856" 
d="M639 242q0 47 -28 80t-73 52.5t-99.5 36.5t-109 38t-99.5 49.5t-73 78.5t-28 119q0 110 82 177t215 67q92 0 169.5 -29t119.5 -73l-45 -80q-43 40 -107.5 64t-134.5 24q-84 0 -135 -43t-51 -105q0 -43 22 -76t58 -52t81.5 -37t93.5 -31t93.5 -35t81.5 -48t58 -70.5
t22 -102.5q0 -129 -95 -196.5t-237 -67.5q-94 0 -188.5 41t-127.5 92l60 69q37 -47 116 -77.5t152 -30.5q86 0 146.5 43t60.5 123zM440 1448l262 -268l-51 -66l-215 215l-219 -213l-53 64l268 268h8z" />
    <glyph glyph-name="Scedilla" unicode="&#x15e;" horiz-adv-x="1118" 
d="M338 -354l35 57q85 -49 151 -49q63 0 103.5 25.5t40.5 68.5q0 96 -146 96h-12v140q-126 8 -238.5 63t-160.5 141l67 78q61 -83 165 -130.5t206 -47.5q90 0 166 29.5t125 91.5t49 147q0 65 -25.5 116t-68.5 86t-98.5 63t-117 52t-123 49t-117 58t-98.5 74t-68.5 102
t-25.5 138q0 155 113 256.5t307 101.5q119 0 221.5 -39t163.5 -106l-61 -84q-123 123 -320 123q-140 0 -222.5 -68.5t-82.5 -183.5q0 -64 25.5 -114t68.5 -83.5t98.5 -60.5t117 -50t123 -47.5t117 -57.5t98.5 -75t68.5 -105t25.5 -143q0 -109 -58.5 -194t-157.5 -131.5
t-221 -50.5v-84q209 -6 209 -156q0 -70 -63 -114t-170 -44t-209 62z" />
    <glyph glyph-name="scedilla" unicode="&#x15f;" horiz-adv-x="856" 
d="M209 -356l33 55q73 -45 147 -45q63 0 103 25.5t40 68.5q0 96 -145 96h-12v142q-87 9 -165 46.5t-106 82.5l60 69q37 -47 116 -77.5t152 -30.5q86 0 146.5 43t60.5 123q0 47 -28 80t-73 52.5t-99.5 36.5t-109 38t-99.5 49.5t-73 78.5t-28 119q0 110 82 177t215 67
q92 0 169.5 -29t119.5 -73l-45 -80q-43 40 -107.5 64t-134.5 24q-84 0 -135 -43t-51 -105q0 -43 22 -76t58 -52t81.5 -37t93.5 -31t93.5 -35t81.5 -48t58 -70.5t22 -102.5q0 -125 -90 -192t-226 -72v-84q102 -3 152.5 -44t50.5 -112t-63 -114.5t-173 -43.5q-95 0 -194 60z
" />
    <glyph glyph-name="Scaron" unicode="&#x160;" horiz-adv-x="1118" 
d="M889 356q0 65 -25.5 116t-68.5 86t-98.5 63t-117 52t-123 49t-117 58t-98.5 74t-68.5 102t-25.5 138q0 155 113 256.5t307 101.5q119 0 221.5 -39t163.5 -106l-61 -84q-123 123 -320 123q-140 0 -222.5 -68.5t-82.5 -183.5q0 -64 25.5 -114t68.5 -83.5t98.5 -60.5
t117 -50t123 -47.5t117 -57.5t98.5 -75t68.5 -105t25.5 -143q0 -168 -131 -272t-326 -104q-134 0 -261 56.5t-179 149.5l67 78q61 -83 165 -130.5t206 -47.5q90 0 166 29.5t125 91.5t49 147zM567 1516l-350 200l47 62l307 -170l306 170l43 -60l-345 -202h-8z" />
    <glyph glyph-name="scaron" unicode="&#x161;" horiz-adv-x="856" 
d="M639 242q0 47 -28 80t-73 52.5t-99.5 36.5t-109 38t-99.5 49.5t-73 78.5t-28 119q0 110 82 177t215 67q92 0 169.5 -29t119.5 -73l-45 -80q-43 40 -107.5 64t-134.5 24q-84 0 -135 -43t-51 -105q0 -43 22 -76t58 -52t81.5 -37t93.5 -31t93.5 -35t81.5 -48t58 -70.5
t22 -102.5q0 -129 -95 -196.5t-237 -67.5q-94 0 -188.5 41t-127.5 92l60 69q37 -47 116 -77.5t152 -30.5q86 0 146.5 43t60.5 123zM424 1118l-266 271l53 63l217 -227l217 227l51 -63l-264 -271h-8z" />
    <glyph glyph-name="uni0162" unicode="&#x162;" horiz-adv-x="1214" 
d="M406 -354l34 57q85 -49 152 -49q63 0 103 25.5t40 68.5q0 96 -145 96h-12v156h-27v1327h-531v107h1174v-107h-530v-1327h-25v-102q209 -6 209 -156q0 -70 -63.5 -114t-170.5 -44q-106 0 -208 62z" />
    <glyph glyph-name="uni0163" unicode="&#x163;" horiz-adv-x="712" 
d="M168 -356l33 55q73 -45 147 -45q63 0 103.5 25.5t40.5 68.5q0 96 -146 96h-12v156q-193 50 -193 350v828h107v-256h370v-101h-370v-454q0 -139 49.5 -209t157.5 -70q82 0 147 49l35 -84q-80 -65 -207 -65q-25 0 -35 2v-92q102 -3 152.5 -44t50.5 -112t-63 -114.5
t-173 -43.5q-95 0 -194 60z" />
    <glyph glyph-name="Tcaron" unicode="&#x164;" horiz-adv-x="1214" 
d="M20 1327v107h1174v-107h-530v-1327h-113v1327h-531zM602 1516l-350 200l47 62l307 -170l305 170l43 -60l-344 -202h-8z" />
    <glyph glyph-name="tcaron" unicode="&#x165;" horiz-adv-x="712" 
d="M141 350v828h107v-256h370v-101h-370v-454q0 -139 49.5 -209t157.5 -70q82 0 147 49l35 -84q-80 -65 -207 -65q-151 0 -220 90.5t-69 271.5zM498 1434h102q18 -30 18 -82q0 -102 -44.5 -175.5t-108.5 -105.5l-47 49q45 35 72.5 93t27.5 126q0 53 -20 95z" />
    <glyph glyph-name="Umacron" unicode="&#x16a;" horiz-adv-x="1538" 
d="M1331 1434v-834q0 -159 -43.5 -280t-120 -193t-172 -107.5t-207.5 -35.5q-126 0 -231.5 40t-184 117t-122 198t-43.5 275v820h112v-799q0 -258 127 -401.5t342 -143.5q197 0 314 134.5t117 400.5v809h112zM467 1593v88h614v-88h-614z" />
    <glyph glyph-name="umacron" unicode="&#x16b;" horiz-adv-x="1114" 
d="M950 922v-922h-106v145q-56 -69 -150.5 -116t-199.5 -47q-171 0 -262 100t-91 305v535h107v-512q0 -164 68.5 -246t215.5 -82q91 0 177 48t135 112v680h106zM295 1237v88h516v-88h-516z" />
    <glyph glyph-name="Ubreve" unicode="&#x16c;" horiz-adv-x="1538" 
d="M1331 1434v-834q0 -159 -43.5 -280t-120 -193t-172 -107.5t-207.5 -35.5q-126 0 -231.5 40t-184 117t-122 198t-43.5 275v820h112v-799q0 -258 127 -401.5t342 -143.5q197 0 314 134.5t117 400.5v809h112zM430 1714l49 55q116 -137 293 -137q93 0 166.5 39.5t120.5 97.5
l43 -57q-49 -73 -135.5 -123.5t-194.5 -50.5q-120 0 -210.5 55.5t-131.5 120.5z" />
    <glyph glyph-name="ubreve" unicode="&#x16d;" horiz-adv-x="1114" 
d="M950 922v-922h-106v145q-56 -69 -150.5 -116t-199.5 -47q-171 0 -262 100t-91 305v535h107v-512q0 -164 68.5 -246t215.5 -82q91 0 177 48t135 112v680h106zM266 1339l49 56q22 -26 39.5 -43.5t48.5 -41t70 -36t84 -12.5q134 0 240 131l41 -54q-116 -165 -285 -165
q-57 0 -107 17t-85 45.5t-57 52.5t-38 50z" />
    <glyph glyph-name="Uring" unicode="&#x16e;" horiz-adv-x="1538" 
d="M1331 1434v-834q0 -159 -43.5 -280t-120 -193t-172 -107.5t-207.5 -35.5q-126 0 -231.5 40t-184 117t-122 198t-43.5 275v820h112v-799q0 -258 127 -401.5t342 -143.5q197 0 314 134.5t117 400.5v809h112zM541 1608q0 89 63.5 134.5t163.5 45.5q103 0 167 -45t64 -135
q0 -89 -65 -138t-166 -49q-98 0 -162.5 49t-64.5 138zM623 1608q0 -59 40.5 -91t106.5 -32q65 0 106.5 32t41.5 91q0 58 -41 87t-107 29q-67 0 -107 -28.5t-40 -87.5z" />
    <glyph glyph-name="uring" unicode="&#x16f;" horiz-adv-x="1114" 
d="M950 922v-922h-106v145q-56 -69 -150.5 -116t-199.5 -47q-171 0 -262 100t-91 305v535h107v-512q0 -164 68.5 -246t215.5 -82q91 0 177 48t135 112v680h106zM336 1257q0 88 62.5 150.5t152.5 62.5q92 0 155.5 -62.5t63.5 -150.5t-63.5 -149t-155.5 -61q-91 0 -153 61
t-62 149zM408 1257q0 -62 42 -104.5t103 -42.5t103 42.5t42 104.5t-42 106t-103 44t-103 -44t-42 -106z" />
    <glyph glyph-name="Uhungarumlaut" unicode="&#x170;" horiz-adv-x="1538" 
d="M1331 1434v-834q0 -159 -43.5 -280t-120 -193t-172 -107.5t-207.5 -35.5q-126 0 -231.5 40t-184 117t-122 198t-43.5 275v820h112v-799q0 -258 127 -401.5t342 -143.5q197 0 314 134.5t117 400.5v809h112zM1241 1710l-346 -199l-45 50l319 217zM862 1726l-323 -215
l-47 45l284 222z" />
    <glyph glyph-name="uhungarumlaut" unicode="&#x171;" horiz-adv-x="1114" 
d="M950 922v-922h-106v145q-56 -69 -150.5 -116t-199.5 -47q-171 0 -262 100t-91 305v535h107v-512q0 -164 68.5 -246t215.5 -82q91 0 177 48t135 112v680h106zM944 1399l-244 -289l-65 47l231 301zM625 1409l-230 -299l-65 47l217 309z" />
    <glyph glyph-name="Uogonek" unicode="&#x172;" horiz-adv-x="1538" 
d="M1331 1434v-834q0 -134 -31 -241.5t-87 -179.5t-127.5 -117t-159.5 -64q-172 -72 -172 -188q0 -37 15.5 -64.5t39.5 -41.5t47.5 -20t46.5 -6q50 0 92 19l33 -68q-59 -39 -149 -39q-41 0 -79.5 9.5t-74 30t-57 58.5t-21.5 89q0 129 162 207h-21q-126 0 -231.5 40t-184 117
t-122 198t-43.5 275v820h112v-799q0 -258 127 -401.5t342 -143.5q197 0 314 134.5t117 400.5v809h112z" />
    <glyph glyph-name="uogonek" unicode="&#x173;" horiz-adv-x="1114" 
d="M932 -303l33 -68q-59 -39 -150 -39q-41 0 -79.5 9.5t-74 30t-56.5 58.5t-21 89q0 91 74.5 154t185.5 87v127q-56 -69 -150.5 -116t-199.5 -47q-171 0 -262 100t-91 305v535h107v-512q0 -164 68.5 -246t215.5 -82q91 0 177 48t135 112v680h106v-922q-101 0 -180.5 -55
t-79.5 -135q0 -30 10.5 -54t26.5 -38.5t37 -23.5t39.5 -12.5t36.5 -3.5q50 0 92 19z" />
    <glyph glyph-name="Ydieresis" unicode="&#x178;" horiz-adv-x="1196" 
d="M1167 1434l-516 -807v-627h-112v627l-510 807h131l440 -701l442 701h125zM285 1647q0 30 22 47.5t55 17.5q30 0 52 -18t22 -47q0 -32 -22 -51t-52 -19q-33 0 -55 18.5t-22 51.5zM762 1647q0 30 23 47.5t57 17.5q29 0 50 -17.5t21 -47.5q0 -32 -21 -51t-50 -19
q-34 0 -57 19t-23 51z" />
    <glyph glyph-name="Zacute" unicode="&#x179;" horiz-adv-x="1288" 
d="M123 1327v107h1063v-72l-948 -1256h968v-106h-1124v72l944 1255h-903zM938 1688l-373 -177l-33 64l367 203z" />
    <glyph glyph-name="zacute" unicode="&#x17a;" horiz-adv-x="985" 
d="M127 821v101h762v-70l-639 -752h629v-100h-783v70l637 751h-606zM717 1403l-238 -293l-65 47l221 309z" />
    <glyph glyph-name="Zdotaccent" unicode="&#x17b;" horiz-adv-x="1288" 
d="M123 1327v107h1063v-72l-948 -1256h968v-106h-1124v72l944 1255h-903zM555 1651q0 33 23.5 53t56.5 20q31 0 54.5 -20.5t23.5 -52.5q0 -35 -23.5 -55.5t-54.5 -20.5q-34 0 -57 20.5t-23 55.5z" />
    <glyph glyph-name="zdotaccent" unicode="&#x17c;" horiz-adv-x="985" 
d="M127 821v101h762v-70l-639 -752h629v-100h-783v70l637 751h-606zM416 1280q0 30 22 49t54 19q27 0 48 -19t21 -49q0 -34 -20.5 -55t-48.5 -21q-32 0 -54 21t-22 55z" />
    <glyph glyph-name="Zcaron" unicode="&#x17d;" horiz-adv-x="1288" 
d="M123 1327v107h1063v-72l-948 -1256h968v-106h-1124v72l944 1255h-903zM643 1516l-350 200l47 62l307 -170l305 170l43 -60l-344 -202h-8z" />
    <glyph glyph-name="zcaron" unicode="&#x17e;" horiz-adv-x="985" 
d="M127 821v101h762v-70l-639 -752h629v-100h-783v70l637 751h-606zM496 1118l-267 271l54 63l217 -227l217 227l51 -63l-264 -271h-8z" />
    <glyph glyph-name="longs" unicode="&#x17f;" horiz-adv-x="520" 
d="M190 0v1071q0 190 81.5 285.5t236.5 95.5q151 0 240 -78l-41 -82q-74 60 -183 60q-227 0 -227 -299v-1053h-107z" />
    <glyph glyph-name="uni018F" unicode="&#x18f;" horiz-adv-x="1593" 
d="M100 784h1262q-19 260 -186 411t-435 151q-230 0 -383 -121l-45 84q78 69 198 106t255 37q325 0 521 -198t196 -531q0 -213 -84 -380.5t-244 -264t-371 -96.5q-212 0 -372 102t-241.5 284.5t-70.5 415.5zM780 88q259 0 415.5 164t170.5 426h-1149q5 -164 73 -297
t196 -213t294 -80z" />
    <glyph glyph-name="florin" unicode="&#x192;" horiz-adv-x="1206" 
d="M731 1053l-24 -131h337v-101h-356l-158 -889q-33 -182 -106 -270t-219 -88q-58 0 -109 16t-80 41l33 86q62 -43 133 -43q106 0 162 67t80 204l156 876h-320v101h338l27 149q38 199 118 290t230 91q151 0 237 -78l-39 -82q-77 60 -182 60q-109 0 -169 -70t-89 -229z" />
    <glyph glyph-name="uni01DD" unicode="&#x1dd;" horiz-adv-x="1073" 
d="M188 727l-34 82q60 63 158 97t196 34q217 0 342 -129.5t125 -349.5q0 -208 -121 -343.5t-334 -135.5q-188 0 -309 114t-121 301q0 51 8 101h758q-3 147 -98.5 244.5t-255.5 97.5q-93 0 -179.5 -31.5t-134.5 -81.5zM528 82q146 0 237.5 92.5t96.5 235.5h-661
q0 -158 87 -243t240 -85z" />
    <glyph glyph-name="uni0218" unicode="&#x218;" horiz-adv-x="1118" 
d="M889 356q0 65 -25.5 116t-68.5 86t-98.5 63t-117 52t-123 49t-117 58t-98.5 74t-68.5 102t-25.5 138q0 155 113 256.5t307 101.5q119 0 221.5 -39t163.5 -106l-61 -84q-123 123 -320 123q-140 0 -222.5 -68.5t-82.5 -183.5q0 -64 25.5 -114t68.5 -83.5t98.5 -60.5
t117 -50t123 -47.5t117 -57.5t98.5 -75t68.5 -105t25.5 -143q0 -168 -131 -272t-326 -104q-134 0 -261 56.5t-179 149.5l67 78q61 -83 165 -130.5t206 -47.5q90 0 166 29.5t125 91.5t49 147zM485 -145l93 32q32 -6 51.5 -32.5t19.5 -69.5q0 -152 -174 -199l-31 49
q99 39 99 134q0 68 -58 86z" />
    <glyph glyph-name="uni0219" unicode="&#x219;" horiz-adv-x="856" 
d="M639 242q0 47 -28 80t-73 52.5t-99.5 36.5t-109 38t-99.5 49.5t-73 78.5t-28 119q0 110 82 177t215 67q92 0 169.5 -29t119.5 -73l-45 -80q-43 40 -107.5 64t-134.5 24q-84 0 -135 -43t-51 -105q0 -43 22 -76t58 -52t81.5 -37t93.5 -31t93.5 -35t81.5 -48t58 -70.5
t22 -102.5q0 -129 -95 -196.5t-237 -67.5q-94 0 -188.5 41t-127.5 92l60 69q37 -47 116 -77.5t152 -30.5q86 0 146.5 43t60.5 123zM362 -145l93 32q32 -6 51.5 -32.5t19.5 -69.5q0 -152 -174 -199l-30 49q98 39 98 134q0 68 -58 86z" />
    <glyph glyph-name="uni021A" unicode="&#x21a;" horiz-adv-x="1214" 
d="M20 1327v107h1174v-107h-530v-1327h-113v1327h-531zM535 -145l92 32q32 -6 51.5 -32.5t19.5 -69.5q0 -152 -174 -199l-30 49q98 39 98 134q0 69 -57 86z" />
    <glyph glyph-name="uni021B" unicode="&#x21b;" horiz-adv-x="712" 
d="M141 350v828h107v-256h370v-101h-370v-454q0 -139 49.5 -209t157.5 -70q82 0 147 49l35 -84q-80 -65 -207 -65q-151 0 -220 90.5t-69 271.5zM313 -145l93 32q32 -6 51.5 -32.5t19.5 -69.5q0 -152 -174 -199l-31 49q99 39 99 134q0 68 -58 86z" />
    <glyph glyph-name="uni0237" unicode="&#x237;" horiz-adv-x="532" 
d="M326 922v-990q0 -358 -289 -358q-117 0 -189 57l33 86q62 -43 133 -43q205 0 205 267v981h107z" />
    <glyph glyph-name="uni0259" unicode="&#x259;" horiz-adv-x="1073" 
d="M188 727l-34 82q60 63 158 97t196 34q217 0 342 -129.5t125 -349.5q0 -208 -121 -343.5t-334 -135.5q-188 0 -309 114t-121 301q0 51 8 101h758q-3 147 -98.5 244.5t-255.5 97.5q-93 0 -179.5 -31.5t-134.5 -81.5zM528 82q146 0 237.5 92.5t96.5 235.5h-661
q0 -158 87 -243t240 -85z" />
    <glyph glyph-name="uni02BC" unicode="&#x2bc;" horiz-adv-x="446" 
d="M182 1292l88 58q54 -61 54 -150q0 -187 -152 -270l-49 51q49 29 74.5 81t25.5 116q0 73 -41 114z" />
    <glyph glyph-name="circumflex" unicode="&#x2c6;" horiz-adv-x="784" 
d="M399 1448l263 -268l-52 -66l-215 215l-219 -213l-53 64l268 268h8z" />
    <glyph glyph-name="caron" unicode="&#x2c7;" horiz-adv-x="784" 
d="M389 1118l-266 271l53 63l217 -227l217 227l52 -63l-265 -271h-8z" />
    <glyph glyph-name="breve" unicode="&#x2d8;" horiz-adv-x="817" 
d="M123 1339l49 56q22 -26 39.5 -43.5t48.5 -41t70 -36t84 -12.5q133 0 239 131l41 -54q-116 -165 -284 -165q-57 0 -107 17t-85 45.5t-57 52.5t-38 50z" />
    <glyph glyph-name="dotaccent" unicode="&#x2d9;" horiz-adv-x="391" 
d="M123 1280q0 30 22 49t54 19q27 0 48 -19t21 -49q0 -34 -20.5 -55t-48.5 -21q-32 0 -54 21t-22 55z" />
    <glyph glyph-name="ring" unicode="&#x2da;" horiz-adv-x="679" 
d="M123 1257q0 88 62.5 150.5t152.5 62.5q92 0 155.5 -62.5t63.5 -150.5t-63.5 -149t-155.5 -61q-91 0 -153 61t-62 149zM195 1257q0 -62 42 -104.5t103 -42.5t103 42.5t42 104.5t-42 106t-103 44t-103 -44t-42 -106z" />
    <glyph glyph-name="ogonek" unicode="&#x2db;" horiz-adv-x="626" 
d="M471 -303l33 -68q-59 -39 -150 -39q-41 0 -79.5 9.5t-74 30t-56.5 58.5t-21 89q0 77 56.5 136t138.5 87.5t171 28.5v-29q-101 0 -180.5 -55t-79.5 -135q0 -30 10.5 -54t26.5 -38.5t37 -23.5t39.5 -12.5t36.5 -3.5q50 0 92 19z" />
    <glyph glyph-name="tilde" unicode="&#x2dc;" horiz-adv-x="870" 
d="M170 1174l-47 51q106 106 207 106q40 0 79.5 -23.5t76 -47t71.5 -23.5q63 0 152 78l39 -55q-108 -111 -201 -111q-37 0 -75.5 23.5t-77.5 47t-77 23.5q-60 0 -147 -69z" />
    <glyph glyph-name="hungarumlaut" unicode="&#x2dd;" horiz-adv-x="860" 
d="M737 1399l-243 -289l-66 47l231 301zM418 1409l-230 -299l-65 47l217 309z" />
    <glyph glyph-name="gravecomb" unicode="&#x300;" horiz-adv-x="0" 
d="M-539 1110l-237 291l84 63l221 -307z" />
    <glyph glyph-name="acutecomb" unicode="&#x301;" horiz-adv-x="0" 
d="M-342 1403l-238 -293l-65 47l221 309z" />
    <glyph glyph-name="Delta" unicode="&#x394;" horiz-adv-x="1462" 
d="M70 0l620 1450h68l635 -1450h-1323zM721 1257l-488 -1151h990z" />
    <glyph glyph-name="Delta" unicode="&#x2206;" horiz-adv-x="1462" 
d="M70 0l620 1450h68l635 -1450h-1323zM721 1257l-488 -1151h990z" />
    <glyph glyph-name="uni03A9" unicode="&#x3a9;" horiz-adv-x="1660" 
d="M164 0v106h366q-175 59 -293 234t-118 401q0 153 55 286t150 226t226.5 146t280.5 53q200 0 362.5 -90t256.5 -253.5t94 -367.5q0 -231 -119 -403t-295 -232h367v-106h-541v106q138 33 245 122.5t165.5 219t58.5 277.5q0 171 -75 312.5t-212 225t-307 83.5
q-172 0 -308.5 -83.5t-210.5 -225.5t-74 -314q0 -220 129.5 -395t337.5 -222v-106h-541z" />
    <glyph glyph-name="uni03A9" unicode="&#x2126;" horiz-adv-x="1660" 
d="M164 0v106h366q-175 59 -293 234t-118 401q0 153 55 286t150 226t226.5 146t280.5 53q200 0 362.5 -90t256.5 -253.5t94 -367.5q0 -231 -119 -403t-295 -232h367v-106h-541v106q138 33 245 122.5t165.5 219t58.5 277.5q0 171 -75 312.5t-212 225t-307 83.5
q-172 0 -308.5 -83.5t-210.5 -225.5t-74 -314q0 -220 129.5 -395t337.5 -222v-106h-541z" />
    <glyph glyph-name="pi" unicode="&#x3c0;" horiz-adv-x="1312" 
d="M102 821v101h1100v-101h-205v-555q0 -97 21 -137.5t78 -40.5q60 0 121 45l26 -84q-79 -61 -186 -61q-84 0 -125 53.5t-41 167.5v612h-473v-149q0 -203 -22.5 -339t-69 -209.5t-105.5 -102.5t-143 -29l-8 104q55 -1 96.5 24t75 84.5t51 170t18.5 270.5l2 176h-211z" />
    <glyph glyph-name="uni0401" unicode="&#x401;" horiz-adv-x="1177" 
d="M227 0v1434h793v-107h-680v-547h618v-106h-618v-568h700v-106h-813zM317 1647q0 30 22.5 47.5t55.5 17.5q30 0 52 -18t22 -47q0 -32 -22 -51t-52 -19q-34 0 -56 18.5t-22 51.5zM795 1647q0 30 23 47.5t56 17.5q29 0 50.5 -18t21.5 -47q0 -32 -21.5 -51t-50.5 -19
q-34 0 -56.5 18.5t-22.5 51.5z" />
    <glyph glyph-name="uni0402" unicode="&#x402;" horiz-adv-x="1556" 
d="M1446 418q0 -224 -93 -330t-253 -106q-59 0 -116 21.5t-79 43.5l41 88q62 -47 141 -47q115 0 180.5 80t65.5 248q0 179 -84.5 261.5t-249.5 82.5q-34 0 -65 -3t-62 -12.5t-49.5 -15t-48.5 -22t-38 -20t-40 -23.5l-32 -21v-643h-113v1327h-531v107h1174v-107h-530v-577
q77 52 160 84t198 32q94 0 169 -23.5t133.5 -74.5t90 -139.5t31.5 -210.5z" />
    <glyph glyph-name="uni0403" unicode="&#x403;" horiz-adv-x="1030" 
d="M227 0v1434h791v-107h-678v-1327h-113zM944 1688l-373 -177l-32 64l366 203z" />
    <glyph glyph-name="uni0404" unicode="&#x404;" horiz-adv-x="1392" 
d="M985 784v-106h-762q9 -180 93 -315t224 -205t316 -70q219 0 406 135l47 -92q-197 -149 -463 -149q-330 0 -532.5 201t-202.5 534q0 158 51.5 294t144 233.5t227 152.5t293.5 55q135 0 255 -37t198 -106l-51 -84q-153 121 -383 121q-265 0 -432 -154t-189 -408h760z" />
    <glyph glyph-name="uni0405" unicode="&#x405;" horiz-adv-x="1118" 
d="M889 356q0 65 -25.5 116t-68.5 86t-98.5 63t-117 52t-123 49t-117 58t-98.5 74t-68.5 102t-25.5 138q0 155 113 256.5t307 101.5q119 0 221.5 -39t163.5 -106l-61 -84q-123 123 -320 123q-140 0 -222.5 -68.5t-82.5 -183.5q0 -64 25.5 -114t68.5 -83.5t98.5 -60.5
t117 -50t123 -47.5t117 -57.5t98.5 -75t68.5 -105t25.5 -143q0 -168 -131 -272t-326 -104q-134 0 -261 56.5t-179 149.5l67 78q61 -83 165 -130.5t206 -47.5q90 0 166 29.5t125 91.5t49 147z" />
    <glyph glyph-name="uni0406" unicode="&#x406;" horiz-adv-x="665" 
d="M276 0v1434h113v-1434h-113z" />
    <glyph glyph-name="uni0407" unicode="&#x407;" horiz-adv-x="665" 
d="M115 1647q0 29 20 47t49 18q27 0 47.5 -18.5t20.5 -46.5q0 -31 -20.5 -50.5t-47.5 -19.5q-29 0 -49 19.5t-20 50.5zM416 1647q0 29 20.5 47t50.5 18q26 0 46 -18.5t20 -46.5q0 -31 -20 -50.5t-46 -19.5q-30 0 -50.5 19.5t-20.5 50.5zM276 0v1434h113v-1434h-113z" />
    <glyph glyph-name="uni0408" unicode="&#x408;" horiz-adv-x="739" 
d="M512 1434v-1119q0 -161 -67 -247t-220 -86q-61 0 -113.5 19t-82.5 46l41 88q62 -47 141 -47q56 0 94 18t58 53t28 76.5t8 96.5v1102h113z" />
    <glyph glyph-name="uni0409" unicode="&#x409;" horiz-adv-x="2115" 
d="M1143 0v1327h-602l-25 -270q-17 -203 -42 -365.5t-53 -273t-64 -190.5t-70 -125t-76 -70t-77.5 -31t-78.5 -2l2 113q19 -1 35.5 1t40 13.5t44 31.5t45.5 58t46 90.5t43.5 132t40.5 178t34.5 234t27.5 295.5l20 287h821v-566q161 11 218 11q265 0 398.5 -112t133.5 -314
q0 -221 -148 -339t-411 -118q-61 0 -163 2t-140 2zM1466 772q-110 0 -211 -12v-651q2 0 78.5 -3.5t124.5 -3.5q208 0 318 89t110 260q0 155 -108 238t-312 83z" />
    <glyph glyph-name="uni040A" unicode="&#x40a;" horiz-adv-x="2187" 
d="M227 0v1434h113v-598h874v598h113v-592q147 10 217 10q266 0 399.5 -108.5t133.5 -305.5q0 -215 -147.5 -328.5t-411.5 -113.5q-48 0 -131.5 2t-118.5 2h-54v729h-874v-729h-113zM1327 733v-624q7 0 81 -3.5t122 -3.5q209 0 318.5 85t109.5 251q0 149 -107 228t-313 79
q-108 0 -211 -12z" />
    <glyph glyph-name="uni040B" unicode="&#x40b;" horiz-adv-x="1556" 
d="M20 1327v107h1174v-107h-530v-579q163 118 372 118q90 0 163 -26t129 -79.5t87 -143t31 -209.5v-408h-113v383q0 192 -84 284.5t-241 92.5q-57 0 -108 -10t-97.5 -31.5t-71.5 -35t-67 -40.5v-643h-113v1327h-531z" />
    <glyph glyph-name="uni040C" unicode="&#x40c;" horiz-adv-x="1304" 
d="M1219 1434l-678 -678l706 -756h-145l-694 748l673 686h138zM227 0v1434h113v-1434h-113zM981 1688l-373 -177l-33 64l367 203z" />
    <glyph glyph-name="uni040E" unicode="&#x40e;" horiz-adv-x="1335" 
d="M1300 1434l-499 -1110q-76 -169 -152.5 -246.5t-179.5 -77.5q-99 0 -158 47l41 96q56 -39 115 -39q116 0 203 181l26 57l-661 1092h127l590 -979l434 979h114zM330 1745h106q34 -67 99 -106.5t157 -39.5q89 0 158 39.5t90 106.5h107q-20 -100 -122 -163.5t-233 -63.5
q-140 0 -237.5 63.5t-124.5 163.5z" />
    <glyph glyph-name="uni040F" unicode="&#x40f;" horiz-adv-x="1548" 
d="M227 0v1434h113v-1328h868v1328h113v-1434h-496v-322h-106v322h-492z" />
    <glyph glyph-name="uni0410" unicode="&#x410;" horiz-adv-x="1427" 
d="M43 0l625 1446h92l624 -1446h-120l-209 487h-688l-209 -487h-115zM711 1290l-299 -696h596z" />
    <glyph glyph-name="uni0411" unicode="&#x411;" horiz-adv-x="1249" 
d="M227 0v1434h791v-107h-678v-485q126 12 242 12q251 0 383.5 -110t132.5 -304q0 -218 -145 -332t-404 -114q-69 0 -177 3t-145 3zM578 748q-124 0 -238 -13v-629q204 -6 225 -6q207 0 313.5 86.5t106.5 247.5q0 147 -103 230.5t-304 83.5z" />
    <glyph glyph-name="uni0412" unicode="&#x412;" horiz-adv-x="1263" 
d="M227 2v1430q320 8 377 8q124 0 214 -27t141 -76.5t74.5 -111.5t23.5 -140q0 -135 -79 -221t-200 -114v-5q158 -19 246 -107.5t88 -236.5q0 -105 -38.5 -184.5t-108 -127.5t-160.5 -71.5t-203 -23.5q-207 0 -375 8zM612 682h-272v-573q256 -9 266 -9q188 0 290.5 77.5
t102.5 230.5q0 132 -100.5 203t-286.5 71zM600 1333q-89 0 -260 -6v-545h278q138 0 232 76.5t94 204.5q0 270 -344 270z" />
    <glyph glyph-name="uni0413" unicode="&#x413;" horiz-adv-x="1030" 
d="M227 0v1434h791v-107h-678v-1327h-113z" />
    <glyph glyph-name="uni0414" unicode="&#x414;" horiz-adv-x="1521" 
d="M35 -274v380h153q27 35 59.5 107t72.5 194t72 317t44 423l15 287h806v-1328h195v-380h-106v274h-1205v-274h-106zM543 1065q-14 -208 -44 -387.5t-65.5 -292.5t-66 -181.5t-54.5 -97.5h832v1221h-586z" />
    <glyph glyph-name="uni0415" unicode="&#x415;" horiz-adv-x="1177" 
d="M227 0v1434h793v-107h-680v-547h618v-106h-618v-568h700v-106h-813z" />
    <glyph glyph-name="uni0416" unicode="&#x416;" horiz-adv-x="1880" 
d="M1800 1434l-612 -684l635 -750h-133l-627 748l604 686h133zM883 0v1434h112v-1434h-112zM692 748l-612 686h133l604 -686l-627 -748h-133z" />
    <glyph glyph-name="uni0417" unicode="&#x417;" horiz-adv-x="1173" 
d="M543 -18q-139 0 -266.5 61t-186.5 150l64 75q69 -83 178 -131.5t203 -48.5q169 0 271.5 86.5t102.5 237.5q0 123 -82 195.5t-223 72.5h-178v106h166q102 0 182 83t80 204q0 132 -84 202.5t-217 70.5q-115 0 -200 -41.5t-156 -122.5l-66 71q73 93 186 146t244 53
q186 0 296 -98t110 -273q0 -102 -57 -196.5t-160 -141.5v-6q128 -18 200 -113t72 -223q0 -192 -137 -305.5t-342 -113.5z" />
    <glyph glyph-name="uni0418" unicode="&#x418;" horiz-adv-x="1632" 
d="M328 0h-101v1434h113v-1250l965 1250h100v-1434h-113v1249z" />
    <glyph glyph-name="uni0419" unicode="&#x419;" horiz-adv-x="1632" 
d="M328 0h-101v1434h113v-1250l965 1250h100v-1434h-113v1249zM459 1745h106q34 -67 99 -106.5t157 -39.5q89 0 158 39.5t90 106.5h107q-20 -100 -122 -163.5t-233 -63.5q-140 0 -237.5 63.5t-124.5 163.5z" />
    <glyph glyph-name="uni041A" unicode="&#x41a;" horiz-adv-x="1304" 
d="M1219 1434l-678 -678l706 -756h-145l-694 748l673 686h138zM227 0v1434h113v-1434h-113z" />
    <glyph glyph-name="uni041B" unicode="&#x41b;" horiz-adv-x="1482" 
d="M1143 0v1327h-602l-25 -270q-17 -203 -42 -365.5t-53 -273t-64 -190.5t-70 -125t-76 -70t-77.5 -31t-78.5 -2l2 113q19 -1 35.5 1t40 13.5t44 31.5t45.5 58t46 90.5t43.5 132t40.5 178t34.5 234t27.5 295.5l20 287h821v-1434h-112z" />
    <glyph glyph-name="uni041C" unicode="&#x41c;" horiz-adv-x="1810" 
d="M227 0v1434h115l578 -787l555 787h108v-1434h-113v1257l-550 -774h-19l-561 768v-1251h-113z" />
    <glyph glyph-name="uni041D" unicode="&#x41d;" horiz-adv-x="1574" 
d="M1235 0v678h-895v-678h-113v1434h113v-650h895v650h113v-1434h-113z" />
    <glyph glyph-name="uni041E" unicode="&#x41e;" horiz-adv-x="1658" 
d="M111 717q0 206 92.5 374t257 264.5t368.5 96.5q151 0 284 -55t228.5 -151.5t151 -233.5t55.5 -295q0 -156 -55.5 -292.5t-151 -233.5t-228.5 -153t-284 -56t-284 55t-228.5 151.5t-150.5 233.5t-55 295zM229 717q0 -176 79 -320.5t216.5 -226.5t304.5 -82q172 0 310 82.5
t214.5 226.5t76.5 320q0 178 -79.5 322.5t-217 225.5t-304.5 81q-126 0 -237 -48t-191 -130.5t-126 -200t-46 -250.5z" />
    <glyph glyph-name="uni041F" unicode="&#x41f;" horiz-adv-x="1568" 
d="M1229 0v1327h-889v-1327h-113v1434h1114v-1434h-112z" />
    <glyph glyph-name="uni0420" unicode="&#x420;" horiz-adv-x="1198" 
d="M340 0h-113v1434q40 0 175 2t176 2q115 0 205 -25t146 -65.5t92.5 -97.5t51 -116.5t14.5 -127.5q0 -86 -30.5 -163t-90 -139.5t-159.5 -99.5t-229 -37t-238 8v-575zM588 1331q-112 0 -248 -4v-643q133 -10 233 -10q190 0 293 91t103 243q0 148 -93.5 235.5t-287.5 87.5z
" />
    <glyph glyph-name="uni0421" unicode="&#x421;" horiz-adv-x="1343" 
d="M1229 223l45 -84q-73 -73 -194.5 -115t-250.5 -42q-158 0 -291.5 52.5t-227.5 147.5t-146.5 232.5t-52.5 302.5q0 154 49.5 288.5t139 233.5t222 156t291.5 57q271 0 434 -135l-53 -84q-148 113 -379 113q-171 0 -305 -81.5t-207.5 -224.5t-73.5 -323q0 -281 169.5 -455
t439.5 -174q226 0 391 135z" />
    <glyph glyph-name="uni0422" unicode="&#x422;" horiz-adv-x="1214" 
d="M20 1327v107h1174v-107h-530v-1327h-113v1327h-531z" />
    <glyph glyph-name="uni0423" unicode="&#x423;" horiz-adv-x="1335" 
d="M1300 1434l-499 -1110q-76 -169 -152.5 -246.5t-179.5 -77.5q-99 0 -158 47l41 96q56 -39 115 -39q116 0 203 181l26 57l-661 1092h127l590 -979l434 979h114z" />
    <glyph glyph-name="uni0424" unicode="&#x424;" horiz-adv-x="1699" 
d="M791 -16v186h-11q-205 0 -360 65.5t-242.5 194.5t-87.5 307q0 268 189 418t509 150h3v145h112v-145h4q324 0 513.5 -151t189.5 -417q0 -265 -190 -416t-502 -151h-15v-186h-112zM911 1200h-8v-926h15q261 0 417 119.5t156 343.5q0 220 -155.5 341.5t-424.5 121.5z
M209 737q0 -222 156.5 -342.5t416.5 -120.5h9v926h-5q-265 0 -421 -122.5t-156 -340.5z" />
    <glyph glyph-name="uni0425" unicode="&#x425;" horiz-adv-x="1351" 
d="M1276 1434l-526 -705l544 -729h-135l-483 643l-486 -643h-133l547 729l-524 705h133l465 -619l463 619h135z" />
    <glyph glyph-name="uni0426" unicode="&#x426;" horiz-adv-x="1595" 
d="M227 0v1434h113v-1328h879v1328h112v-1328h195v-380h-107v274h-1192z" />
    <glyph glyph-name="uni0427" unicode="&#x427;" horiz-adv-x="1302" 
d="M1075 1434v-1434h-112v657q-70 -48 -179 -84t-229 -36q-72 0 -134 15.5t-116.5 51t-93 87.5t-60.5 129.5t-22 174.5v439h113v-414q0 -190 91.5 -283.5t250.5 -93.5q184 0 379 121v670h112z" />
    <glyph glyph-name="uni0428" unicode="&#x428;" horiz-adv-x="2033" 
d="M227 0v1434h113v-1328h621v1328h112v-1328h621v1328h112v-1434h-1579z" />
    <glyph glyph-name="uni0429" unicode="&#x429;" horiz-adv-x="2070" 
d="M227 0v1434h113v-1328h621v1328h112v-1328h621v1328h112v-1328h195v-380h-107v274h-1667z" />
    <glyph glyph-name="uni042A" unicode="&#x42a;" horiz-adv-x="1363" 
d="M6 1327v107h477v-566q161 11 232 11q270 0 404 -112t134 -314q0 -221 -149 -339t-416 -118q-61 0 -170 2t-147 2v1327h-365zM709 772q-125 0 -226 -12v-651q214 -7 217 -7q209 0 322 89t113 260q0 155 -109.5 238t-316.5 83z" />
    <glyph glyph-name="uni042B" unicode="&#x42b;" horiz-adv-x="1697" 
d="M1358 0v1434h112v-1434h-112zM551 772q-108 0 -211 -12v-651q7 0 81 -3.5t122 -3.5q208 0 318 89t110 260q0 155 -107 238t-313 83zM340 1434v-566q161 11 217 11q265 0 399 -112t134 -314q0 -220 -148.5 -338.5t-411.5 -118.5q-61 0 -163 2t-140 2v1434h113z" />
    <glyph glyph-name="uni042C" unicode="&#x42c;" horiz-adv-x="1220" 
d="M565 772q-122 0 -225 -12v-651q20 -1 62.5 -3t80.5 -3t74 -1q209 0 321.5 88.5t112.5 260.5q0 155 -109.5 238t-316.5 83zM340 1434v-566q161 11 231 11q270 0 404.5 -112t134.5 -314q0 -221 -149 -339t-416 -118q-61 0 -170.5 2t-147.5 2v1434h113z" />
    <glyph glyph-name="uni042D" unicode="&#x42d;" horiz-adv-x="1392" 
d="M406 678v106h761q-20 261 -188 411.5t-438 150.5q-230 0 -383 -121l-47 84q78 69 198.5 106t255.5 37q324 0 520.5 -198t196.5 -531q0 -212 -88 -380t-253.5 -264.5t-381.5 -96.5q-278 0 -475 149l51 92q190 -135 422 -135q261 0 428.5 163t181.5 427h-761z" />
    <glyph glyph-name="uni042E" unicode="&#x42e;" horiz-adv-x="2203" 
d="M227 0v1434h113v-650h365q11 142 66.5 265t144.5 212t213 140t266 51q201 0 360.5 -94t248.5 -262t89 -379q0 -209 -88.5 -376.5t-248.5 -263t-361 -95.5q-189 0 -344.5 88.5t-247.5 247.5t-101 360h-362v-678h-113zM821 717q0 -132 43.5 -249t119.5 -200.5t183.5 -131.5
t229.5 -48q172 0 304.5 83t202.5 225.5t70 320.5q0 179 -73 322.5t-205 225t-299 81.5q-165 0 -296.5 -81.5t-205.5 -225t-74 -322.5z" />
    <glyph glyph-name="uni042F" unicode="&#x42f;" horiz-adv-x="1259" 
d="M920 0v561h-320l-407 -561h-130l426 578q-130 43 -220.5 150t-90.5 253q0 97 33 179t98 145.5t169 99t237 35.5q51 0 164 -3t153 -3v-1434h-112zM586 668h334v659q-171 6 -226 6q-192 0 -294.5 -97.5t-102.5 -248.5q0 -122 87 -211.5t202 -107.5z" />
    <glyph glyph-name="uni0430" unicode="&#x430;" horiz-adv-x="940" 
d="M190 768l-28 88q136 84 293 84q185 0 263.5 -93t78.5 -276v-571h-107v141q-112 -153 -315 -153q-128 0 -206.5 74.5t-78.5 199.5q0 134 98 210.5t252 76.5q152 0 250 -70q0 48 -1 79t-4.5 69.5t-10.5 62.5t-18.5 51t-29.5 43t-42.5 30t-58.5 20t-76 6q-76 0 -133.5 -17.5
t-125.5 -54.5zM408 88q56 0 102 12.5t79.5 35.5t55.5 45t45 52v154q-103 74 -239 74q-101 0 -174.5 -49.5t-73.5 -143.5q0 -84 58 -132t147 -48z" />
    <glyph glyph-name="uni0431" unicode="&#x431;" horiz-adv-x="1136" 
d="M891 1454l59 -80q-36 -54 -90 -81t-107 -32.5t-135.5 -22.5t-152.5 -48q-73 -31 -125 -89t-80 -134t-41 -146.5t-18 -154.5h4q46 114 156.5 181.5t240.5 67.5q202 0 320 -126.5t118 -335.5q0 -196 -133.5 -333.5t-333.5 -137.5q-219 0 -349 152t-130 415q0 604 338 743
q73 31 153 47t128 20.5t97 26.5t81 68zM207 530q0 -209 101 -328.5t261 -119.5q154 0 256.5 106.5t102.5 260.5q0 165 -93 265.5t-257 100.5q-148 0 -247.5 -86t-123.5 -199z" />
    <glyph glyph-name="uni0432" unicode="&#x432;" horiz-adv-x="985" 
d="M162 0v922q34 0 131.5 3t165.5 3q191 0 286 -57t95 -181q0 -78 -50 -138t-137 -73v-4q116 -18 168.5 -73t52.5 -148q0 -127 -103.5 -193.5t-307.5 -66.5q-61 0 -162 3t-139 3zM489 424h-221v-326q118 -4 207 -4q287 0 287 170q0 82 -67.5 121t-205.5 39zM471 827
q-101 0 -203 -4v-311h244q99 0 157 44t58 118q0 85 -69 119t-187 34z" />
    <glyph glyph-name="uni0433" unicode="&#x433;" horiz-adv-x="722" 
d="M162 0v922h555v-101h-449v-821h-106z" />
    <glyph glyph-name="uni0434" unicode="&#x434;" horiz-adv-x="1075" 
d="M20 -233v333h115q49 64 93.5 212.5t56.5 349.5l14 260h588v-822h153v-333h-100v233h-819v-233h-101zM387 621q-14 -183 -56 -326.5t-83 -194.5h532v721h-381z" />
    <glyph glyph-name="uni0435" unicode="&#x435;" horiz-adv-x="1073" 
d="M891 195l35 -82q-61 -64 -152.5 -97.5t-187.5 -33.5q-219 0 -354.5 131t-135.5 348q0 136 52.5 243t160 171.5t254.5 64.5q181 0 299.5 -115t118.5 -301q0 -48 -6 -86h-760q6 -165 108 -260.5t269 -95.5q91 0 170.5 31t128.5 82zM553 840q-149 0 -239.5 -87t-104.5 -227
h663q-3 146 -88.5 230t-230.5 84z" />
    <glyph glyph-name="uni0436" unicode="&#x436;" horiz-adv-x="1341" 
d="M1274 922l-369 -443l393 -479h-129l-383 479l359 443h129zM614 0v922h107v-922h-107zM430 479l-369 443h132l356 -443l-377 -479h-129z" />
    <glyph glyph-name="uni0437" unicode="&#x437;" horiz-adv-x="937" 
d="M446 -18q-99 0 -208.5 34.5t-153.5 87.5l55 82q55 -50 137 -77t154 -27q128 0 206.5 50t78.5 138q0 72 -57 113t-156 41h-156v88h146q78 0 133 49t55 119q0 77 -63 118.5t-171 41.5q-161 0 -288 -103l-43 82q56 58 148.5 89.5t197.5 31.5q160 0 246 -64t86 -178
q0 -72 -40.5 -131t-125.5 -90v-4q95 -9 147.5 -71t52.5 -146q0 -127 -106 -200.5t-275 -73.5z" />
    <glyph glyph-name="uni0438" unicode="&#x438;" horiz-adv-x="1150" 
d="M268 0h-106v922h106v-768l615 768h106v-922h-106v768z" />
    <glyph glyph-name="uni0439" unicode="&#x439;" horiz-adv-x="1150" 
d="M268 0h-106v922h106v-768l615 768h106v-922h-106v768zM303 1401h96q0 -76 53 -128t138 -52q80 0 131 52t51 128h96q0 -114 -77.5 -188t-200.5 -74q-133 0 -210 73.5t-77 188.5z" />
    <glyph glyph-name="uni043A" unicode="&#x43a;" horiz-adv-x="991" 
d="M913 922l-454 -441l491 -481h-143l-477 475l446 447h137zM162 0v922h106v-922h-106z" />
    <glyph glyph-name="uni043B" unicode="&#x43b;" horiz-adv-x="1079" 
d="M811 0v815h-389l-12 -201q-11 -157 -36 -272.5t-56 -181.5t-73.5 -105t-80.5 -51t-86 -12l-8 104q22 -1 45.5 8t55.5 42.5t58 88.5t48 159t30 241l15 287h596v-922h-107z" />
    <glyph glyph-name="uni043C" unicode="&#x43c;" horiz-adv-x="1273" 
d="M162 0v922h100l383 -514l369 514h96v-922h-106v760l-359 -498h-6l-371 498v-760h-106z" />
    <glyph glyph-name="uni043D" unicode="&#x43d;" horiz-adv-x="1134" 
d="M866 0v418h-598v-418h-106v922h106v-404h598v404h107v-922h-107z" />
    <glyph glyph-name="uni043E" unicode="&#x43e;" horiz-adv-x="1161" 
d="M96 461q0 208 135 343.5t349 135.5t348.5 -135t134.5 -344t-134.5 -344t-348.5 -135t-349 135.5t-135 343.5zM209 461q0 -166 105 -272.5t266 -106.5q163 0 266.5 106t103.5 273q0 166 -103.5 272.5t-266.5 106.5q-161 0 -266 -106.5t-105 -272.5z" />
    <glyph glyph-name="uni043F" unicode="&#x43f;" horiz-adv-x="1124" 
d="M856 0v821h-588v-821h-106v922h801v-922h-107z" />
    <glyph glyph-name="uni0440" unicode="&#x440;" horiz-adv-x="1134" 
d="M162 -410v1332h106v-123q53 62 146 101.5t192 39.5q197 0 313.5 -129t116.5 -336q0 -214 -130.5 -353.5t-342.5 -139.5q-189 0 -295 77v-469h-106zM578 840q-93 0 -178 -42t-132 -102v-530q128 -84 287 -84q166 0 267.5 108.5t101.5 278.5q0 168 -91.5 269.5
t-254.5 101.5z" />
    <glyph glyph-name="uni0441" unicode="&#x441;" horiz-adv-x="1003" 
d="M879 209l53 -78q-57 -72 -150.5 -110.5t-197.5 -38.5q-216 0 -352 131.5t-136 347.5q0 132 59.5 242t165 173.5t234.5 63.5q238 0 358 -115l-51 -86q-112 101 -291 101q-149 0 -255.5 -108.5t-106.5 -270.5q0 -171 109 -275t274 -104q87 0 162.5 35t124.5 92z" />
    <glyph glyph-name="uni0442" unicode="&#x442;" horiz-adv-x="892" 
d="M27 815v107h839v-107h-366v-815h-107v815h-366z" />
    <glyph glyph-name="uni0443" unicode="&#x443;" horiz-adv-x="985" 
d="M956 922l-372 -922q-67 -164 -123 -253.5t-106.5 -123t-116.5 -33.5q-77 0 -158 48l35 81q66 -30 108 -30q70 0 125.5 61t114.5 201l20 49l-454 922h127l315 -652l66 -143q5 16 51 147l248 648h120z" />
    <glyph glyph-name="uni0444" unicode="&#x444;" horiz-adv-x="1361" 
d="M627 -410v392h-31q-230 0 -365 134.5t-135 344.5q0 94 34.5 180.5t96.5 153t157.5 106t209.5 39.5h33v494h106v-494h35q221 0 358.5 -136.5t137.5 -342.5q0 -211 -132.5 -345t-363.5 -134h-35v-392h-106zM209 461q0 -168 105.5 -273.5t287.5 -105.5h25v758h-35
q-176 0 -279.5 -108.5t-103.5 -270.5zM768 840h-35v-758h27q184 0 287.5 104.5t103.5 274.5q0 101 -44 186.5t-132.5 139t-206.5 53.5z" />
    <glyph glyph-name="uni0445" unicode="&#x445;" horiz-adv-x="1013" 
d="M930 922l-346 -447l366 -475h-131l-315 408l-316 -408h-125l367 471l-346 451h131l293 -381l297 381h125z" />
    <glyph glyph-name="uni0446" unicode="&#x446;" horiz-adv-x="1144" 
d="M162 0v922h106v-822h582v822h106v-822h154v-333h-100v233h-848z" />
    <glyph glyph-name="uni0447" unicode="&#x447;" horiz-adv-x="972" 
d="M811 922v-922h-106v389q-114 -78 -277 -78q-160 0 -242 84t-82 262v265h113v-256q0 -127 62 -190.5t178 -63.5q150 0 248 73v437h106z" />
    <glyph glyph-name="uni0448" unicode="&#x448;" horiz-adv-x="1443" 
d="M162 0v922h106v-822h400v822h106v-822h400v822h106v-922h-1118z" />
    <glyph glyph-name="uni0449" unicode="&#x449;" horiz-adv-x="1468" 
d="M162 0v922h106v-822h400v822h106v-822h400v822h106v-822h154v-333h-101v233h-1171z" />
    <glyph glyph-name="uni044A" unicode="&#x44a;" horiz-adv-x="1024" 
d="M6 821v101h391v-310h178q365 0 365 -303q0 -64 -19.5 -117t-61.5 -97.5t-118 -69.5t-180 -25h-270v821h-285zM557 512h-160v-412h158q145 0 208.5 52t63.5 155q0 100 -64 152.5t-206 52.5z" />
    <glyph glyph-name="uni044B" unicode="&#x44b;" horiz-adv-x="1271" 
d="M162 0v922h106v-310h160q365 0 365 -303q0 -64 -19 -117t-61 -97.5t-117.5 -69.5t-179.5 -25h-254zM410 512h-142v-412h140q147 0 209.5 52t62.5 155q0 101 -63.5 153t-206.5 52zM1004 0v922h106v-922h-106z" />
    <glyph glyph-name="uni044C" unicode="&#x44c;" horiz-adv-x="894" 
d="M162 0v922h106v-310h178q365 0 365 -303q0 -64 -19.5 -117t-61.5 -97.5t-118 -69.5t-180 -25h-270zM428 512h-160v-412h158q145 0 208.5 52t63.5 155q0 100 -64 152.5t-206 52.5z" />
    <glyph glyph-name="uni044D" unicode="&#x44d;" horiz-adv-x="1005" 
d="M311 426v88h486q-15 155 -117 240.5t-258 85.5q-184 0 -299 -115l-47 80q59 64 154 99.5t190 35.5q216 0 351.5 -130.5t135.5 -348.5q0 -132 -59.5 -242t-164.5 -173.5t-234 -63.5q-243 0 -363 112l51 80q103 -92 303 -92q149 0 249 94.5t110 249.5h-488z" />
    <glyph glyph-name="uni044E" unicode="&#x44e;" horiz-adv-x="1536" 
d="M162 0v922h112v-398h234q21 185 146 300.5t315 115.5q208 0 338.5 -135t130.5 -344q0 -208 -131.5 -343.5t-337.5 -135.5q-195 0 -322 122t-141 314h-232v-418h-112zM625 461q0 -166 97.5 -269.5t250.5 -103.5q154 0 250 103.5t96 269.5q0 165 -95.5 269t-250.5 104
q-154 0 -251 -103.5t-97 -269.5z" />
    <glyph glyph-name="uni044F" unicode="&#x44f;" horiz-adv-x="976" 
d="M541 922h274v-922h-106v344h-230l-264 -344h-131l291 369q-89 15 -155 85.5t-66 176.5q0 60 20 110t63.5 92t121 65.5t182.5 23.5zM266 629q0 -82 63.5 -133.5t135.5 -51.5h244v377h-187q-132 0 -194 -53t-62 -139z" />
    <glyph glyph-name="uni0451" unicode="&#x451;" horiz-adv-x="1073" 
d="M891 195l35 -82q-61 -64 -152.5 -97.5t-187.5 -33.5q-219 0 -354.5 131t-135.5 348q0 136 52.5 243t160 171.5t254.5 64.5q181 0 299.5 -115t118.5 -301q0 -48 -6 -86h-760q6 -165 108 -260.5t269 -95.5q91 0 170.5 31t128.5 82zM553 840q-149 0 -239.5 -87t-104.5 -227
h663q-3 146 -88.5 230t-230.5 84zM268 1266q0 30 20 48.5t50 18.5q25 0 44 -19t19 -48q0 -31 -19.5 -51.5t-43.5 -20.5q-30 0 -50 20t-20 52zM694 1266q0 30 20 48.5t50 18.5q25 0 44 -19t19 -48q0 -31 -19.5 -51.5t-43.5 -20.5q-30 0 -50 20t-20 52z" />
    <glyph glyph-name="uni0452" unicode="&#x452;" horiz-adv-x="1230" 
d="M6 987v88h287v359h106v-359h406v-88h-406v-364q57 61 147.5 100t182.5 39q192 0 289.5 -100t97.5 -312q0 -155 -38.5 -299t-122.5 -267.5t-203 -193.5h-121q102 64 177.5 152.5t118 186.5t63 196t20.5 199q0 171 -75 254.5t-228 83.5q-91 0 -176 -41.5t-132 -100.5v-520
h-106v987h-287z" />
    <glyph glyph-name="uni0453" unicode="&#x453;" horiz-adv-x="722" 
d="M162 0v922h555v-101h-449v-821h-106zM682 1403l-238 -293l-65 47l221 309z" />
    <glyph glyph-name="uni0454" unicode="&#x454;" horiz-adv-x="1003" 
d="M692 514v-88h-489q12 -163 119.5 -253.5t267.5 -90.5q77 0 153.5 22.5t128.5 69.5l46 -80q-120 -112 -347 -112q-209 0 -342 134t-133 345q0 217 136 348t352 131q95 0 190 -35.5t154 -99.5l-47 -80q-115 115 -299 115q-153 0 -256.5 -85.5t-120.5 -240.5h487z" />
    <glyph glyph-name="uni0455" unicode="&#x455;" horiz-adv-x="856" 
d="M639 242q0 47 -28 80t-73 52.5t-99.5 36.5t-109 38t-99.5 49.5t-73 78.5t-28 119q0 110 82 177t215 67q92 0 169.5 -29t119.5 -73l-45 -80q-43 40 -107.5 64t-134.5 24q-84 0 -135 -43t-51 -105q0 -43 22 -76t58 -52t81.5 -37t93.5 -31t93.5 -35t81.5 -48t58 -70.5
t22 -102.5q0 -129 -95 -196.5t-237 -67.5q-94 0 -188.5 41t-127.5 92l60 69q37 -47 116 -77.5t152 -30.5q86 0 146.5 43t60.5 123z" />
    <glyph glyph-name="uni0456" unicode="&#x456;" horiz-adv-x="534" 
d="M213 0v922h106v-922h-106zM195 1280q0 30 21.5 49t53.5 19q28 0 49 -19t21 -49q0 -34 -21 -55t-49 -21q-32 0 -53.5 21t-21.5 55z" />
    <glyph glyph-name="uni0457" unicode="&#x457;" horiz-adv-x="565" 
d="M90 1264q0 27 18.5 44t45.5 17q23 0 41 -17t18 -44q0 -28 -18 -46t-41 -18q-27 0 -45.5 17.5t-18.5 46.5zM354 1264q0 27 18.5 44t45.5 17q24 0 41.5 -17t17.5 -44q0 -28 -17.5 -46t-41.5 -18q-27 0 -45.5 17.5t-18.5 46.5zM227 0v922h107v-922h-107z" />
    <glyph glyph-name="uni0458" unicode="&#x458;" horiz-adv-x="540" 
d="M326 922v-990q0 -358 -289 -358q-117 0 -189 57l33 86q62 -43 133 -43q205 0 205 267v981h107zM199 1280q0 30 21.5 49t53.5 19q28 0 49 -19t21 -49q0 -34 -21 -55t-49 -21q-32 0 -53.5 21t-21.5 55z" />
    <glyph glyph-name="uni0459" unicode="&#x459;" horiz-adv-x="1519" 
d="M811 0v815h-389l-12 -201q-11 -157 -36 -272.5t-56 -181.5t-73.5 -105t-80.5 -51t-86 -12l-8 104q22 -1 45.5 8t55.5 42.5t58 88.5t48 159t30 241l15 287h596v-310h153q365 0 365 -303q0 -64 -19.5 -117t-61.5 -97.5t-118 -69.5t-180 -25h-246zM1053 512h-135v-412h133
q145 0 208.5 52t63.5 155q0 100 -64 152.5t-206 52.5z" />
    <glyph glyph-name="uni045A" unicode="&#x45a;" horiz-adv-x="1574" 
d="M162 0v922h106v-375h598v375h107v-338h153q103 0 176 -21.5t113 -62t58 -90.5t18 -115q0 -64 -19.5 -115t-62 -92.5t-118 -64.5t-179.5 -23h-246v446h-598v-446h-106zM1108 483h-135v-383h133q149 0 210.5 46t61.5 147q0 98 -63 144t-207 46z" />
    <glyph glyph-name="uni045B" unicode="&#x45b;" horiz-adv-x="1230" 
d="M6 987v88h287v359h106v-359h406v-88h-406v-364q57 61 147.5 100t182.5 39q192 0 289.5 -100.5t97.5 -313.5v-348h-106v332q0 330 -303 330q-91 0 -176 -41.5t-132 -100.5v-520h-106v987h-287z" />
    <glyph glyph-name="uni045C" unicode="&#x45c;" horiz-adv-x="991" 
d="M913 922l-454 -441l491 -481h-143l-477 475l446 447h137zM162 0v922h106v-922h-106zM719 1403l-238 -293l-65 47l221 309z" />
    <glyph glyph-name="uni045E" unicode="&#x45e;" horiz-adv-x="985" 
d="M956 922l-372 -922q-67 -164 -123 -253.5t-106.5 -123t-116.5 -33.5q-77 0 -158 48l35 81q66 -30 108 -30q70 0 125.5 61t114.5 201l20 49l-454 922h127l315 -652l66 -143q5 16 51 147l248 648h120zM221 1401h96q0 -76 53 -128t138 -52q80 0 131 52t51 128h96
q0 -114 -77.5 -188t-200.5 -74q-133 0 -210 73.5t-77 188.5z" />
    <glyph glyph-name="uni045F" unicode="&#x45f;" horiz-adv-x="1103" 
d="M162 0v922h106v-822h568v822h106v-922h-340v-268h-100v268h-340z" />
    <glyph glyph-name="uni0462" unicode="&#x462;" horiz-adv-x="1294" 
d="M414 1434v-238h338v-106h-338v-246q147 10 231 10q272 0 405.5 -106.5t133.5 -307.5q0 -219 -148.5 -331.5t-417.5 -112.5q-61 0 -170 2t-147 2v1090h-289v106h289v238h113zM639 748q-116 0 -225 -13v-626q213 -7 217 -7q434 0 434 336q0 154 -108.5 232t-317.5 78z" />
    <glyph glyph-name="uni0463" unicode="&#x463;" horiz-adv-x="1019" 
d="M6 821v101h285v512h106v-512h328v-101h-328v-246h174q103 0 176 -22t113 -63t58 -91.5t18 -115.5q0 -283 -379 -283h-266v821h-285zM571 475h-174v-375h172q138 0 196 48.5t58 140.5q0 91 -59 138.5t-193 47.5z" />
    <glyph glyph-name="uni0472" unicode="&#x472;" horiz-adv-x="1658" 
d="M111 717q0 206 92.5 374t257 264.5t368.5 96.5q151 0 284 -55t228.5 -151.5t151 -233.5t55.5 -295q0 -156 -55.5 -292.5t-151 -233.5t-228.5 -153t-284 -56t-284 55t-228.5 151.5t-150.5 233.5t-55 295zM561 762q-84 0 -174.5 -43.5t-150.5 -97.5q31 -233 197 -383
t396 -150q169 0 305.5 79.5t214 219t81.5 311.5q-69 -48 -154 -81t-162 -33q-79 0 -154.5 28t-127 61t-124.5 61t-147 28zM1122 684q78 0 162 38t139 87q-31 236 -197.5 386.5t-396.5 150.5q-252 0 -423 -174t-177 -439q71 56 160.5 92.5t175.5 36.5q65 0 126 -18.5
t109.5 -44.5t96.5 -52t106 -44.5t119 -18.5z" />
    <glyph glyph-name="uni0473" unicode="&#x473;" horiz-adv-x="1161" 
d="M96 461q0 208 135 343.5t349 135.5t348.5 -135t134.5 -344t-134.5 -344t-348.5 -135t-349 135.5t-135 343.5zM379 487q-91 0 -170 -65q12 -151 115.5 -245.5t255.5 -94.5q139 0 237.5 80t124.5 211q-69 -41 -143 -41q-53 0 -112.5 24t-104.5 53.5t-101 53.5t-102 24z
M809 432q72 0 141 49q-8 157 -111 258t-259 101q-141 0 -241.5 -84t-123.5 -221q82 53 166 53q56 0 117.5 -24.5t106 -53.5t101 -53.5t103.5 -24.5z" />
    <glyph glyph-name="uni0474" unicode="&#x474;" horiz-adv-x="1345" 
d="M1096 1040l-377 -1052h-80l-616 1446h120l539 -1270l332 954q55 156 105.5 230t115 91t151.5 -12l-18 -98q-34 13 -61 14t-51 -13t-42 -34t-39 -62t-37.5 -83.5t-41.5 -110.5z" />
    <glyph glyph-name="uni0475" unicode="&#x475;" horiz-adv-x="980" 
d="M791 623l-248 -635h-74l-446 934h124l279 -580q28 -60 82 -197l72 203l131 340q46 121 86.5 176t95.5 67.5t129 -16.5l-18 -98q-24 13 -44.5 15t-39 -8t-34 -25t-32.5 -44.5t-30.5 -58t-32.5 -73.5z" />
    <glyph glyph-name="uni0490" unicode="&#x490;" horiz-adv-x="1030" 
d="M227 0v1434h684v268h107v-375h-678v-1327h-113z" />
    <glyph glyph-name="uni0491" unicode="&#x491;" horiz-adv-x="722" 
d="M162 0v922h454v227h101v-328h-449v-821h-106z" />
    <glyph glyph-name="uni0492" unicode="&#x492;" horiz-adv-x="1077" 
d="M274 0v678h-254v106h254v650h791v-107h-678v-543h399v-106h-399v-678h-113z" />
    <glyph glyph-name="uni0493" unicode="&#x493;" horiz-adv-x="755" 
d="M195 0v418h-185v100h185v404h555v-101h-449v-303h287v-100h-287v-418h-106z" />
    <glyph glyph-name="uni0494" unicode="&#x494;" horiz-adv-x="1232" 
d="M227 0v1434h791v-107h-678v-577q77 52 160 84t198 32q93 0 168.5 -27t133.5 -82t90 -146.5t32 -213.5v-379q0 -225 -93.5 -334.5t-252.5 -109.5q-59 0 -115.5 22t-78.5 44l41 88q62 -47 141 -47q114 0 180 83.5t66 251.5v379q0 181 -85.5 273t-248.5 92q-30 0 -59.5 -3.5
t-51.5 -7.5t-48.5 -14t-41.5 -15.5t-40 -19.5t-33.5 -18.5t-33 -20t-28.5 -18.5v-643h-113z" />
    <glyph glyph-name="uni0495" unicode="&#x495;" horiz-adv-x="1036" 
d="M162 0v922h575v-101h-469v-350q120 127 295 127q76 0 139.5 -22t113.5 -67.5t78 -122.5t28 -179q0 -108 -30.5 -209.5t-80.5 -178.5t-103.5 -134t-109.5 -95h-121q63 38 121 97t107.5 136t79.5 175.5t30 202.5q0 131 -70.5 214t-199.5 83q-169 0 -277 -125v-373h-106z
" />
    <glyph glyph-name="uni0496" unicode="&#x496;" horiz-adv-x="1900" 
d="M1800 1434l-612 -684l545 -644h184v-380h-107v274h-120l-627 748l604 686h133zM692 748l-612 686h133l604 -686l-627 -748h-133zM883 0v1434h112v-1434h-112z" />
    <glyph glyph-name="uni0497" unicode="&#x497;" horiz-adv-x="1380" 
d="M1274 922l-369 -443l312 -381v2h143v-333h-100v233h-91l-383 479l359 443h129zM430 479l-369 443h132l356 -443l-377 -479h-129zM614 0v922h107v-922h-107z" />
    <glyph glyph-name="uni0498" unicode="&#x498;" horiz-adv-x="1173" 
d="M604 -322h-106v306q-128 10 -241.5 69t-166.5 140l64 75q69 -83 178 -131.5t203 -48.5q169 0 271.5 86.5t102.5 237.5q0 123 -82 195.5t-223 72.5h-178v106h166q102 0 182 83t80 204q0 132 -84 202.5t-217 70.5q-115 0 -200 -41.5t-156 -122.5l-66 71q73 93 186 146
t244 53q186 0 296 -98t110 -273q0 -102 -57 -196.5t-160 -141.5v-6q128 -18 200 -113t72 -223q0 -178 -117.5 -288.5t-300.5 -126.5v-308z" />
    <glyph glyph-name="uni0499" unicode="&#x499;" horiz-adv-x="937" 
d="M514 -268h-100v252q-97 5 -194 38t-136 82l55 82q55 -50 137 -77t154 -27q128 0 206.5 50t78.5 138q0 72 -57 113t-156 41h-156v88h146q78 0 133 49t55 119q0 77 -63 118.5t-171 41.5q-161 0 -288 -103l-43 82q56 58 148.5 89.5t197.5 31.5q160 0 246 -64t86 -178
q0 -72 -40.5 -131t-125.5 -90v-4q95 -9 147.5 -71t52.5 -146q0 -114 -86 -186t-227 -84v-254z" />
    <glyph glyph-name="uni049A" unicode="&#x49a;" horiz-adv-x="1312" 
d="M1219 1434l-678 -678l606 -650h186v-380h-106v274h-125l-694 748l673 686h138zM227 0v1434h113v-1434h-113z" />
    <glyph glyph-name="uni049B" unicode="&#x49b;" horiz-adv-x="1011" 
d="M913 922l-454 -441l389 -381h143v-333h-100v233h-84l-477 475l446 447h137zM162 0v922h106v-922h-106z" />
    <glyph glyph-name="uni049C" unicode="&#x49c;" horiz-adv-x="1331" 
d="M1245 1434l-678 -678l707 -756h-146l-573 616v-262h-109v758h109v-242l553 564h137zM227 0v1434h113v-1434h-113z" />
    <glyph glyph-name="uni049D" unicode="&#x49d;" horiz-adv-x="1007" 
d="M930 922l-451 -441l488 -481h-144l-360 358v-174h-98v553h98v-145l330 330h137zM162 0v922h106v-922h-106z" />
    <glyph glyph-name="uni04A0" unicode="&#x4a0;" horiz-adv-x="1499" 
d="M422 0v1327h-416v107h529v-1434h-113zM1413 1434l-678 -678l707 -756h-146l-694 748l674 686h137z" />
    <glyph glyph-name="uni04A1" unicode="&#x4a1;" horiz-adv-x="1140" 
d="M311 0v821h-305v101h412v-922h-107zM1063 922l-455 -441l492 -481h-144l-477 475l447 447h137z" />
    <glyph glyph-name="uni04A2" unicode="&#x4a2;" horiz-adv-x="1611" 
d="M1436 0h-201v678h-895v-678h-113v1434h113v-650h895v650h113v-1328h194v-380h-106v274z" />
    <glyph glyph-name="uni04A3" unicode="&#x4a3;" horiz-adv-x="1161" 
d="M1026 0h-160v418h-598v-418h-106v922h106v-404h598v404h107v-822h153v-333h-100v233z" />
    <glyph glyph-name="uni04A4" unicode="&#x4a4;" horiz-adv-x="1996" 
d="M1214 0v678h-874v-678h-113v1434h113v-650h874v650h771v-107h-658v-1327h-113z" />
    <glyph glyph-name="uni04A5" unicode="&#x4a5;" horiz-adv-x="1396" 
d="M846 0v418h-578v-418h-106v922h106v-404h578v404h545v-101h-439v-821h-106z" />
    <glyph glyph-name="uni04AA" unicode="&#x4aa;" horiz-adv-x="1343" 
d="M1229 223l45 -84q-65 -65 -168.5 -105.5t-220.5 -49.5v-306h-107v306q-301 17 -484 215.5t-183 517.5q0 154 49.5 288.5t139 233.5t222 156t291.5 57q271 0 434 -135l-53 -84q-148 113 -379 113q-171 0 -305 -81.5t-207.5 -224.5t-73.5 -323q0 -281 169.5 -455
t439.5 -174q226 0 391 135z" />
    <glyph glyph-name="uni04AB" unicode="&#x4ab;" horiz-adv-x="1003" 
d="M879 209l53 -78q-50 -63 -127 -100.5t-168 -46.5v-252h-100v252q-197 14 -319 143.5t-122 333.5q0 132 59.5 242t165 173.5t234.5 63.5q238 0 358 -115l-51 -86q-112 101 -291 101q-149 0 -255.5 -108.5t-106.5 -270.5q0 -171 109 -275t274 -104q87 0 162.5 35t124.5 92z
" />
    <glyph glyph-name="uni04AE" unicode="&#x4ae;" horiz-adv-x="1196" 
d="M1167 1434l-516 -807v-627h-112v627l-510 807h131l440 -701l442 701h125z" />
    <glyph glyph-name="uni04AF" unicode="&#x4af;" horiz-adv-x="974" 
d="M434 0l-405 922h123l274 -648l61 -147l64 147l272 648h123l-405 -922v-410h-107v410z" />
    <glyph glyph-name="uni04B0" unicode="&#x4b0;" horiz-adv-x="1196" 
d="M1167 1434l-483 -756h326v-107h-359v-571h-112v571h-359v107h326l-477 756h131l440 -701l442 701h125z" />
    <glyph glyph-name="uni04B1" unicode="&#x4b1;" horiz-adv-x="974" 
d="M397 100l-368 822h123l268 -617l67 -162l72 162l264 617h123l-366 -822h237v-100h-276v-410h-107v410h-276v100h239z" />
    <glyph glyph-name="uni04B2" unicode="&#x4b2;" horiz-adv-x="1382" 
d="M1276 1434l-526 -705l464 -623h185v-380h-107v274h-133l-483 643l-486 -643h-133l547 729l-524 705h133l465 -619l463 619h135z" />
    <glyph glyph-name="uni04B3" unicode="&#x4b3;" horiz-adv-x="1038" 
d="M930 922l-346 -447l290 -377v2h144v-333h-100v233h-99l-315 408l-316 -408h-125l367 471l-346 451h131l293 -381l297 381h125z" />
    <glyph glyph-name="uni04B6" unicode="&#x4b6;" horiz-adv-x="1339" 
d="M1075 1434v-1328h195v-380h-107v274h-200v657q-70 -48 -179 -84t-229 -36q-72 0 -134 15.5t-116.5 51t-93 87.5t-60.5 129.5t-22 174.5v439h113v-414q0 -190 91.5 -283.5t250.5 -93.5q184 0 379 121v670h112z" />
    <glyph glyph-name="uni04B7" unicode="&#x4b7;" horiz-adv-x="999" 
d="M811 922v-822h154v-333h-101v233h-159v389q-114 -78 -277 -78q-160 0 -242 84t-82 262v265h113v-256q0 -127 62 -190.5t178 -63.5q150 0 248 73v437h106z" />
    <glyph glyph-name="uni04B8" unicode="&#x4b8;" horiz-adv-x="1302" 
d="M1075 1434v-1434h-112v657q-50 -36 -129 -64.5t-172 -39.5v-281h-113v275q-90 1 -163.5 25.5t-132.5 75.5t-91.5 139.5t-32.5 207.5v439h113v-414q0 -179 81 -268.5t226 -98.5v377h113v-373q160 20 301 107v670h112z" />
    <glyph glyph-name="uni04B9" unicode="&#x4b9;" horiz-adv-x="972" 
d="M811 922v-922h-106v389q-68 -44 -179 -59v-207h-106v201q-159 2 -237.5 80t-78.5 253v265h113v-256q0 -227 203 -246v256h106v-252q116 12 179 61v437h106z" />
    <glyph glyph-name="uni04BA" unicode="&#x4ba;" horiz-adv-x="1284" 
d="M227 0v1434h113v-662q47 30 71.5 43.5t77 37t111 34t127.5 10.5q91 0 169 -26t141.5 -79t100 -144t36.5 -210v-438h-113v414q0 191 -95 284t-268 93q-34 0 -66 -3.5t-55.5 -7.5t-52 -14.5t-43 -15.5t-41.5 -19.5t-34.5 -19.5t-34.5 -22t-31 -19v-670h-113z" />
    <glyph glyph-name="uni04BB" unicode="&#x4bb;" horiz-adv-x="1128" 
d="M162 0v1434h106v-637q55 61 147 101t185 40q191 0 288 -100.5t97 -313.5v-524h-106v508q0 330 -304 330q-90 0 -175 -41.5t-132 -100.5v-696h-106z" />
    <glyph glyph-name="uni04C0" unicode="&#x4c0;" horiz-adv-x="430" 
d="M268 1434v-1434h-106v1434h106z" />
    <glyph glyph-name="uni04CB" unicode="&#x4cb;" horiz-adv-x="1302" 
d="M1075 1434v-1434h-201v-274h-106v380h195v551q-70 -48 -179 -84t-229 -36q-72 0 -134 15.5t-116.5 51t-93 87.5t-60.5 129.5t-22 174.5v439h113v-414q0 -190 91.5 -283.5t250.5 -93.5q184 0 379 121v670h112z" />
    <glyph glyph-name="uni04CC" unicode="&#x4cc;" horiz-adv-x="972" 
d="M811 922v-922h-160v-233h-100v333h154v289q-114 -78 -277 -78q-160 0 -242 84t-82 262v265h113v-256q0 -127 62 -190.5t178 -63.5q150 0 248 73v437h106z" />
    <glyph glyph-name="uni04CF" unicode="&#x4cf;" horiz-adv-x="665" 
d="M276 0v1434h113v-1434h-113z" />
    <glyph glyph-name="uni04D0" unicode="&#x4d0;" horiz-adv-x="1427" 
d="M43 0l625 1446h92l624 -1446h-120l-209 487h-688l-209 -487h-115zM711 1290l-299 -696h596zM354 1745h107q34 -67 99 -106.5t157 -39.5q89 0 158 39.5t90 106.5h106q-20 -100 -121.5 -163.5t-232.5 -63.5q-140 0 -238 63.5t-125 163.5z" />
    <glyph glyph-name="uni04D1" unicode="&#x4d1;" horiz-adv-x="940" 
d="M190 768l-28 88q136 84 293 84q185 0 263.5 -93t78.5 -276v-571h-107v141q-112 -153 -315 -153q-128 0 -206.5 74.5t-78.5 199.5q0 134 98 210.5t252 76.5q152 0 250 -70q0 48 -1 79t-4.5 69.5t-10.5 62.5t-18.5 51t-29.5 43t-42.5 30t-58.5 20t-76 6q-76 0 -133.5 -17.5
t-125.5 -54.5zM408 88q56 0 102 12.5t79.5 35.5t55.5 45t45 52v154q-103 74 -239 74q-101 0 -174.5 -49.5t-73.5 -143.5q0 -84 58 -132t147 -48zM164 1401h96q0 -76 53 -128t138 -52q80 0 131 52t51 128h96q0 -114 -77.5 -188t-200.5 -74q-133 0 -210 73.5t-77 188.5z" />
    <glyph glyph-name="uni04D2" unicode="&#x4d2;" horiz-adv-x="1427" 
d="M43 0l625 1446h92l624 -1446h-120l-209 487h-688l-209 -487h-115zM711 1290l-299 -696h596zM399 1647q0 30 22.5 47.5t55.5 17.5q30 0 52 -18t22 -47q0 -32 -22 -51t-52 -19q-34 0 -56 18.5t-22 51.5zM877 1647q0 30 23 47.5t56 17.5q29 0 50.5 -18t21.5 -47
q0 -32 -21.5 -51t-50.5 -19q-34 0 -56.5 18.5t-22.5 51.5z" />
    <glyph glyph-name="uni04D3" unicode="&#x4d3;" horiz-adv-x="940" 
d="M190 768l-28 88q136 84 293 84q185 0 263.5 -93t78.5 -276v-571h-107v141q-112 -153 -315 -153q-128 0 -206.5 74.5t-78.5 199.5q0 134 98 210.5t252 76.5q152 0 250 -70q0 48 -1 79t-4.5 69.5t-10.5 62.5t-18.5 51t-29.5 43t-42.5 30t-58.5 20t-76 6q-76 0 -133.5 -17.5
t-125.5 -54.5zM408 88q56 0 102 12.5t79.5 35.5t55.5 45t45 52v154q-103 74 -239 74q-101 0 -174.5 -49.5t-73.5 -143.5q0 -84 58 -132t147 -48zM178 1225q0 30 20 48.5t50 18.5q25 0 44 -19t19 -48q0 -31 -19.5 -51.5t-43.5 -20.5q-30 0 -50 20t-20 52zM604 1225
q0 30 20 48.5t50 18.5q25 0 44 -19t19 -48q0 -31 -19.5 -51.5t-43.5 -20.5q-30 0 -50 20t-20 52z" />
    <glyph glyph-name="uni04D4" unicode="&#x4d4;" horiz-adv-x="1966" 
d="M1808 1434v-107h-680v-547h619v-106h-619v-568h701v-106h-813v500h-541l-352 -500h-133l1026 1434h792zM1016 1264l-465 -658h465v658z" />
    <glyph glyph-name="uni04D5" unicode="&#x4d5;" horiz-adv-x="1615" 
d="M455 940q223 0 299 -145q126 145 352 145q181 0 299.5 -115t118.5 -301q0 -48 -6 -86h-721v-182q48 -84 134 -129t204 -45q91 0 170.5 31t128.5 82l34 -82q-61 -64 -152.5 -97.5t-187.5 -33.5q-247 0 -385 163q-78 -81 -162.5 -119t-187.5 -38q-141 0 -222 74t-81 200
q0 134 98 210.5t252 76.5q53 0 131.5 -9t118.5 -18q9 162 -44.5 240t-196.5 78q-76 0 -133.5 -17.5t-125.5 -54.5l-28 88q136 84 293 84zM797 571v-45h618q-3 146 -88.5 230t-230.5 84q-104 0 -182.5 -45t-122.5 -125q6 -46 6 -99zM408 88q56 0 102 12.5t79.5 35.5t55.5 45
t45 52v201q-138 27 -239 27t-174.5 -49.5t-73.5 -143.5q0 -84 58 -132t147 -48z" />
    <glyph glyph-name="uni04D6" unicode="&#x4d6;" horiz-adv-x="1177" 
d="M227 0v1434h793v-107h-680v-547h618v-106h-618v-568h700v-106h-813zM274 1745h107q34 -67 99 -106.5t157 -39.5q89 0 158 39.5t90 106.5h106q-20 -100 -121.5 -163.5t-232.5 -63.5q-140 0 -238 63.5t-125 163.5z" />
    <glyph glyph-name="uni04D7" unicode="&#x4d7;" horiz-adv-x="1073" 
d="M891 195l35 -82q-61 -64 -152.5 -97.5t-187.5 -33.5q-219 0 -354.5 131t-135.5 348q0 136 52.5 243t160 171.5t254.5 64.5q181 0 299.5 -115t118.5 -301q0 -48 -6 -86h-760q6 -165 108 -260.5t269 -95.5q91 0 170.5 31t128.5 82zM553 840q-149 0 -239.5 -87t-104.5 -227
h663q-3 146 -88.5 230t-230.5 84zM266 1401h96q0 -76 53 -128t138 -52q80 0 131 52t51 128h96q0 -114 -77.5 -188t-200.5 -74q-133 0 -210 73.5t-77 188.5z" />
    <glyph glyph-name="uni04D8" unicode="&#x4d8;" horiz-adv-x="1593" 
d="M100 784h1262q-19 260 -186 411t-435 151q-230 0 -383 -121l-45 84q78 69 198 106t255 37q325 0 521 -198t196 -531q0 -213 -84 -380.5t-244 -264t-371 -96.5q-212 0 -372 102t-241.5 284.5t-70.5 415.5zM780 88q259 0 415.5 164t170.5 426h-1149q5 -164 73 -297
t196 -213t294 -80z" />
    <glyph glyph-name="uni04D9" unicode="&#x4d9;" horiz-adv-x="1073" 
d="M188 727l-34 82q60 63 158 97t196 34q217 0 342 -129.5t125 -349.5q0 -208 -121 -343.5t-334 -135.5q-188 0 -309 114t-121 301q0 51 8 101h758q-3 147 -98.5 244.5t-255.5 97.5q-93 0 -179.5 -31.5t-134.5 -81.5zM528 82q146 0 237.5 92.5t96.5 235.5h-661
q0 -158 87 -243t240 -85z" />
    <glyph glyph-name="uni04DC" unicode="&#x4dc;" horiz-adv-x="1880" 
d="M1800 1434l-612 -684l635 -750h-133l-627 748l604 686h133zM883 0v1434h112v-1434h-112zM692 748l-612 686h133l604 -686l-627 -748h-133zM627 1647q0 30 22.5 47.5t55.5 17.5q29 0 51 -18t22 -47q0 -32 -21.5 -51t-51.5 -19q-34 0 -56 18.5t-22 51.5zM1104 1647
q0 30 23 47.5t57 17.5q29 0 50 -17.5t21 -47.5q0 -32 -21 -51t-50 -19q-34 0 -57 19t-23 51z" />
    <glyph glyph-name="uni04DD" unicode="&#x4dd;" horiz-adv-x="1341" 
d="M1274 922l-369 -443l393 -479h-129l-383 479l359 443h129zM614 0v922h107v-922h-107zM430 479l-369 443h132l356 -443l-377 -479h-129zM391 1225q0 30 20 48.5t50 18.5q25 0 44 -19t19 -48q0 -31 -19.5 -51.5t-43.5 -20.5q-30 0 -50 20t-20 52zM817 1225q0 30 20 48.5
t50 18.5q25 0 44 -19t19 -48q0 -31 -19.5 -51.5t-43.5 -20.5q-30 0 -50 20t-20 52z" />
    <glyph glyph-name="uni04DE" unicode="&#x4de;" horiz-adv-x="1173" 
d="M543 -18q-139 0 -266.5 61t-186.5 150l64 75q69 -83 178 -131.5t203 -48.5q169 0 271.5 86.5t102.5 237.5q0 123 -82 195.5t-223 72.5h-178v106h166q102 0 182 83t80 204q0 132 -84 202.5t-217 70.5q-115 0 -200 -41.5t-156 -122.5l-66 71q73 93 186 146t244 53
q186 0 296 -98t110 -273q0 -102 -57 -196.5t-160 -141.5v-6q128 -18 200 -113t72 -223q0 -192 -137 -305.5t-342 -113.5zM213 1647q0 30 22.5 47.5t55.5 17.5q30 0 52 -18t22 -47q0 -32 -22 -51t-52 -19q-34 0 -56 18.5t-22 51.5zM690 1647q0 30 23 47.5t57 17.5
q29 0 50.5 -18t21.5 -47q0 -32 -21.5 -51t-50.5 -19q-34 0 -57 19t-23 51z" />
    <glyph glyph-name="uni04DF" unicode="&#x4df;" horiz-adv-x="937" 
d="M446 -18q-99 0 -208.5 34.5t-153.5 87.5l55 82q55 -50 137 -77t154 -27q128 0 206.5 50t78.5 138q0 72 -57 113t-156 41h-156v88h146q78 0 133 49t55 119q0 77 -63 118.5t-171 41.5q-161 0 -288 -103l-43 82q56 58 148.5 89.5t197.5 31.5q160 0 246 -64t86 -178
q0 -72 -40.5 -131t-125.5 -90v-4q95 -9 147.5 -71t52.5 -146q0 -127 -106 -200.5t-275 -73.5zM141 1225q0 30 20 48.5t50 18.5q25 0 44 -19t19 -48q0 -31 -19.5 -51.5t-43.5 -20.5q-30 0 -50 20t-20 52zM567 1225q0 30 20 48.5t50 18.5q25 0 44 -19t19 -48
q0 -31 -19.5 -51.5t-43.5 -20.5q-30 0 -50 20t-20 52z" />
    <glyph glyph-name="uni04E2" unicode="&#x4e2;" horiz-adv-x="1632" 
d="M328 0h-101v1434h113v-1250l965 1250h100v-1434h-113v1249zM508 1593v88h614v-88h-614z" />
    <glyph glyph-name="uni04E3" unicode="&#x4e3;" horiz-adv-x="1150" 
d="M268 0h-106v922h106v-768l615 768h106v-922h-106v768zM317 1237v88h517v-88h-517z" />
    <glyph glyph-name="uni04E4" unicode="&#x4e4;" horiz-adv-x="1632" 
d="M328 0h-101v1434h113v-1250l965 1250h100v-1434h-113v1249zM502 1647q0 30 22.5 47.5t55.5 17.5q29 0 51 -18t22 -47q0 -32 -21.5 -51t-51.5 -19q-34 0 -56 18.5t-22 51.5zM979 1647q0 30 23 47.5t57 17.5q29 0 50 -17.5t21 -47.5q0 -32 -21 -51t-50 -19q-34 0 -57 19
t-23 51z" />
    <glyph glyph-name="uni04E5" unicode="&#x4e5;" horiz-adv-x="1150" 
d="M268 0h-106v922h106v-768l615 768h106v-922h-106v768zM297 1225q0 30 20 48.5t50 18.5q25 0 44 -19t19 -48q0 -31 -19.5 -51.5t-43.5 -20.5q-30 0 -50 20t-20 52zM723 1225q0 30 20 48.5t50 18.5q25 0 44 -19t19 -48q0 -31 -19.5 -51.5t-43.5 -20.5q-30 0 -50 20t-20 52z
" />
    <glyph glyph-name="uni04E6" unicode="&#x4e6;" horiz-adv-x="1658" 
d="M111 717q0 206 92.5 374t257 264.5t368.5 96.5q151 0 284 -55t228.5 -151.5t151 -233.5t55.5 -295q0 -156 -55.5 -292.5t-151 -233.5t-228.5 -153t-284 -56t-284 55t-228.5 151.5t-150.5 233.5t-55 295zM229 717q0 -176 79 -320.5t216.5 -226.5t304.5 -82q172 0 310 82.5
t214.5 226.5t76.5 320q0 178 -79.5 322.5t-217 225.5t-304.5 81q-126 0 -237 -48t-191 -130.5t-126 -200t-46 -250.5zM516 1647q0 30 22.5 47.5t55.5 17.5q30 0 52 -18t22 -47q0 -32 -22 -51t-52 -19q-34 0 -56 18.5t-22 51.5zM993 1647q0 30 23 47.5t57 17.5q29 0 50.5 -18
t21.5 -47q0 -32 -21.5 -51t-50.5 -19q-34 0 -57 19t-23 51z" />
    <glyph glyph-name="uni04E7" unicode="&#x4e7;" horiz-adv-x="1161" 
d="M96 461q0 208 135 343.5t349 135.5t348.5 -135t134.5 -344t-134.5 -344t-348.5 -135t-349 135.5t-135 343.5zM209 461q0 -166 105 -272.5t266 -106.5q163 0 266.5 106t103.5 273q0 166 -103.5 272.5t-266.5 106.5q-161 0 -266 -106.5t-105 -272.5zM301 1225q0 30 20 48.5
t50 18.5q25 0 44 -19t19 -48q0 -31 -19.5 -51.5t-43.5 -20.5q-30 0 -50 20t-20 52zM727 1225q0 30 20 48.5t50 18.5q25 0 44 -19t19 -48q0 -31 -19.5 -51.5t-43.5 -20.5q-30 0 -50 20t-20 52z" />
    <glyph glyph-name="uni04E8" unicode="&#x4e8;" horiz-adv-x="1658" 
d="M111 717q0 206 92.5 374t257 264.5t368.5 96.5q151 0 284 -55t228.5 -151.5t151 -233.5t55.5 -295q0 -156 -55.5 -292.5t-151 -233.5t-228.5 -153t-284 -56t-284 55t-228.5 151.5t-150.5 233.5t-55 295zM829 88q251 0 418.5 167t179.5 423h-1198q9 -168 90 -303t215 -211
t295 -76zM829 1346q-239 0 -407 -158t-191 -404h1194q-15 162 -97 290.5t-212.5 200t-286.5 71.5z" />
    <glyph glyph-name="uni04E9" unicode="&#x4e9;" horiz-adv-x="1161" 
d="M96 461q0 208 135 343.5t349 135.5t348.5 -135t134.5 -344t-134.5 -344t-348.5 -135t-349 135.5t-135 343.5zM580 82q152 0 253 92.5t115 243.5h-737q14 -149 116 -242.5t253 -93.5zM580 840q-146 0 -247 -88.5t-120 -233.5h733q-19 144 -119 233t-247 89z" />
    <glyph glyph-name="uni04EE" unicode="&#x4ee;" horiz-adv-x="1335" 
d="M1300 1434l-499 -1110q-76 -169 -152.5 -246.5t-179.5 -77.5q-99 0 -158 47l41 96q56 -39 115 -39q116 0 203 181l26 57l-661 1092h127l590 -979l434 979h114zM365 1593v88h614v-88h-614z" />
    <glyph glyph-name="uni04EF" unicode="&#x4ef;" horiz-adv-x="985" 
d="M956 922l-372 -922q-67 -164 -123 -253.5t-106.5 -123t-116.5 -33.5q-77 0 -158 48l35 81q66 -30 108 -30q70 0 125.5 61t114.5 201l20 49l-454 922h127l315 -652l66 -143q5 16 51 147l248 648h120zM233 1237v88h517v-88h-517z" />
    <glyph glyph-name="uni04F0" unicode="&#x4f0;" horiz-adv-x="1335" 
d="M1300 1434l-499 -1110q-76 -169 -152.5 -246.5t-179.5 -77.5q-99 0 -158 47l41 96q56 -39 115 -39q116 0 203 181l26 57l-661 1092h127l590 -979l434 979h114zM360 1647q0 30 22.5 47.5t55.5 17.5q30 0 52 -18t22 -47q0 -32 -22 -51t-52 -19q-34 0 -56 18.5t-22 51.5z
M838 1647q0 30 23 47.5t57 17.5q29 0 50 -17.5t21 -47.5q0 -32 -21 -51t-50 -19q-34 0 -57 19t-23 51z" />
    <glyph glyph-name="uni04F1" unicode="&#x4f1;" horiz-adv-x="985" 
d="M956 922l-372 -922q-67 -164 -123 -253.5t-106.5 -123t-116.5 -33.5q-77 0 -158 48l35 81q66 -30 108 -30q70 0 125.5 61t114.5 201l20 49l-454 922h127l315 -652l66 -143q5 16 51 147l248 648h120zM209 1225q0 30 20 48.5t50 18.5q25 0 44 -19t19 -48q0 -31 -19.5 -51.5
t-43.5 -20.5q-30 0 -50 20t-20 52zM635 1225q0 30 20 48.5t50 18.5q25 0 44 -19t19 -48q0 -31 -19.5 -51.5t-43.5 -20.5q-30 0 -50 20t-20 52z" />
    <glyph glyph-name="uni04F2" unicode="&#x4f2;" horiz-adv-x="1335" 
d="M1300 1434l-499 -1110q-76 -169 -152.5 -246.5t-179.5 -77.5q-99 0 -158 47l41 96q56 -39 115 -39q116 0 203 181l26 57l-661 1092h127l590 -979l434 979h114zM1133 1710l-347 -199l-45 50l320 217zM754 1726l-324 -215l-47 45l285 222z" />
    <glyph glyph-name="uni04F3" unicode="&#x4f3;" horiz-adv-x="985" 
d="M956 922l-372 -922q-67 -164 -123 -253.5t-106.5 -123t-116.5 -33.5q-77 0 -158 48l35 81q66 -30 108 -30q70 0 125.5 61t114.5 201l20 49l-454 922h127l315 -652l66 -143q5 16 51 147l248 648h120zM881 1399l-244 -289l-66 47l232 301zM561 1409l-229 -299l-66 47
l217 309z" />
    <glyph glyph-name="uni04F4" unicode="&#x4f4;" horiz-adv-x="1302" 
d="M1075 1434v-1434h-112v657q-70 -48 -179 -84t-229 -36q-72 0 -134 15.5t-116.5 51t-93 87.5t-60.5 129.5t-22 174.5v439h113v-414q0 -190 91.5 -283.5t250.5 -93.5q184 0 379 121v670h112zM295 1647q0 30 22.5 47.5t55.5 17.5q29 0 51 -18t22 -47q0 -32 -21.5 -51
t-51.5 -19q-34 0 -56 18.5t-22 51.5zM772 1647q0 30 23 47.5t57 17.5q29 0 50.5 -18t21.5 -47q0 -32 -21.5 -51t-50.5 -19q-34 0 -57 19t-23 51z" />
    <glyph glyph-name="uni04F5" unicode="&#x4f5;" horiz-adv-x="972" 
d="M811 922v-922h-106v389q-114 -78 -277 -78q-160 0 -242 84t-82 262v265h113v-256q0 -127 62 -190.5t178 -63.5q150 0 248 73v437h106zM182 1225q0 30 20 48.5t50 18.5q25 0 44 -19t19 -48q0 -31 -19.5 -51.5t-43.5 -20.5q-30 0 -50 20t-20 52zM608 1225q0 30 20 48.5
t50 18.5q25 0 44 -19t19 -48q0 -31 -19.5 -51.5t-43.5 -20.5q-30 0 -50 20t-20 52z" />
    <glyph glyph-name="uni04F6" unicode="&#x4f6;" horiz-adv-x="1030" 
d="M227 0v1434h791v-107h-678v-1221h195v-380h-107v274h-201z" />
    <glyph glyph-name="uni04F7" unicode="&#x4f7;" horiz-adv-x="722" 
d="M162 0v922h555v-101h-449v-721h154v-333h-100v233h-160z" />
    <glyph glyph-name="uni04F8" unicode="&#x4f8;" horiz-adv-x="1697" 
d="M1358 0v1434h112v-1434h-112zM551 772q-108 0 -211 -12v-651q7 0 81 -3.5t122 -3.5q208 0 318 89t110 260q0 155 -107 238t-313 83zM340 1434v-566q161 11 217 11q265 0 399 -112t134 -314q0 -220 -148.5 -338.5t-411.5 -118.5q-61 0 -163 2t-140 2v1434h113zM535 1647
q0 30 22 47.5t55 17.5q30 0 52 -18t22 -47q0 -32 -22 -51t-52 -19q-33 0 -55 18.5t-22 51.5zM1012 1647q0 30 23 47.5t57 17.5q29 0 50 -17.5t21 -47.5q0 -32 -21 -51t-50 -19q-34 0 -57 19t-23 51z" />
    <glyph glyph-name="uni04F9" unicode="&#x4f9;" horiz-adv-x="1271" 
d="M162 0v922h106v-310h160q365 0 365 -303q0 -64 -19 -117t-61 -97.5t-117.5 -69.5t-179.5 -25h-254zM410 512h-142v-412h140q147 0 209.5 52t62.5 155q0 101 -63.5 153t-206.5 52zM1004 0v922h106v-922h-106zM356 1225q0 30 20 48.5t50 18.5q25 0 44 -19t19 -48
q0 -31 -19.5 -51.5t-43.5 -20.5q-30 0 -50 20t-20 52zM782 1225q0 30 20 48.5t50 18.5q25 0 44 -19t19 -48q0 -31 -19.5 -51.5t-43.5 -20.5q-30 0 -50 20t-20 52z" />
    <glyph glyph-name="uni1E9E" unicode="&#x1e9e;" horiz-adv-x="1269" 
d="M1034 336q0 42 -13.5 84t-34 78t-57 77t-69.5 72t-85 72.5t-90.5 69.5t-98.5 71l278 408q-86 78 -227 78q-133 0 -215 -81t-82 -245v-1026h-113v1032q0 212 114.5 319t301.5 107q210 0 363 -156l-285 -401q91 -62 160 -119.5t135 -130.5t101.5 -155t35.5 -168
q0 -148 -103 -244t-233 -96q-107 0 -177 32t-134 90l55 86q42 -35 65.5 -52t69 -33.5t97.5 -16.5q95 0 168 68.5t73 179.5z" />
    <glyph glyph-name="uni2010" unicode="&#x2010;" horiz-adv-x="817" 
d="M174 506v100h469v-100h-469z" />
    <glyph glyph-name="uni2011" unicode="&#x2011;" horiz-adv-x="817" 
d="M174 506v100h469v-100h-469z" />
    <glyph glyph-name="figuredash" unicode="&#x2012;" horiz-adv-x="1208" 
d="M193 678v94h823v-94h-823z" />
    <glyph glyph-name="endash" unicode="&#x2013;" horiz-adv-x="1208" 
d="M193 506v94h823v-94h-823z" />
    <glyph glyph-name="emdash" unicode="&#x2014;" horiz-adv-x="1630" 
d="M193 506v94h1245v-94h-1245z" />
    <glyph glyph-name="uni2015" unicode="&#x2015;" horiz-adv-x="1630" 
d="M193 506v94h1245v-94h-1245z" />
    <glyph glyph-name="quoteleft" unicode="&#x2018;" horiz-adv-x="487" 
d="M303 1133l-88 -56q-53 57 -53 148q0 187 151 270l49 -49q-49 -30 -74.5 -82t-25.5 -115q0 -69 41 -116z" />
    <glyph glyph-name="quoteright" unicode="&#x2019;" horiz-adv-x="487" 
d="M184 1436l88 57q54 -61 54 -150q0 -187 -152 -270l-49 51q49 29 74.5 81t25.5 116q0 74 -41 115z" />
    <glyph glyph-name="quotesinglbase" unicode="&#x201a;" horiz-adv-x="487" 
d="M184 74l88 57q54 -61 54 -149q0 -99 -42 -166.5t-110 -104.5l-49 51q49 29 74.5 81t25.5 116q0 74 -41 115z" />
    <glyph glyph-name="quotedblleft" unicode="&#x201c;" horiz-adv-x="755" 
d="M571 1133l-88 -56q-53 57 -53 148q0 187 152 270l49 -49q-49 -30 -75 -82t-26 -115q0 -69 41 -116zM303 1133l-88 -56q-53 57 -53 148q0 187 151 270l49 -49q-49 -30 -74.5 -82t-25.5 -115q0 -69 41 -116z" />
    <glyph glyph-name="quotedblright" unicode="&#x201d;" horiz-adv-x="755" 
d="M453 1436l88 57q53 -60 53 -150q0 -187 -152 -270l-49 51q49 29 75 81t26 116q0 74 -41 115zM184 1436l88 57q54 -61 54 -150q0 -187 -152 -270l-49 51q49 29 74.5 81t25.5 116q0 74 -41 115z" />
    <glyph glyph-name="quotedblbase" unicode="&#x201e;" horiz-adv-x="755" 
d="M453 74l88 57q53 -60 53 -149q0 -99 -42 -166.5t-110 -104.5l-49 51q49 29 75 81t26 116q0 74 -41 115zM184 74l88 57q54 -61 54 -149q0 -99 -42 -166.5t-110 -104.5l-49 51q49 29 74.5 81t25.5 116q0 74 -41 115z" />
    <glyph glyph-name="dagger" unicode="&#x2020;" horiz-adv-x="886" 
d="M82 864v94h311v476h101v-476h311v-94h-311v-1069h-101v1069h-311z" />
    <glyph glyph-name="daggerdbl" unicode="&#x2021;" horiz-adv-x="886" 
d="M82 864v94h311v476h101v-476h311v-94h-311v-438h311v-94h-311v-537h-101v537h-311v94h311v438h-311z" />
    <glyph glyph-name="bullet" unicode="&#x2022;" horiz-adv-x="380" 
d="M70 537q0 49 35 84.5t85 35.5t85.5 -35.5t35.5 -84.5t-35.5 -85t-85.5 -36q-49 0 -84.5 35.5t-35.5 85.5z" />
    <glyph glyph-name="ellipsis" unicode="&#x2026;" horiz-adv-x="1720" 
d="M1397 78q0 29 23.5 51.5t58.5 22.5q31 0 52 -22.5t21 -51.5q0 -33 -21 -57.5t-52 -24.5q-36 0 -59 24.5t-23 57.5zM782 78q0 29 23.5 51.5t58.5 22.5q31 0 52.5 -22.5t21.5 -51.5q0 -33 -21 -57.5t-53 -24.5q-36 0 -59 24.5t-23 57.5zM168 78q0 29 23.5 51.5t58.5 22.5
q31 0 52.5 -22.5t21.5 -51.5q0 -33 -21 -57.5t-53 -24.5q-36 0 -59 24.5t-23 57.5z" />
    <glyph glyph-name="perthousand" unicode="&#x2030;" horiz-adv-x="2588" 
d="M1780 326q0 146 100 238.5t252 92.5t252 -92.5t100 -238.5q0 -147 -100 -240.5t-252 -93.5t-252 93.5t-100 240.5zM1880 326q0 -109 75 -177.5t177 -68.5q105 0 178.5 68.5t73.5 177.5q0 107 -74.5 175t-177.5 68t-177.5 -68t-74.5 -175zM309 27l1067 1425l64 -45
l-1067 -1425zM104 1110q0 146 100.5 239t252.5 93t252 -93t100 -239q0 -147 -100 -240.5t-252 -93.5t-252.5 93.5t-100.5 240.5zM205 1110q0 -109 75 -177.5t177 -68.5q105 0 178.5 68.5t73.5 177.5q0 107 -74.5 175.5t-177.5 68.5t-177.5 -68.5t-74.5 -175.5zM932 326
q0 146 100 238.5t252 92.5t252 -92.5t100 -238.5q0 -147 -100 -240.5t-252 -93.5t-252 93.5t-100 240.5zM1032 326q0 -109 75 -177.5t177 -68.5q105 0 178.5 68.5t73.5 177.5q0 107 -74.5 175t-177.5 68t-177.5 -68t-74.5 -175z" />
    <glyph glyph-name="guilsinglleft" unicode="&#x2039;" horiz-adv-x="679" 
d="M473 76l-369 432v8l373 428l70 -61l-320 -371l316 -371z" />
    <glyph glyph-name="guilsinglright" unicode="&#x203a;" horiz-adv-x="679" 
d="M575 508l-368 -432l-72 65l318 371l-320 371l70 61l372 -428v-8z" />
    <glyph glyph-name="fraction" unicode="&#x2044;" horiz-adv-x="393" 
d="M-369 27l1067 1425l64 -45l-1067 -1425z" />
    <glyph glyph-name="zerosuperior" unicode="&#x2070;" horiz-adv-x="763" 
d="M90 1075q0 162 75.5 264.5t215.5 102.5q141 0 217 -103t76 -264q0 -162 -75 -264t-216 -102q-142 0 -217.5 101t-75.5 265zM190 1075q0 -134 51 -209t142 -75q96 0 143 74t47 210q0 134 -49 209.5t-143 75.5q-93 0 -142 -76t-49 -209z" />
    <glyph glyph-name="foursuperior" unicode="&#x2074;" horiz-adv-x="690" 
d="M434 717v178h-399v59l366 480h93l-359 -463h299v207h88v-207h127v-76h-127v-178h-88z" />
    <glyph glyph-name="fivesuperior" unicode="&#x2075;" horiz-adv-x="673" 
d="M145 1073l48 361h397v-76h-332l-33 -213q54 14 103 14q120 0 193 -58.5t73 -156.5q0 -109 -77.5 -173t-194.5 -64q-191 0 -267 118l54 52q30 -44 84.5 -69.5t113.5 -25.5q83 0 135 44.5t52 113.5q0 66 -58 108t-157 42q-81 0 -134 -17z" />
    <glyph glyph-name="sixsuperior" unicode="&#x2076;" horiz-adv-x="755" 
d="M86 979q0 123 66 227t170 164.5t223 73.5l20 -66q-139 -21 -244 -107.5t-133 -223.5q30 48 90.5 80t139.5 32q118 0 188 -61t70 -160t-81 -165t-196 -66q-151 0 -232 76t-81 196zM186 967q2 -75 57.5 -130t155.5 -55q73 0 124.5 45t51.5 107q0 68 -48.5 112t-137.5 44
q-76 0 -129.5 -37.5t-73.5 -85.5z" />
    <glyph glyph-name="sevensuperior" unicode="&#x2077;" horiz-adv-x="614" 
d="M41 1352v82h530v-56l-327 -661h-105l322 635h-420z" />
    <glyph glyph-name="eightsuperior" unicode="&#x2078;" horiz-adv-x="776" 
d="M371 1120h35q60 0 105.5 36t45.5 87q0 56 -50.5 90.5t-119.5 34.5t-118.5 -34.5t-49.5 -90.5q0 -52 46.5 -87.5t105.5 -35.5zM406 1051h-31q-76 0 -130.5 -38t-54.5 -93q0 -61 56.5 -99.5t140.5 -38.5t141.5 38t57.5 100q0 60 -52 95.5t-128 35.5zM389 707
q-124 0 -208.5 53t-84.5 143q0 66 45.5 114.5t122.5 65.5v4q-60 15 -99.5 62.5t-39.5 107.5q0 83 75 135t187 52q114 0 189 -51.5t75 -135.5q0 -55 -38 -102t-107 -68v-2q77 -11 125.5 -58.5t48.5 -117.5q0 -94 -83 -148t-208 -54z" />
    <glyph glyph-name="ninesuperior" unicode="&#x2079;" horiz-adv-x="755" 
d="M668 1161q0 -195 -132 -319t-339 -135l-15 67q162 17 270 110.5t113 219.5q-28 -52 -87.5 -85.5t-139.5 -33.5q-118 0 -188 63t-70 160q0 101 80 168.5t194 67.5q153 0 233.5 -78t80.5 -205zM567 1178q-2 79 -56.5 134.5t-154.5 55.5q-73 0 -124.5 -44.5t-51.5 -106.5
q0 -68 49 -115t136 -47q78 0 131.5 37.5t70.5 85.5z" />
    <glyph glyph-name="uni207A" unicode="&#x207a;" horiz-adv-x="737" 
d="M96 1047v75h232v232h75v-232h238v-75h-238v-232h-75v232h-232z" />
    <glyph glyph-name="uni207B" unicode="&#x207b;" horiz-adv-x="737" 
d="M96 1047v75h545v-75h-545z" />
    <glyph glyph-name="uni207C" unicode="&#x207c;" horiz-adv-x="737" 
d="M96 911v76h545v-76h-545zM96 1182v75h545v-75h-545z" />
    <glyph glyph-name="uni207D" unicode="&#x207d;" horiz-adv-x="399" 
d="M379 684l-57 -55q-90 50 -151 127.5t-85.5 155.5t-24.5 159q0 121 64 236t199 204l51 -53q-219 -148 -219 -387q0 -116 58 -218t165 -169z" />
    <glyph glyph-name="uni207E" unicode="&#x207e;" horiz-adv-x="399" 
d="M20 1456l58 55q69 -38 120.5 -91.5t81 -113t44 -118.5t14.5 -119q0 -120 -64 -235.5t-198 -204.5l-51 53q219 147 219 387q0 115 -58 217t-166 170z" />
    <glyph glyph-name="zeroinferior" unicode="&#x2080;" horiz-adv-x="763" 
d="M90 358q0 162 75.5 264.5t215.5 102.5q141 0 217 -103t76 -264q0 -162 -75 -264t-216 -102q-142 0 -217.5 101t-75.5 265zM190 358q0 -134 51 -209t142 -75q96 0 143 74t47 210q0 134 -49 209.5t-143 75.5q-93 0 -142 -76t-49 -209z" />
    <glyph glyph-name="oneinferior" unicode="&#x2081;" horiz-adv-x="489" 
d="M55 584l203 137h66v-721h-95v608l-135 -90z" />
    <glyph glyph-name="twoinferior" unicode="&#x2082;" horiz-adv-x="694" 
d="M80 0v70q9 6 57 39.5t67.5 48t65.5 49.5t68.5 56.5t57 56.5t51 62t29.5 59.5t13 62.5q0 60 -39.5 99.5t-111.5 39.5q-60 0 -109.5 -34.5t-58.5 -94.5l-82 27q14 86 87 135t169 49q120 0 183 -60t63 -153q0 -203 -383 -430h422v-82h-549z" />
    <glyph glyph-name="threeinferior" unicode="&#x2083;" horiz-adv-x="700" 
d="M336 -10q-91 0 -164.5 33.5t-108.5 103.5l58 49q26 -52 83 -79t122 -27q84 0 134 38.5t50 98.5q0 54 -46.5 88.5t-121.5 34.5h-74v69h66q60 0 102.5 37.5t42.5 93.5t-41.5 86.5t-113.5 30.5q-135 0 -189 -98l-49 51q29 58 95 92.5t161 34.5q110 0 174 -48t64 -132
q0 -59 -39 -106.5t-107 -67.5v-2q82 -7 129 -56.5t47 -115.5q0 -94 -78.5 -151.5t-195.5 -57.5z" />
    <glyph glyph-name="fourinferior" unicode="&#x2084;" horiz-adv-x="690" 
d="M434 0v178h-399v60l366 479h93l-359 -463h299v207h88v-207h127v-76h-127v-178h-88z" />
    <glyph glyph-name="fiveinferior" unicode="&#x2085;" horiz-adv-x="673" 
d="M145 356l48 361h397v-76h-332l-33 -213q54 14 103 14q120 0 193 -58.5t73 -156.5q0 -109 -77.5 -173t-194.5 -64q-190 0 -267 119l54 51q30 -44 84.5 -69t113.5 -25q83 0 135 44t52 113q0 66 -58 108t-157 42q-81 0 -134 -17z" />
    <glyph glyph-name="sixinferior" unicode="&#x2086;" horiz-adv-x="755" 
d="M86 262q0 123 66 227t170 164.5t223 73.5l20 -65q-139 -21 -244 -108t-133 -224q30 48 90.5 80t139.5 32q118 0 188 -61t70 -160t-81 -165t-196 -66q-151 0 -232 76t-81 196zM186 250q2 -75 57.5 -129.5t155.5 -54.5q73 0 124.5 44.5t51.5 106.5q0 68 -48.5 112
t-137.5 44q-76 0 -129.5 -37.5t-73.5 -85.5z" />
    <glyph glyph-name="seveninferior" unicode="&#x2087;" horiz-adv-x="614" 
d="M41 635v82h530v-55l-327 -662h-105l322 635h-420z" />
    <glyph glyph-name="eightinferior" unicode="&#x2088;" horiz-adv-x="776" 
d="M371 403h35q60 0 105.5 36t45.5 87q0 56 -50.5 90.5t-119.5 34.5t-118.5 -34.5t-49.5 -90.5q0 -52 46.5 -87.5t105.5 -35.5zM406 334h-31q-76 0 -130.5 -38t-54.5 -93q0 -61 56.5 -99t140.5 -38t141.5 38t57.5 99q0 60 -52 95.5t-128 35.5zM389 -10q-124 0 -208.5 53
t-84.5 143q0 66 45.5 115t122.5 66v4q-60 15 -99.5 62.5t-39.5 107.5q0 83 75 134.5t187 51.5q114 0 189 -51.5t75 -134.5q0 -55 -38 -102t-107 -68v-2q77 -11 125.5 -58.5t48.5 -117.5q0 -94 -83 -148.5t-208 -54.5z" />
    <glyph glyph-name="nineinferior" unicode="&#x2089;" horiz-adv-x="755" 
d="M668 444q0 -195 -132 -319t-339 -135l-15 67q162 17 270 110.5t113 219.5q-28 -52 -87.5 -85.5t-139.5 -33.5q-118 0 -188 63.5t-70 160.5q0 101 80 168t194 67q153 0 233.5 -78t80.5 -205zM567 461q-2 79 -56.5 134.5t-154.5 55.5q-73 0 -124.5 -44.5t-51.5 -106.5
q0 -68 49 -115t136 -47q78 0 131.5 37.5t70.5 85.5z" />
    <glyph glyph-name="uni208A" unicode="&#x208a;" horiz-adv-x="737" 
d="M96 330v76h232v231h75v-231h238v-76h-238v-232h-75v232h-232z" />
    <glyph glyph-name="uni208B" unicode="&#x208b;" horiz-adv-x="737" 
d="M96 330v76h545v-76h-545z" />
    <glyph glyph-name="uni208C" unicode="&#x208c;" horiz-adv-x="737" 
d="M96 195v75h545v-75h-545zM96 465v76h545v-76h-545z" />
    <glyph glyph-name="uni208D" unicode="&#x208d;" horiz-adv-x="399" 
d="M379 -33l-57 -55q-90 50 -151 127.5t-85.5 155.5t-24.5 159q0 121 64 236.5t199 204.5l51 -54q-219 -148 -219 -387q0 -116 58 -218t165 -169z" />
    <glyph glyph-name="uni208E" unicode="&#x208e;" horiz-adv-x="399" 
d="M20 739l58 56q69 -38 120.5 -92t81 -113t44 -118.5t14.5 -119.5q0 -120 -64 -235.5t-198 -204.5l-51 53q219 147 219 387q0 115 -58 217t-166 170z" />
    <glyph glyph-name="Euro" unicode="&#x20ac;" horiz-adv-x="1206" 
d="M39 860l35 88h155q63 227 238 365.5t424 138.5q77 0 155 -17t125 -42l-41 -99q-102 52 -237 52q-195 0 -338.5 -107.5t-202.5 -290.5h686l-30 -88h-678q-13 -76 -13 -143q0 -48 7 -109h618l-29 -88h-571q54 -200 208.5 -316t367.5 -116q134 0 212 43l21 -104
q-33 -21 -103.5 -33t-138.5 -12q-264 0 -449.5 144t-240.5 394h-178l35 88h129q-6 52 -6 109q0 65 10 143h-170z" />
    <glyph glyph-name="uni20AE" unicode="&#x20ae;" horiz-adv-x="1206" 
d="M37 1327v107h1132v-107h-510v-397l289 145v-110l-289 -146v-252l289 146v-111l-289 -145v-457h-112v399l-287 -145v113l287 143v252l-287 -146v113l287 143v455h-510z" />
    <glyph glyph-name="uni20B4" unicode="&#x20b4;" horiz-adv-x="1228" 
d="M158 862v88h645q33 50 45.5 92.5t11.5 100.5q-1 86 -69 144.5t-166 58.5q-184 0 -301 -117l-56 80q60 69 153 106t204 37q164 0 260 -84t96 -219q0 -113 -72 -199h162v-88h-219q-54 -53 -177.5 -130.5t-172.5 -121.5h569v-88h-649q-80 -83 -80 -196q0 -114 87.5 -176
t211.5 -62q94 0 180 41t142 121l59 -74q-61 -94 -165 -144t-232 -50q-161 0 -275 88t-114 239q0 123 77 213h-155v88h221q52 50 177 128.5t175 123.5h-573z" />
    <glyph glyph-name="uni20B8" unicode="&#x20b8;" horiz-adv-x="1206" 
d="M57 987v107h1092v-107h-490v-987h-112v987h-490zM57 1346v88h1092v-88h-1092z" />
    <glyph glyph-name="uni20BA" unicode="&#x20ba;" horiz-adv-x="1206" 
d="M55 836v112l172 86v400h113v-344l403 204v-110l-403 -205v-252l403 205v-111l-403 -205v-510q49 -1 102.5 -2t81 -1.5t33.5 -0.5q103 0 182.5 21.5t133.5 64t90.5 97t56 129.5t27.5 151t8 172v4h119v-4q0 -94 -6.5 -170.5t-24.5 -155t-47 -138.5t-77 -114t-112 -88.5
t-153.5 -54.5t-200.5 -20q-51 0 -149.5 2t-157.5 2h-19v559l-172 -86v113l172 86v250z" />
    <glyph glyph-name="uni20BD" unicode="&#x20bd;" horiz-adv-x="1228" 
d="M49 649v88h230v697q40 0 174.5 2t175.5 2q510 0 510 -396q0 -177 -126.5 -285t-383.5 -108h-238v-252h371v-88h-371v-309h-112v309h-230v88h230v252h-230zM639 1331q-112 0 -248 -4v-590h234q194 0 294.5 76.5t100.5 220.5q0 297 -381 297z" />
    <glyph glyph-name="uni20BF" unicode="&#x20bf;" horiz-adv-x="1206" 
d="M227 2v1430q11 0 48.5 1t62.5 1v184h106v-180q28 0 82 1t78 1q34 0 92 -4v182h107v-203q254 -67 254 -330q0 -135 -79 -221t-200 -114v-5q158 -19 246 -107.5t88 -236.5q0 -157 -82 -252.5t-227 -132.5v-221h-107v205q-46 -6 -94 -6q-105 0 -158 2v-201h-106v203z
M612 682h-272v-573q256 -9 266 -9q188 0 290.5 77.5t102.5 230.5q0 132 -100.5 203t-286.5 71zM600 1333q-89 0 -260 -6v-545h278q138 0 232 76.5t94 204.5q0 270 -344 270z" />
    <glyph glyph-name="uni20C0" unicode="&#x20c0;" horiz-adv-x="1224" 
d="M1159 0h-1087v88h1087v-88zM1053 481l45 -84q-72 -72 -186 -110.5t-244 -38.5q-81 0 -161.5 20t-159.5 66t-139.5 113t-98 168.5t-37.5 224.5q0 145 51 264.5t135 193.5t186.5 114t210.5 40q273 0 430 -135l-53 -84q-148 113 -379 113q-89 0 -171 -33.5t-147.5 -95
t-105 -160t-39.5 -217.5q0 -103 30.5 -187.5t80 -138.5t114.5 -91.5t130 -53t131 -15.5q222 0 377 127z" />
    <glyph glyph-name="uni2116" unicode="&#x2116;" horiz-adv-x="2387" 
d="M1364 0h-90l-940 1233v-1233h-107v1434h90l940 -1237v1237h107v-1434zM1532 1016q0 146 100 239t252 93t252 -93t100 -239q0 -147 -100 -240.5t-252 -93.5t-252 93.5t-100 240.5zM1632 1016q0 -109 75 -177.5t177 -68.5q105 0 178.5 68.5t73.5 177.5q0 107 -74.5 175.5
t-177.5 68.5t-177.5 -68.5t-74.5 -175.5zM1599 444v101h570v-101h-570z" />
    <glyph glyph-name="trademark" unicode="&#x2122;" horiz-adv-x="1703" 
d="M782 788v646h92l295 -338l283 338h90v-646h-102v517l-273 -328h-4l-280 328v-517h-101zM27 1335v99h643v-99h-273v-547h-100v547h-270z" />
    <glyph glyph-name="arrowleft" unicode="&#x2190;" horiz-adv-x="1316" 
d="M662 1137l75 -74l-450 -449h948v-106h-950l452 -453l-75 -75l-580 579z" />
    <glyph glyph-name="arrowup" unicode="&#x2191;" horiz-adv-x="1320" 
d="M158 498l-76 75l577 580l580 -580l-74 -75l-452 452v-950h-107v948z" />
    <glyph glyph-name="arrowright" unicode="&#x2192;" horiz-adv-x="1316" 
d="M580 1063l75 74l580 -578l-580 -579l-75 75l452 453h-950v106h948z" />
    <glyph glyph-name="arrowdown" unicode="&#x2193;" horiz-adv-x="1320" 
d="M82 539l76 75l448 -450v948h107v-950l452 452l74 -75l-580 -580z" />
    <glyph glyph-name="partialdiff" unicode="&#x2202;" horiz-adv-x="1193" 
d="M96 416q0 140 64 259.5t180 192t258 72.5q150 0 249.5 -68.5t135.5 -158.5q0 98 -18.5 185t-61.5 168t-107 141t-162 100t-220 49l16 96q316 -15 491 -212t175 -531q0 -139 -37.5 -268t-106.5 -232t-178 -165t-242 -62q-190 0 -313 123t-123 311zM209 424
q0 -143 93.5 -242.5t242.5 -99.5q93 0 172.5 45.5t132.5 120.5t85.5 165.5t41.5 186.5q-115 240 -375 240q-164 0 -278.5 -123t-114.5 -293z" />
    <glyph glyph-name="product" unicode="&#x220f;" horiz-adv-x="1798" 
d="M1458 -410v1737h-1118v-1737h-113v1844h1344v-1844h-113z" />
    <glyph glyph-name="summation" unicode="&#x2211;" horiz-adv-x="1288" 
d="M723 512l-641 850v72h1124v-107h-962l610 -815l-616 -815h968v-107h-1124v72z" />
    <glyph glyph-name="minus" unicode="&#x2212;" horiz-adv-x="1206" 
d="M145 690v94h914v-94h-914z" />
    <glyph glyph-name="uni2215" unicode="&#x2215;" horiz-adv-x="649" 
d="M-61 -393l688 1845l84 -31l-686 -1847z" />
    <glyph glyph-name="radical" unicode="&#x221a;" horiz-adv-x="1202" 
d="M6 815v107h301l373 -742l281 1254h544v-107h-450l-307 -1339h-86l-429 827h-227z" />
    <glyph glyph-name="infinity" unicode="&#x221e;" horiz-adv-x="1511" 
d="M1112 399q-57 0 -109 18t-97 52.5t-78.5 70t-73.5 85.5q-37 -51 -67 -85.5t-72 -70t-92 -53t-107 -17.5q-74 0 -142.5 34t-115.5 104.5t-47 160.5q0 124 87.5 213.5t223.5 89.5q52 0 99 -17.5t89 -52.5t73 -69.5t71 -85.5q36 51 66.5 86t74 69.5t97.5 52t118 17.5
q133 0 212 -87t79 -224q0 -72 -32 -137t-99.5 -109.5t-157.5 -44.5zM1092 907q-86 0 -149.5 -52t-133.5 -150q39 -50 66.5 -81t65.5 -64.5t78.5 -49.5t84.5 -16q92 0 144 60.5t52 137.5q0 91 -55 153t-153 62zM424 494q46 0 85.5 15t74 46.5t58.5 61t56 77.5q-40 54 -64 83
t-60 64t-71.5 50.5t-74.5 15.5q-96 0 -156.5 -61t-60.5 -148q0 -93 67 -148.5t146 -55.5z" />
    <glyph glyph-name="integral" unicode="&#x222b;" horiz-adv-x="686" 
d="M297 -47q0 -165 -52 -260t-171 -113q-31 -4 -97 -4q-93 6 -157 55l33 86q62 -43 133 -43q110 0 157 72.5t47 210.5v1114q0 167 64.5 261.5t187.5 113.5q55 7 99 2q122 -5 207 -74l-41 -82q-74 56 -164 58q-74 3 -129 -25q-117 -59 -117 -272v-1100z" />
    <glyph glyph-name="approxequal" unicode="&#x2248;" horiz-adv-x="1206" 
d="M168 483l-51 70q131 131 262 131q56 0 122 -23.5t117.5 -51t116 -51t117.5 -23.5q96 0 190 94l45 -74q-121 -115 -237 -115q-55 0 -120.5 23.5t-116.5 51.5t-115 51.5t-115 23.5q-108 0 -215 -107zM168 836l-51 69q131 131 262 131q56 0 122 -23.5t117.5 -51t116 -51
t117.5 -23.5q96 0 190 94l45 -74q-120 -114 -237 -114q-55 0 -120.5 23.5t-116.5 51t-115 51t-115 23.5q-109 0 -215 -106z" />
    <glyph glyph-name="notequal" unicode="&#x2260;" horiz-adv-x="1206" 
d="M145 866v95h484l184 491l84 -31l-172 -460h334v-95h-369l-96 -258h465v-94h-500l-197 -532l-86 30l187 502h-318v94h353l96 258h-449z" />
    <glyph glyph-name="lessequal" unicode="&#x2264;" horiz-adv-x="1206" 
d="M131 543v102l860 -534v-105zM991 358l-860 537v45l860 533v-117l-710 -438l710 -443v-117z" />
    <glyph glyph-name="greaterequal" unicode="&#x2265;" horiz-adv-x="1206" 
d="M1073 645v-102l-858 -537v105zM1073 895l-858 -537v117l711 443l-711 438v117l858 -533v-45z" />
    <glyph glyph-name="angleleft" unicode="&#x2329;" horiz-adv-x="792" 
d="M659 1434l-434 -717l434 -717h-122l-435 713v8l435 713h122z" />
    <glyph glyph-name="angleright" unicode="&#x232a;" horiz-adv-x="792" 
d="M567 717l-434 717h123l434 -713v-8l-434 -713h-123z" />
    <glyph glyph-name="lozenge" unicode="&#x25ca;" horiz-adv-x="962" 
d="M440 -12l-342 522l344 549h80l342 -527l-344 -544h-80zM207 512l274 -420l275 440l-275 418z" />
    <glyph glyph-name="spade" unicode="&#x2660;" horiz-adv-x="1294" 
d="M647 1044q112 -70 230.5 -181.5t206 -239t87.5 -215.5q0 -87 -60.5 -150t-178.5 -63q-163 0 -268 147q28 -119 79 -203.5t140 -138.5h-471q150 107 215 336q-103 -141 -265 -141q-118 0 -178.5 63.5t-60.5 151.5q0 66 51.5 157t130 179t169.5 167.5t173 130.5z" />
    <glyph glyph-name="club" unicode="&#x2663;" horiz-adv-x="1253" 
d="M362 780q0 109 78 186.5t187 77.5t186.5 -77.5t77.5 -186.5q0 -15 -4 -39q102 -8 172.5 -83.5t70.5 -178.5q0 -109 -77.5 -186.5t-186.5 -77.5q-65 0 -121 29.5t-92 79.5q64 -236 209 -324h-471q130 92 205 319q-37 -46 -93 -75t-116 -29q-109 0 -186.5 77.5t-77.5 186.5
q0 103 70.5 178.5t171.5 83.5q-3 18 -3 39z" />
    <glyph glyph-name="heart" unicode="&#x2665;" horiz-adv-x="1329" 
d="M666 0q-86 65 -179 158.5t-175.5 197.5t-135.5 212.5t-53 189.5q0 51 14.5 97t43.5 84.5t78 61.5t112 23q182 0 295 -213q109 213 292 213q83 0 141 -40t82.5 -98t24.5 -126q0 -82 -53 -191t-135 -213t-174 -197.5t-178 -158.5z" />
    <glyph glyph-name="diamond" unicode="&#x2666;" horiz-adv-x="1193" 
d="M1071 510q-222 -222 -475 -549q-213 280 -473 549q221 231 473 551q256 -324 475 -551z" />
    <glyph glyph-name="uniF350" unicode="&#xf350;" horiz-adv-x="1175" 
d="M35 0l506 1083h94l506 -1083h-121l-158 342h-555l-157 -342h-115zM584 944l-230 -498h459z" />
    <glyph glyph-name="uniF351" unicode="&#xf351;" horiz-adv-x="1038" 
d="M182 0v1075h670v-106h-557v-330q84 8 201 8q207 0 314.5 -81t107.5 -232q0 -168 -117.5 -254t-329.5 -86q-61 0 -160.5 3t-128.5 3zM485 543q-99 0 -190 -8v-431q24 0 87 -2t101 -2q322 0 322 230q0 102 -79.5 157.5t-240.5 55.5z" />
    <glyph glyph-name="uniF352" unicode="&#xf352;" horiz-adv-x="1048" 
d="M182 2v1071q252 8 330 8q198 0 285.5 -72.5t87.5 -193.5q0 -100 -62.5 -167t-160.5 -87v-2q129 -14 197.5 -78.5t68.5 -175.5q0 -156 -115 -233.5t-305 -77.5t-326 8zM522 498h-227v-389q194 -9 219 -9q144 0 222.5 52.5t78.5 156.5q0 91 -76 140t-217 49zM510 975
q-80 0 -215 -6v-371h229q105 0 176.5 51.5t71.5 138.5q0 187 -262 187z" />
    <glyph glyph-name="uniF353" unicode="&#xf353;" horiz-adv-x="851" 
d="M182 0v1075h658v-106h-545v-969h-113z" />
    <glyph glyph-name="uniF354" unicode="&#xf354;" horiz-adv-x="1245" 
d="M27 -203v309h127q22 26 48 79t57.5 142t56.5 229.5t34 303.5l12 215h670v-969h158v-309h-107v203h-950v-203h-106zM457 786q-11 -148 -34.5 -274.5t-51 -206.5t-50.5 -128.5t-42 -70.5h641v863h-449z" />
    <glyph glyph-name="uniF355" unicode="&#xf355;" horiz-adv-x="985" 
d="M182 0v1075h664v-106h-551v-371h502v-106h-502v-386h567v-106h-680z" />
    <glyph glyph-name="uniF356" unicode="&#xf356;" horiz-adv-x="1548" 
d="M1487 1075l-486 -510l504 -565h-137l-491 561l473 514h137zM719 0v1075h112v-1075h-112zM547 561l-484 514h138l475 -514l-494 -561h-137z" />
    <glyph glyph-name="uniF357" unicode="&#xf357;" horiz-adv-x="978" 
d="M457 -16q-120 0 -228.5 49t-156.5 117l63 73q56 -61 145 -97t175 -36q137 0 213.5 59t76.5 160q0 86 -62.5 136.5t-176.5 50.5h-160v104h150q79 0 141.5 57.5t62.5 139.5q0 89 -64 137.5t-167 48.5q-184 0 -299 -121l-66 74q60 72 155 113t210 41q155 0 249.5 -76
t94.5 -209q0 -79 -44 -147.5t-124 -98.5v-6q99 -13 156 -85.5t57 -168.5q0 -146 -111.5 -230.5t-289.5 -84.5z" />
    <glyph glyph-name="uniF358" unicode="&#xf358;" horiz-adv-x="1331" 
d="M283 0h-101v1075h113v-897l754 897h100v-1075h-113v897z" />
    <glyph glyph-name="uniF359" unicode="&#xf359;" horiz-adv-x="1331" 
d="M283 0h-101v1075h113v-897l754 897h100v-1075h-113v897zM375 1360h100q0 -74 50 -114t137 -40q83 0 130.5 40t47.5 114h100q0 -111 -76 -173.5t-202 -62.5q-137 0 -212 62t-75 174z" />
    <glyph glyph-name="uniF35A" unicode="&#xf35a;" horiz-adv-x="1083" 
d="M1018 1075l-539 -506l561 -569h-153l-547 561l530 514h148zM182 0v1075h113v-1075h-113z" />
    <glyph glyph-name="uniF35B" unicode="&#xf35b;" horiz-adv-x="1210" 
d="M918 0v969h-467l-19 -203q-13 -147 -33 -263.5t-43 -197.5t-52.5 -139.5t-58.5 -91.5t-64.5 -51t-67.5 -22.5t-70 -0.5l2 109q21 -2 39 1.5t43.5 20t47 46t46 86t43.5 134.5t37 196.5t29 266.5l16 215h684v-1075h-112z" />
    <glyph glyph-name="uniF35C" unicode="&#xf35c;" horiz-adv-x="1482" 
d="M182 0v1075h115l457 -565l438 565h108v-1075h-112v905l-434 -553h-17l-442 547v-899h-113z" />
    <glyph glyph-name="uniF35D" unicode="&#xf35d;" horiz-adv-x="1296" 
d="M1001 0v496h-706v-496h-113v1075h113v-473h706v473h113v-1075h-113z" />
    <glyph glyph-name="uniF35E" unicode="&#xf35e;" horiz-adv-x="1331" 
d="M88 537q0 115 43.5 217.5t119 176t183.5 116.5t232 43q163 0 295 -70t207 -197t75 -286q0 -156 -75 -283t-207 -198.5t-295 -71.5q-164 0 -295.5 69.5t-207 196.5t-75.5 287zM207 537q0 -190 132.5 -318.5t326.5 -128.5q202 0 330 127t128 320q0 192 -131.5 319
t-326.5 127q-196 0 -327.5 -126.5t-131.5 -319.5z" />
    <glyph glyph-name="uniF35F" unicode="&#xf35f;" horiz-adv-x="1294" 
d="M999 0v969h-704v-969h-113v1075h930v-1075h-113z" />
    <glyph glyph-name="uniF360" unicode="&#xf360;" horiz-adv-x="985" 
d="M295 0h-113v1075q31 0 144 2t149 2q118 0 203.5 -28t131.5 -77.5t66.5 -107t20.5 -127.5q0 -147 -105.5 -245.5t-310.5 -98.5q-91 0 -186 6v-401zM485 973q-96 0 -190 -4v-459q122 -8 180 -8q148 0 225.5 64.5t77.5 172.5t-71 171t-222 63z" />
    <glyph glyph-name="uniF361" unicode="&#xf361;" horiz-adv-x="1095" 
d="M991 188l45 -86q-59 -55 -158.5 -86.5t-205.5 -31.5q-263 0 -423.5 151t-160.5 402q0 153 66.5 277.5t198 200t306.5 75.5q211 0 355 -103l-53 -84q-129 80 -302 80q-202 0 -327 -124.5t-125 -321.5q0 -201 130.5 -324t342.5 -123q179 0 311 98z" />
    <glyph glyph-name="uniF362" unicode="&#xf362;" horiz-adv-x="991" 
d="M16 969v106h959v-106h-424v-969h-113v969h-422z" />
    <glyph glyph-name="uniF363" unicode="&#xf363;" horiz-adv-x="1085" 
d="M1061 1075l-406 -827q-62 -129 -127 -188.5t-153 -59.5q-76 0 -129 37l41 96q50 -29 92 -29q50 0 84.5 34t66.5 95l23 39l-526 803h139l444 -690l334 690h117z" />
    <glyph glyph-name="uniF364" unicode="&#xf364;" horiz-adv-x="1388" 
d="M635 -12v129h-4q-254 0 -406.5 115t-152.5 321q0 204 152 319t411 117v98h113v-98h2q262 0 414.5 -114t152.5 -322q0 -204 -153.5 -320t-405.5 -116h-10v-129h-113zM752 887h-4v-668h8q202 0 322 88t120 246q0 153 -120 243.5t-326 90.5zM190 553q0 -155 121 -244.5
t320 -89.5h4v668h-2q-202 0 -322.5 -91.5t-120.5 -242.5z" />
    <glyph glyph-name="uniF365" unicode="&#xf365;" horiz-adv-x="1103" 
d="M1047 1075l-422 -528l438 -547h-139l-373 461l-371 -461h-139l438 547l-420 528h140l354 -442l354 442h140z" />
    <glyph glyph-name="uniF366" unicode="&#xf366;" horiz-adv-x="1310" 
d="M182 0v1075h113v-969h690v969h113v-969h157v-309h-104v203h-969z" />
    <glyph glyph-name="uniF367" unicode="&#xf367;" horiz-adv-x="1077" 
d="M895 1075v-1075h-113v479q-54 -35 -140 -60.5t-181 -25.5q-73 0 -135 19t-112.5 58.5t-79 107.5t-28.5 159v338h113v-303q0 -137 70.5 -204.5t193.5 -67.5q157 0 299 84v491h113z" />
    <glyph glyph-name="uniF368" unicode="&#xf368;" horiz-adv-x="1660" 
d="M182 0v1075h113v-969h477v969h113v-969h481v969h113v-1075h-1297z" />
    <glyph glyph-name="uniF369" unicode="&#xf369;" horiz-adv-x="1691" 
d="M182 0v1075h113v-969h477v969h113v-969h481v969h113v-969h157v-309h-106v203h-1348z" />
    <glyph glyph-name="uniF36A" unicode="&#xf36a;" horiz-adv-x="1114" 
d="M6 969v106h402v-407q105 6 180 6q220 0 329 -85.5t109 -242.5q0 -167 -123 -258.5t-342 -91.5q-53 0 -144.5 2t-121.5 2v969h-289zM580 567q-73 0 -172 -6v-455q98 -4 174 -4q156 0 240.5 61t84.5 181q0 109 -83 166t-244 57z" />
    <glyph glyph-name="uniF36B" unicode="&#xf36b;" horiz-adv-x="1396" 
d="M1102 0v1075h112v-1075h-112zM457 567q-67 0 -162 -6v-455q98 -4 156 -4q159 0 242 61.5t83 180.5q0 108 -81.5 165.5t-237.5 57.5zM295 1075v-407q102 6 168 6q216 0 324 -86t108 -242q0 -166 -121.5 -258t-335.5 -92q-53 0 -139.5 2t-116.5 2v1075h113z" />
    <glyph glyph-name="uniF36C" unicode="&#xf36c;" horiz-adv-x="1001" 
d="M465 567q-75 0 -170 -6v-455q23 0 78 -2t86 -2q162 0 249 61t87 181q0 109 -84 166t-246 57zM295 1075v-407q102 6 178 6q221 0 330.5 -86t109.5 -242q0 -166 -124 -258t-343 -92q-52 0 -143 2t-121 2v1075h113z" />
    <glyph glyph-name="uniF36D" unicode="&#xf36d;" horiz-adv-x="1134" 
d="M328 496v106h602q-19 180 -144 280.5t-329 100.5q-203 0 -326 -88l-47 84q66 53 165.5 82t211.5 29q263 0 424.5 -149.5t161.5 -399.5q0 -246 -162.5 -400.5t-431.5 -154.5q-235 0 -387 112l49 92q148 -98 350 -98q199 0 325.5 109.5t141.5 294.5h-604z" />
    <glyph glyph-name="uniF36E" unicode="&#xf36e;" horiz-adv-x="1773" 
d="M182 0v1075h113v-473h280q21 213 170.5 350.5t378.5 137.5q251 0 406.5 -153.5t155.5 -397.5q0 -241 -156 -397t-406 -156q-152 0 -274.5 64t-195 180t-81.5 266h-278v-496h-113zM690 539q0 -194 122 -320.5t314 -126.5q198 0 319.5 126.5t121.5 320.5q0 195 -123 319.5
t-318 124.5q-192 0 -314 -125t-122 -319z" />
    <glyph glyph-name="uniF36F" unicode="&#xf36f;" horiz-adv-x="1052" 
d="M758 0v401h-262l-314 -401h-133l330 420q-101 37 -169.5 116.5t-68.5 188.5q0 155 112.5 255.5t328.5 100.5q55 0 156.5 -3t131.5 -3v-1075h-112zM483 508h275v461q-135 6 -189 6q-151 0 -230 -69t-79 -175q0 -84 67 -147t156 -76z" />
    <glyph glyph-name="uniF371" unicode="&#xf371;" horiz-adv-x="985" 
d="M182 0v1075h664v-106h-551v-371h502v-106h-502v-386h567v-106h-680zM262 1354q0 27 20 45t48 18q24 0 43.5 -18t19.5 -45q0 -30 -19.5 -49t-43.5 -19q-28 0 -48 19t-20 49zM623 1354q0 27 19.5 45t47.5 18q26 0 45 -18t19 -45q0 -30 -19 -49t-45 -19q-28 0 -47.5 19
t-19.5 49z" />
    <glyph glyph-name="uniF372" unicode="&#xf372;" horiz-adv-x="1269" 
d="M1182 319q0 -172 -76 -252.5t-209 -80.5q-50 0 -97.5 17.5t-68.5 35.5l41 88q49 -35 113 -35q184 0 184 223q0 234 -254 234q-31 0 -61.5 -4.5t-50 -9t-47.5 -16.5t-37 -16.5t-37.5 -20.5t-30.5 -17v-465h-113v969h-422v106h959v-106h-424v-394q51 26 77.5 38t86 27
t121.5 15q160 0 253 -80.5t93 -255.5z" />
    <glyph glyph-name="uniF373" unicode="&#xf373;" horiz-adv-x="851" 
d="M182 0v1075h658v-106h-545v-969h-113zM713 1473l-256 -269l-56 58l246 290z" />
    <glyph glyph-name="uniF374" unicode="&#xf374;" horiz-adv-x="1134" 
d="M805 600v-106h-604q15 -189 148 -295.5t341 -106.5q183 0 334 98l45 -92q-152 -112 -379 -112q-271 0 -436.5 150.5t-165.5 402.5q0 243 161.5 397t422.5 154q114 0 213 -29t164 -82l-52 -84q-123 88 -319 88q-211 0 -333.5 -103t-141.5 -280h602z" />
    <glyph glyph-name="uniF375" unicode="&#xf375;" horiz-adv-x="968" 
d="M760 279q0 56 -35.5 97.5t-92 66.5t-125 47t-137.5 47t-125.5 57.5t-92 87.5t-35.5 129q0 122 97.5 200.5t283.5 78.5q96 0 199 -35.5t153 -89.5l-53 -84q-53 47 -139.5 74.5t-165.5 27.5q-118 0 -187 -48t-69 -128q0 -47 27.5 -83.5t73 -58t103.5 -43t118.5 -38.5
t118.5 -44t103.5 -59.5t73 -86t27.5 -122.5q0 -129 -109.5 -208.5t-271.5 -79.5q-132 0 -245.5 43t-172.5 114l65 78q60 -59 154.5 -94t204.5 -35q102 0 178 50.5t76 138.5z" />
    <glyph glyph-name="uniF376" unicode="&#xf376;" horiz-adv-x="548" 
d="M217 0v1075h113v-1075h-113z" />
    <glyph glyph-name="uniF377" unicode="&#xf377;" horiz-adv-x="569" 
d="M92 1352q0 27 18.5 44t45.5 17q24 0 41.5 -17t17.5 -44q0 -28 -17.5 -46t-41.5 -18q-27 0 -45.5 17.5t-18.5 46.5zM356 1352q0 27 19.5 44t46.5 17q23 0 41 -17t18 -44q0 -28 -18 -46t-41 -18q-27 0 -46.5 18t-19.5 46zM227 0v1075h113v-1075h-113z" />
    <glyph glyph-name="uniF378" unicode="&#xf378;" horiz-adv-x="612" 
d="M430 1075v-833q0 -256 -242 -256q-52 0 -97.5 15.5t-70.5 37.5l39 88q52 -35 113 -35q83 0 114 43.5t31 122.5v817h113z" />
    <glyph glyph-name="uniF379" unicode="&#xf379;" horiz-adv-x="1716" 
d="M918 0v969h-465l-21 -203q-14 -147 -34 -263.5t-43 -197.5t-52.5 -139.5t-58 -91.5t-64 -51t-67.5 -22.5t-70 -0.5l2 113q21 -2 39 1.5t43.5 19.5t47 45t46 85.5t43.5 133.5t37 195.5t29 266.5l16 215h684v-407q99 6 166 6q216 0 324 -86t108 -242q0 -168 -121 -259
t-338 -91q-51 0 -136 2t-115 2zM1190 567q-66 0 -160 -6v-455q20 0 71 -2t83 -2q159 0 242 61.5t83 180.5q0 108 -81.5 165.5t-237.5 57.5z" />
    <glyph glyph-name="uniF37A" unicode="&#xf37a;" horiz-adv-x="1785" 
d="M182 0v1075h113v-436h690v436h113v-430q102 6 166 6q216 0 325 -82.5t109 -232.5q0 -163 -121.5 -251.5t-337.5 -88.5q-52 0 -138.5 2t-115.5 2v532h-690v-532h-113zM1098 539v-433q22 0 71.5 -2t81.5 -2q160 0 244 59t84 173q0 102 -83 157.5t-239 55.5q-75 0 -159 -8z
" />
    <glyph glyph-name="uniF37B" unicode="&#xf37b;" horiz-adv-x="1269" 
d="M16 969v106h959v-106h-424v-402q51 35 129 58.5t166 23.5q73 0 132.5 -19t106 -59t72 -107.5t25.5 -158.5v-305h-113v279q0 134 -64 199t-184 65q-138 0 -270 -80v-463h-113v969h-422z" />
    <glyph glyph-name="uniF37C" unicode="&#xf37c;" horiz-adv-x="1083" 
d="M1018 1075l-539 -506l561 -569h-153l-547 561l530 514h148zM182 0v1075h113v-1075h-113zM766 1473l-256 -269l-55 58l245 290z" />
    <glyph glyph-name="uniF37E" unicode="&#xf37e;" horiz-adv-x="1085" 
d="M1061 1075l-406 -827q-62 -129 -127 -188.5t-153 -59.5q-76 0 -129 37l41 96q50 -29 92 -29q50 0 84.5 34t66.5 95l23 39l-526 803h139l444 -690l334 690h117zM274 1360h101q0 -74 49.5 -114t136.5 -40q83 0 130.5 40t47.5 114h101q0 -111 -76 -173.5t-203 -62.5
q-137 0 -212 62t-75 174z" />
    <glyph glyph-name="uniF37F" unicode="&#xf37f;" horiz-adv-x="1277" 
d="M182 0v1075h113v-969h688v969h113v-1075h-404v-240h-106v240h-404z" />
    <glyph glyph-name="uniF381" unicode="&#xf381;" horiz-adv-x="1036" 
d="M6 811v94h211v170h113v-170h278v-94h-278v-168q102 6 178 6q440 0 440 -315q0 -165 -123 -251.5t-344 -86.5q-51 0 -142 2t-122 2v811h-211zM500 549q-76 0 -170 -6v-443q23 0 78 -2t86 -2q162 0 248.5 59.5t86.5 176.5q0 106 -83.5 161.5t-245.5 55.5z" />
    <glyph glyph-name="uniF389" unicode="&#xf389;" horiz-adv-x="1331" 
d="M88 537q0 115 43.5 217.5t119 176t183.5 116.5t232 43q163 0 295 -70t207 -197t75 -286q0 -156 -75 -283t-207 -198.5t-295 -71.5q-164 0 -295.5 69.5t-207 196.5t-75.5 287zM428 582q-114 0 -219 -97q19 -172 147.5 -283.5t309.5 -111.5q185 0 309 107.5t145 277.5
q-105 -78 -205 -78q-62 0 -131 29t-119.5 63.5t-115.5 63.5t-121 29zM926 498q47 0 100 23t96 63q-17 175 -145.5 287t-310.5 112q-179 0 -306 -108t-149 -277q107 84 221 84q65 0 135 -29t120.5 -63t116 -63t122.5 -29z" />
    <glyph glyph-name="uniF38A" unicode="&#xf38a;" horiz-adv-x="1095" 
d="M909 780l-313 -788h-82l-500 1083h127l418 -925l258 677q53 139 108 199.5t132 60.5q42 0 88 -14v-92q-75 27 -129.5 -23t-106.5 -178z" />
    <glyph glyph-name="uniF393" unicode="&#xf393;" horiz-adv-x="858" 
d="M182 0v1075h557v197h107v-303h-551v-969h-113z" />
    <glyph glyph-name="uniF394" unicode="&#xf394;" horiz-adv-x="880" 
d="M211 0v465h-195v100h195v510h657v-106h-544v-404h346v-100h-346v-465h-113z" />
    <glyph glyph-name="uniF395" unicode="&#xf395;" horiz-adv-x="1013" 
d="M182 0v1075h658v-106h-545v-394q51 26 77.5 38t86 27t121.5 15q160 0 253 -81.5t93 -256.5v-405q0 -173 -76 -255.5t-209 -82.5q-50 0 -97.5 17.5t-68.5 35.5l41 88q47 -34 113 -34q184 0 184 223v407q0 238 -254 238q-31 0 -61.5 -4.5t-50 -9t-47.5 -16.5t-37 -16.5
t-37.5 -20.5t-30.5 -17v-465h-113z" />
    <glyph glyph-name="uniF396" unicode="&#xf396;" horiz-adv-x="1558" 
d="M1487 1075l-486 -510l408 -459h137v-309h-104v203h-74l-491 561l473 514h137zM547 561l-484 514h138l475 -514l-494 -561h-137zM719 0v1075h112v-1075h-112z" />
    <glyph glyph-name="uniF397" unicode="&#xf397;" horiz-adv-x="978" 
d="M520 -240h-106v226q-110 9 -205 55.5t-137 108.5l63 73q56 -61 145 -97t175 -36q137 0 213.5 59t76.5 160q0 86 -62.5 136.5t-176.5 50.5h-160v104h150q79 0 141.5 57.5t62.5 139.5q0 89 -64 137.5t-167 48.5q-184 0 -299 -121l-66 74q60 72 155 113t210 41
q155 0 249.5 -76t94.5 -209q0 -79 -44 -147.5t-124 -98.5v-6q99 -13 156 -85.5t57 -168.5q0 -132 -92.5 -214.5t-245.5 -96.5v-228z" />
    <glyph glyph-name="uniF398" unicode="&#xf398;" horiz-adv-x="1083" 
d="M1018 1075l-539 -506l455 -463h137v-309h-104v203h-80l-547 561l530 514h148zM182 0v1075h113v-1075h-113z" />
    <glyph glyph-name="uniF399" unicode="&#xf399;" horiz-adv-x="1107" 
d="M1042 1075l-538 -506l561 -569h-154l-415 426v-178h-105v614h105v-174l399 387h147zM182 0v1075h113v-1075h-113z" />
    <glyph glyph-name="uniF39B" unicode="&#xf39b;" horiz-adv-x="1236" 
d="M1171 1075l-538 -506l561 -569h-154l-546 561l530 514h147zM6 969v106h443v-1075h-113v969h-330z" />
    <glyph glyph-name="uniF39C" unicode="&#xf39c;" horiz-adv-x="1327" 
d="M1001 0v496h-706v-496h-113v1075h113v-473h706v473h113v-969h158v-309h-105v203h-166z" />
    <glyph glyph-name="uniF39D" unicode="&#xf39d;" horiz-adv-x="1640" 
d="M981 0v496h-686v-496h-113v1075h113v-473h686v473h647v-106h-534v-969h-113z" />
    <glyph glyph-name="uniF3A0" unicode="&#xf3a0;" horiz-adv-x="1095" 
d="M991 188l45 -86q-51 -48 -134 -78t-177 -38v-226h-107v226q-242 15 -386 164t-144 387q0 153 66.5 277.5t198 200t306.5 75.5q211 0 355 -103l-53 -84q-129 80 -302 80q-202 0 -327 -124.5t-125 -321.5q0 -201 130.5 -324t342.5 -123q179 0 311 98z" />
    <glyph glyph-name="uniF3A2" unicode="&#xf3a2;" horiz-adv-x="989" 
d="M969 1075l-420 -610v-465h-113v465l-416 610h138l340 -504l342 504h129z" />
    <glyph glyph-name="uniF3A3" unicode="&#xf3a3;" horiz-adv-x="989" 
d="M969 1075l-371 -538h248v-101h-297v-436h-113v436h-293v101h244l-367 538h138l340 -504l342 504h129z" />
    <glyph glyph-name="uniF3A4" unicode="&#xf3a4;" horiz-adv-x="1124" 
d="M1047 1075l-422 -528l352 -441h137v-309h-104v203h-86l-373 461l-371 -461h-139l438 547l-420 528h140l354 -442l354 442h140z" />
    <glyph glyph-name="uniF3A6" unicode="&#xf3a6;" horiz-adv-x="1107" 
d="M895 1075v-969h158v-309h-105v203h-166v479q-54 -35 -140 -60.5t-181 -25.5q-73 0 -135 19t-112.5 58.5t-79 107.5t-28.5 159v338h113v-303q0 -137 70.5 -204.5t193.5 -67.5q157 0 299 84v491h113z" />
    <glyph glyph-name="uniF3A7" unicode="&#xf3a7;" horiz-adv-x="1077" 
d="M895 1075v-1075h-113v479q-77 -51 -215 -69v-224h-112v217q-73 1 -133.5 19t-110 55.5t-77.5 103.5t-28 156v338h113v-303q0 -249 236 -262v270h112v-266q128 17 215 70v491h113z" />
    <glyph glyph-name="uniF3A8" unicode="&#xf3a8;" horiz-adv-x="1058" 
d="M182 1075h113v-508q122 82 321 82q74 0 135.5 -18.5t112 -57.5t79 -107.5t28.5 -160.5v-305h-113v279q0 135 -71.5 199.5t-194.5 64.5q-73 0 -134 -13.5t-92.5 -28t-70.5 -38.5v-463h-113v1075z" />
    <glyph glyph-name="uniF3B0" unicode="&#xf3b0;" horiz-adv-x="1077" 
d="M895 1075v-1075h-166v-203h-104v309h157v373q-54 -35 -140 -60.5t-181 -25.5q-73 0 -135 19t-112.5 58.5t-79 107.5t-28.5 159v338h113v-303q0 -137 70.5 -204.5t193.5 -67.5q157 0 299 84v491h113z" />
    <glyph glyph-name="uniF3B2" unicode="&#xf3b2;" horiz-adv-x="1175" 
d="M35 0l506 1083h94l506 -1083h-121l-158 342h-555l-157 -342h-115zM584 944l-230 -498h459zM305 1360h101q0 -74 49.5 -114t136.5 -40q83 0 130.5 40t47.5 114h100q0 -111 -76 -173.5t-202 -62.5q-137 0 -212 62t-75 174z" />
    <glyph glyph-name="uniF3B3" unicode="&#xf3b3;" horiz-adv-x="1175" 
d="M35 0l506 1083h94l506 -1083h-121l-158 342h-555l-157 -342h-115zM584 944l-230 -498h459zM342 1354q0 27 20 45t48 18q24 0 43.5 -18t19.5 -45q0 -30 -19.5 -49t-43.5 -19q-28 0 -48 19t-20 49zM702 1354q0 27 20 45t48 18q26 0 45 -18t19 -45q0 -30 -19 -49t-45 -19
q-28 0 -48 19t-20 49z" />
    </font>
</defs>
</svg>
