<?xml version="1.0" standalone="no"?>
<!DOCTYPE svg PUBLIC "-//W3C//DTD SVG 1.1//EN" "http://www.w3.org/Graphics/SVG/1.1/DTD/svg11.dtd" >
<svg xmlns="http://www.w3.org/2000/svg" xmlns:xlink="http://www.w3.org/1999/xlink" version="1.1">
<metadata>
Created by FontForge 20170731 at Wed Mar 15 10:29:08 2023
 By Aleksey,,,
Copyright (c) 2011 Paratype, Inc., ParaType Ltd. All rights reserved.
</metadata>
<defs>
<font id="Circe-Italic" horiz-adv-x="1212" >
  <font-face 
    font-family="Circe"
    font-weight="400"
    font-style="italic"
    font-stretch="normal"
    units-per-em="2048"
    panose-1="2 11 5 2 2 2 3 9 2 3"
    ascent="1583"
    descent="-465"
    x-height="922"
    cap-height="1434"
    bbox="-1018 -803 3258 2058"
    underline-thickness="102"
    underline-position="-307"
    slope="-10"
    unicode-range="U+0020-FEFF"
  />
<missing-glyph horiz-adv-x="460" 
 />
    <glyph glyph-name="uniF350.var.accented" unicode="&#xf350;`" horiz-adv-x="1208" 
d="M25 0l694 1081h151l314 -1081h-176l-80 287h-535l-180 -287h-188zM764 872l-268 -421h387zM1098 1444l-277 -256l-82 90l258 291z" />
    <glyph glyph-name="uniF355.var.accented" unicode="&#xf355;`" horiz-adv-x="999" 
d="M172 0l190 1075h697l-31 -164h-518l-49 -286h467l-29 -164h-467l-53 -297h534l-28 -164h-713zM977 1444l-277 -256l-82 90l259 291z" />
    <glyph glyph-name="uniF358.var.accented" unicode="&#xf358;`" horiz-adv-x="1343" 
d="M326 0h-154l190 1075h177l-136 -770l805 770h154l-191 -1075h-176l138 776zM1120 1444l-276 -256l-82 90l258 291z" />
    <glyph glyph-name="uniF35E.var.accented" unicode="&#xf35e;`" horiz-adv-x="1341" 
d="M166 481q0 124 42.5 233.5t122 193.5t203 133t275.5 49q158 0 284 -60t198.5 -172t72.5 -258q0 -274 -175.5 -446t-459.5 -172q-259 0 -411 138t-152 361zM354 487q0 -152 100 -247t281 -95q137 0 239 61t152 160.5t50 223.5q0 146 -101 241t-272 95q-202 0 -325.5 -121
t-123.5 -318zM1143 1444l-277 -256l-82 90l258 291z" />
    <glyph glyph-name="uniF363.var.accented" unicode="&#xf363;`" horiz-adv-x="1118" 
d="M1288 1075l-540 -821q-34 -52 -54.5 -80t-55 -66.5t-64 -58t-72 -34.5t-90.5 -15q-90 0 -158 45l80 141q36 -24 86 -24q80 0 143 98l27 41l-377 774h201l286 -608l398 608h190zM1038 1444l-276 -256l-82 90l258 291z" />
    <glyph glyph-name="uniF36B.var.accented" unicode="&#xf36b;`" horiz-adv-x="1445" 
d="M1096 0l190 1075h178l-190 -1075h-178zM573 543q-47 0 -129 -6l-65 -373q82 -4 123 -4q149 0 227 58.5t78 168.5q0 76 -60 116t-174 40zM541 1075l-68 -375q103 7 131 7q174 0 282.5 -80.5t108.5 -218.5q0 -106 -40.5 -187t-111 -129t-158.5 -72t-191 -24q-83 0 -190 2
t-132 2l190 1075h179zM1141 1444l-277 -256l-82 90l258 291z" />
    <glyph glyph-name="uniF36D.var.accented" unicode="&#xf36d;`" horiz-adv-x="1140" 
d="M393 467l29 164h557q-16 146 -100.5 221.5t-251.5 75.5q-103 0 -179.5 -19t-146.5 -63l-61 129q74 52 182 84.5t219 32.5q239 0 381.5 -129t142.5 -334q0 -192 -76 -337t-225.5 -226.5t-355.5 -81.5q-144 0 -243 35t-185 108l106 137q73 -58 149 -87.5t179 -29.5
q191 0 300.5 85t146.5 235h-568zM936 1444l-277 -256l-81 90l258 291z" />
    <glyph glyph-name="uniF36E.var.accented" unicode="&#xf36e;`" horiz-adv-x="1783" 
d="M172 0l190 1075h179l-80 -444h211q30 141 121.5 247.5t217.5 160t267 53.5q126 0 229 -43.5t167.5 -114.5t99 -158t34.5 -178q0 -176 -73.5 -314t-216.5 -219t-334 -81q-126 0 -229 42t-167 111.5t-98.5 154.5t-34.5 175h-223l-82 -467h-178zM842 481q0 -143 96 -238.5
t258 -95.5q131 0 229.5 63t146.5 162t48 218q0 149 -100.5 243.5t-249.5 94.5q-190 0 -309 -125t-119 -322zM1327 1444l-276 -256l-82 90l258 291z" />
    <glyph glyph-name="uniF36F.var.accented" unicode="&#xf36f;`" horiz-adv-x="1093" 
d="M745 0l66 369h-211l-311 -369h-223l354 410q-75 37 -122.5 100.5t-47.5 151.5q0 190 132 304.5t372 114.5q85 0 209 -3t149 -3l-190 -1075h-177zM594 532h246l65 379q-115 7 -166 7q-141 0 -220 -64.5t-79 -159.5q0 -67 40 -108.5t114 -53.5zM1038 1444l-276 -256l-82 90
l258 291z" />
    <glyph glyph-name="uniF371.var.accented" unicode="&#xf371;`" horiz-adv-x="999" 
d="M406 1323q0 46 35 75t81 29q30 0 52 -21t22 -54q0 -47 -33.5 -77t-73.5 -30q-36 0 -59.5 21t-23.5 57zM913 1323q0 45 34.5 74.5t78.5 29.5q33 0 54.5 -20t21.5 -53q0 -49 -33.5 -79t-75.5 -30q-34 0 -57 21t-23 57zM950 1481l-274 -293l-82 57l231 324zM172 0l190 1075
h697l-31 -164h-522l-49 -286h471l-29 -164h-471l-53 -297h538l-28 -164h-713z" />
    <glyph glyph-name="uni0410.var.accented" unicode="&#x410;`" horiz-adv-x="1443" 
d="M31 0l870 1442h150l362 -1442h-176l-109 434h-653l-258 -434h-186zM940 1210l-367 -612h517zM1321 1677l-414 -172l-47 99l400 213z" />
    <glyph glyph-name="uni0415.var.accented" unicode="&#x415;`" horiz-adv-x="1177" 
d="M215 0l252 1434h809l-29 -164h-635l-82 -463h574l-29 -164h-573l-84 -479h655l-29 -164h-829zM1217 1677l-414 -172l-47 99l399 213z" />
    <glyph glyph-name="uni0418.var.accented" unicode="&#x418;`" horiz-adv-x="1628" 
d="M369 0h-154l252 1434h174l-199 -1131l1069 1131h154l-252 -1434h-174l199 1128zM1401 1677l-414 -172l-47 99l399 213z" />
    <glyph glyph-name="uni041E.var.accented" unicode="&#x41e;`" horiz-adv-x="1667" 
d="M215 645q0 165 58.5 312.5t163 257.5t260 174.5t339.5 64.5q295 0 481.5 -176t186.5 -467q0 -180 -59 -335t-162.5 -263.5t-251 -170.5t-318.5 -62q-169 0 -303 51.5t-219.5 142t-130.5 210.5t-45 261zM403 655q0 -161 71 -279t186.5 -175.5t259.5 -57.5q125 0 234 45.5
t189.5 127.5t126.5 205t46 270q0 226 -136 362.5t-362 136.5q-122 0 -233 -44t-196 -123.5t-135.5 -201t-50.5 -266.5zM1419 1677l-413 -172l-48 99l400 213z" />
    <glyph glyph-name="uni0423.var.accented" unicode="&#x423;`" horiz-adv-x="1363" 
d="M1585 1434l-690 -1106q-116 -185 -206 -256.5t-208 -71.5q-48 0 -95 14t-71 37l82 139q46 -28 111 -28q105 0 203 151l34 54l-462 1067h188l379 -899l551 899h184zM1311 1677l-414 -172l-47 99l399 213z" />
    <glyph glyph-name="uni042B.var.accented" unicode="&#x42b;`" horiz-adv-x="1730" 
d="M1341 0l252 1434h174l-251 -1434h-175zM698 748q-60 0 -180 -13l-100 -569q165 -6 172 -6q196 0 310 93.5t114 260.5q0 113 -81.5 173.5t-234.5 60.5zM641 1434l-92 -533q130 10 190 10q230 0 346.5 -95.5t116.5 -266.5q0 -255 -168.5 -404t-492.5 -149q-66 0 -177.5 2
t-148.5 2l252 1434h174zM1448 1677l-414 -172l-47 99l399 213z" />
    <glyph glyph-name="uni042D.var.accented" unicode="&#x42d;`" horiz-adv-x="1386" 
d="M510 649l29 164h708q12 222 -119 349.5t-350 127.5t-409 -116l-68 133q89 67 231 107t289 40q282 0 443 -169.5t161 -473.5q0 -255 -107.5 -445.5t-292 -288t-419.5 -97.5q-164 0 -296 51t-216 133l103 131q77 -67 184 -110t229 -42q158 1 290.5 60.5t220.5 175
t108 270.5h-719zM1153 1677l-414 -172l-47 99l400 213z" />
    <glyph glyph-name="uni042E.var.accented" unicode="&#x42e;`" horiz-adv-x="2170" 
d="M504 649l-115 -649h-174l252 1434h174l-109 -621h271q25 137 89 253t160 203t228.5 136t286.5 49q283 0 462 -175t179 -466q0 -241 -96.5 -431t-270 -296t-393.5 -106q-162 0 -289 51.5t-207.5 142.5t-122 210.5t-41.5 260.5v4h-284zM967 655q0 -161 67 -279
t176.5 -175.5t245.5 -57.5q158 0 285 77.5t202.5 226.5t75.5 346q0 226 -128.5 361.5t-342.5 135.5q-115 0 -219.5 -44t-185 -123.5t-128.5 -201t-48 -266.5zM1671 1677l-414 -172l-47 99l400 213z" />
    <glyph glyph-name="uni042F.var.accented" unicode="&#x42f;`" horiz-adv-x="1275" 
d="M887 0l94 532h-268l-451 -532h-211l506 584q-107 47 -167 133t-60 205q0 78 22 151t72 140.5t123.5 117t184.5 79.5t247 30q49 0 171 -3t163 -3l-252 -1434h-174zM721 696h289l100 574q-141 6 -192 6q-99 0 -177.5 -27.5t-126 -75t-72 -108t-24.5 -129.5q0 -85 52 -151.5
t151 -88.5zM1327 1677l-414 -172l-47 99l400 213z" />
    <glyph glyph-name="uni0401.var.accented" unicode="&#x401;`" horiz-adv-x="1177" 
d="M215 0l252 1434h809l-29 -164h-635l-82 -463h574l-29 -164h-573l-84 -479h655l-29 -164h-829zM1108 1774l-285 -256l-59 30l207 269zM1108 1665q0 41 26.5 66.5t63.5 25.5q34 0 59 -25.5t25 -66.5q0 -47 -24.5 -73.5t-59.5 -26.5q-38 0 -64 26.5t-26 73.5zM537 1665
q0 42 25 67t63 25q34 0 59 -25.5t25 -66.5q0 -47 -24.5 -73.5t-59.5 -26.5q-38 0 -63 26t-25 74z" />
    <glyph glyph-name="uni0430.var.accented" unicode="&#x430;`" horiz-adv-x="1040" 
d="M442 133q65 0 153 84t156 194.5t89 194.5l32 164q-55 18 -124 18q-131 0 -234 -61.5t-158 -166t-55 -232.5q0 -90 36 -142.5t105 -52.5zM897 0h-162l58 324q-32 -52 -61.5 -94.5t-72.5 -91.5t-85.5 -81.5t-96.5 -54.5t-110 -22q-116 0 -176 88t-60 235q0 176 81 323
t220.5 231.5t306.5 84.5q177 0 301 -63zM1012 1380l-246 -293l-98 70l217 322z" />
    <glyph glyph-name="uni0435.var.accented" unicode="&#x435;`" horiz-adv-x="952" 
d="M811 248l76 -98q-71 -73 -176 -121.5t-211 -48.5q-91 0 -164 31.5t-116.5 83t-66 113t-22.5 126.5q0 118 38.5 227t108.5 194t177.5 136t236.5 51q148 0 214.5 -64t64.5 -163q-2 -154 -161 -242.5t-507 -105.5q0 -115 61 -174.5t166 -59.5q120 0 281 115zM672 788
q-130 0 -227 -86.5t-130 -218.5q178 13 287.5 44t151.5 70.5t43 92.5q1 48 -32 73t-93 25zM983 1380l-246 -293l-98 70l217 322z" />
    <glyph glyph-name="uni0438.var.accented" unicode="&#x438;`" horiz-adv-x="1011" 
d="M371 133q74 0 170.5 84t169 194.5t92.5 194.5l53 316h158l-158 -922h-158l56 322q-37 -63 -81 -118.5t-100.5 -108.5t-123.5 -84t-134 -31q-94 0 -139 57.5t-45 144.5q0 88 25 207l112 533h158l-111 -502q-25 -112 -22 -184q0 -103 78 -103zM924 1380l-246 -293l-98 70
l217 322z" />
    <glyph glyph-name="uni043E.var.accented" unicode="&#x43e;`" horiz-adv-x="1032" 
d="M506 -20q-167 0 -271 104.5t-104 277.5q0 113 37.5 217t105 185t170.5 129.5t224 48.5q163 0 259.5 -98.5t96.5 -274.5q0 -259 -143.5 -424t-374.5 -165zM532 133q149 0 236.5 114.5t87.5 293.5q0 122 -55.5 184.5t-157.5 62.5q-149 0 -245.5 -108t-96.5 -293
q0 -122 64 -188t167 -66zM1006 1380l-246 -293l-98 70l217 322z" />
    <glyph glyph-name="uni0443.var.accented" unicode="&#x443;`" horiz-adv-x="858" 
d="M150 -258q62 0 128 72t123 178q-15 140 -103.5 413.5t-193.5 516.5h172q51 -107 132 -353.5t110 -384.5q68 141 143.5 363t98.5 375h174q-121 -409 -249 -703t-265.5 -461.5t-267.5 -167.5q-96 0 -168 58l73 125q60 -31 93 -31zM838 1380l-246 -293l-98 70l217 322z" />
    <glyph glyph-name="uni044B.var.accented" unicode="&#x44b;`" horiz-adv-x="1273" 
d="M168 389l137 533h164l-115 -420q66 81 159 135.5t183 54.5q89 0 152 -59t63 -172q0 -80 -34 -155.5t-90.5 -133.5t-127 -102t-146.5 -67t-146 -23q-62 0 -108.5 19t-71.5 51.5t-36.5 69.5t-11.5 79q0 82 29 190zM297 260q-2 -12 -2 -35q4 -92 108 -92q77 0 158 39
t136 107t55 143q0 54 -34.5 85.5t-80.5 31.5q-57 0 -132.5 -45t-134.5 -111t-73 -123zM1118 922h158l-156 -922h-157zM1061 1380l-246 -293l-98 70l217 322z" />
    <glyph glyph-name="uni044D.var.accented" unicode="&#x44d;`" horiz-adv-x="880" 
d="M338 397l24 133h351q7 131 -58.5 194.5t-179.5 63.5q-135 0 -256 -79l-63 112q154 121 344 121q189 0 281.5 -102t92.5 -279q0 -140 -42 -252.5t-112.5 -183t-160 -108t-188.5 -37.5q-103 0 -180.5 39t-124.5 94l94 110q75 -90 211 -90q123 0 210 66.5t115 197.5h-358z
M848 1380l-246 -293l-98 70l217 322z" />
    <glyph glyph-name="uni044E.var.accented" unicode="&#x44e;`" horiz-adv-x="1398" 
d="M905 -20q-156 0 -256 109t-100 298v2h-209l-66 -389h-151l149 922h152l-62 -379h207q42 172 168 285.5t310 113.5q159 0 251.5 -98.5t92.5 -274.5q0 -258 -136 -423.5t-350 -165.5zM1026 788q-143 0 -233.5 -108t-90.5 -293q0 -116 59.5 -185t158.5 -69q143 0 226 114.5
t83 293.5q0 122 -52.5 184.5t-150.5 62.5zM1081 1380l-245 -293l-99 70l217 322z" />
    <glyph glyph-name="uni044F.var.accented" unicode="&#x44f;`" horiz-adv-x="913" 
d="M639 922h276l-155 -922h-158l51 307h-170l-268 -307h-190l321 356q-68 25 -112 82t-44 140q0 50 14 97.5t47.5 93t84 79t128.5 54t175 20.5zM356 596q0 -135 179 -135h147l51 307h-143q-118 0 -176 -50.5t-58 -121.5zM946 1380l-246 -293l-98 70l217 322z" />
    <glyph glyph-name="uni0451.var.accented" unicode="&#x451;`" horiz-adv-x="952" 
d="M811 248l76 -98q-71 -73 -176 -121.5t-211 -48.5q-91 0 -164 31.5t-116.5 83t-66 113t-22.5 126.5q0 118 38.5 227t108.5 194t177.5 136t236.5 51q148 0 214.5 -64t64.5 -163q-2 -154 -161 -242.5t-507 -105.5q0 -115 61 -174.5t166 -59.5q120 0 281 115zM672 788
q-130 0 -227 -86.5t-130 -218.5q178 13 287.5 44t151.5 70.5t43 92.5q1 48 -32 73t-93 25zM944 1380l-246 -293l-80 56l220 321zM403 1233q0 36 23.5 58t58.5 22q31 0 53.5 -22.5t22.5 -57.5q0 -38 -22.5 -61t-53.5 -23q-35 0 -58.5 22.5t-23.5 61.5zM944 1233q0 36 24 58
t58 22q31 0 53.5 -22.5t22.5 -57.5q0 -38 -22.5 -61t-53.5 -23q-34 0 -58 23t-24 61z" />
    <glyph glyph-name="fi" unicode="fi" horiz-adv-x="995" 
d="M123 -55l192 1126q12 66 30 118.5t52 103.5t79.5 85t115.5 55t158 21q96 0 171 -25t113 -67l-78 -125q-77 63 -206 63q-131 0 -194.5 -61.5t-84.5 -185.5l-20 -131h514l-156 -922h-158l129 768h-358l-143 -836q-59 -358 -338 -358q-60 0 -111 17t-76 42l68 131
q52 -36 108 -36q156 0 193 217z" />
    <glyph glyph-name="fl" unicode="fl" horiz-adv-x="1075" 
d="M698 281l172 952q-67 67 -178 67q-179 0 -221 -247l-20 -131h231l-27 -154h-233l-143 -836q-59 -358 -338 -358q-60 0 -111 17t-76 42l68 131q52 -36 108 -36q156 0 193 217l192 1126q33 190 130 286.5t247 96.5q151 0 228 -65h137l-203 -1121q-6 -35 -6 -59
q0 -72 70 -72q56 0 131 43l20 -135q-111 -61 -209 -61q-172 0 -172 188q0 57 10 109z" />
    <glyph glyph-name=".notdef" horiz-adv-x="460" 
 />
    <glyph glyph-name=".null" horiz-adv-x="0" 
 />
    <glyph glyph-name="nonmarkingreturn" horiz-adv-x="682" 
 />
    <glyph glyph-name="space" unicode=" " horiz-adv-x="460" 
 />
    <glyph glyph-name="exclam" unicode="!" horiz-adv-x="634" 
d="M297 440l174 994h174l-174 -994h-174zM215 111q0 42 32.5 75t84.5 33q46 0 77 -33t31 -75q0 -47 -31 -82t-77 -35q-52 0 -84.5 34.5t-32.5 82.5z" />
    <glyph glyph-name="quotedbl" unicode="&#x22;" horiz-adv-x="849" 
d="M346 977l80 457h164l-80 -457h-164zM684 977l80 457h164l-80 -457h-164z" />
    <glyph glyph-name="numbersign" unicode="#" horiz-adv-x="1441" 
d="M772 25l137 374h-377l-155 -419l-129 45l139 374h-182v144h235l129 348h-364v143h418l155 420l129 -47l-139 -373h377l155 420l130 -45l-140 -375h193v-143h-246l-129 -348h375v-144h-428l-156 -419zM715 891l-129 -348h377l129 348h-377z" />
    <glyph glyph-name="dollar" unicode="$" 
d="M950 399q0 59 -32.5 105.5t-84 78t-114 60.5t-124.5 62t-113.5 72.5t-84 101.5t-32.5 141q0 161 118 280.5t310 147.5l30 170h164l-31 -168q98 -12 174 -50t119 -95l-119 -131q-93 116 -270 116q-143 0 -226 -68t-83 -178q0 -59 32.5 -104.5t84 -76t114 -58t125 -59
t114 -70.5t84 -101t32.5 -143q0 -177 -124.5 -297t-314.5 -147l-32 -193h-164l33 189q-122 14 -218.5 70t-126.5 141l121 118q48 -80 139 -125t187 -45q131 0 222 69t91 187z" />
    <glyph glyph-name="percent" unicode="%" horiz-adv-x="1796" 
d="M225 1083q0 157 103 259t252 102q153 0 255.5 -97t102.5 -255q0 -157 -104.5 -261t-255.5 -104q-149 0 -251 99.5t-102 256.5zM369 1085q0 -96 61.5 -158.5t151.5 -62.5q97 0 155 60.5t58 162.5q0 94 -62 157t-151 63q-97 0 -155 -62.5t-58 -159.5zM1112 350
q0 157 102.5 259t251.5 102q153 0 257 -97.5t104 -255.5q0 -156 -105.5 -260t-255.5 -104t-252 99.5t-102 256.5zM1255 352q0 -96 61.5 -158.5t151.5 -62.5q97 0 156 60.5t59 162.5q0 94 -62.5 156.5t-150.5 62.5q-98 0 -156.5 -62t-58.5 -159zM449 47l1052 1407l94 -70
l-1050 -1404z" />
    <glyph glyph-name="ampersand" unicode="&#x26;" horiz-adv-x="1523" 
d="M1227 0l-119 195q-102 -97 -224 -156t-251 -59q-202 0 -315 97.5t-113 260.5q0 76 27.5 146.5t67.5 124t105 109t119.5 93t130.5 82.5q-3 3 -22 20t-27.5 25.5t-27.5 28t-29.5 33t-24.5 35t-22 40t-13.5 42t-5.5 46.5q0 129 95.5 210t250.5 81q140 0 227 -69.5t87 -184.5
q0 -108 -59 -182.5t-203 -153.5l256 -428q147 201 204 486h162q-29 -170 -105 -331.5t-184 -285.5l187 -305h-174zM647 143q113 0 213.5 55t169.5 128l-285 473q-71 -46 -119 -81t-96.5 -79t-77 -85.5t-46 -93.5t-17.5 -110q0 -107 72.5 -157t185.5 -50zM647 1174
q0 -105 144 -205q77 32 132.5 84t55.5 114q0 70 -42.5 112t-117.5 42q-74 0 -123 -42t-49 -105z" />
    <glyph glyph-name="quotesingle" unicode="'" horiz-adv-x="512" 
d="M346 977l80 457h164l-80 -457h-164z" />
    <glyph glyph-name="parenleft" unicode="(" horiz-adv-x="600" 
d="M541 -332l-107 -90q-145 148 -218 335.5t-73 373.5q0 134 26.5 256t89.5 256t182.5 271.5t291.5 272.5l88 -104q-283 -229 -397.5 -449.5t-114.5 -480.5q0 -183 60 -353t172 -288z" />
    <glyph glyph-name="parenright" unicode=")" horiz-adv-x="638" 
d="M29 -422l-88 111q245 188 378.5 426t133.5 512q0 370 -226 626l111 90q145 -155 212.5 -339t67.5 -373q0 -615 -589 -1053z" />
    <glyph glyph-name="asterisk" unicode="*" horiz-adv-x="980" 
d="M532 1346q0 42 32 74t73 32q45 0 76.5 -31.5t31.5 -74.5q0 -44 -31 -74.5t-77 -30.5q-42 0 -73.5 30.5t-31.5 74.5zM528 768q0 45 32.5 78t74.5 33q43 0 75.5 -33t32.5 -78q0 -41 -32.5 -73.5t-75.5 -32.5q-41 0 -74 32.5t-33 73.5zM770 1196q0 45 30 77t72 32
q44 0 76.5 -32.5t32.5 -76.5q0 -43 -32.5 -74.5t-76.5 -31.5q-42 0 -72 31.5t-30 74.5zM770 924q0 44 29.5 75t72.5 31q45 0 77 -31t32 -75t-32.5 -76.5t-76.5 -32.5q-42 0 -72 32t-30 77zM291 924q0 44 30.5 75t73.5 31q44 0 75.5 -31t31.5 -75t-31.5 -76.5t-75.5 -32.5
q-43 0 -73.5 32.5t-30.5 76.5zM291 1196q0 44 30.5 76.5t73.5 32.5q44 0 75.5 -32.5t31.5 -76.5q0 -43 -31.5 -74.5t-75.5 -31.5q-43 0 -73.5 31.5t-30.5 74.5z" />
    <glyph glyph-name="plus" unicode="+" 
d="M264 666v143h385v391h154v-391h391v-143h-391v-396h-154v396h-385z" />
    <glyph glyph-name="comma" unicode="," horiz-adv-x="456" 
d="M125 92q0 49 34 80t87 31q65 0 100 -46t35 -120q0 -118 -80.5 -209.5t-204.5 -126.5l-30 78q66 21 119 87t53 138q-8 -4 -25 -4q-42 0 -65 26.5t-23 65.5z" />
    <glyph glyph-name="hyphen" unicode="-" horiz-adv-x="796" 
d="M217 481l27 154h489l-26 -154h-490z" />
    <glyph glyph-name="period" unicode="." horiz-adv-x="430" 
d="M133 111q0 42 32.5 75t84.5 33q46 0 78 -33.5t32 -74.5q0 -48 -30.5 -82.5t-79.5 -34.5q-54 0 -85.5 34t-31.5 83z" />
    <glyph glyph-name="slash" unicode="/" horiz-adv-x="686" 
d="M-61 -379l682 1833l127 -47l-680 -1833z" />
    <glyph glyph-name="zero" unicode="0" horiz-adv-x="1155" 
d="M213 502q0 155 23 295t70.5 259.5t115.5 207t164.5 137t210.5 49.5q106 0 183.5 -37.5t123.5 -107.5t68 -162t22 -209q0 -143 -19.5 -277.5t-62.5 -257.5t-105.5 -214.5t-156 -146t-207.5 -54.5q-430 0 -430 518zM387 506q0 -181 61 -275t199 -94q53 0 104 25.5
t100.5 86.5t87 150.5t60.5 228.5t23 310q0 176 -57 267t-183 91q-72 0 -131.5 -32.5t-99.5 -84.5t-70.5 -124t-48 -143.5t-28 -151t-14 -139t-3.5 -115.5z" />
    <glyph glyph-name="one" unicode="1" horiz-adv-x="776" 
d="M279 1176l391 266h114l-254 -1442h-163l211 1194l-226 -139z" />
    <glyph glyph-name="two" unicode="2" horiz-adv-x="1079" 
d="M92 0l23 133q76 61 123 99.5t122.5 101.5t124.5 108t113.5 108t107 112.5t87.5 109.5t71 111.5t43 107t17 105.5q0 93 -55 141.5t-156 48.5q-82 0 -163 -60t-120 -169l-133 65q52 155 174 241.5t268 86.5q176 0 270.5 -89t94.5 -235q0 -81 -36 -173.5t-89 -173
t-131 -169.5t-144 -153t-148.5 -134t-123.5 -102t-88 -67h649l-26 -154h-875z" />
    <glyph glyph-name="three" unicode="3" horiz-adv-x="1089" 
d="M541 -20q-173 0 -287 72.5t-158 197.5l144 74q31 -82 108 -131.5t176 -49.5q161 0 246.5 84t85.5 213q0 98 -72 154.5t-204 56.5h-88l28 164h74q146 0 235 78.5t89 198.5q0 89 -57 143.5t-167 54.5q-83 0 -151 -40t-113 -107l-119 92q67 105 184 162t248 57
q159 0 258 -83t99 -228q0 -131 -76.5 -238t-214.5 -157l-2 -7q106 -28 165.5 -104.5t59.5 -183.5q0 -211 -138 -342t-353 -131z" />
    <glyph glyph-name="four" unicode="4" horiz-adv-x="1126" 
d="M702 0l64 358h-662l21 117l764 959h198l-729 -912h437l69 400h164l-70 -400h199l-29 -164h-198l-64 -358h-164z" />
    <glyph glyph-name="five" unicode="5" horiz-adv-x="1056" 
d="M328 713l219 721h647l-31 -164h-504l-120 -387q58 14 116 14q161 0 272 -102t111 -267q0 -130 -41.5 -235t-114 -173t-169.5 -104t-209 -36q-122 0 -234 55.5t-176 157.5l119 106q52 -78 134 -117t165 -39q161 0 254.5 99t93.5 250q0 117 -73.5 187.5t-225.5 70.5
q-128 0 -233 -37z" />
    <glyph glyph-name="six" unicode="6" horiz-adv-x="1134" 
d="M182 438q0 153 51.5 300.5t139 264.5t199.5 212t236.5 155.5t246.5 83.5l41 -137q-104 -26 -205.5 -77t-199 -128t-178 -190.5t-126.5 -247.5q60 100 154.5 154.5t208.5 54.5q158 0 268 -104t110 -269q0 -116 -39 -216t-105.5 -168.5t-157.5 -107t-193 -38.5
q-211 0 -331 128t-120 330zM367 508q-27 -149 46 -257t210 -108q153 0 240 98.5t87 243.5q0 105 -70 174.5t-184 69.5t-203.5 -64t-125.5 -157z" />
    <glyph glyph-name="seven" unicode="7" horiz-adv-x="993" 
d="M285 1270l28 164h861l-19 -107l-762 -1327h-192l733 1270h-649z" />
    <glyph glyph-name="eight" unicode="8" horiz-adv-x="1218" 
d="M778 819h21q105 0 181.5 72t76.5 184q0 98 -67.5 156.5t-178.5 58.5q-115 0 -195.5 -72.5t-80.5 -177.5q0 -94 64 -157.5t179 -63.5zM715 655h-25q-143 0 -229 -78t-86 -196q0 -110 73.5 -174t208.5 -64q161 0 245.5 82t84.5 205q0 107 -76 166t-196 59zM657 -20
q-212 0 -338 101.5t-126 264.5q0 153 91 264t265 142l2 6q-81 40 -135 112.5t-54 184.5q0 110 65 202t177 144.5t244 52.5q182 0 285.5 -87t103.5 -234q0 -87 -25.5 -161t-91 -138.5t-166.5 -94.5l-2 -6q95 -33 151 -110.5t56 -180.5q0 -215 -136 -338.5t-366 -123.5z" />
    <glyph glyph-name="nine" unicode="9" horiz-adv-x="1128" 
d="M1200 950q0 -213 -66.5 -389.5t-185.5 -298t-282.5 -194.5t-358.5 -88l-37 145q110 10 207.5 37.5t187 79t158.5 124t119.5 175t73.5 227.5q-48 -93 -149 -155t-220 -62q-173 0 -285 112.5t-112 297.5q0 211 141 352t348 141q210 0 335.5 -134t125.5 -370zM1014 915
q27 148 -54.5 261.5t-220.5 113.5q-137 0 -224 -88t-87 -211q0 -129 77 -207.5t210 -78.5q98 0 175 53t124 157z" />
    <glyph glyph-name="colon" unicode=":" horiz-adv-x="655" 
d="M346 831q0 42 32.5 75.5t84.5 33.5q46 0 78 -34t32 -75q0 -48 -30.5 -82t-79.5 -34q-55 0 -86 34t-31 82zM219 111q0 42 32.5 75t84.5 33q46 0 78 -33.5t32 -74.5q0 -48 -30.5 -82.5t-79.5 -34.5q-54 0 -85.5 34t-31.5 83z" />
    <glyph glyph-name="semicolon" unicode=";" horiz-adv-x="663" 
d="M205 92q0 49 34 80t87 31q65 0 100 -46t35 -120q0 -118 -80.5 -209.5t-204.5 -126.5l-31 78q66 21 119 87t53 138q-8 -4 -24 -4q-42 0 -65 26.5t-23 65.5zM336 831q0 42 32.5 75.5t84.5 33.5q46 0 78 -34t32 -75q0 -48 -30.5 -82t-79.5 -34q-55 0 -86 34t-31 82z" />
    <glyph glyph-name="less" unicode="&#x3c;" 
d="M1141 162l-901 545v69l901 541v-178l-674 -398l674 -401v-178z" />
    <glyph glyph-name="equal" unicode="=" 
d="M264 481v144h930v-144h-930zM264 850v143h930v-143h-930z" />
    <glyph glyph-name="greater" unicode="&#x3e;" 
d="M1217 707l-900 -545v178l674 401l-674 398v178l900 -541v-69z" />
    <glyph glyph-name="question" unicode="?" horiz-adv-x="903" 
d="M860 1096q0 194 -211 194q-160 0 -297 -153l-98 110q164 207 432 207q169 0 258.5 -92t89.5 -234q0 -75 -28 -142.5t-73.5 -118t-100 -97.5t-110 -88.5t-101.5 -82t-76.5 -88t-32.5 -97.5h-135q-2 65 23.5 124t68 104t94.5 87.5t104 83t95.5 82t70.5 93.5t27 108zM274 84
q0 42 32.5 75.5t84.5 33.5q46 0 77.5 -33.5t31.5 -75.5q0 -47 -31.5 -82t-77.5 -35q-52 0 -84.5 34.5t-32.5 82.5z" />
    <glyph glyph-name="at" unicode="@" horiz-adv-x="2088" 
d="M1122 -283q178 0 287 45l29 -141q-58 -24 -148.5 -40.5t-179.5 -16.5q-256 0 -453.5 106t-306 300.5t-108.5 447.5q0 200 74 375t202.5 299t308.5 195t385 71q186 0 344.5 -54.5t270 -150.5t174.5 -232.5t63 -295.5q0 -132 -36 -244.5t-105.5 -198t-179.5 -134
t-250 -48.5h-76q-57 0 -84 21t-28 57t6 84l28 162q-32 -52 -61.5 -94.5t-72.5 -91.5t-85.5 -81.5t-96.5 -54.5t-110 -22q-116 0 -175.5 88t-59.5 235q0 176 81 323t220.5 231.5t306.5 84.5q179 0 303 -63l-121 -725h31q194 0 303 122t109 336q0 125 -48.5 233.5t-137 188
t-222 125t-295.5 45.5q-226 0 -410 -94t-293.5 -274t-109.5 -414q0 -170 57.5 -306t158 -222t231 -131.5t280.5 -45.5zM1386 606l33 164q-53 18 -125 18q-131 0 -233.5 -61.5t-157.5 -166t-55 -232.5q0 -90 36 -142.5t105 -52.5q65 0 153 84t155.5 194.5t88.5 194.5z" />
    <glyph glyph-name="A" unicode="A" horiz-adv-x="1443" 
d="M31 0l870 1442h150l362 -1442h-176l-109 434h-653l-258 -434h-186zM940 1210l-367 -612h517z" />
    <glyph glyph-name="B" unicode="B" horiz-adv-x="1263" 
d="M215 2l252 1430q320 8 395 8q406 0 406 -320q0 -138 -79 -238t-208 -139l-2 -4q102 -27 160.5 -97t58.5 -171q0 -120 -46 -212.5t-128.5 -149.5t-190 -86t-235.5 -29q-215 0 -383 8zM735 653h-231l-86 -487q94 -8 219 -8q181 0 279 74.5t98 209.5q0 211 -279 211z
M829 1276q-64 0 -217 -6l-82 -463h230q134 0 228.5 75.5t94.5 204.5q0 93 -64.5 141t-189.5 48z" />
    <glyph glyph-name="C" unicode="C" horiz-adv-x="1343" 
d="M1296 252l66 -131q-80 -69 -209 -105t-252 -36q-158 0 -288 52t-216.5 142t-134 212t-47.5 263q0 228 110 412.5t302 288.5t428 104q148 0 260.5 -34t173.5 -91l-90 -125q-138 86 -332 86q-186 0 -337.5 -79t-239 -221.5t-87.5 -319.5q0 -147 62.5 -266t183.5 -190
t281 -71q212 0 366 109z" />
    <glyph glyph-name="D" unicode="D" horiz-adv-x="1513" 
d="M215 0l252 1434h25q44 0 175.5 3t192.5 3q181 0 317.5 -46.5t217 -130t120 -190.5t39.5 -237q0 -176 -64 -328.5t-184 -266.5t-304.5 -179.5t-411.5 -65.5q-45 0 -166.5 2t-185.5 2h-23zM827 1276q-38 0 -74 -1t-76.5 -2.5t-64.5 -2.5l-194 -1106q188 -4 207 -4
q349 0 545 179t196 492q0 217 -134.5 331t-404.5 114z" />
    <glyph glyph-name="E" unicode="E" horiz-adv-x="1177" 
d="M215 0l252 1434h809l-29 -164h-635l-82 -463h574l-29 -164h-573l-84 -479h655l-29 -164h-829z" />
    <glyph glyph-name="F" unicode="F" horiz-adv-x="1105" 
d="M215 0l252 1434h809l-29 -164h-635l-88 -508h574l-31 -164h-573l-105 -598h-174z" />
    <glyph glyph-name="G" unicode="G" horiz-adv-x="1488" 
d="M913 565l31 164h551l-98 -551q-77 -87 -222.5 -142.5t-287.5 -55.5q-207 0 -361.5 88.5t-233.5 237t-79 335.5q0 168 61.5 318t168.5 259t260.5 172.5t328.5 63.5q295 0 457 -149l-100 -129q-51 48 -149.5 81t-221.5 33q-172 0 -312.5 -77.5t-222.5 -220.5t-82 -324
q0 -237 133.5 -381t352.5 -144q220 0 364 121l49 301h-387z" />
    <glyph glyph-name="H" unicode="H" horiz-adv-x="1566" 
d="M1178 0l114 649h-788l-115 -649h-174l252 1434h174l-109 -621h789l109 621h174l-252 -1434h-174z" />
    <glyph glyph-name="I" unicode="I" horiz-adv-x="686" 
d="M256 0l252 1434h174l-252 -1434h-174z" />
    <glyph glyph-name="J" unicode="J" horiz-adv-x="765" 
d="M803 1434l-195 -1108q-63 -346 -375 -346q-67 0 -121.5 22t-80.5 53l82 133q52 -45 129 -45q88 0 133.5 55t64.5 156l191 1080h172z" />
    <glyph glyph-name="K" unicode="K" horiz-adv-x="1337" 
d="M1516 1434l-760 -701l528 -733h-211l-518 748l729 686h232zM215 0l252 1434h174l-252 -1434h-174z" />
    <glyph glyph-name="L" unicode="L" horiz-adv-x="1126" 
d="M215 0l252 1434h174l-223 -1270h706l-28 -164h-881z" />
    <glyph glyph-name="M" unicode="M" horiz-adv-x="1826" 
d="M215 0l252 1434h151l410 -736l645 736h191l-252 -1434h-174l204 1159l-634 -713h-27l-389 707l-203 -1153h-174z" />
    <glyph glyph-name="N" unicode="N" horiz-adv-x="1628" 
d="M1413 0h-139l-694 1153l-201 -1153h-164l252 1434h139l692 -1151l203 1151h164z" />
    <glyph glyph-name="O" unicode="O" horiz-adv-x="1667" 
d="M215 645q0 165 58.5 312.5t163 257.5t260 174.5t339.5 64.5q295 0 481.5 -176t186.5 -467q0 -180 -59 -335t-162.5 -263.5t-251 -170.5t-318.5 -62q-169 0 -303 51.5t-219.5 142t-130.5 210.5t-45 261zM403 655q0 -161 71 -279t186.5 -175.5t259.5 -57.5q125 0 234 45.5
t189.5 127.5t126.5 205t46 270q0 226 -136 362.5t-362 136.5q-122 0 -233 -44t-196 -123.5t-135.5 -201t-50.5 -266.5z" />
    <glyph glyph-name="P" unicode="P" horiz-adv-x="1222" 
d="M389 0h-174l252 1434q39 0 185 2t192 2q126 0 218.5 -30t144 -83t75 -116t23.5 -138q0 -112 -40 -208t-114.5 -167.5t-190.5 -112t-260 -40.5q-119 0 -215 8zM831 1274q-83 0 -219 -4l-96 -553q113 -10 207 -10q180 0 287.5 92.5t107.5 247.5q0 107 -71.5 167t-215.5 60z
" />
    <glyph glyph-name="Q" unicode="Q" horiz-adv-x="1667" 
d="M215 645q0 165 58.5 312.5t163 257.5t260 174.5t339.5 64.5q295 0 481.5 -176t186.5 -467q0 -185 -60 -340.5t-171 -267.5l137 -203h-197l-70 98q-188 -118 -430 -118q-169 0 -303 51.5t-219.5 142t-130.5 210.5t-45 261zM1159 367l133 104l80 -121q144 178 144 441
q0 226 -136 362.5t-362 136.5q-122 0 -233 -44t-196 -123.5t-135.5 -201t-50.5 -266.5q0 -161 71 -279t186.5 -175.5t259.5 -57.5q184 0 327 95z" />
    <glyph glyph-name="R" unicode="R" horiz-adv-x="1316" 
d="M389 0h-174l252 1434q45 0 208 2t179 2q121 0 209.5 -26.5t138.5 -75t73 -108t23 -134.5q0 -100 -32.5 -185.5t-87.5 -145.5t-124.5 -100t-148.5 -57l371 -606h-213l-340 573h-234zM815 1274q-67 0 -203 -4l-94 -533h170q192 0 307 86t115 236q0 98 -70 156.5t-225 58.5z
" />
    <glyph glyph-name="S" unicode="S" horiz-adv-x="1124" 
d="M907 385q0 62 -32.5 112t-84 85t-114 67.5t-124.5 69t-113.5 79.5t-84 109t-32.5 148q0 77 31.5 147.5t91 127t158 90.5t222.5 34q112 0 213 -41.5t158 -107.5l-109 -127q-120 112 -280 112q-143 0 -221 -61.5t-78 -153.5q0 -61 32.5 -109t84 -81.5t114 -65t125 -67.5
t114 -80t84 -112t32.5 -154q0 -188 -131 -307t-347 -119q-171 0 -290.5 65.5t-173.5 165.5l112 115q55 -84 146.5 -133.5t201.5 -49.5q125 0 210 66t85 176z" />
    <glyph glyph-name="T" unicode="T" horiz-adv-x="1218" 
d="M244 1270l28 164h1178l-29 -164h-501l-224 -1270h-174l223 1270h-501z" />
    <glyph glyph-name="U" unicode="U" horiz-adv-x="1538" 
d="M1597 1434l-147 -836q-57 -321 -222.5 -468.5t-441.5 -147.5q-235 0 -369 126.5t-128 366.5q3 72 14 137l146 822h178l-144 -789q-14 -74 -14 -145q-9 -355 346 -355q382 0 467 488l141 801h174z" />
    <glyph glyph-name="V" unicode="V" horiz-adv-x="1343" 
d="M1585 1434l-844 -1442h-129l-350 1442h176l279 -1180l682 1180h186z" />
    <glyph glyph-name="W" unicode="W" horiz-adv-x="1986" 
d="M2218 1434l-666 -1434h-159l-191 1153l-588 -1153h-159l-183 1434h187l133 -1141l571 1141h172l178 -1141l525 1141h180z" />
    <glyph glyph-name="X" unicode="X" horiz-adv-x="1359" 
d="M1552 1434l-630 -705l397 -729h-193l-329 600l-537 -600h-219l655 729l-381 705h197l315 -580l510 580h215z" />
    <glyph glyph-name="Y" unicode="Y" horiz-adv-x="1236" 
d="M1468 1434l-659 -820l-107 -614h-174l107 614l-363 820h187l286 -656l519 656h204z" />
    <glyph glyph-name="Z" unicode="Z" horiz-adv-x="1300" 
d="M346 1270l29 164h1075l-20 -117l-1070 -1153h887l-28 -164h-1137l20 117l1065 1153h-821z" />
    <glyph glyph-name="bracketleft" unicode="[" horiz-adv-x="655" 
d="M51 -410l307 1741h512l-26 -153h-348l-254 -1434h348l-27 -154h-512z" />
    <glyph glyph-name="backslash" unicode="\" horiz-adv-x="686" 
d="M188 1454l682 -1833l-129 -47l-680 1833z" />
    <glyph glyph-name="bracketright" unicode="]" horiz-adv-x="655" 
d="M768 1331l-307 -1741h-512l26 154h349l254 1434h-349l27 153h512z" />
    <glyph glyph-name="asciicircum" unicode="^" horiz-adv-x="1007" 
d="M236 922l368 528h111l364 -528h-178l-244 360l-243 -360h-178z" />
    <glyph glyph-name="underscore" unicode="_" horiz-adv-x="638" 
d="M0 -410v164h639v-164h-639z" />
    <glyph glyph-name="grave" unicode="`" horiz-adv-x="593" 
d="M371 1087l-248 291l129 99l219 -320z" />
    <glyph glyph-name="a" unicode="a" horiz-adv-x="1040" 
d="M442 133q65 0 153 84t156 194.5t89 194.5l32 164q-55 18 -124 18q-131 0 -234 -61.5t-158 -166t-55 -232.5q0 -90 36 -142.5t105 -52.5zM897 0h-162l58 324q-32 -52 -61.5 -94.5t-72.5 -91.5t-85.5 -81.5t-96.5 -54.5t-110 -22q-116 0 -176 88t-60 235q0 176 81 323
t220.5 231.5t306.5 84.5q177 0 301 -63z" />
    <glyph glyph-name="b" unicode="b" horiz-adv-x="1056" 
d="M514 1417l-143 -803q39 60 84 114t102 104.5t123.5 80t132.5 29.5q116 0 176 -88.5t60 -235.5q0 -177 -78 -323t-215 -230.5t-303 -84.5q-112 0 -201 25t-129 63l233 1349h158zM322 344l-31 -178q24 -15 72.5 -24t97.5 -9q123 0 219.5 62t148.5 166.5t52 232.5
q0 90 -36.5 142t-105.5 52q-62 0 -151 -76t-162 -179t-104 -189z" />
    <glyph glyph-name="c" unicode="c" horiz-adv-x="890" 
d="M778 248l74 -98q-71 -74 -169.5 -122t-201.5 -48q-92 0 -162 31t-109.5 83.5t-59 113t-19.5 126.5q0 118 37 227t105 194t173.5 136t231.5 51q163 0 237 -51l-55 -137q-35 13 -92.5 23.5t-105.5 10.5q-108 0 -191 -59t-125.5 -153t-42.5 -205q0 -107 54.5 -172.5
t154.5 -65.5q48 0 103.5 22t83 39.5t79.5 53.5z" />
    <glyph glyph-name="d" unicode="d" horiz-adv-x="1062" 
d="M723 942q91 0 178 -24l88 516h156l-101 -596l-141 -838h-155l53 317q-37 -61 -81.5 -116.5t-101 -107t-122.5 -82.5t-131 -31q-112 0 -173 88.5t-61 234.5q0 176 79.5 323t215.5 231.5t297 84.5zM717 788q-120 0 -217.5 -61.5t-152 -166.5t-54.5 -232q0 -89 38.5 -142
t106.5 -53q61 0 152 82.5t164.5 193.5t93.5 193l24 150q-26 15 -71 25.5t-84 10.5z" />
    <glyph glyph-name="e" unicode="e" horiz-adv-x="952" 
d="M811 248l76 -98q-71 -73 -176 -121.5t-211 -48.5q-91 0 -164 31.5t-116.5 83t-66 113t-22.5 126.5q0 118 38.5 227t108.5 194t177.5 136t236.5 51q148 0 214.5 -64t64.5 -163q-2 -154 -161 -242.5t-507 -105.5q0 -115 61 -174.5t166 -59.5q120 0 281 115zM672 788
q-130 0 -227 -86.5t-130 -218.5q178 13 287.5 44t151.5 70.5t43 92.5q1 48 -32 73t-93 25z" />
    <glyph glyph-name="f" unicode="f" horiz-adv-x="577" 
d="M123 -55l192 1126q33 190 130 286.5t247 96.5q176 0 228 -63l-82 -134q-49 43 -146 43q-179 0 -221 -247l-20 -131h231l-27 -154h-233l-143 -836q-59 -358 -338 -358q-60 0 -111 17t-76 42l68 131q52 -36 108 -36q156 0 193 217z" />
    <glyph glyph-name="g" unicode="g" horiz-adv-x="970" 
d="M418 207q0 -33 10 -45q18 2 53 2q184 0 294 -66t110 -192q0 -107 -68 -183.5t-180.5 -112.5t-255.5 -36q-184 0 -295 64.5t-111 189.5q0 69 28 125t77 93t105.5 61t123.5 38q-10 20 -10 56q0 61 43 104q-74 35 -115 101t-41 149q0 160 117 273.5t307 113.5q129 0 213 -68
l271 66l-19 -133l-176 -43q21 -46 21 -113q0 -164 -121 -271.5t-303 -107.5q-22 0 -58 4q-20 -32 -20 -69zM401 -293q153 0 243.5 46t90.5 132q0 68 -73.5 107t-204.5 39q-152 0 -242 -49t-90 -132q0 -68 74 -105.5t202 -37.5zM336 573q0 -75 48.5 -121t137.5 -46
q103 0 175.5 65t72.5 164q0 76 -48.5 125t-133.5 49q-108 0 -180 -69t-72 -167z" />
    <glyph glyph-name="h" unicode="h" horiz-adv-x="1050" 
d="M780 788q-72 0 -170 -80.5t-174 -189t-100 -192.5l-55 -326h-158l242 1434h157l-141 -832q38 61 85 117t106 108.5t128 83.5t136 31q94 0 139 -58t45 -145q0 -73 -25 -207l-102 -532h-156l99 502q24 140 22 184q-2 48 -19 75t-59 27z" />
    <glyph glyph-name="i" unicode="i" horiz-adv-x="485" 
d="M141 0l156 922h158l-156 -922h-158zM338 1268q0 43 30 70.5t72 27.5q38 0 67.5 -27.5t29.5 -70.5q0 -49 -29 -78t-68 -29q-43 0 -72.5 29t-29.5 78z" />
    <glyph glyph-name="j" unicode="j" horiz-adv-x="473" 
d="M483 922l-174 -990q-62 -358 -352 -358q-63 0 -116 17t-79 42l70 131q56 -36 115 -36q85 0 132.5 55.5t67.5 161.5l172 977h164zM360 1268q0 43 30 70.5t73 27.5q38 0 67 -27.5t29 -70.5q0 -49 -28.5 -78t-67.5 -29q-43 0 -73 29t-30 78z" />
    <glyph glyph-name="k" unicode="k" horiz-adv-x="942" 
d="M1034 922l-454 -445l348 -477h-205l-330 481l434 441h207zM123 0l242 1434h157l-241 -1434h-158z" />
    <glyph glyph-name="l" unicode="l" horiz-adv-x="540" 
d="M164 281l209 1153h157l-211 -1166q-6 -34 -6 -59q0 -72 70 -72q56 0 131 43l21 -135q-111 -61 -209 -61q-172 0 -172 188q0 57 10 109z" />
    <glyph glyph-name="m" unicode="m" horiz-adv-x="1519" 
d="M123 0l156 922h157l-53 -316q30 63 66.5 117t86 106t113 82.5t133.5 30.5q80 0 122 -48t42 -128q0 -78 -8 -135q32 60 68 110.5t84 98.5t108.5 75t126.5 27q80 0 122 -48t42 -128q0 -100 -25 -234l-106 -532h-164l102 502q27 128 25 184q-2 49 -19 75.5t-63 26.5
q-73 0 -153.5 -90t-135.5 -201.5t-78 -205.5l-57 -291h-164l103 502q26 124 24 184q-2 49 -19 75.5t-63 26.5q-58 0 -122 -58t-113.5 -141.5t-86 -170.5t-48.5 -152l-45 -266h-158z" />
    <glyph glyph-name="n" unicode="n" horiz-adv-x="1050" 
d="M279 922h157l-55 -320q38 61 85 117t106 108.5t128 83.5t136 31q94 0 139 -58t45 -145q0 -73 -25 -207l-102 -532h-156l99 502q24 140 22 184q-2 48 -19 75t-59 27q-72 0 -170 -80.5t-174 -189t-100 -192.5l-55 -326h-158z" />
    <glyph glyph-name="o" unicode="o" horiz-adv-x="1032" 
d="M506 -20q-167 0 -271 104.5t-104 277.5q0 113 37.5 217t105 185t170.5 129.5t224 48.5q163 0 259.5 -98.5t96.5 -274.5q0 -259 -143.5 -424t-374.5 -165zM532 133q149 0 236.5 114.5t87.5 293.5q0 122 -55.5 184.5t-157.5 62.5q-149 0 -245.5 -108t-96.5 -293
q0 -122 64 -188t167 -66z" />
    <glyph glyph-name="p" unicode="p" horiz-adv-x="1054" 
d="M207 -410h-158l84 494l141 838h158l-53 -316q37 61 81.5 116.5t100.5 107t122 82t130 30.5q112 0 173 -89t61 -235q0 -132 -47 -250.5t-126.5 -203t-189 -134.5t-229.5 -50q-92 0 -179 24zM332 328l-27 -158q27 -15 72 -26t84 -11q120 0 217.5 61.5t152 167t54.5 232.5
q0 89 -39 141.5t-107 52.5q-60 0 -149 -80t-162 -188t-96 -192z" />
    <glyph glyph-name="q" unicode="q" horiz-adv-x="1056" 
d="M678 -410l133 734q-37 -63 -81.5 -119t-101 -109t-124.5 -84.5t-137 -31.5q-116 0 -176 88t-60 235q0 176 81 323t220.5 231.5t306.5 84.5q101 0 183 -26t127 -66l-213 -1260h-158zM442 133q49 0 116.5 50.5t127.5 123.5t108.5 155.5t63.5 143.5l19 150q-62 32 -144 32
q-188 0 -310 -132.5t-122 -327.5q0 -90 36 -142.5t105 -52.5z" />
    <glyph glyph-name="r" unicode="r" horiz-adv-x="681" 
d="M279 922h157l-41 -242q64 113 153 187.5t197 74.5q54 0 84 -20l-81 -152q-32 18 -68 18q-50 0 -105 -42.5t-99.5 -108t-80 -138.5t-55.5 -139l-59 -360h-158z" />
    <glyph glyph-name="s" unicode="s" horiz-adv-x="776" 
d="M547 250q0 49 -37 87t-89.5 67t-104.5 62t-89 87t-37 125q0 115 88 189.5t244 74.5q101 0 172.5 -18.5t106.5 -44.5l-74 -121q-78 41 -197 41q-87 0 -127.5 -31.5t-40.5 -81.5q0 -36 26.5 -66.5t66 -52t86 -51t86 -61t66 -85.5t26.5 -122q0 -125 -96.5 -196.5
t-249.5 -71.5q-105 0 -187 23t-125 60l82 123q95 -63 219 -63q93 0 139 33.5t46 93.5z" />
    <glyph glyph-name="t" unicode="t" horiz-adv-x="661" 
d="M154 350l153 828h158l-45 -256h323l-24 -154h-322l-82 -401q-10 -46 -10 -99q0 -70 28 -100.5t87 -30.5q39 0 85 19t77 41l41 -136q-42 -32 -111.5 -54.5t-140.5 -22.5q-225 0 -228 241q0 63 11 125z" />
    <glyph glyph-name="u" unicode="u" horiz-adv-x="1011" 
d="M371 133q74 0 170.5 84t169 194.5t92.5 194.5l53 316h158l-158 -922h-158l56 322q-37 -63 -81 -118.5t-100.5 -108.5t-123.5 -84t-134 -31q-94 0 -139 57.5t-45 144.5q0 88 25 207l112 533h158l-111 -502q-25 -112 -22 -184q0 -103 78 -103z" />
    <glyph glyph-name="v" unicode="v" horiz-adv-x="841" 
d="M915 922q-28 -265 -169 -528t-304 -402h-114q-46 264 -88.5 456.5t-116.5 473.5h170q130 -515 145 -725q129 163 208.5 360t88.5 365h180z" />
    <glyph glyph-name="w" unicode="w" horiz-adv-x="1314" 
d="M1208 922h181q-28 -268 -162.5 -531t-294.5 -399h-115q-31 302 -69 487q-63 -154 -147.5 -282t-174.5 -205h-115q-35 253 -75.5 454.5t-112.5 475.5h170q48 -192 84 -394.5t45 -330.5q96 123 161.5 269t96.5 292q-4 15 -51 164h170q24 -90 37 -160q75 -345 92 -565
q125 159 198 355t82 370z" />
    <glyph glyph-name="x" unicode="x" horiz-adv-x="894" 
d="M1008 922l-394 -445l256 -477h-176l-182 354l-313 -354h-199l414 469l-240 453h180l166 -340l291 340h197z" />
    <glyph glyph-name="y" unicode="y" horiz-adv-x="858" 
d="M150 -258q62 0 128 72t123 178q-15 140 -103.5 413.5t-193.5 516.5h172q51 -107 132 -353.5t110 -384.5q68 141 143.5 363t98.5 375h174q-121 -409 -249 -703t-265.5 -461.5t-267.5 -167.5q-96 0 -168 58l73 125q60 -31 93 -31z" />
    <glyph glyph-name="z" unicode="z" horiz-adv-x="839" 
d="M201 768l24 154h688l-18 -115l-608 -653h487l-24 -154h-709l20 115l603 653h-463z" />
    <glyph glyph-name="braceleft" unicode="{" horiz-adv-x="686" 
d="M203 -133l57 321q8 61 0.5 100t-33.5 62t-54 31.5t-62 7.5l24 143q31 0 62.5 10.5t65 34t59.5 70t38 111.5l50 284q26 146 102.5 217.5t230.5 71.5h138l-27 -153h-98q-87 0 -130.5 -43t-62.5 -148l-53 -301q-18 -104 -64 -162.5t-131 -70.5q65 -8 97.5 -70.5t15.5 -163.5
l-49 -287q-19 -100 13.5 -144t121.5 -44h86l-27 -154h-145q-136 0 -193.5 66t-31.5 211z" />
    <glyph glyph-name="bar" unicode="|" horiz-adv-x="675" 
d="M379 0v1434h164v-1434h-164z" />
    <glyph glyph-name="braceright" unicode="}" horiz-adv-x="686" 
d="M494 188l-56 -321q-26 -145 -107 -211t-218 -66h-144l27 154h86q88 0 136 44t67 144l55 312q19 113 62.5 167t132.5 66q-73 21 -100 89t-11 163l47 258q19 104 -9 147.5t-114 43.5h-98l26 153h138q153 0 205 -72t26 -217l-49 -284q-8 -60 -1 -110.5t44.5 -83t99.5 -32.5
l-24 -143q-95 3 -150 -53t-71 -148z" />
    <glyph glyph-name="asciitilde" unicode="~" 
d="M299 629l-74 104q65 70 138 109t141 39q56 0 122.5 -23t118 -50t116.5 -50t118 -23q94 0 186 92l66 -112q-130 -123 -254 -123q-55 0 -121 22.5t-117 50t-114 50t-113 22.5q-101 0 -213 -108z" />
    <glyph glyph-name="uni00A0" unicode="&#xa0;" horiz-adv-x="460" 
 />
    <glyph glyph-name="exclamdown" unicode="&#xa1;" horiz-adv-x="634" 
d="M492 496l-175 -994h-174l174 994h175zM573 825q0 -42 -32 -75t-84 -33q-46 0 -77.5 33.5t-31.5 74.5q0 47 31.5 82t77.5 35q52 0 84 -34.5t32 -82.5z" />
    <glyph glyph-name="cent" unicode="&#xa2;" 
d="M530 -246l43 244q-153 31 -236 142.5t-83 254.5t55 260t166 194t262 91l41 219h164l-39 -221q165 -27 248 -123l-90 -117q-98 90 -264 90q-169 0 -267 -105.5t-98 -268.5q0 -132 78.5 -206.5t228.5 -74.5q141 0 260 103l64 -127q-118 -110 -330 -125l-39 -230h-164z" />
    <glyph glyph-name="sterling" unicode="&#xa3;" 
d="M254 563l22 133h166q-5 21 -22.5 77.5t-27 103.5t-9.5 98q0 100 34 186.5t97.5 150.5t160 101t214.5 37q250 0 371 -162l-103 -117q-101 115 -278 115q-133 0 -222.5 -88t-89.5 -215q0 -66 27.5 -161.5t32.5 -125.5h334l-23 -133h-307l-2 -26q-35 -172 -158 -277
q50 -8 124.5 -34.5t146 -48t132.5 -21.5q62 0 116.5 20t121.5 74l59 -135q-142 -123 -311 -123q-75 0 -158.5 26.5t-163.5 53t-145 26.5q-114 0 -248 -112l-55 137q95 86 211 129q60 63 95.5 123.5t49.5 138.5l9 49h-201z" />
    <glyph glyph-name="currency" unicode="&#xa4;" 
d="M375 997l-154 174l107 95l155 -176q122 81 285 81q93 0 151 -20t115 -59l197 174l94 -105l-192 -174q63 -99 63 -227q0 -94 -32 -185t-87 -155l148 -168l-109 -96l-151 170q-127 -84 -277 -84q-105 0 -167.5 22.5t-119.5 65.5l-196 -174l-94 106l196 176q-57 92 -57 221
q0 96 32.5 185.5t92.5 152.5zM406 672q0 -130 71.5 -208.5t212.5 -78.5q79 0 146 31.5t111 83t68.5 116.5t24.5 134q0 126 -74 202t-210 76q-148 0 -249 -106t-101 -250z" />
    <glyph glyph-name="yen" unicode="&#xa5;" 
d="M248 612l22 133h299l-276 689h188l254 -656l490 656h202l-528 -689h301l-22 -133h-379l-39 -215h379l-23 -133h-379l-47 -264h-174l47 264h-377l23 133h377l39 215h-377z" />
    <glyph glyph-name="brokenbar" unicode="&#xa6;" horiz-adv-x="675" 
d="M543 901h-164v533h164v-533zM379 532h164v-532h-164v532z" />
    <glyph glyph-name="section" unicode="&#xa7;" horiz-adv-x="1073" 
d="M217 469q0 153 90 266.5t254 141.5q-55 34 -92 97t-37 134q0 146 99 236t260 90q101 0 165.5 -35.5t114.5 -98.5l-106 -100q-34 39 -71.5 59.5t-98.5 20.5q-94 0 -148.5 -53.5t-54.5 -141.5q0 -126 141 -204q138 -20 220.5 -106t82.5 -212q0 -166 -96 -281t-254 -137
q56 -34 93.5 -98t37.5 -139q0 -140 -100 -229t-266 -89q-178 0 -271 134l105 100q69 -80 170 -80q90 0 146 51t56 135q0 135 -145 213q-135 24 -215 109.5t-80 216.5zM383 477q0 -85 56.5 -141.5t152.5 -56.5q92 0 156.5 38t93 96t28.5 130q0 85 -57 142.5t-154 57.5
q-73 0 -128.5 -24.5t-86.5 -64.5t-46 -85t-15 -92z" />
    <glyph glyph-name="dieresis" unicode="&#xa8;" horiz-adv-x="862" 
d="M123 1249q0 42 29.5 68t70.5 26q37 0 65.5 -26.5t28.5 -67.5q0 -47 -28 -74.5t-66 -27.5q-43 0 -71.5 27t-28.5 75zM543 1249q0 41 30.5 67.5t71.5 26.5q37 0 65.5 -26.5t28.5 -67.5q0 -47 -28 -74.5t-66 -27.5q-43 0 -72.5 27t-29.5 75z" />
    <glyph glyph-name="copyright" unicode="&#xa9;" horiz-adv-x="2084" 
d="M236 453q0 183 68 347.5t185.5 283t283 188t351.5 69.5t351.5 -69.5t283 -188t186 -283t68.5 -347.5t-68.5 -347.5t-186 -283.5t-283 -188.5t-351.5 -69.5t-351.5 69.5t-283 188.5t-185.5 283.5t-68 347.5zM379 451q0 -152 56.5 -289t154 -237t237 -159t297.5 -59
q210 0 381.5 100t268 270.5t96.5 373.5q0 204 -96.5 375t-268 271.5t-381.5 100.5q-158 0 -297.5 -59t-237 -159.5t-154 -238t-56.5 -290.5zM1417 252l78 -119q-57 -74 -151.5 -113.5t-202.5 -39.5q-221 0 -357.5 132t-136.5 349q0 133 60 243t167.5 174t239.5 64
q242 0 363 -121l-76 -129q-104 96 -264 96q-128 0 -222 -92.5t-94 -234.5q0 -148 95.5 -238t236.5 -90q160 0 264 119z" />
    <glyph glyph-name="ordfeminine" unicode="&#xaa;" horiz-adv-x="870" 
d="M440 1174l-47 102q112 72 250 72q86 0 152 -28t102 -90t21 -147l-74 -417h-144l15 86q-92 -95 -228 -95q-114 0 -174.5 53t-60.5 142q0 108 76 173t215 65q130 0 223 -52l2 11q36 176 -141 176q-105 0 -187 -51zM537 778q94 0 196 74l17 94q-77 41 -179 41
q-68 0 -114.5 -33.5t-46.5 -79.5q0 -45 33.5 -70.5t93.5 -25.5z" />
    <glyph glyph-name="guillemotleft" unicode="&#xab;" horiz-adv-x="1085" 
d="M483 61l-307 463l2 8l422 426l98 -104l-340 -342l248 -365zM872 61l-307 463l2 8l422 426l98 -104l-339 -342l247 -365z" />
    <glyph glyph-name="logicalnot" unicode="&#xac;" 
d="M244 666v143h970v-412h-143v269h-827z" />
    <glyph glyph-name="uni00AD" unicode="&#xad;" horiz-adv-x="796" 
d="M217 481l27 154h489l-26 -154h-490z" />
    <glyph glyph-name="registered" unicode="&#xae;" horiz-adv-x="1265" 
d="M283 1018q0 143 70.5 264.5t193 192.5t268.5 71q143 0 264.5 -71t192.5 -192.5t71 -264.5q0 -146 -71 -269.5t-192.5 -194.5t-264.5 -71q-146 0 -268.5 71.5t-193 194.5t-70.5 269zM416 1016q0 -164 116.5 -281t280.5 -117t280.5 117t116.5 281t-116.5 280.5
t-280.5 116.5t-280.5 -116.5t-116.5 -280.5zM725 737h-113v574h201q115 0 168 -48.5t53 -129.5q0 -59 -35 -105t-88 -61l152 -230h-133l-129 207h-76v-207zM799 1229h-74v-203h80q50 0 83.5 29.5t33.5 74.5t-32 72t-91 27z" />
    <glyph glyph-name="macron" unicode="&#xaf;" horiz-adv-x="786" 
d="M113 1188l22 133h541l-23 -133h-540z" />
    <glyph glyph-name="degree" unicode="&#xb0;" horiz-adv-x="839" 
d="M301 1165q0 134 92 227t223 93q134 0 227 -89.5t93 -224.5q0 -133 -94 -227t-226 -94q-131 0 -223 91t-92 224zM444 1167q0 -72 51 -123t123 -51q71 0 123 51t52 123q0 70 -52 122t-123 52q-72 0 -123 -51.5t-51 -122.5z" />
    <glyph glyph-name="plusminus" unicode="&#xb1;" 
d="M264 840v143h385v391h154v-391h391v-143h-391v-252h-154v252h-385zM264 338v143h930v-143h-930z" />
    <glyph glyph-name="twosuperior" unicode="&#xb2;" horiz-adv-x="714" 
d="M199 717l18 104q11 7 60 35.5t69 40.5t66.5 41t69.5 46.5t60.5 46t57 50t41 48.5t30.5 52t9 50q0 40 -27.5 64t-79.5 24q-62 0 -103 -33.5t-54 -85.5l-119 43q21 95 103 147t184 52q118 0 185 -50t67 -137q0 -70 -39 -136t-105 -118t-135 -90.5t-147 -70.5h393l-23 -123
h-581z" />
    <glyph glyph-name="threesuperior" unicode="&#xb3;" horiz-adv-x="716" 
d="M483 705q-86 0 -165 36t-113 111l88 72q56 -101 199 -101q68 0 111.5 33t43.5 88q0 38 -34 61t-95 23h-69l16 102h61q65 0 106.5 33.5t41.5 83.5q0 37 -30.5 58.5t-84.5 21.5q-122 0 -194 -92l-68 78q94 131 289 131q119 0 183.5 -46t64.5 -130q0 -62 -56.5 -113.5
t-128.5 -62.5v-2q71 -7 110.5 -48.5t39.5 -97.5q0 -113 -85 -176t-231 -63z" />
    <glyph glyph-name="acute" unicode="&#xb4;" horiz-adv-x="589" 
d="M467 1380l-246 -293l-98 70l217 322z" />
    <glyph glyph-name="mu" unicode="&#xb5;" horiz-adv-x="1116" 
d="M1130 922l-163 -922h-164l24 131q-63 -63 -151 -107t-170 -44q-120 0 -197 63l-80 -453h-163l235 1332h164l-90 -512q-49 -277 188 -277q76 0 153.5 39t135.5 98l115 652h163z" />
    <glyph glyph-name="mu" unicode="&#x3bc;" horiz-adv-x="1116" 
d="M1130 922l-163 -922h-164l24 131q-63 -63 -151 -107t-170 -44q-120 0 -197 63l-80 -453h-163l235 1332h164l-90 -512q-49 -277 188 -277q76 0 153.5 39t135.5 98l115 652h163z" />
    <glyph glyph-name="paragraph" unicode="&#xb6;" horiz-adv-x="944" 
d="M215 985q0 207 120.5 328t317.5 121h353v-154h-193v-1307q0 -399 -338 -399q-68 0 -132 24.5t-101 59.5l67 119q65 -49 154 -49q45 0 78.5 13t53.5 35t32.5 55.5t17 68.5t4.5 80v559q-118 1 -215.5 52.5t-158 154.5t-60.5 239z" />
    <glyph glyph-name="periodcentered" unicode="&#xb7;" horiz-adv-x="460" 
d="M236 612q0 42 32.5 75.5t83.5 33.5q46 0 78.5 -34t32.5 -75q0 -48 -31 -82t-80 -34q-54 0 -85 33.5t-31 82.5z" />
    <glyph glyph-name="cedilla" unicode="&#xb8;" horiz-adv-x="718" 
d="M63 -346l62 76q62 -47 154 -47q52 0 82 24.5t30 63.5q0 65 -106 65h-13l29 164h88l-14 -88q180 -12 180 -137q0 -92 -72 -143.5t-204 -51.5q-139 0 -216 74z" />
    <glyph glyph-name="onesuperior" unicode="&#xb9;" horiz-adv-x="516" 
d="M272 1290l242 146h102l-127 -719h-143l92 540l-123 -71z" />
    <glyph glyph-name="ordmasculine" unicode="&#xba;" horiz-adv-x="942" 
d="M283 1008q0 157 102.5 258.5t251.5 101.5q153 0 255.5 -97t102.5 -255q0 -157 -104.5 -261t-255.5 -104q-149 0 -250.5 100t-101.5 257zM426 1010q0 -96 61.5 -159t151.5 -63q97 0 155 60.5t58 163.5q0 94 -62 156.5t-151 62.5q-97 0 -155 -62t-58 -159z" />
    <glyph glyph-name="guillemotright" unicode="&#xbb;" horiz-adv-x="1085" 
d="M389 958l307 -462l-2 -9l-422 -426l-96 103l338 344l-248 364zM778 958l307 -462l-2 -9l-421 -426l-97 103l338 344l-248 364z" />
    <glyph glyph-name="onequarter" unicode="&#xbc;" horiz-adv-x="1378" 
d="M293 1290l242 146h102l-127 -719h-143l92 540l-123 -71zM227 47l1053 1407l94 -70l-1050 -1404zM1083 0l29 162h-397l16 94l426 461h150l-412 -443h238l32 187h133l-32 -187h120l-20 -112h-121l-28 -162h-134z" />
    <glyph glyph-name="onehalf" unicode="&#xbd;" horiz-adv-x="1411" 
d="M293 1290l242 146h102l-127 -719h-143l92 540l-123 -71zM186 47l1053 1407l94 -70l-1050 -1404zM750 0l18 104q11 7 60 35.5t69 40.5t66.5 41t69.5 46.5t60.5 46t57 50t41 48.5t30.5 52t9 50q0 40 -27.5 64t-79.5 24q-62 0 -103 -33.5t-54 -85.5l-119 43q21 95 103 147
t184 52q118 0 184.5 -49.5t66.5 -136.5q0 -57 -26.5 -111.5t-68.5 -98t-99.5 -84t-113.5 -69t-117 -53.5h393l-23 -123h-581z" />
    <glyph glyph-name="threequarters" unicode="&#xbe;" horiz-adv-x="1501" 
d="M494 705q-86 0 -165.5 36t-113.5 111l88 72q56 -101 199 -101q68 0 111.5 33t43.5 88q0 38 -34 61t-95 23h-69l16 102h62q65 0 106 33.5t41 83.5q0 37 -30.5 58.5t-84.5 21.5q-122 0 -194 -92l-68 78q94 131 289 131q119 0 183.5 -46t64.5 -130q0 -62 -56.5 -113.5
t-128.5 -62.5v-2q71 -7 110.5 -48.5t39.5 -97.5q0 -113 -84.5 -176t-230.5 -63zM350 47l1053 1407l94 -70l-1051 -1404zM1206 0l29 162h-397l16 94l426 461h150l-412 -443h237l33 187h133l-32 -187h120l-20 -112h-121l-29 -162h-133z" />
    <glyph glyph-name="questiondown" unicode="&#xbf;" horiz-adv-x="954" 
d="M213 -160q0 -194 211 -194q160 0 297 153l98 -110q-164 -207 -432 -207q-169 0 -258.5 91.5t-89.5 233.5q0 75 28 142.5t73.5 118.5t100 97.5t110 88.5t101.5 82.5t76.5 88t32.5 97.5h135q2 -65 -23.5 -124t-68 -104t-94.5 -87.5t-104 -83t-95.5 -82t-70.5 -93.5
t-27 -108zM799 852q0 -42 -32.5 -75.5t-84.5 -33.5q-46 0 -77.5 33.5t-31.5 75.5q0 47 31.5 82t77.5 35q52 0 84.5 -34.5t32.5 -82.5z" />
    <glyph glyph-name="Agrave" unicode="&#xc0;" horiz-adv-x="1443" 
d="M31 0l870 1442h150l362 -1442h-176l-109 434h-653l-258 -434h-186zM940 1210l-367 -612h517zM1090 1505l-414 172l61 140l400 -213z" />
    <glyph glyph-name="Aacute" unicode="&#xc1;" horiz-adv-x="1443" 
d="M31 0l870 1442h150l362 -1442h-176l-109 434h-653l-258 -434h-186zM940 1210l-367 -612h517zM1298 1677l-413 -172l-47 99l399 213z" />
    <glyph glyph-name="Acircumflex" unicode="&#xc2;" horiz-adv-x="1443" 
d="M31 0l870 1442h150l362 -1442h-176l-109 434h-653l-258 -434h-186zM940 1210l-367 -612h517zM1028 1806l330 -211l-76 -94l-266 166l-322 -166l-51 98l377 207h8z" />
    <glyph glyph-name="Atilde" unicode="&#xc3;" horiz-adv-x="1443" 
d="M31 0l870 1442h150l362 -1442h-176l-109 434h-653l-258 -434h-186zM940 1210l-367 -612h517zM709 1559l-54 102q42 45 97 70.5t108 25.5q63 0 158 -41t149 -41q93 0 154 66l45 -103q-80 -106 -209 -106q-55 0 -154.5 41t-158.5 41q-69 0 -135 -55z" />
    <glyph glyph-name="Adieresis" unicode="&#xc4;" horiz-adv-x="1443" 
d="M31 0l870 1442h150l362 -1442h-176l-109 434h-653l-258 -434h-186zM940 1210l-367 -612h517zM666 1665q0 42 32.5 67t79.5 25q42 0 74.5 -25.5t32.5 -66.5q0 -45 -32 -71.5t-75 -26.5q-48 0 -80 26t-32 72zM1141 1665q0 41 33.5 66.5t80.5 25.5q42 0 73.5 -25t31.5 -67
q0 -45 -31.5 -71.5t-73.5 -26.5q-48 0 -81 26.5t-33 71.5z" />
    <glyph glyph-name="Aring" unicode="&#xc5;" horiz-adv-x="1443" 
d="M940 1210l-369 -612h516zM1057 1421l356 -1421h-176l-111 434h-653l-256 -434h-186l864 1432q-67 21 -107 70t-40 120q0 98 71 147.5t182 49.5q114 0 186.5 -49.5t72.5 -147.5q0 -84 -56.5 -136t-146.5 -65zM870 1622q0 -55 37 -84t97 -29q58 0 95.5 29t37.5 84
q0 53 -36.5 78.5t-96.5 25.5q-61 0 -97.5 -25.5t-36.5 -78.5z" />
    <glyph glyph-name="AE" unicode="&#xc6;" horiz-adv-x="1957" 
d="M2056 1434l-28 -164h-635l-82 -463h573l-29 -164h-573l-84 -479h655l-28 -164h-830l78 442h-506l-389 -442h-209l1276 1434h811zM1198 1155l-483 -549h387z" />
    <glyph glyph-name="Ccedilla" unicode="&#xc7;" horiz-adv-x="1343" 
d="M571 -344l62 84q73 -57 155 -57q57 0 87 24t30 64q0 65 -106 65h-13l25 148q-184 18 -320.5 111t-206 236t-69.5 318q0 228 110 412.5t302 288.5t428 104q148 0 260.5 -34t173.5 -91l-90 -125q-138 86 -332 86q-186 0 -337.5 -79t-239 -221.5t-87.5 -319.5
q0 -147 62.5 -266t183.5 -190t281 -71q212 0 366 109l66 -131q-80 -69 -209 -105t-252 -36h-2l-12 -68q192 -12 192 -137q0 -92 -75.5 -143.5t-188.5 -51.5q-147 0 -244 76z" />
    <glyph glyph-name="Egrave" unicode="&#xc8;" horiz-adv-x="1177" 
d="M215 0l252 1434h809l-29 -164h-635l-82 -463h574l-29 -164h-573l-84 -479h655l-29 -164h-829zM1049 1505l-414 172l61 140l400 -213z" />
    <glyph glyph-name="Eacute" unicode="&#xc9;" horiz-adv-x="1177" 
d="M215 0l252 1434h809l-29 -164h-635l-82 -463h574l-29 -164h-573l-84 -479h655l-29 -164h-829zM1178 1677l-414 -172l-47 99l399 213z" />
    <glyph glyph-name="Ecircumflex" unicode="&#xca;" horiz-adv-x="1177" 
d="M215 0l252 1434h809l-29 -164h-635l-82 -463h574l-29 -164h-573l-84 -479h655l-29 -164h-829zM930 1806l330 -211l-76 -94l-266 166l-322 -166l-51 98l377 207h8z" />
    <glyph glyph-name="Edieresis" unicode="&#xcb;" horiz-adv-x="1177" 
d="M215 0l252 1434h809l-29 -164h-635l-82 -463h574l-29 -164h-573l-84 -479h655l-29 -164h-829zM571 1665q0 41 33 66.5t80 25.5q42 0 74.5 -25.5t32.5 -66.5q0 -45 -32 -71.5t-75 -26.5q-48 0 -80.5 26t-32.5 72zM1047 1665q0 41 33.5 66.5t80.5 25.5q42 0 73.5 -25
t31.5 -67q0 -45 -31.5 -71.5t-73.5 -26.5q-48 0 -81 26.5t-33 71.5z" />
    <glyph glyph-name="Igrave" unicode="&#xcc;" horiz-adv-x="686" 
d="M256 0l252 1434h174l-252 -1434h-174zM733 1505l-414 172l62 140l399 -213z" />
    <glyph glyph-name="Iacute" unicode="&#xcd;" horiz-adv-x="686" 
d="M256 0l252 1434h174l-252 -1434h-174zM924 1677l-414 -172l-47 99l399 213z" />
    <glyph glyph-name="Icircumflex" unicode="&#xce;" horiz-adv-x="686" 
d="M256 0l252 1434h174l-252 -1434h-174zM651 1806l330 -211l-76 -94l-266 166l-322 -166l-51 98l377 207h8z" />
    <glyph glyph-name="Idieresis" unicode="&#xcf;" horiz-adv-x="686" 
d="M256 0l252 1434h174l-252 -1434h-174zM698 1665q0 41 33.5 66.5t81.5 25.5q42 0 73.5 -25t31.5 -67q0 -45 -31.5 -71.5t-73.5 -26.5q-48 0 -81.5 26.5t-33.5 71.5zM356 1665q0 41 33 66.5t80 25.5q42 0 74 -25.5t32 -66.5q0 -45 -31.5 -71.5t-74.5 -26.5q-48 0 -80.5 26
t-32.5 72z" />
    <glyph glyph-name="Eth" unicode="&#xd0;" horiz-adv-x="1513" 
d="M102 647l27 154h225l113 633h25q44 0 175.5 3t192.5 3q181 0 317.5 -46.5t217 -130t120 -190.5t39.5 -237q0 -176 -64 -328.5t-184 -266.5t-304.5 -179.5t-411.5 -65.5q-45 0 -166.5 2t-185.5 2h-23l113 647h-226zM827 1276q-38 0 -74 -1t-76.5 -2.5t-64.5 -2.5l-84 -469
h385l-26 -154h-385l-84 -483q188 -4 207 -4q349 0 545 179t196 492q0 217 -134.5 331t-404.5 114z" />
    <glyph glyph-name="Ntilde" unicode="&#xd1;" horiz-adv-x="1628" 
d="M1413 0h-139l-694 1153l-201 -1153h-164l252 1434h139l692 -1151l203 1151h164zM815 1559l-53 102q42 45 97 70.5t108 25.5q63 0 158 -41t149 -41q92 0 153 66l46 -103q-79 -106 -209 -106q-55 0 -155 41t-159 41q-69 0 -135 -55z" />
    <glyph glyph-name="Ograve" unicode="&#xd2;" horiz-adv-x="1667" 
d="M215 645q0 165 58.5 312.5t163 257.5t260 174.5t339.5 64.5q295 0 481.5 -176t186.5 -467q0 -180 -59 -335t-162.5 -263.5t-251 -170.5t-318.5 -62q-169 0 -303 51.5t-219.5 142t-130.5 210.5t-45 261zM403 655q0 -161 71 -279t186.5 -175.5t259.5 -57.5q125 0 234 45.5
t189.5 127.5t126.5 205t46 270q0 226 -136 362.5t-362 136.5q-122 0 -233 -44t-196 -123.5t-135.5 -201t-50.5 -266.5zM1270 1505l-414 172l62 140l399 -213z" />
    <glyph glyph-name="Oacute" unicode="&#xd3;" horiz-adv-x="1667" 
d="M215 645q0 165 58.5 312.5t163 257.5t260 174.5t339.5 64.5q295 0 481.5 -176t186.5 -467q0 -180 -59 -335t-162.5 -263.5t-251 -170.5t-318.5 -62q-169 0 -303 51.5t-219.5 142t-130.5 210.5t-45 261zM403 655q0 -161 71 -279t186.5 -175.5t259.5 -57.5q125 0 234 45.5
t189.5 127.5t126.5 205t46 270q0 226 -136 362.5t-362 136.5q-122 0 -233 -44t-196 -123.5t-135.5 -201t-50.5 -266.5zM1403 1677l-414 -172l-47 99l399 213z" />
    <glyph glyph-name="Ocircumflex" unicode="&#xd4;" horiz-adv-x="1667" 
d="M215 645q0 165 58.5 312.5t163 257.5t260 174.5t339.5 64.5q295 0 481.5 -176t186.5 -467q0 -180 -59 -335t-162.5 -263.5t-251 -170.5t-318.5 -62q-169 0 -303 51.5t-219.5 142t-130.5 210.5t-45 261zM403 655q0 -161 71 -279t186.5 -175.5t259.5 -57.5q125 0 234 45.5
t189.5 127.5t126.5 205t46 270q0 226 -136 362.5t-362 136.5q-122 0 -233 -44t-196 -123.5t-135.5 -201t-50.5 -266.5zM1135 1806l329 -211l-75 -94l-267 166l-321 -166l-51 98l376 207h9z" />
    <glyph glyph-name="Otilde" unicode="&#xd5;" horiz-adv-x="1667" 
d="M215 645q0 165 58.5 312.5t163 257.5t260 174.5t339.5 64.5q295 0 481.5 -176t186.5 -467q0 -180 -59 -335t-162.5 -263.5t-251 -170.5t-318.5 -62q-169 0 -303 51.5t-219.5 142t-130.5 210.5t-45 261zM403 655q0 -161 71 -279t186.5 -175.5t259.5 -57.5q125 0 234 45.5
t189.5 127.5t126.5 205t46 270q0 226 -136 362.5t-362 136.5q-122 0 -233 -44t-196 -123.5t-135.5 -201t-50.5 -266.5zM819 1559l-53 102q42 45 97 70.5t108 25.5q63 0 158 -41t149 -41q93 0 154 66l45 -103q-79 -106 -209 -106q-55 0 -155 41t-159 41q-69 0 -135 -55z" />
    <glyph glyph-name="Odieresis" unicode="&#xd6;" horiz-adv-x="1667" 
d="M215 645q0 165 58.5 312.5t163 257.5t260 174.5t339.5 64.5q295 0 481.5 -176t186.5 -467q0 -180 -59 -335t-162.5 -263.5t-251 -170.5t-318.5 -62q-169 0 -303 51.5t-219.5 142t-130.5 210.5t-45 261zM403 655q0 -161 71 -279t186.5 -175.5t259.5 -57.5q125 0 234 45.5
t189.5 127.5t126.5 205t46 270q0 226 -136 362.5t-362 136.5q-122 0 -233 -44t-196 -123.5t-135.5 -201t-50.5 -266.5zM776 1665q0 41 33 66.5t80 25.5q42 0 74 -25.5t32 -66.5q0 -45 -31.5 -71.5t-74.5 -26.5q-48 0 -80.5 26t-32.5 72zM1251 1665q0 41 33.5 66.5t81.5 25.5
q42 0 73 -25t31 -67q0 -45 -31 -71.5t-73 -26.5q-48 0 -81.5 26.5t-33.5 71.5z" />
    <glyph glyph-name="multiply" unicode="&#xd7;" 
d="M350 1014l103 102l276 -278l277 278l100 -102l-277 -277l281 -278l-102 -103l-279 279l-280 -279l-101 103l279 278z" />
    <glyph glyph-name="Oslash" unicode="&#xd8;" horiz-adv-x="1667" 
d="M176 172l131 109q-92 157 -92 364q0 165 58.5 312.5t163 257.5t260 174.5t339.5 64.5q293 0 480 -174l120 98l86 -104l-120 -98q102 -155 102 -365q0 -180 -59 -335t-162.5 -263.5t-251 -170.5t-318.5 -62q-336 0 -524 194l-127 -106zM1516 791q0 144 -62 262l-919 -760
q147 -150 385 -150q125 0 234 45.5t189.5 127.5t126.5 205t46 270zM403 655q0 -137 56 -249l913 753q-134 131 -354 131q-122 0 -233 -44t-196 -123.5t-135.5 -201t-50.5 -266.5z" />
    <glyph glyph-name="Ugrave" unicode="&#xd9;" horiz-adv-x="1538" 
d="M1597 1434l-147 -836q-57 -321 -222.5 -468.5t-441.5 -147.5q-235 0 -369 126.5t-128 366.5q3 72 14 137l146 822h178l-144 -789q-14 -74 -14 -145q-9 -355 346 -355q382 0 467 488l141 801h174zM1178 1505l-414 172l61 140l400 -213z" />
    <glyph glyph-name="Uacute" unicode="&#xda;" horiz-adv-x="1538" 
d="M1597 1434l-147 -836q-57 -321 -222.5 -468.5t-441.5 -147.5q-235 0 -369 126.5t-128 366.5q3 72 14 137l146 822h178l-144 -789q-14 -74 -14 -145q-9 -355 346 -355q382 0 467 488l141 801h174zM1368 1677l-414 -172l-47 99l400 213z" />
    <glyph glyph-name="Ucircumflex" unicode="&#xdb;" horiz-adv-x="1538" 
d="M1597 1434l-147 -836q-57 -321 -222.5 -468.5t-441.5 -147.5q-235 0 -369 126.5t-128 366.5q3 72 14 137l146 822h178l-144 -789q-14 -74 -14 -145q-9 -355 346 -355q382 0 467 488l141 801h174zM1075 1806l330 -211l-76 -94l-266 166l-322 -166l-51 98l377 207h8z" />
    <glyph glyph-name="Udieresis" unicode="&#xdc;" horiz-adv-x="1538" 
d="M1597 1434l-147 -836q-57 -321 -222.5 -468.5t-441.5 -147.5q-235 0 -369 126.5t-128 366.5q3 72 14 137l146 822h178l-144 -789q-14 -74 -14 -145q-9 -355 346 -355q382 0 467 488l141 801h174zM705 1665q0 42 32.5 67t79.5 25q42 0 74.5 -25.5t32.5 -66.5
q0 -45 -32 -71.5t-75 -26.5q-48 0 -80 26t-32 72zM1180 1665q0 41 33.5 66.5t80.5 25.5q42 0 73.5 -25t31.5 -67q0 -45 -31.5 -71.5t-73.5 -26.5q-48 0 -81 26.5t-33 71.5z" />
    <glyph glyph-name="Yacute" unicode="&#xdd;" horiz-adv-x="1236" 
d="M1468 1434l-659 -820l-107 -614h-174l107 614l-363 820h187l286 -656l519 656h204zM1190 1677l-414 -172l-47 99l399 213z" />
    <glyph glyph-name="Thorn" unicode="&#xde;" horiz-adv-x="1222" 
d="M389 0h-174l252 1434h174l-37 -215q26 0 103 2t98 2q126 0 218.5 -30t144 -83t75 -116t23.5 -138q0 -125 -46.5 -226t-128 -166.5t-191.5 -100.5t-238 -35q-120 0 -213 8zM778 1059q-64 0 -205 -6l-96 -551q117 -10 207 -10q180 0 287.5 91.5t107.5 245.5
q0 110 -70.5 170t-230.5 60z" />
    <glyph glyph-name="germandbls" unicode="&#xdf;" horiz-adv-x="1073" 
d="M885 332q0 46 -21 86.5t-53 68.5t-68.5 59.5t-68.5 60t-53 69.5t-21 88q0 49 14 90t36.5 69t49.5 52.5t54 46.5t49.5 44t36.5 51.5t14 64.5q0 52 -41 85t-106 33q-101 0 -152.5 -68.5t-73.5 -195.5l-176 -1040h-158l177 1044q16 98 42.5 169t72 128.5t116.5 87t168 29.5
q133 0 218 -68t85 -180q0 -55 -19 -100t-47 -72.5t-61 -56t-61 -51.5t-47 -58t-19 -77q0 -34 15.5 -65.5t40.5 -56.5t55.5 -50.5t60.5 -53.5t55 -59t40.5 -74t15.5 -92q0 -156 -96.5 -258t-258.5 -102q-166 0 -266 141l72 117q39 -55 83.5 -80t106.5 -25q88 0 138.5 56
t50.5 143z" />
    <glyph glyph-name="agrave" unicode="&#xe0;" horiz-adv-x="1040" 
d="M442 133q65 0 153 84t156 194.5t89 194.5l32 164q-55 18 -124 18q-131 0 -234 -61.5t-158 -166t-55 -232.5q0 -90 36 -142.5t105 -52.5zM897 0h-162l58 324q-32 -52 -61.5 -94.5t-72.5 -91.5t-85.5 -81.5t-96.5 -54.5t-110 -22q-116 0 -176 88t-60 235q0 176 81 323
t220.5 231.5t306.5 84.5q177 0 301 -63zM797 1087l-248 291l129 99l219 -320z" />
    <glyph glyph-name="aacute" unicode="&#xe1;" horiz-adv-x="1040" 
d="M442 133q65 0 153 84t156 194.5t89 194.5l32 164q-55 18 -124 18q-131 0 -234 -61.5t-158 -166t-55 -232.5q0 -90 36 -142.5t105 -52.5zM897 0h-162l58 324q-32 -52 -61.5 -94.5t-72.5 -91.5t-85.5 -81.5t-96.5 -54.5t-110 -22q-116 0 -176 88t-60 235q0 176 81 323
t220.5 231.5t306.5 84.5q177 0 301 -63zM1018 1380l-246 -293l-98 70l217 322z" />
    <glyph glyph-name="acircumflex" unicode="&#xe2;" horiz-adv-x="1040" 
d="M442 133q65 0 153 84t156 194.5t89 194.5l32 164q-55 18 -124 18q-131 0 -234 -61.5t-158 -166t-55 -232.5q0 -90 36 -142.5t105 -52.5zM897 0h-162l58 324q-32 -52 -61.5 -94.5t-72.5 -91.5t-85.5 -81.5t-96.5 -54.5t-110 -22q-116 0 -176 88t-60 235q0 176 81 323
t220.5 231.5t306.5 84.5q177 0 301 -63zM797 1448l241 -291l-90 -80l-176 211l-250 -209l-65 95l331 274h9z" />
    <glyph glyph-name="atilde" unicode="&#xe3;" horiz-adv-x="1040" 
d="M442 133q65 0 153 84t156 194.5t89 194.5l32 164q-55 18 -124 18q-131 0 -234 -61.5t-158 -166t-55 -232.5q0 -90 36 -142.5t105 -52.5zM897 0h-162l58 324q-32 -52 -61.5 -94.5t-72.5 -91.5t-85.5 -81.5t-96.5 -54.5t-110 -22q-116 0 -176 88t-60 235q0 176 81 323
t220.5 231.5t306.5 84.5q177 0 301 -63zM483 1141l-67 76q108 122 225 122q49 0 119.5 -45t111.5 -45q37 0 67.5 16t78.5 56l57 -84q-115 -121 -217 -121q-45 0 -116 45t-117 45q-57 0 -142 -65z" />
    <glyph glyph-name="adieresis" unicode="&#xe4;" horiz-adv-x="1040" 
d="M442 133q65 0 153 84t156 194.5t89 194.5l32 164q-55 18 -124 18q-131 0 -234 -61.5t-158 -166t-55 -232.5q0 -90 36 -142.5t105 -52.5zM897 0h-162l58 324q-32 -52 -61.5 -94.5t-72.5 -91.5t-85.5 -81.5t-96.5 -54.5t-110 -22q-116 0 -176 88t-60 235q0 176 81 323
t220.5 231.5t306.5 84.5q177 0 301 -63zM449 1249q0 42 29.5 68t70.5 26q37 0 65.5 -26.5t28.5 -67.5q0 -47 -28 -74.5t-66 -27.5q-43 0 -71.5 27t-28.5 75zM868 1249q0 41 31 67.5t72 26.5q37 0 65.5 -26.5t28.5 -67.5q0 -47 -28 -74.5t-66 -27.5q-43 0 -73 27t-30 75z" />
    <glyph glyph-name="aring" unicode="&#xe5;" horiz-adv-x="1040" 
d="M442 133q65 0 153 84t156 194.5t89 194.5l32 164q-55 18 -124 18q-131 0 -234 -61.5t-158 -166t-55 -232.5q0 -90 36 -142.5t105 -52.5zM897 0h-162l58 324q-32 -52 -61.5 -94.5t-72.5 -91.5t-85.5 -81.5t-96.5 -54.5t-110 -22q-116 0 -176 88t-60 235q0 176 81 323
t220.5 231.5t306.5 84.5q177 0 301 -63zM518 1255q0 95 67.5 161.5t166.5 66.5q100 0 168.5 -66.5t68.5 -161.5q0 -94 -68 -159.5t-169 -65.5q-99 0 -166.5 65.5t-67.5 159.5zM625 1257q0 -57 37 -96t92 -39t92 39t37 96q0 56 -37 95t-92 39t-92 -39t-37 -95z" />
    <glyph glyph-name="ae" unicode="&#xe6;" horiz-adv-x="1607" 
d="M788 299q-193 -319 -421 -319q-116 0 -176 88t-60 235q0 176 81 323t220.5 231.5t306.5 84.5q189 0 310 -90q119 90 299 90q148 0 214 -64t64 -163q-2 -154 -161 -242.5t-507 -105.5q0 -115 61.5 -174.5t166.5 -59.5q119 0 280 115l76 -98q-71 -73 -176 -121.5
t-211 -48.5q-159 0 -258.5 92.5t-108.5 226.5zM442 133q64 0 150 82.5t152 188.5t94 190q49 108 84 147q-40 29 -84.5 38t-112.5 9q-177 0 -300.5 -134t-123.5 -326q0 -90 36 -142.5t105 -52.5zM1327 788q-130 0 -226.5 -86.5t-129.5 -218.5q178 13 287.5 44t151 70.5
t42.5 92.5q1 48 -32 73t-93 25z" />
    <glyph glyph-name="ccedilla" unicode="&#xe7;" horiz-adv-x="890" 
d="M211 -346l61 76q62 -47 154 -47q52 0 82.5 24.5t30.5 63.5q0 65 -107 65h-12l24 146q-82 6 -144.5 39t-98 83.5t-53 108.5t-17.5 121q0 118 37 227t105 194t173.5 136t231.5 51q163 0 237 -51l-55 -137q-35 13 -92.5 23.5t-105.5 10.5q-108 0 -191 -59t-125.5 -153
t-42.5 -205q0 -107 54.5 -172.5t154.5 -65.5q48 0 103.5 22t83 39.5t79.5 53.5l74 -98q-62 -65 -145.5 -110.5t-174.5 -55.5l-10 -72q180 -12 180 -137q0 -92 -72 -143.5t-204 -51.5q-138 0 -215 74z" />
    <glyph glyph-name="egrave" unicode="&#xe8;" horiz-adv-x="952" 
d="M811 248l76 -98q-71 -73 -176 -121.5t-211 -48.5q-91 0 -164 31.5t-116.5 83t-66 113t-22.5 126.5q0 118 38.5 227t108.5 194t177.5 136t236.5 51q148 0 214.5 -64t64.5 -163q-2 -154 -161 -242.5t-507 -105.5q0 -115 61 -174.5t166 -59.5q120 0 281 115zM672 788
q-130 0 -227 -86.5t-130 -218.5q178 13 287.5 44t151.5 70.5t43 92.5q1 48 -32 73t-93 25zM791 1087l-248 291l129 99l219 -320z" />
    <glyph glyph-name="eacute" unicode="&#xe9;" horiz-adv-x="952" 
d="M811 248l76 -98q-71 -73 -176 -121.5t-211 -48.5q-91 0 -164 31.5t-116.5 83t-66 113t-22.5 126.5q0 118 38.5 227t108.5 194t177.5 136t236.5 51q148 0 214.5 -64t64.5 -163q-2 -154 -161 -242.5t-507 -105.5q0 -115 61 -174.5t166 -59.5q120 0 281 115zM672 788
q-130 0 -227 -86.5t-130 -218.5q178 13 287.5 44t151.5 70.5t43 92.5q1 48 -32 73t-93 25zM1044 1380l-245 -293l-99 70l218 322z" />
    <glyph glyph-name="ecircumflex" unicode="&#xea;" horiz-adv-x="952" 
d="M811 248l76 -98q-71 -73 -176 -121.5t-211 -48.5q-91 0 -164 31.5t-116.5 83t-66 113t-22.5 126.5q0 118 38.5 227t108.5 194t177.5 136t236.5 51q148 0 214.5 -64t64.5 -163q-2 -154 -161 -242.5t-507 -105.5q0 -115 61 -174.5t166 -59.5q120 0 281 115zM672 788
q-130 0 -227 -86.5t-130 -218.5q178 13 287.5 44t151.5 70.5t43 92.5q1 48 -32 73t-93 25zM801 1448l241 -291l-90 -80l-176 211l-250 -209l-65 95l332 274h8z" />
    <glyph glyph-name="edieresis" unicode="&#xeb;" horiz-adv-x="952" 
d="M811 248l76 -98q-71 -73 -176 -121.5t-211 -48.5q-91 0 -164 31.5t-116.5 83t-66 113t-22.5 126.5q0 118 38.5 227t108.5 194t177.5 136t236.5 51q148 0 214.5 -64t64.5 -163q-2 -154 -161 -242.5t-507 -105.5q0 -115 61 -174.5t166 -59.5q120 0 281 115zM672 788
q-130 0 -227 -86.5t-130 -218.5q178 13 287.5 44t151.5 70.5t43 92.5q1 48 -32 73t-93 25zM410 1249q0 42 29.5 68t70.5 26q37 0 65.5 -26.5t28.5 -67.5q0 -47 -28 -74.5t-66 -27.5q-43 0 -71.5 27t-28.5 75zM829 1249q0 41 31 67.5t72 26.5q37 0 65.5 -26.5t28.5 -67.5
q0 -47 -28 -74.5t-66 -27.5q-43 0 -73 27t-30 75z" />
    <glyph glyph-name="igrave" unicode="&#xec;" horiz-adv-x="485" 
d="M141 0l156 922h158l-156 -922h-158zM420 1087l-248 291l129 99l219 -320z" />
    <glyph glyph-name="iacute" unicode="&#xed;" horiz-adv-x="485" 
d="M141 0l156 922h158l-156 -922h-158zM666 1380l-246 -293l-98 70l217 322z" />
    <glyph glyph-name="icircumflex" unicode="&#xee;" horiz-adv-x="485" 
d="M141 0l156 922h158l-156 -922h-158zM481 1448l242 -291l-90 -80l-176 211l-250 -209l-66 95l332 274h8z" />
    <glyph glyph-name="idieresis" unicode="&#xef;" horiz-adv-x="483" 
d="M141 0l156 922h156l-154 -922h-158zM213 1245q0 38 26 62t64 24q32 0 57 -24.5t25 -61.5q0 -40 -25 -65t-57 -25q-38 0 -64 25t-26 65zM492 1245q0 37 26 61.5t62 24.5q33 0 57.5 -24.5t24.5 -61.5q0 -40 -24 -65t-58 -25q-36 0 -62 25t-26 65z" />
    <glyph glyph-name="eth" unicode="&#xf0;" horiz-adv-x="1077" 
d="M784 1159l-243 -153l-49 137l194 123q-113 88 -209 125l170 63q99 -40 176 -100l195 125l43 -140l-133 -86q78 -89 122 -210.5t44 -243.5q0 -121 -19 -234.5t-64 -221t-110.5 -187t-167 -128t-225.5 -48.5q-170 0 -273.5 104t-103.5 278q0 84 23.5 165.5t69.5 152.5
t109.5 125t149.5 85.5t183 31.5q161 0 260 -95q-9 96 -47 184.5t-95 147.5zM651 768q-153 0 -252.5 -105t-99.5 -276q0 -122 63.5 -188t165.5 -66q71 0 131.5 28.5t105 78t78 117t53.5 143.5t28 159q-116 109 -273 109z" />
    <glyph glyph-name="ntilde" unicode="&#xf1;" horiz-adv-x="1050" 
d="M279 922h157l-55 -320q38 61 85 117t106 108.5t128 83.5t136 31q94 0 139 -58t45 -145q0 -73 -25 -207l-102 -532h-156l99 502q24 140 22 184q-2 48 -19 75t-59 27q-72 0 -170 -80.5t-174 -189t-100 -192.5l-55 -326h-158zM494 1141l-68 76q108 122 225 122q49 0 120 -45
t112 -45q37 0 66.5 15.5t78.5 56.5l57 -84q-115 -121 -217 -121q-45 0 -116 45t-117 45q-56 0 -141 -65z" />
    <glyph glyph-name="ograve" unicode="&#xf2;" horiz-adv-x="1032" 
d="M506 -20q-167 0 -271 104.5t-104 277.5q0 113 37.5 217t105 185t170.5 129.5t224 48.5q163 0 259.5 -98.5t96.5 -274.5q0 -259 -143.5 -424t-374.5 -165zM532 133q149 0 236.5 114.5t87.5 293.5q0 122 -55.5 184.5t-157.5 62.5q-149 0 -245.5 -108t-96.5 -293
q0 -122 64 -188t167 -66zM721 1087l-248 291l129 99l219 -320z" />
    <glyph glyph-name="oacute" unicode="&#xf3;" horiz-adv-x="1032" 
d="M506 -20q-167 0 -271 104.5t-104 277.5q0 113 37.5 217t105 185t170.5 129.5t224 48.5q163 0 259.5 -98.5t96.5 -274.5q0 -259 -143.5 -424t-374.5 -165zM532 133q149 0 236.5 114.5t87.5 293.5q0 122 -55.5 184.5t-157.5 62.5q-149 0 -245.5 -108t-96.5 -293
q0 -122 64 -188t167 -66zM1018 1380l-246 -293l-98 70l217 322z" />
    <glyph glyph-name="ocircumflex" unicode="&#xf4;" horiz-adv-x="1032" 
d="M506 -20q-167 0 -271 104.5t-104 277.5q0 113 37.5 217t105 185t170.5 129.5t224 48.5q163 0 259.5 -98.5t96.5 -274.5q0 -259 -143.5 -424t-374.5 -165zM532 133q149 0 236.5 114.5t87.5 293.5q0 122 -55.5 184.5t-157.5 62.5q-149 0 -245.5 -108t-96.5 -293
q0 -122 64 -188t167 -66zM780 1448l242 -291l-90 -80l-176 211l-250 -209l-66 95l332 274h8z" />
    <glyph glyph-name="otilde" unicode="&#xf5;" horiz-adv-x="1032" 
d="M506 -20q-167 0 -271 104.5t-104 277.5q0 113 37.5 217t105 185t170.5 129.5t224 48.5q163 0 259.5 -98.5t96.5 -274.5q0 -259 -143.5 -424t-374.5 -165zM532 133q149 0 236.5 114.5t87.5 293.5q0 122 -55.5 184.5t-157.5 62.5q-149 0 -245.5 -108t-96.5 -293
q0 -122 64 -188t167 -66zM483 1141l-67 76q108 122 225 122q49 0 119.5 -45t111.5 -45q37 0 67.5 16t78.5 56l57 -84q-115 -121 -217 -121q-45 0 -116 45t-117 45q-57 0 -142 -65z" />
    <glyph glyph-name="odieresis" unicode="&#xf6;" horiz-adv-x="1032" 
d="M506 -20q-167 0 -271 104.5t-104 277.5q0 113 37.5 217t105 185t170.5 129.5t224 48.5q163 0 259.5 -98.5t96.5 -274.5q0 -259 -143.5 -424t-374.5 -165zM532 133q149 0 236.5 114.5t87.5 293.5q0 122 -55.5 184.5t-157.5 62.5q-149 0 -245.5 -108t-96.5 -293
q0 -122 64 -188t167 -66zM440 1249q0 41 30 67.5t71 26.5q37 0 65.5 -26.5t28.5 -67.5q0 -47 -28 -74.5t-66 -27.5q-43 0 -72 27t-29 75zM860 1249q0 41 31 67.5t72 26.5q37 0 65.5 -26.5t28.5 -67.5q0 -47 -28 -74.5t-66 -27.5q-43 0 -73 27t-30 75z" />
    <glyph glyph-name="divide" unicode="&#xf7;" 
d="M627 1155q0 38 27.5 68t74.5 30q44 0 72 -30t28 -68q0 -42 -28 -73t-72 -31q-47 0 -74.5 31t-27.5 73zM627 322q0 37 27.5 66.5t74.5 29.5q42 0 71 -30t29 -66q0 -43 -28 -74t-72 -31q-47 0 -74.5 30.5t-27.5 74.5zM264 666v143h930v-143h-930z" />
    <glyph glyph-name="oslash" unicode="&#xf8;" horiz-adv-x="1032" 
d="M506 -20q-157 0 -254 88l-109 -97l-90 103l117 104q-39 83 -39 184q0 113 37.5 217t105 185t170.5 129.5t224 48.5q159 0 254 -92l92 82l92 -105l-109 -96q27 -79 27 -162q0 -259 -143.5 -424t-374.5 -165zM301 387q0 -51 8 -84l484 430q-55 55 -150 55
q-149 0 -245.5 -108t-96.5 -293zM532 133q149 0 236.5 114.5t87.5 293.5q0 23 -4 59l-471 -418q61 -49 151 -49z" />
    <glyph glyph-name="ugrave" unicode="&#xf9;" horiz-adv-x="1011" 
d="M371 133q74 0 170.5 84t169 194.5t92.5 194.5l53 316h158l-158 -922h-158l56 322q-37 -63 -81 -118.5t-100.5 -108.5t-123.5 -84t-134 -31q-94 0 -139 57.5t-45 144.5q0 88 25 207l112 533h158l-111 -502q-25 -112 -22 -184q0 -103 78 -103zM709 1087l-248 291l129 99
l219 -320z" />
    <glyph glyph-name="uacute" unicode="&#xfa;" horiz-adv-x="1011" 
d="M371 133q74 0 170.5 84t169 194.5t92.5 194.5l53 316h158l-158 -922h-158l56 322q-37 -63 -81 -118.5t-100.5 -108.5t-123.5 -84t-134 -31q-94 0 -139 57.5t-45 144.5q0 88 25 207l112 533h158l-111 -502q-25 -112 -22 -184q0 -103 78 -103zM952 1380l-245 -293l-99 70
l217 322z" />
    <glyph glyph-name="ucircumflex" unicode="&#xfb;" horiz-adv-x="1011" 
d="M371 133q74 0 170.5 84t169 194.5t92.5 194.5l53 316h158l-158 -922h-158l56 322q-37 -63 -81 -118.5t-100.5 -108.5t-123.5 -84t-134 -31q-94 0 -139 57.5t-45 144.5q0 88 25 207l112 533h158l-111 -502q-25 -112 -22 -184q0 -103 78 -103zM766 1448l242 -291l-90 -80
l-177 211l-249 -209l-66 95l332 274h8z" />
    <glyph glyph-name="udieresis" unicode="&#xfc;" horiz-adv-x="1011" 
d="M371 133q74 0 170.5 84t169 194.5t92.5 194.5l53 316h158l-158 -922h-158l56 322q-37 -63 -81 -118.5t-100.5 -108.5t-123.5 -84t-134 -31q-94 0 -139 57.5t-45 144.5q0 88 25 207l112 533h158l-111 -502q-25 -112 -22 -184q0 -103 78 -103zM424 1249q0 42 29.5 68
t70.5 26q37 0 65.5 -26.5t28.5 -67.5q0 -47 -28 -74.5t-66 -27.5q-43 0 -71.5 27t-28.5 75zM844 1249q0 41 30.5 67.5t71.5 26.5q37 0 65.5 -26.5t28.5 -67.5q0 -47 -28 -74.5t-66 -27.5q-43 0 -72.5 27t-29.5 75z" />
    <glyph glyph-name="yacute" unicode="&#xfd;" horiz-adv-x="858" 
d="M150 -258q62 0 128 72t123 178q-15 140 -103.5 413.5t-193.5 516.5h172q51 -107 132 -353.5t110 -384.5q68 141 143.5 363t98.5 375h174q-121 -409 -249 -703t-265.5 -461.5t-267.5 -167.5q-96 0 -168 58l73 125q60 -31 93 -31zM848 1380l-246 -293l-98 70l217 322z" />
    <glyph glyph-name="thorn" unicode="&#xfe;" horiz-adv-x="1054" 
d="M133 84l229 1350h158l-141 -828q37 61 81.5 116.5t100.5 107t122 82t130 30.5q112 0 173 -89t61 -235q0 -132 -47 -250.5t-126.5 -203t-189 -134.5t-229.5 -50q-92 0 -179 24l-69 -414h-158zM332 328l-27 -158q27 -15 72 -26t84 -11q120 0 217.5 61.5t152 167t54.5 232.5
q0 89 -39 141.5t-107 52.5q-60 0 -149 -80t-162 -188t-96 -192z" />
    <glyph glyph-name="ydieresis" unicode="&#xff;" horiz-adv-x="858" 
d="M150 -258q62 0 128 72t123 178q-15 140 -103.5 413.5t-193.5 516.5h172q51 -107 132 -353.5t110 -384.5q68 141 143.5 363t98.5 375h174q-121 -409 -249 -703t-265.5 -461.5t-267.5 -167.5q-96 0 -168 58l73 125q60 -31 93 -31zM266 1249q0 41 30 67.5t71 26.5
q37 0 65.5 -26.5t28.5 -67.5q0 -47 -28 -74.5t-66 -27.5q-43 0 -72 27t-29 75zM686 1249q0 41 30.5 67.5t71.5 26.5q37 0 66 -26.5t29 -67.5q0 -47 -28.5 -74.5t-66.5 -27.5q-43 0 -72.5 27t-29.5 75z" />
    <glyph glyph-name="Amacron" unicode="&#x100;" horiz-adv-x="1443" 
d="M31 0l870 1442h150l362 -1442h-176l-109 434h-653l-258 -434h-186zM940 1210l-367 -612h517zM690 1577l25 133h622l-24 -133h-623z" />
    <glyph glyph-name="amacron" unicode="&#x101;" horiz-adv-x="1040" 
d="M442 133q65 0 153 84t156 194.5t89 194.5l32 164q-55 18 -124 18q-131 0 -234 -61.5t-158 -166t-55 -232.5q0 -90 36 -142.5t105 -52.5zM897 0h-162l58 324q-32 -52 -61.5 -94.5t-72.5 -91.5t-85.5 -81.5t-96.5 -54.5t-110 -22q-116 0 -176 88t-60 235q0 176 81 323
t220.5 231.5t306.5 84.5q177 0 301 -63zM492 1188l22 133h541l-23 -133h-540z" />
    <glyph glyph-name="Abreve" unicode="&#x102;" horiz-adv-x="1443" 
d="M31 0l870 1442h150l362 -1442h-176l-109 434h-653l-258 -434h-186zM940 1210l-367 -612h517zM655 1718l82 84q98 -133 271 -133q93 0 172.5 38t136.5 95l53 -90q-62 -81 -161.5 -133.5t-213.5 -52.5q-117 0 -209 54t-131 138z" />
    <glyph glyph-name="abreve" unicode="&#x103;" horiz-adv-x="1040" 
d="M442 133q65 0 153 84t156 194.5t89 194.5l32 164q-55 18 -124 18q-131 0 -234 -61.5t-158 -166t-55 -232.5q0 -90 36 -142.5t105 -52.5zM897 0h-162l58 324q-32 -52 -61.5 -94.5t-72.5 -91.5t-85.5 -81.5t-96.5 -54.5t-110 -22q-116 0 -176 88t-60 235q0 176 81 323
t220.5 231.5t306.5 84.5q177 0 301 -63zM506 1315l86 80q17 -25 31 -41.5t39.5 -38.5t61.5 -33.5t79 -11.5q135 0 258 123l49 -84q-155 -172 -319 -172q-108 0 -179 51t-106 127z" />
    <glyph glyph-name="Aogonek" unicode="&#x104;" horiz-adv-x="1443" 
d="M1307 -258l39 -107q-64 -45 -181 -45q-97 0 -164 42t-67 118q0 99 85 169.5t214 96.5l-105 418h-653l-258 -434h-186l870 1442h150l362 -1442h-39q-104 -3 -185 -58t-81 -128q0 -47 33 -68.5t73 -21.5q51 0 93 18zM940 1210l-367 -612h517z" />
    <glyph glyph-name="aogonek" unicode="&#x105;" horiz-adv-x="1040" 
d="M819 -258l37 -102q-71 -50 -190 -50q-93 0 -156.5 40.5t-63.5 129.5q0 93 83 159.5t208 94.5l56 310q-32 -52 -61.5 -94.5t-72.5 -91.5t-85.5 -81.5t-96.5 -54.5t-110 -22q-116 0 -176 88t-60 235q0 176 81 323t220.5 231.5t306.5 84.5q177 0 301 -63l-143 -879h-10
q-104 -3 -185 -58t-81 -128q0 -48 30 -69t76 -21q50 0 92 18zM442 133q65 0 153 84t156 194.5t89 194.5l32 164q-55 18 -124 18q-131 0 -234 -61.5t-158 -166t-55 -232.5q0 -90 36 -142.5t105 -52.5z" />
    <glyph glyph-name="Cacute" unicode="&#x106;" horiz-adv-x="1343" 
d="M1296 252l66 -131q-80 -69 -209 -105t-252 -36q-158 0 -288 52t-216.5 142t-134 212t-47.5 263q0 228 110 412.5t302 288.5t428 104q148 0 260.5 -34t173.5 -91l-90 -125q-138 86 -332 86q-186 0 -337.5 -79t-239 -221.5t-87.5 -319.5q0 -147 62.5 -266t183.5 -190
t281 -71q212 0 366 109zM1391 1677l-414 -172l-47 99l399 213z" />
    <glyph glyph-name="cacute" unicode="&#x107;" horiz-adv-x="890" 
d="M778 248l74 -98q-71 -74 -169.5 -122t-201.5 -48q-92 0 -162 31t-109.5 83.5t-59 113t-19.5 126.5q0 118 37 227t105 194t173.5 136t231.5 51q163 0 237 -51l-55 -137q-35 13 -92.5 23.5t-105.5 10.5q-108 0 -191 -59t-125.5 -153t-42.5 -205q0 -107 54.5 -172.5
t154.5 -65.5q48 0 103.5 22t83 39.5t79.5 53.5zM977 1380l-246 -293l-98 70l217 322z" />
    <glyph glyph-name="Ccircumflex" unicode="&#x108;" horiz-adv-x="1343" 
d="M1296 252l66 -131q-80 -69 -209 -105t-252 -36q-158 0 -288 52t-216.5 142t-134 212t-47.5 263q0 228 110 412.5t302 288.5t428 104q148 0 260.5 -34t173.5 -91l-90 -125q-138 86 -332 86q-186 0 -337.5 -79t-239 -221.5t-87.5 -319.5q0 -147 62.5 -266t183.5 -190
t281 -71q212 0 366 109zM1108 1806l330 -211l-76 -94l-266 166l-322 -166l-51 98l377 207h8z" />
    <glyph glyph-name="ccircumflex" unicode="&#x109;" horiz-adv-x="890" 
d="M778 248l74 -98q-71 -74 -169.5 -122t-201.5 -48q-92 0 -162 31t-109.5 83.5t-59 113t-19.5 126.5q0 118 37 227t105 194t173.5 136t231.5 51q163 0 237 -51l-55 -137q-35 13 -92.5 23.5t-105.5 10.5q-108 0 -191 -59t-125.5 -153t-42.5 -205q0 -107 54.5 -172.5
t154.5 -65.5q48 0 103.5 22t83 39.5t79.5 53.5zM764 1448l242 -291l-91 -80l-176 211l-250 -209l-65 95l332 274h8z" />
    <glyph glyph-name="Cdotaccent" unicode="&#x10a;" horiz-adv-x="1343" 
d="M1296 252l66 -131q-80 -69 -209 -105t-252 -36q-158 0 -288 52t-216.5 142t-134 212t-47.5 263q0 228 110 412.5t302 288.5t428 104q148 0 260.5 -34t173.5 -91l-90 -125q-138 86 -332 86q-186 0 -337.5 -79t-239 -221.5t-87.5 -319.5q0 -147 62.5 -266t183.5 -190
t281 -71q212 0 366 109zM981 1673q0 48 34.5 76.5t82.5 28.5q45 0 77.5 -28.5t32.5 -76.5q0 -51 -32 -80.5t-78 -29.5q-49 0 -83 29t-34 81z" />
    <glyph glyph-name="cdotaccent" unicode="&#x10b;" horiz-adv-x="890" 
d="M778 248l74 -98q-71 -74 -169.5 -122t-201.5 -48q-92 0 -162 31t-109.5 83.5t-59 113t-19.5 126.5q0 118 37 227t105 194t173.5 136t231.5 51q163 0 237 -51l-55 -137q-35 13 -92.5 23.5t-105.5 10.5q-108 0 -191 -59t-125.5 -153t-42.5 -205q0 -107 54.5 -172.5
t154.5 -65.5q48 0 103.5 22t83 39.5t79.5 53.5zM666 1268q0 43 31 70.5t75 27.5q40 0 70 -27.5t30 -70.5q0 -49 -29.5 -78t-70.5 -29q-45 0 -75.5 29t-30.5 78z" />
    <glyph glyph-name="Ccaron" unicode="&#x10c;" horiz-adv-x="1343" 
d="M1296 252l66 -131q-80 -69 -209 -105t-252 -36q-158 0 -288 52t-216.5 142t-134 212t-47.5 263q0 228 110 412.5t302 288.5t428 104q148 0 260.5 -34t173.5 -91l-90 -125q-138 86 -332 86q-186 0 -337.5 -79t-239 -221.5t-87.5 -319.5q0 -147 62.5 -266t183.5 -190
t281 -71q212 0 366 109zM1067 1511l-330 211l76 95l266 -166l322 166l51 -99l-377 -207h-8z" />
    <glyph glyph-name="ccaron" unicode="&#x10d;" horiz-adv-x="890" 
d="M778 248l74 -98q-71 -74 -169.5 -122t-201.5 -48q-92 0 -162 31t-109.5 83.5t-59 113t-19.5 126.5q0 118 37 227t105 194t173.5 136t231.5 51q163 0 237 -51l-55 -137q-35 13 -92.5 23.5t-105.5 10.5q-108 0 -191 -59t-125.5 -153t-42.5 -205q0 -107 54.5 -172.5
t154.5 -65.5q48 0 103.5 22t83 39.5t79.5 53.5zM727 1083l-242 285l90 86l177 -211l249 209l66 -100l-332 -269h-8z" />
    <glyph glyph-name="Dcaron" unicode="&#x10e;" horiz-adv-x="1513" 
d="M215 0l252 1434h25q44 0 175.5 3t192.5 3q181 0 317.5 -46.5t217 -130t120 -190.5t39.5 -237q0 -176 -64 -328.5t-184 -266.5t-304.5 -179.5t-411.5 -65.5q-45 0 -166.5 2t-185.5 2h-23zM827 1276q-38 0 -74 -1t-76.5 -2.5t-64.5 -2.5l-194 -1106q188 -4 207 -4
q349 0 545 179t196 492q0 217 -134.5 331t-404.5 114zM969 1511l-330 211l76 95l266 -166l322 166l51 -99l-377 -207h-8z" />
    <glyph glyph-name="dcaron" unicode="&#x10f;" horiz-adv-x="1114" 
d="M1403 1434h160q4 -24 4 -50q0 -116 -70 -206t-164 -136l-61 72q62 46 100.5 115.5t38.5 142.5q0 30 -8 62zM748 942q92 0 186 -24l90 516h164l-252 -1434h-164l55 317q-37 -61 -84 -117t-105 -107t-127 -82t-136 -31q-117 0 -180.5 89t-63.5 234q0 176 83.5 323
t225 231.5t308.5 84.5zM741 788q-189 0 -315.5 -133.5t-126.5 -326.5q0 -88 41 -141.5t111 -53.5q64 0 159 82.5t171.5 193.5t97.5 193l24 150q-26 15 -73.5 25.5t-88.5 10.5z" />
    <glyph glyph-name="Dcroat" unicode="&#x110;" horiz-adv-x="1513" 
d="M102 647l27 154h225l113 633h25q44 0 175.5 3t192.5 3q181 0 317.5 -46.5t217 -130t120 -190.5t39.5 -237q0 -176 -64 -328.5t-184 -266.5t-304.5 -179.5t-411.5 -65.5q-45 0 -166.5 2t-185.5 2h-23l113 647h-226zM827 1276q-38 0 -74 -1t-76.5 -2.5t-64.5 -2.5l-84 -469
h385l-26 -154h-385l-84 -483q188 -4 207 -4q349 0 545 179t196 492q0 217 -134.5 331t-404.5 114z" />
    <glyph glyph-name="dcroat" unicode="&#x111;" horiz-adv-x="1062" 
d="M621 1094l22 133h309l37 207h156l-35 -207h180l-22 -133h-181l-184 -1094h-155l53 317q-37 -61 -81.5 -116.5t-101 -107t-122.5 -82.5t-131 -31q-112 0 -173 88.5t-61 234.5q0 176 79.5 323t215.5 231.5t297 84.5q91 0 178 -24l29 176h-309zM717 788q-120 0 -217.5 -61.5
t-152 -166.5t-54.5 -232q0 -89 38.5 -142t106.5 -53q61 0 152 82.5t164.5 193.5t93.5 193l24 150q-26 15 -71 25.5t-84 10.5z" />
    <glyph glyph-name="Emacron" unicode="&#x112;" horiz-adv-x="1177" 
d="M215 0l252 1434h809l-29 -164h-635l-82 -463h574l-29 -164h-573l-84 -479h655l-29 -164h-829zM584 1577l24 133h623l-25 -133h-622z" />
    <glyph glyph-name="emacron" unicode="&#x113;" horiz-adv-x="952" 
d="M811 248l76 -98q-71 -73 -176 -121.5t-211 -48.5q-91 0 -164 31.5t-116.5 83t-66 113t-22.5 126.5q0 118 38.5 227t108.5 194t177.5 136t236.5 51q148 0 214.5 -64t64.5 -163q-2 -154 -161 -242.5t-507 -105.5q0 -115 61 -174.5t166 -59.5q120 0 281 115zM672 788
q-130 0 -227 -86.5t-130 -218.5q178 13 287.5 44t151.5 70.5t43 92.5q1 48 -32 73t-93 25zM473 1188l23 133h540l-22 -133h-541z" />
    <glyph glyph-name="Edotaccent" unicode="&#x116;" horiz-adv-x="1177" 
d="M215 0l252 1434h809l-29 -164h-635l-82 -463h574l-29 -164h-573l-84 -479h655l-29 -164h-829zM803 1673q0 48 34.5 76.5t82.5 28.5q45 0 77.5 -28.5t32.5 -76.5q0 -51 -32 -80.5t-78 -29.5q-49 0 -83 29t-34 81z" />
    <glyph glyph-name="edotaccent" unicode="&#x117;" horiz-adv-x="952" 
d="M811 248l76 -98q-71 -73 -176 -121.5t-211 -48.5q-91 0 -164 31.5t-116.5 83t-66 113t-22.5 126.5q0 118 38.5 227t108.5 194t177.5 136t236.5 51q148 0 214.5 -64t64.5 -163q-2 -154 -161 -242.5t-507 -105.5q0 -115 61 -174.5t166 -59.5q120 0 281 115zM672 788
q-130 0 -227 -86.5t-130 -218.5q178 13 287.5 44t151.5 70.5t43 92.5q1 48 -32 73t-93 25zM657 1268q0 43 31.5 70.5t75.5 27.5q40 0 70 -27.5t30 -70.5q0 -49 -29.5 -78t-70.5 -29q-45 0 -76 29t-31 78z" />
    <glyph glyph-name="Eogonek" unicode="&#x118;" horiz-adv-x="1177" 
d="M215 0l252 1434h809l-29 -164h-635l-82 -463h574l-29 -164h-573l-84 -479h655l-29 -164h-10q-104 -3 -185 -58t-81 -128q0 -47 33 -68.5t73 -21.5q51 0 93 18l39 -107q-64 -45 -181 -45q-97 0 -164 42t-67 118q0 87 64.5 151.5t170.5 98.5h-614z" />
    <glyph glyph-name="eogonek" unicode="&#x119;" horiz-adv-x="952" 
d="M700 -258l37 -102q-71 -50 -190 -50q-93 0 -156 40.5t-63 129.5q0 122 174 220h-2q-91 0 -164 31.5t-116.5 83t-66 113t-22.5 126.5q0 118 38.5 227t108.5 194t177.5 136t236.5 51q148 0 214.5 -64t64.5 -163q-2 -154 -161 -242.5t-507 -105.5q0 -115 61 -174.5
t166 -59.5q120 0 281 115l76 -98q-84 -87 -211 -138q-174 -100 -174 -198q0 -48 30 -69t76 -21q50 0 92 18zM672 788q-130 0 -227 -86.5t-130 -218.5q178 13 287.5 44t151.5 70.5t43 92.5q1 48 -32 73t-93 25z" />
    <glyph glyph-name="Ecaron" unicode="&#x11a;" horiz-adv-x="1177" 
d="M215 0l252 1434h809l-29 -164h-635l-82 -463h574l-29 -164h-573l-84 -479h655l-29 -164h-829zM879 1511l-330 211l76 95l266 -166l321 166l52 -99l-377 -207h-8z" />
    <glyph glyph-name="ecaron" unicode="&#x11b;" horiz-adv-x="952" 
d="M811 248l76 -98q-71 -73 -176 -121.5t-211 -48.5q-91 0 -164 31.5t-116.5 83t-66 113t-22.5 126.5q0 118 38.5 227t108.5 194t177.5 136t236.5 51q148 0 214.5 -64t64.5 -163q-2 -154 -161 -242.5t-507 -105.5q0 -115 61 -174.5t166 -59.5q120 0 281 115zM672 788
q-130 0 -227 -86.5t-130 -218.5q178 13 287.5 44t151.5 70.5t43 92.5q1 48 -32 73t-93 25zM745 1083l-241 285l90 86l176 -211l250 209l65 -100l-331 -269h-9z" />
    <glyph glyph-name="Gcircumflex" unicode="&#x11c;" horiz-adv-x="1488" 
d="M913 565l31 164h551l-98 -551q-77 -87 -222.5 -142.5t-287.5 -55.5q-207 0 -361.5 88.5t-233.5 237t-79 335.5q0 168 61.5 318t168.5 259t260.5 172.5t328.5 63.5q295 0 457 -149l-100 -129q-51 48 -149.5 81t-221.5 33q-172 0 -312.5 -77.5t-222.5 -220.5t-82 -324
q0 -237 133.5 -381t352.5 -144q220 0 364 121l49 301h-387zM1083 1806l330 -211l-76 -94l-266 166l-321 -166l-52 98l377 207h8z" />
    <glyph glyph-name="gcircumflex" unicode="&#x11d;" horiz-adv-x="970" 
d="M418 207q0 -33 10 -45q18 2 53 2q184 0 294 -66t110 -192q0 -107 -68 -183.5t-180.5 -112.5t-255.5 -36q-184 0 -295 64.5t-111 189.5q0 69 28 125t77 93t105.5 61t123.5 38q-10 20 -10 56q0 61 43 104q-74 35 -115 101t-41 149q0 160 117 273.5t307 113.5q129 0 213 -68
l271 66l-19 -133l-176 -43q21 -46 21 -113q0 -164 -121 -271.5t-303 -107.5q-22 0 -58 4q-20 -32 -20 -69zM401 -293q153 0 243.5 46t90.5 132q0 68 -73.5 107t-204.5 39q-152 0 -242 -49t-90 -132q0 -68 74 -105.5t202 -37.5zM336 573q0 -75 48.5 -121t137.5 -46
q103 0 175.5 65t72.5 164q0 76 -48.5 125t-133.5 49q-108 0 -180 -69t-72 -167zM694 1448l242 -291l-90 -80l-176 211l-250 -209l-66 95l332 274h8z" />
    <glyph glyph-name="Gbreve" unicode="&#x11e;" horiz-adv-x="1488" 
d="M913 565l31 164h551l-98 -551q-77 -87 -222.5 -142.5t-287.5 -55.5q-207 0 -361.5 88.5t-233.5 237t-79 335.5q0 168 61.5 318t168.5 259t260.5 172.5t328.5 63.5q295 0 457 -149l-100 -129q-51 48 -149.5 81t-221.5 33q-172 0 -312.5 -77.5t-222.5 -220.5t-82 -324
q0 -237 133.5 -381t352.5 -144q220 0 364 121l49 301h-387zM717 1718l82 84q98 -133 270 -133q93 0 172.5 38t136.5 95l54 -90q-62 -81 -161.5 -133.5t-213.5 -52.5q-117 0 -209 54t-131 138z" />
    <glyph glyph-name="gbreve" unicode="&#x11f;" horiz-adv-x="970" 
d="M418 207q0 -33 10 -45q18 2 53 2q184 0 294 -66t110 -192q0 -107 -68 -183.5t-180.5 -112.5t-255.5 -36q-184 0 -295 64.5t-111 189.5q0 69 28 125t77 93t105.5 61t123.5 38q-10 20 -10 56q0 61 43 104q-74 35 -115 101t-41 149q0 160 117 273.5t307 113.5q129 0 213 -68
l271 66l-19 -133l-176 -43q21 -46 21 -113q0 -164 -121 -271.5t-303 -107.5q-22 0 -58 4q-20 -32 -20 -69zM401 -293q153 0 243.5 46t90.5 132q0 68 -73.5 107t-204.5 39q-152 0 -242 -49t-90 -132q0 -68 74 -105.5t202 -37.5zM336 573q0 -75 48.5 -121t137.5 -46
q103 0 175.5 65t72.5 164q0 76 -48.5 125t-133.5 49q-108 0 -180 -69t-72 -167zM387 1315l86 80q17 -25 31 -41.5t39.5 -38.5t61.5 -33.5t79 -11.5q135 0 258 123l49 -84q-155 -172 -319 -172q-108 0 -179 51t-106 127z" />
    <glyph glyph-name="Gdotaccent" unicode="&#x120;" horiz-adv-x="1488" 
d="M913 565l31 164h551l-98 -551q-77 -87 -222.5 -142.5t-287.5 -55.5q-207 0 -361.5 88.5t-233.5 237t-79 335.5q0 168 61.5 318t168.5 259t260.5 172.5t328.5 63.5q295 0 457 -149l-100 -129q-51 48 -149.5 81t-221.5 33q-172 0 -312.5 -77.5t-222.5 -220.5t-82 -324
q0 -237 133.5 -381t352.5 -144q220 0 364 121l49 301h-387zM961 1673q0 48 34 76.5t82 28.5q45 0 78 -29t33 -76q0 -51 -32.5 -80.5t-78.5 -29.5q-49 0 -82.5 29t-33.5 81z" />
    <glyph glyph-name="gdotaccent" unicode="&#x121;" horiz-adv-x="970" 
d="M418 207q0 -33 10 -45q18 2 53 2q184 0 294 -66t110 -192q0 -107 -68 -183.5t-180.5 -112.5t-255.5 -36q-184 0 -295 64.5t-111 189.5q0 69 28 125t77 93t105.5 61t123.5 38q-10 20 -10 56q0 61 43 104q-74 35 -115 101t-41 149q0 160 117 273.5t307 113.5q129 0 213 -68
l271 66l-19 -133l-176 -43q21 -46 21 -113q0 -164 -121 -271.5t-303 -107.5q-22 0 -58 4q-20 -32 -20 -69zM401 -293q153 0 243.5 46t90.5 132q0 68 -73.5 107t-204.5 39q-152 0 -242 -49t-90 -132q0 -68 74 -105.5t202 -37.5zM336 573q0 -75 48.5 -121t137.5 -46
q103 0 175.5 65t72.5 164q0 76 -48.5 125t-133.5 49q-108 0 -180 -69t-72 -167zM584 1268q0 43 31 70.5t75 27.5q40 0 70.5 -27.5t30.5 -70.5q0 -49 -30 -78t-71 -29q-45 0 -75.5 29t-30.5 78z" />
    <glyph glyph-name="uni0122" unicode="&#x122;" horiz-adv-x="1488" 
d="M913 565l31 164h551l-98 -551q-77 -87 -222.5 -142.5t-287.5 -55.5q-207 0 -361.5 88.5t-233.5 237t-79 335.5q0 168 61.5 318t168.5 259t260.5 172.5t328.5 63.5q295 0 457 -149l-100 -129q-51 48 -149.5 81t-221.5 33q-172 0 -312.5 -77.5t-222.5 -220.5t-82 -324
q0 -237 133.5 -381t352.5 -144q220 0 364 121l49 301h-387zM743 -133l154 39q18 -4 30.5 -27t12.5 -51q0 -90 -71.5 -157t-180.5 -89l-39 76q123 44 123 143q0 51 -29 66z" />
    <glyph glyph-name="uni0123" unicode="&#x123;" horiz-adv-x="970" 
d="M418 207q0 -33 10 -45q18 2 53 2q184 0 294 -66t110 -192q0 -107 -68 -183.5t-180.5 -112.5t-255.5 -36q-184 0 -295 64.5t-111 189.5q0 69 28 125t77 93t105.5 61t123.5 38q-10 20 -10 56q0 61 43 104q-74 35 -115 101t-41 149q0 160 117 273.5t307 113.5q129 0 213 -68
l271 66l-19 -133l-176 -43q21 -46 21 -113q0 -164 -121 -271.5t-303 -107.5q-22 0 -58 4q-20 -32 -20 -69zM401 -293q153 0 243.5 46t90.5 132q0 68 -73.5 107t-204.5 39q-152 0 -242 -49t-90 -132q0 -68 74 -105.5t202 -37.5zM336 573q0 -75 48.5 -121t137.5 -46
q103 0 175.5 65t72.5 164q0 76 -48.5 125t-133.5 49q-108 0 -180 -69t-72 -167zM774 1151l-153 -39q-18 4 -30.5 27t-12.5 51q0 90 71 157t180 89l39 -76q-123 -44 -123 -143q0 -51 29 -66z" />
    <glyph glyph-name="Hcircumflex" unicode="&#x124;" horiz-adv-x="1566" 
d="M1178 0l114 649h-788l-115 -649h-174l252 1434h174l-109 -621h789l109 621h174l-252 -1434h-174zM1094 1806l329 -211l-75 -94l-267 166l-321 -166l-51 98l376 207h9z" />
    <glyph glyph-name="hcircumflex" unicode="&#x125;" horiz-adv-x="1050" 
d="M780 788q-72 0 -170 -80.5t-174 -189t-100 -192.5l-55 -326h-158l242 1434h157l-141 -832q38 61 85 117t106 108.5t128 83.5t136 31q94 0 139 -58t45 -145q0 -73 -25 -207l-102 -532h-156l99 502q24 140 22 184q-2 48 -19 75t-59 27zM631 1806l330 -211l-76 -94l-267 166
l-321 -166l-51 98l377 207h8z" />
    <glyph glyph-name="Hbar" unicode="&#x126;" horiz-adv-x="1587" 
d="M238 1053l26 153h174l39 228h174l-39 -228h789l39 228h174l-39 -228h174l-27 -153h-174l-186 -1053h-174l115 649h-789l-115 -649h-174l187 1053h-174zM543 813h788l43 240h-788z" />
    <glyph glyph-name="hbar" unicode="&#x127;" horiz-adv-x="1118" 
d="M848 788q-72 0 -170 -80.5t-174.5 -189t-100.5 -192.5l-55 -326h-158l179 1065h-228l27 154h227l37 215h158l-37 -215h319l-24 -154h-322l-77 -463q38 61 85 117t105.5 108.5t127.5 83.5t136 31q94 0 139 -58t45 -145q0 -78 -24 -207l-102 -532h-156l98 502
q25 145 23 184q-2 48 -19 75t-59 27z" />
    <glyph glyph-name="Imacron" unicode="&#x12a;" horiz-adv-x="686" 
d="M256 0l252 1434h174l-252 -1434h-174zM313 1577l25 133h623l-25 -133h-623z" />
    <glyph glyph-name="imacron" unicode="&#x12b;" horiz-adv-x="485" 
d="M141 0l156 922h158l-156 -922h-158zM162 1188l22 133h541l-23 -133h-540z" />
    <glyph glyph-name="Iogonek" unicode="&#x12e;" horiz-adv-x="686" 
d="M352 -258l39 -107q-29 -21 -81 -33t-97 -12q-99 0 -166 42t-67 122q0 93 78.5 159.5t199.5 98.5l250 1422h174l-252 -1434h-10q-101 0 -183.5 -56t-82.5 -130q0 -47 33 -68.5t73 -21.5q50 0 92 18z" />
    <glyph glyph-name="iogonek" unicode="&#x12f;" horiz-adv-x="548" 
d="M276 -258l37 -102q-71 -50 -190 -50q-93 0 -156 40.5t-63 129.5q0 94 83.5 159.5t209.5 94.5l153 908h158l-152 -889h2l-6 -33h-10q-104 -3 -184 -57.5t-80 -128.5q0 -48 30 -69t76 -21q50 0 92 18zM391 1268q0 43 30 70.5t73 27.5q38 0 67 -27.5t29 -70.5
q0 -49 -28.5 -78t-67.5 -29q-43 0 -73 29t-30 78z" />
    <glyph glyph-name="Idotaccent" unicode="&#x130;" horiz-adv-x="686" 
d="M256 0l252 1434h174l-252 -1434h-174zM524 1673q0 48 34.5 76.5t82.5 28.5q45 0 78 -29t33 -76q0 -51 -32.5 -80.5t-78.5 -29.5q-49 0 -83 29t-34 81z" />
    <glyph glyph-name="dotlessi" unicode="&#x131;" horiz-adv-x="485" 
d="M141 0l156 922h158l-156 -922h-158z" />
    <glyph glyph-name="Jcircumflex" unicode="&#x134;" horiz-adv-x="765" 
d="M803 1434l-195 -1108q-63 -346 -375 -346q-67 0 -121.5 22t-80.5 53l82 133q52 -45 129 -45q88 0 133.5 55t64.5 156l191 1080h172zM762 1806l330 -211l-76 -94l-266 166l-322 -166l-51 98l377 207h8z" />
    <glyph glyph-name="jcircumflex" unicode="&#x135;" horiz-adv-x="473" 
d="M483 922l-174 -990q-62 -358 -352 -358q-63 0 -116 17t-79 42l70 131q56 -36 115 -36q85 0 132.5 55.5t67.5 161.5l172 977h164zM492 1448l241 -291l-90 -80l-176 211l-250 -209l-65 95l331 274h9z" />
    <glyph glyph-name="uni0136" unicode="&#x136;" horiz-adv-x="1337" 
d="M1516 1434l-760 -701l528 -733h-211l-518 748l729 686h232zM215 0l252 1434h174l-252 -1434h-174zM559 -133l154 39q18 -4 30.5 -27t12.5 -51q0 -90 -71.5 -157t-180.5 -89l-39 76q123 44 123 143q0 51 -29 66z" />
    <glyph glyph-name="uni0137" unicode="&#x137;" horiz-adv-x="942" 
d="M1034 922l-454 -445l348 -477h-205l-330 481l434 441h207zM123 0l242 1434h157l-241 -1434h-158zM375 -133l153 39q18 -4 30.5 -27t12.5 -51q0 -90 -71.5 -157t-180.5 -89l-38 76q122 44 122 143q0 52 -28 66z" />
    <glyph glyph-name="Lacute" unicode="&#x139;" horiz-adv-x="1126" 
d="M215 0l252 1434h174l-223 -1270h706l-28 -164h-881zM1186 1677l-414 -172l-47 99l399 213z" />
    <glyph glyph-name="lacute" unicode="&#x13a;" horiz-adv-x="540" 
d="M164 281l209 1153h157l-211 -1166q-6 -34 -6 -59q0 -72 70 -72q56 0 131 43l21 -135q-111 -61 -209 -61q-172 0 -172 188q0 57 10 109zM848 1677l-414 -172l-47 99l399 213z" />
    <glyph glyph-name="uni013B" unicode="&#x13b;" horiz-adv-x="1126" 
d="M215 0l252 1434h174l-223 -1270h706l-28 -164h-881zM555 -133l154 39q18 -4 30.5 -27t12.5 -51q0 -90 -71.5 -157t-180.5 -89l-39 76q123 44 123 143q0 51 -29 66z" />
    <glyph glyph-name="uni013C" unicode="&#x13c;" horiz-adv-x="540" 
d="M164 281l209 1153h157l-211 -1166q-6 -34 -6 -59q0 -72 70 -72q56 0 131 43l21 -135q-111 -61 -209 -61q-172 0 -172 188q0 57 10 109zM213 -133l154 39q18 -4 30.5 -27t12.5 -51q0 -90 -71.5 -157t-180.5 -89l-39 76q123 44 123 143q0 51 -29 66z" />
    <glyph glyph-name="Lcaron" unicode="&#x13d;" horiz-adv-x="1126" 
d="M1044 1434h160q4 -24 4 -50q0 -116 -69.5 -206t-163.5 -136l-62 72q62 46 101 115.5t39 142.5q0 26 -9 62zM215 0l252 1434h174l-223 -1270h706l-28 -164h-881z" />
    <glyph glyph-name="lcaron" unicode="&#x13e;" horiz-adv-x="561" 
d="M725 1434h160q4 -24 4 -50q0 -116 -70 -206t-164 -136l-61 72q62 46 100.5 115.5t38.5 142.5q0 30 -8 62zM164 281l219 1153h164l-219 -1166q-6 -23 -6 -59q0 -72 71 -72q60 0 135 43l23 -135q-115 -61 -217 -61q-180 0 -180 188q0 57 10 109z" />
    <glyph glyph-name="Ldot" unicode="&#x13f;" horiz-adv-x="1126" 
d="M215 0l252 1434h174l-223 -1270h706l-28 -164h-881zM889 766q0 42 32.5 75t84.5 33q46 0 78 -33.5t32 -74.5q0 -48 -30.5 -82.5t-79.5 -34.5q-54 0 -85.5 34t-31.5 83z" />
    <glyph glyph-name="ldot" unicode="&#x140;" horiz-adv-x="636" 
d="M164 281l209 1153h157l-211 -1166q-6 -34 -6 -59q0 -72 70 -72q56 0 131 43l21 -135q-111 -61 -209 -61q-172 0 -172 188q0 57 10 109zM535 668q0 43 31 70.5t75 27.5q40 0 70 -27.5t30 -70.5q0 -49 -29.5 -78t-70.5 -29q-45 0 -75.5 29t-30.5 78z" />
    <glyph glyph-name="Lslash" unicode="&#x141;" horiz-adv-x="1146" 
d="M131 449l31 176l198 88l129 721h175l-115 -637l393 176l-31 -174l-391 -176l-82 -459h707l-29 -164h-880l96 539z" />
    <glyph glyph-name="lslash" unicode="&#x142;" horiz-adv-x="628" 
d="M106 455l31 180l166 78l131 721h158l-117 -643l221 102l-32 -178l-222 -103l-61 -344q-6 -34 -6 -57q0 -38 17 -56t57 -18q55 0 126 43l21 -135q-107 -61 -215 -61q-83 0 -124.5 50.5t-41.5 143.5q0 38 6 78l49 274z" />
    <glyph glyph-name="Nacute" unicode="&#x143;" horiz-adv-x="1628" 
d="M1413 0h-139l-694 1153l-201 -1153h-164l252 1434h139l692 -1151l203 1151h164zM1440 1677l-414 -172l-47 99l399 213z" />
    <glyph glyph-name="nacute" unicode="&#x144;" horiz-adv-x="1050" 
d="M279 922h157l-55 -320q38 61 85 117t106 108.5t128 83.5t136 31q94 0 139 -58t45 -145q0 -73 -25 -207l-102 -532h-156l99 502q24 140 22 184q-2 48 -19 75t-59 27q-72 0 -170 -80.5t-174 -189t-100 -192.5l-55 -326h-158zM991 1380l-246 -293l-98 70l217 322z" />
    <glyph glyph-name="uni0145" unicode="&#x145;" horiz-adv-x="1628" 
d="M1413 0h-139l-694 1153l-201 -1153h-164l252 1434h139l692 -1151l203 1151h164zM692 -133l154 39q18 -4 30.5 -27t12.5 -51q0 -90 -71.5 -157t-180.5 -89l-39 76q123 44 123 143q0 51 -29 66z" />
    <glyph glyph-name="uni0146" unicode="&#x146;" horiz-adv-x="1050" 
d="M279 922h157l-55 -320q38 61 85 117t106 108.5t128 83.5t136 31q94 0 139 -58t45 -145q0 -73 -25 -207l-102 -532h-156l99 502q24 140 22 184q-2 48 -19 75t-59 27q-72 0 -170 -80.5t-174 -189t-100 -192.5l-55 -326h-158zM424 -133l154 39q18 -4 30.5 -27t12.5 -51
q0 -90 -71.5 -157t-180.5 -89l-39 76q123 44 123 143q0 51 -29 66z" />
    <glyph glyph-name="Ncaron" unicode="&#x147;" horiz-adv-x="1628" 
d="M1413 0h-139l-694 1153l-201 -1153h-164l252 1434h139l692 -1151l203 1151h164zM1096 1511l-330 211l76 95l266 -166l322 166l51 -99l-377 -207h-8z" />
    <glyph glyph-name="ncaron" unicode="&#x148;" horiz-adv-x="1050" 
d="M279 922h157l-55 -320q38 61 85 117t106 108.5t128 83.5t136 31q94 0 139 -58t45 -145q0 -73 -25 -207l-102 -532h-156l99 502q24 140 22 184q-2 48 -19 75t-59 27q-72 0 -170 -80.5t-174 -189t-100 -192.5l-55 -326h-158zM737 1083l-241 285l90 86l176 -211l250 209
l65 -100l-332 -269h-8z" />
    <glyph glyph-name="Eng" unicode="&#x14a;" horiz-adv-x="1628" 
d="M1665 1434l-266 -1514q-29 -169 -116 -257.5t-247 -88.5q-68 0 -125 23t-82 53l82 133q52 -45 129 -45q91 0 137 55t62 156l8 51l-667 1153l-201 -1153h-164l252 1434h139l686 -1184l209 1184h164z" />
    <glyph glyph-name="eng" unicode="&#x14b;" horiz-adv-x="1050" 
d="M528 -272q84 0 132 55.5t69 161.5l107 557q24 140 22 184q-2 48 -19 75t-59 27q-72 0 -170 -80.5t-174 -189t-100 -192.5l-55 -326h-158l156 922h157l-55 -320q38 61 85 117t106 108.5t128 83.5t136 31q94 0 139 -58t45 -145q0 -73 -25 -207l-114 -600
q-34 -176 -115.5 -267t-226.5 -91q-63 0 -116 17t-79 42l70 131q56 -36 114 -36z" />
    <glyph glyph-name="Omacron" unicode="&#x14c;" horiz-adv-x="1667" 
d="M215 645q0 165 58.5 312.5t163 257.5t260 174.5t339.5 64.5q295 0 481.5 -176t186.5 -467q0 -180 -59 -335t-162.5 -263.5t-251 -170.5t-318.5 -62q-169 0 -303 51.5t-219.5 142t-130.5 210.5t-45 261zM403 655q0 -161 71 -279t186.5 -175.5t259.5 -57.5q125 0 234 45.5
t189.5 127.5t126.5 205t46 270q0 226 -136 362.5t-362 136.5q-122 0 -233 -44t-196 -123.5t-135.5 -201t-50.5 -266.5zM743 1577l25 133h623l-25 -133h-623z" />
    <glyph glyph-name="omacron" unicode="&#x14d;" horiz-adv-x="1032" 
d="M506 -20q-167 0 -271 104.5t-104 277.5q0 113 37.5 217t105 185t170.5 129.5t224 48.5q163 0 259.5 -98.5t96.5 -274.5q0 -259 -143.5 -424t-374.5 -165zM532 133q149 0 236.5 114.5t87.5 293.5q0 122 -55.5 184.5t-157.5 62.5q-149 0 -245.5 -108t-96.5 -293
q0 -122 64 -188t167 -66zM481 1188l23 133h540l-22 -133h-541z" />
    <glyph glyph-name="Ohungarumlaut" unicode="&#x150;" horiz-adv-x="1667" 
d="M215 645q0 165 58.5 312.5t163 257.5t260 174.5t339.5 64.5q295 0 481.5 -176t186.5 -467q0 -180 -59 -335t-162.5 -263.5t-251 -170.5t-318.5 -62q-169 0 -303 51.5t-219.5 142t-130.5 210.5t-45 261zM403 655q0 -161 71 -279t186.5 -175.5t259.5 -57.5q125 0 234 45.5
t189.5 127.5t126.5 205t46 270q0 226 -136 362.5t-362 136.5q-122 0 -233 -44t-196 -123.5t-135.5 -201t-50.5 -266.5zM1636 1712l-366 -207l-68 72l322 240zM1237 1743l-330 -238l-69 66l262 246z" />
    <glyph glyph-name="ohungarumlaut" unicode="&#x151;" horiz-adv-x="1032" 
d="M506 -20q-167 0 -271 104.5t-104 277.5q0 113 37.5 217t105 185t170.5 129.5t224 48.5q163 0 259.5 -98.5t96.5 -274.5q0 -259 -143.5 -424t-374.5 -165zM532 133q149 0 236.5 114.5t87.5 293.5q0 122 -55.5 184.5t-157.5 62.5q-149 0 -245.5 -108t-96.5 -293
q0 -122 64 -188t167 -66zM1171 1374l-256 -287l-98 70l234 309zM829 1393l-231 -306l-98 70l211 324z" />
    <glyph glyph-name="OE" unicode="&#x152;" horiz-adv-x="2136" 
d="M1171 0l11 51q-54 -31 -133 -51t-162 -20q-148 0 -274.5 49t-213 135t-135.5 205t-49 256q0 134 34 256.5t103 227t167.5 181.5t236 120.5t299.5 43.5q222 0 360 -82l10 62h809l-28 -164h-631l-82 -463h569l-28 -164h-570l-84 -479h652l-31 -164h-830zM911 143
q163 0 303 95l166 946q-124 106 -346 106q-188 0 -332.5 -82.5t-221.5 -225.5t-77 -323q0 -143 58.5 -259t175.5 -186.5t274 -70.5z" />
    <glyph glyph-name="oe" unicode="&#x153;" horiz-adv-x="1566" 
d="M831 96q-139 -116 -325 -116q-167 0 -271 104.5t-104 277.5q0 113 37.5 217t105 185t170.5 129.5t224 48.5q190 0 284 -129q145 129 355 129q148 0 214 -64t64 -163q-1 -101 -66.5 -173t-216 -118t-384.5 -57q0 -115 61 -174.5t166 -59.5q119 0 280 115l76 -98
q-71 -73 -176 -121.5t-211 -48.5q-179 0 -283 116zM760 238q-15 46 -15 96q0 179 89 338q-45 116 -191 116q-149 0 -245.5 -108t-96.5 -293q0 -122 64 -188t167 -66q143 0 228 105zM1286 788q-130 0 -226.5 -86.5t-129.5 -218.5q178 13 287.5 44t151 70.5t42.5 92.5
q1 48 -32 73t-93 25z" />
    <glyph glyph-name="Racute" unicode="&#x154;" horiz-adv-x="1316" 
d="M389 0h-174l252 1434q45 0 208 2t179 2q121 0 209.5 -26.5t138.5 -75t73 -108t23 -134.5q0 -100 -32.5 -185.5t-87.5 -145.5t-124.5 -100t-148.5 -57l371 -606h-213l-340 573h-234zM815 1274q-67 0 -203 -4l-94 -533h170q192 0 307 86t115 236q0 98 -70 156.5t-225 58.5z
M1176 1677l-414 -172l-47 99l399 213z" />
    <glyph glyph-name="racute" unicode="&#x155;" horiz-adv-x="681" 
d="M279 922h157l-41 -242q64 113 153 187.5t197 74.5q54 0 84 -20l-81 -152q-32 18 -68 18q-50 0 -105 -42.5t-99.5 -108t-80 -138.5t-55.5 -139l-59 -360h-158zM911 1380l-245 -293l-99 70l217 322z" />
    <glyph glyph-name="uni0156" unicode="&#x156;" horiz-adv-x="1316" 
d="M389 0h-174l252 1434q45 0 208 2t179 2q121 0 209.5 -26.5t138.5 -75t73 -108t23 -134.5q0 -100 -32.5 -185.5t-87.5 -145.5t-124.5 -100t-148.5 -57l371 -606h-213l-340 573h-234zM815 1274q-67 0 -203 -4l-94 -533h170q192 0 307 86t115 236q0 98 -70 156.5t-225 58.5z
M567 -133l154 39q18 -4 30.5 -27t12.5 -51q0 -90 -71.5 -157t-180.5 -89l-39 76q123 44 123 143q0 51 -29 66z" />
    <glyph glyph-name="uni0157" unicode="&#x157;" horiz-adv-x="681" 
d="M279 922h157l-41 -242q64 113 153 187.5t197 74.5q54 0 84 -20l-81 -152q-32 18 -68 18q-50 0 -105 -42.5t-99.5 -108t-80 -138.5t-55.5 -139l-59 -360h-158zM100 -133l154 39q18 -4 30.5 -27t12.5 -51q0 -90 -71.5 -157t-180.5 -89l-39 76q123 44 123 143q0 51 -29 66z
" />
    <glyph glyph-name="Rcaron" unicode="&#x158;" horiz-adv-x="1316" 
d="M389 0h-174l252 1434q45 0 208 2t179 2q121 0 209.5 -26.5t138.5 -75t73 -108t23 -134.5q0 -100 -32.5 -185.5t-87.5 -145.5t-124.5 -100t-148.5 -57l371 -606h-213l-340 573h-234zM815 1274q-67 0 -203 -4l-94 -533h170q192 0 307 86t115 236q0 98 -70 156.5t-225 58.5z
M877 1511l-330 211l76 95l266 -166l321 166l52 -99l-377 -207h-8z" />
    <glyph glyph-name="rcaron" unicode="&#x159;" horiz-adv-x="681" 
d="M279 922h157l-41 -242q64 113 153 187.5t197 74.5q54 0 84 -20l-81 -152q-32 18 -68 18q-50 0 -105 -42.5t-99.5 -108t-80 -138.5t-55.5 -139l-59 -360h-158zM612 1083l-241 285l90 86l176 -211l250 209l65 -100l-331 -269h-9z" />
    <glyph glyph-name="Sacute" unicode="&#x15a;" horiz-adv-x="1124" 
d="M907 385q0 62 -32.5 112t-84 85t-114 67.5t-124.5 69t-113.5 79.5t-84 109t-32.5 148q0 77 31.5 147.5t91 127t158 90.5t222.5 34q112 0 213 -41.5t158 -107.5l-109 -127q-120 112 -280 112q-143 0 -221 -61.5t-78 -153.5q0 -61 32.5 -109t84 -81.5t114 -65t125 -67.5
t114 -80t84 -112t32.5 -154q0 -188 -131 -307t-347 -119q-171 0 -290.5 65.5t-173.5 165.5l112 115q55 -84 146.5 -133.5t201.5 -49.5q125 0 210 66t85 176zM1145 1677l-414 -172l-47 99l399 213z" />
    <glyph glyph-name="sacute" unicode="&#x15b;" horiz-adv-x="776" 
d="M547 250q0 49 -37 87t-89.5 67t-104.5 62t-89 87t-37 125q0 115 88 189.5t244 74.5q101 0 172.5 -18.5t106.5 -44.5l-74 -121q-78 41 -197 41q-87 0 -127.5 -31.5t-40.5 -81.5q0 -36 26.5 -66.5t66 -52t86 -51t86 -61t66 -85.5t26.5 -122q0 -125 -96.5 -196.5
t-249.5 -71.5q-105 0 -187 23t-125 60l82 123q95 -63 219 -63q93 0 139 33.5t46 93.5zM862 1380l-246 -293l-98 70l217 322z" />
    <glyph glyph-name="Scircumflex" unicode="&#x15c;" horiz-adv-x="1124" 
d="M907 385q0 62 -32.5 112t-84 85t-114 67.5t-124.5 69t-113.5 79.5t-84 109t-32.5 148q0 77 31.5 147.5t91 127t158 90.5t222.5 34q112 0 213 -41.5t158 -107.5l-109 -127q-120 112 -280 112q-143 0 -221 -61.5t-78 -153.5q0 -61 32.5 -109t84 -81.5t114 -65t125 -67.5
t114 -80t84 -112t32.5 -154q0 -188 -131 -307t-347 -119q-171 0 -290.5 65.5t-173.5 165.5l112 115q55 -84 146.5 -133.5t201.5 -49.5q125 0 210 66t85 176zM870 1806l330 -211l-76 -94l-266 166l-321 -166l-52 98l377 207h8z" />
    <glyph glyph-name="scircumflex" unicode="&#x15d;" horiz-adv-x="776" 
d="M547 250q0 49 -37 87t-89.5 67t-104.5 62t-89 87t-37 125q0 115 88 189.5t244 74.5q101 0 172.5 -18.5t106.5 -44.5l-74 -121q-78 41 -197 41q-87 0 -127.5 -31.5t-40.5 -81.5q0 -36 26.5 -66.5t66 -52t86 -51t86 -61t66 -85.5t26.5 -122q0 -125 -96.5 -196.5
t-249.5 -71.5q-105 0 -187 23t-125 60l82 123q95 -63 219 -63q93 0 139 33.5t46 93.5zM612 1448l242 -291l-90 -80l-176 211l-250 -209l-66 95l332 274h8z" />
    <glyph glyph-name="Scedilla" unicode="&#x15e;" horiz-adv-x="1124" 
d="M322 -344l61 84q73 -57 156 -57q57 0 86.5 24t29.5 64q0 65 -106 65h-12l24 146q-151 10 -256.5 73.5t-152.5 155.5l112 115q55 -84 146.5 -133.5t201.5 -49.5q125 0 210 66t85 176q0 62 -32.5 112t-84 85t-114 67.5t-124.5 69t-113.5 79.5t-84 109t-32.5 148
q0 77 31.5 147.5t91 127t158 90.5t222.5 34q112 0 213 -41.5t158 -107.5l-109 -127q-120 112 -280 112q-143 0 -221 -61.5t-78 -153.5q0 -61 32.5 -109t84 -81.5t114 -65t125 -67.5t114 -80t84 -112t32.5 -154q0 -181 -121 -298t-324 -126l-12 -70q192 -12 192 -137
q0 -92 -75.5 -143.5t-188.5 -51.5q-146 0 -243 76z" />
    <glyph glyph-name="scedilla" unicode="&#x15f;" horiz-adv-x="776" 
d="M70 -346l61 76q62 -47 154 -47q52 0 82 24.5t30 63.5q0 65 -106 65h-12l24 148q-165 12 -242 79l82 123q95 -63 219 -63q93 0 139 33.5t46 93.5q0 49 -37 87t-89.5 67t-104.5 62t-89 87t-37 125q0 115 88 189.5t244 74.5q101 0 172.5 -18.5t106.5 -44.5l-74 -121
q-78 41 -197 41q-87 0 -127.5 -31.5t-40.5 -81.5q0 -36 26.5 -66.5t66 -52t86 -51t86 -61t66 -85.5t26.5 -122q0 -120 -91.5 -191.5t-236.5 -76.5l-10 -68q180 -12 180 -137q0 -92 -72 -143.5t-204 -51.5q-138 0 -215 74z" />
    <glyph glyph-name="Scaron" unicode="&#x160;" horiz-adv-x="1124" 
d="M907 385q0 62 -32.5 112t-84 85t-114 67.5t-124.5 69t-113.5 79.5t-84 109t-32.5 148q0 77 31.5 147.5t91 127t158 90.5t222.5 34q112 0 213 -41.5t158 -107.5l-109 -127q-120 112 -280 112q-143 0 -221 -61.5t-78 -153.5q0 -61 32.5 -109t84 -81.5t114 -65t125 -67.5
t114 -80t84 -112t32.5 -154q0 -188 -131 -307t-347 -119q-171 0 -290.5 65.5t-173.5 165.5l112 115q55 -84 146.5 -133.5t201.5 -49.5q125 0 210 66t85 176zM827 1511l-329 211l75 95l267 -166l321 166l51 -99l-376 -207h-9z" />
    <glyph glyph-name="scaron" unicode="&#x161;" horiz-adv-x="776" 
d="M547 250q0 49 -37 87t-89.5 67t-104.5 62t-89 87t-37 125q0 115 88 189.5t244 74.5q101 0 172.5 -18.5t106.5 -44.5l-74 -121q-78 41 -197 41q-87 0 -127.5 -31.5t-40.5 -81.5q0 -36 26.5 -66.5t66 -52t86 -51t86 -61t66 -85.5t26.5 -122q0 -125 -96.5 -196.5
t-249.5 -71.5q-105 0 -187 23t-125 60l82 123q95 -63 219 -63q93 0 139 33.5t46 93.5zM569 1083l-241 285l90 86l176 -211l250 209l65 -100l-331 -269h-9z" />
    <glyph glyph-name="uni0162" unicode="&#x162;" horiz-adv-x="1218" 
d="M315 -346l68 86q73 -57 141 -57q56 0 92.5 23.5t36.5 64.5q0 65 -104 65h-12l28 164h-43l223 1270h-501l28 164h1178l-29 -164h-501l-224 -1270h-43l-16 -88q190 -11 190 -137q0 -87 -77 -141t-205 -54q-134 0 -230 74z" />
    <glyph glyph-name="uni0163" unicode="&#x163;" horiz-adv-x="661" 
d="M92 -346l62 76q36 -27 70 -37t83 -10q52 0 82.5 24.5t30.5 63.5q0 65 -107 65h-12l27 152q-182 21 -185 237q0 63 11 125l153 828h158l-45 -256h323l-24 -154h-322l-82 -401q-10 -46 -10 -99q0 -70 28 -100.5t87 -30.5q39 0 85 19t77 41l41 -136q-76 -59 -207 -75
l-13 -74q181 -12 181 -137q0 -92 -72.5 -143.5t-204.5 -51.5q-138 0 -215 74z" />
    <glyph glyph-name="Tcaron" unicode="&#x164;" horiz-adv-x="1218" 
d="M244 1270l28 164h1178l-29 -164h-501l-224 -1270h-174l223 1270h-501zM872 1511l-329 211l75 95l267 -166l321 166l51 -99l-376 -207h-9z" />
    <glyph glyph-name="tcaron" unicode="&#x165;" horiz-adv-x="722" 
d="M154 350l153 828h158l-45 -256h323l-24 -154h-322l-82 -401q-10 -46 -10 -99q0 -70 28 -100.5t87 -30.5q39 0 85 19t77 41l41 -136q-42 -32 -111.5 -54.5t-140.5 -22.5q-225 0 -228 241q0 63 11 125zM713 1434h159q5 -30 5 -50q0 -107 -62 -197.5t-172 -144.5l-70 80
q68 48 108 113t40 137q0 30 -8 62z" />
    <glyph glyph-name="Umacron" unicode="&#x16a;" horiz-adv-x="1538" 
d="M1597 1434l-147 -836q-57 -321 -222.5 -468.5t-441.5 -147.5q-235 0 -369 126.5t-128 366.5q3 72 14 137l146 822h178l-144 -789q-14 -74 -14 -145q-9 -355 346 -355q382 0 467 488l141 801h174zM743 1577l25 133h623l-25 -133h-623z" />
    <glyph glyph-name="umacron" unicode="&#x16b;" horiz-adv-x="1011" 
d="M371 133q74 0 170.5 84t169 194.5t92.5 194.5l53 316h158l-158 -922h-158l56 322q-37 -63 -81 -118.5t-100.5 -108.5t-123.5 -84t-134 -31q-94 0 -139 57.5t-45 144.5q0 88 25 207l112 533h158l-111 -502q-25 -112 -22 -184q0 -103 78 -103zM422 1188l22 133h541
l-22 -133h-541z" />
    <glyph glyph-name="Ubreve" unicode="&#x16c;" horiz-adv-x="1538" 
d="M1597 1434l-147 -836q-57 -321 -222.5 -468.5t-441.5 -147.5q-235 0 -369 126.5t-128 366.5q3 72 14 137l146 822h178l-144 -789q-14 -74 -14 -145q-9 -355 346 -355q382 0 467 488l141 801h174zM715 1718l82 84q98 -133 270 -133q93 0 172.5 38t136.5 95l54 -90
q-62 -81 -161.5 -133.5t-213.5 -52.5q-117 0 -209 54t-131 138z" />
    <glyph glyph-name="ubreve" unicode="&#x16d;" horiz-adv-x="1011" 
d="M371 133q74 0 170.5 84t169 194.5t92.5 194.5l53 316h158l-158 -922h-158l56 322q-37 -63 -81 -118.5t-100.5 -108.5t-123.5 -84t-134 -31q-94 0 -139 57.5t-45 144.5q0 88 25 207l112 533h158l-111 -502q-25 -112 -22 -184q0 -103 78 -103zM406 1315l86 80
q17 -25 30.5 -41.5t39.5 -38.5t61.5 -33.5t78.5 -11.5q136 0 259 123l49 -84q-155 -172 -320 -172q-108 0 -178 51t-106 127z" />
    <glyph glyph-name="Uring" unicode="&#x16e;" horiz-adv-x="1538" 
d="M1597 1434l-147 -836q-57 -321 -222.5 -468.5t-441.5 -147.5q-235 0 -369 126.5t-128 366.5q3 72 14 137l146 822h178l-144 -789q-14 -74 -14 -145q-9 -355 346 -355q382 0 467 488l141 801h174zM799 1622q0 98 71.5 147.5t182.5 49.5q114 0 186 -49.5t72 -147.5
t-73 -151.5t-185 -53.5q-110 0 -182 54t-72 151zM922 1622q0 -55 36.5 -84t96.5 -29q58 0 95.5 29t37.5 84q0 53 -36.5 78.5t-96.5 25.5q-61 0 -97 -25.5t-36 -78.5z" />
    <glyph glyph-name="uring" unicode="&#x16f;" horiz-adv-x="1011" 
d="M371 133q74 0 170.5 84t169 194.5t92.5 194.5l53 316h158l-158 -922h-158l56 322q-37 -63 -81 -118.5t-100.5 -108.5t-123.5 -84t-134 -31q-94 0 -139 57.5t-45 144.5q0 88 25 207l112 533h158l-111 -502q-25 -112 -22 -184q0 -103 78 -103zM469 1255q0 95 67 161.5
t166 66.5q100 0 169 -66.5t69 -161.5q0 -94 -68.5 -159.5t-169.5 -65.5q-99 0 -166 65.5t-67 159.5zM575 1257q0 -57 37.5 -96t92.5 -39t92 39t37 96q0 56 -37 95t-92 39t-92.5 -39t-37.5 -95z" />
    <glyph glyph-name="Uhungarumlaut" unicode="&#x170;" horiz-adv-x="1538" 
d="M1597 1434l-147 -836q-57 -321 -222.5 -468.5t-441.5 -147.5q-235 0 -369 126.5t-128 366.5q3 72 14 137l146 822h178l-144 -789q-14 -74 -14 -145q-9 -355 346 -355q382 0 467 488l141 801h174zM1552 1712l-366 -207l-68 72l322 240zM1153 1743l-330 -238l-69 66
l262 246z" />
    <glyph glyph-name="uhungarumlaut" unicode="&#x171;" horiz-adv-x="1011" 
d="M371 133q74 0 170.5 84t169 194.5t92.5 194.5l53 316h158l-158 -922h-158l56 322q-37 -63 -81 -118.5t-100.5 -108.5t-123.5 -84t-134 -31q-94 0 -139 57.5t-45 144.5q0 88 25 207l112 533h158l-111 -502q-25 -112 -22 -184q0 -103 78 -103zM1122 1374l-256 -287l-98 70
l233 309zM780 1393l-231 -306l-98 70l211 324z" />
    <glyph glyph-name="Uogonek" unicode="&#x172;" horiz-adv-x="1538" 
d="M954 -258l39 -107q-64 -45 -180 -45q-97 0 -164 42t-67 118q0 80 56 134.5t157 97.5h-9q-235 0 -369 126.5t-128 366.5q3 72 14 137l146 822h178l-144 -789q-14 -74 -14 -145q-9 -355 346 -355q382 0 467 488l141 801h174l-147 -836q-49 -275 -176 -421.5t-334 -182.5
q-184 -81 -184 -180q0 -47 33 -68.5t73 -21.5q50 0 92 18z" />
    <glyph glyph-name="uogonek" unicode="&#x173;" horiz-adv-x="1011" 
d="M780 -258l37 -102q-71 -50 -190 -50q-93 0 -156 40.5t-63 129.5q0 94 83.5 160.5t208.5 93.5l54 308q-37 -63 -81 -118.5t-100.5 -108.5t-123.5 -84t-134 -31q-94 0 -139 57.5t-45 144.5q0 88 25 207l112 533h158l-111 -502q-25 -112 -22 -184q0 -103 78 -103
q74 0 170.5 84t169 194.5t92.5 194.5l53 316h158l-158 -922q-105 0 -189.5 -55.5t-84.5 -130.5q0 -48 30 -69t76 -21q50 0 92 18z" />
    <glyph glyph-name="Ydieresis" unicode="&#x178;" horiz-adv-x="1236" 
d="M1468 1434l-659 -820l-107 -614h-174l107 614l-363 820h187l286 -656l519 656h204zM551 1665q0 41 33 66.5t80 25.5q42 0 74 -25.5t32 -66.5q0 -45 -31.5 -71.5t-74.5 -26.5q-48 0 -80.5 26t-32.5 72zM1026 1665q0 41 33.5 66.5t81.5 25.5q42 0 73 -25t31 -67
q0 -45 -31 -71.5t-73 -26.5q-48 0 -81.5 26.5t-33.5 71.5z" />
    <glyph glyph-name="Zacute" unicode="&#x179;" horiz-adv-x="1300" 
d="M346 1270l29 164h1075l-20 -117l-1070 -1153h887l-28 -164h-1137l20 117l1065 1153h-821zM1251 1677l-413 -172l-47 99l399 213z" />
    <glyph glyph-name="zacute" unicode="&#x17a;" horiz-adv-x="839" 
d="M201 768l24 154h688l-18 -115l-608 -653h487l-24 -154h-709l20 115l603 653h-463zM922 1380l-246 -293l-98 70l217 322z" />
    <glyph glyph-name="Zdotaccent" unicode="&#x17b;" horiz-adv-x="1300" 
d="M346 1270l29 164h1075l-20 -117l-1070 -1153h887l-28 -164h-1137l20 117l1065 1153h-821zM842 1673q0 48 34 76.5t82 28.5q45 0 78 -29t33 -76q0 -51 -32.5 -80.5t-78.5 -29.5q-49 0 -82.5 29t-33.5 81z" />
    <glyph glyph-name="zdotaccent" unicode="&#x17c;" horiz-adv-x="839" 
d="M201 768l24 154h688l-18 -115l-608 -653h487l-24 -154h-709l20 115l603 653h-463zM553 1268q0 43 31 70.5t75 27.5q40 0 70.5 -27.5t30.5 -70.5q0 -49 -30 -78t-71 -29q-45 0 -75.5 29t-30.5 78z" />
    <glyph glyph-name="Zcaron" unicode="&#x17d;" horiz-adv-x="1300" 
d="M346 1270l29 164h1075l-20 -117l-1070 -1153h887l-28 -164h-1137l20 117l1065 1153h-821zM920 1511l-330 211l76 95l266 -166l321 166l52 -99l-377 -207h-8z" />
    <glyph glyph-name="zcaron" unicode="&#x17e;" horiz-adv-x="839" 
d="M201 768l24 154h688l-18 -115l-608 -653h487l-24 -154h-709l20 115l603 653h-463zM618 1083l-241 285l90 86l176 -211l250 209l65 -100l-331 -269h-9z" />
    <glyph glyph-name="longs" unicode="&#x17f;" horiz-adv-x="524" 
d="M123 0l188 1071q67 383 391 383q79 0 140 -23t92 -59l-80 -125q-53 53 -152 53q-184 0 -229 -247l-186 -1053h-164z" />
    <glyph glyph-name="uni018F" unicode="&#x18f;" horiz-adv-x="1599" 
d="M242 813h1206q3 221 -128 349t-357 128q-242 0 -410 -116l-66 131q198 149 502 149q312 0 479.5 -171t167.5 -490q0 -127 -36.5 -247t-108.5 -222.5t-171 -179.5t-231.5 -120.5t-281.5 -43.5q-171 0 -300.5 59.5t-202 168.5t-92 263t29.5 342zM821 143q122 0 231 41
t187.5 110.5t131 161t69.5 193.5h-1039q-19 -139 23 -253t145.5 -183.5t251.5 -69.5z" />
    <glyph glyph-name="florin" unicode="&#x192;" 
d="M864 1053l-24 -131h295v-154h-322l-147 -836q-16 -90 -39 -152.5t-60 -110.5t-92 -71.5t-131 -23.5q-63 0 -119.5 17t-85.5 42l45 131q59 -36 121 -36q86 0 131.5 55.5t65.5 165.5l145 819h-285v154h312l26 149q38 200 117.5 291.5t229.5 91.5q79 0 144 -23t103 -59
l-57 -125q-63 53 -162 53q-87 0 -136.5 -58t-74.5 -189z" />
    <glyph glyph-name="uni01DD" unicode="&#x1dd;" horiz-adv-x="935" 
d="M258 674l-76 98q71 73 176 121.5t211 48.5q97 0 169.5 -32t112 -85t58.5 -112.5t19 -124.5q0 -118 -38.5 -227t-108.5 -194t-177.5 -136t-236.5 -51q-148 0 -214.5 64t-64.5 163q1 100 66.5 169.5t215.5 113.5t386 55v6q0 48 -8.5 86t-30.5 74.5t-67 56.5t-111 20
q-121 0 -281 -114zM387 133q126 0 221.5 83t130.5 210q-179 -13 -286 -41t-148.5 -64.5t-42.5 -89.5q-1 -48 32 -73t93 -25z" />
    <glyph glyph-name="uni0218" unicode="&#x218;" horiz-adv-x="1124" 
d="M907 385q0 62 -32.5 112t-84 85t-114 67.5t-124.5 69t-113.5 79.5t-84 109t-32.5 148q0 77 31.5 147.5t91 127t158 90.5t222.5 34q112 0 213 -41.5t158 -107.5l-109 -127q-120 112 -280 112q-143 0 -221 -61.5t-78 -153.5q0 -61 32.5 -109t84 -81.5t114 -65t125 -67.5
t114 -80t84 -112t32.5 -154q0 -188 -131 -307t-347 -119q-171 0 -290.5 65.5t-173.5 165.5l112 115q55 -84 146.5 -133.5t201.5 -49.5q125 0 210 66t85 176zM477 -133l154 39q18 -4 30.5 -27t12.5 -51q0 -90 -71.5 -157t-180.5 -89l-39 76q123 44 123 143q0 51 -29 66z" />
    <glyph glyph-name="uni0219" unicode="&#x219;" horiz-adv-x="776" 
d="M547 250q0 49 -37 87t-89.5 67t-104.5 62t-89 87t-37 125q0 115 88 189.5t244 74.5q101 0 172.5 -18.5t106.5 -44.5l-74 -121q-78 41 -197 41q-87 0 -127.5 -31.5t-40.5 -81.5q0 -36 26.5 -66.5t66 -52t86 -51t86 -61t66 -85.5t26.5 -122q0 -125 -96.5 -196.5
t-249.5 -71.5q-105 0 -187 23t-125 60l82 123q95 -63 219 -63q93 0 139 33.5t46 93.5zM262 -133l154 39q18 -4 30.5 -27t12.5 -51q0 -90 -71.5 -157t-180.5 -89l-39 76q123 44 123 143q0 51 -29 66z" />
    <glyph glyph-name="uni021A" unicode="&#x21a;" horiz-adv-x="1218" 
d="M244 1270l28 164h1178l-29 -164h-501l-224 -1270h-174l223 1270h-501zM485 -133l154 39q18 -4 30.5 -27t12.5 -51q0 -90 -71.5 -157t-180.5 -89l-39 76q123 44 123 143q0 51 -29 66z" />
    <glyph glyph-name="uni021B" unicode="&#x21b;" horiz-adv-x="661" 
d="M154 350l153 828h158l-45 -256h323l-24 -154h-322l-82 -401q-10 -46 -10 -99q0 -70 28 -100.5t87 -30.5q39 0 85 19t77 41l41 -136q-42 -32 -111.5 -54.5t-140.5 -22.5q-225 0 -228 241q0 63 11 125zM252 -133l154 39q18 -4 30.5 -27t12.5 -51q0 -90 -71.5 -157
t-180.5 -89l-39 76q123 44 123 143q0 51 -29 66z" />
    <glyph glyph-name="uni0237" unicode="&#x237;" horiz-adv-x="473" 
d="M483 922l-174 -990q-62 -358 -352 -358q-63 0 -116 17t-79 42l70 131q56 -36 115 -36q85 0 132.5 55.5t67.5 161.5l172 977h164z" />
    <glyph glyph-name="uni0259" unicode="&#x259;" horiz-adv-x="935" 
d="M258 674l-76 98q71 73 176 121.5t211 48.5q97 0 169.5 -32t112 -85t58.5 -112.5t19 -124.5q0 -118 -38.5 -227t-108.5 -194t-177.5 -136t-236.5 -51q-148 0 -214.5 64t-64.5 163q1 100 66.5 169.5t215.5 113.5t386 55v6q0 48 -8.5 86t-30.5 74.5t-67 56.5t-111 20
q-121 0 -281 -114zM387 133q126 0 221.5 83t130.5 210q-179 -13 -286 -41t-148.5 -64.5t-42.5 -89.5q-1 -48 32 -73t93 -25z" />
    <glyph glyph-name="uni02BC" unicode="&#x2bc;" horiz-adv-x="495" 
d="M410 1294l145 76q35 -51 35 -127q0 -113 -56.5 -202.5t-175.5 -141.5l-67 80q65 38 102 97t37 124q0 68 -20 94z" />
    <glyph glyph-name="circumflex" unicode="&#x2c6;" horiz-adv-x="827" 
d="M670 1448l241 -291l-90 -80l-176 211l-250 -209l-65 95l332 274h8z" />
    <glyph glyph-name="caron" unicode="&#x2c7;" horiz-adv-x="827" 
d="M610 1083l-241 285l90 86l176 -211l250 209l65 -100l-332 -269h-8z" />
    <glyph glyph-name="breve" unicode="&#x2d8;" horiz-adv-x="849" 
d="M358 1315l86 80q17 -25 31 -41.5t39.5 -38.5t61.5 -33.5t79 -11.5q135 0 258 123l50 -84q-155 -172 -320 -172q-108 0 -179 51t-106 127z" />
    <glyph glyph-name="dotaccent" unicode="&#x2d9;" horiz-adv-x="452" 
d="M123 1268q0 43 31 70.5t75 27.5q40 0 70.5 -27.5t30.5 -70.5q0 -49 -30 -78t-71 -29q-45 0 -75.5 29t-30.5 78z" />
    <glyph glyph-name="ring" unicode="&#x2da;" horiz-adv-x="716" 
d="M123 1255q0 95 67 161.5t166 66.5q100 0 169 -66.5t69 -161.5q0 -94 -68.5 -159.5t-169.5 -65.5q-99 0 -166 65.5t-67 159.5zM229 1257q0 -57 37 -96t92 -39t92 39t37 96q0 56 -37 95t-92 39t-92 -39t-37 -95z" />
    <glyph glyph-name="ogonek" unicode="&#x2db;" horiz-adv-x="671" 
d="M453 -258l36 -102q-71 -50 -190 -50q-93 0 -156 40.5t-63 129.5q0 84 73 149t175 95t207 29l-5 -33q-105 0 -190.5 -55.5t-85.5 -130.5q0 -48 30 -69t76 -21q51 0 93 18z" />
    <glyph glyph-name="tilde" unicode="&#x2dc;" horiz-adv-x="905" 
d="M190 1141l-67 76q108 122 225 122q40 0 80.5 -22.5t78.5 -45t73 -22.5q37 0 66.5 15.5t78.5 56.5l57 -84q-115 -121 -217 -121q-45 0 -116 45t-117 45q-57 0 -142 -65z" />
    <glyph glyph-name="hungarumlaut" unicode="&#x2dd;" horiz-adv-x="917" 
d="M795 1374l-256 -287l-99 70l234 309zM453 1393l-232 -306l-98 70l211 324z" />
    <glyph glyph-name="gravecomb" unicode="&#x300;" horiz-adv-x="0" 
d="M-356 1087l-248 291l129 99l219 -320z" />
    <glyph glyph-name="acutecomb" unicode="&#x301;" horiz-adv-x="0" 
d="M-47 1380l-246 -293l-98 70l217 322z" />
    <glyph glyph-name="Delta" unicode="&#x394;" horiz-adv-x="1486" 
d="M123 0l620 1450h109l635 -1450h-1364zM793 1155l-418 -991h852z" />
    <glyph glyph-name="Delta" unicode="&#x2206;" horiz-adv-x="1486" 
d="M123 0l620 1450h109l635 -1450h-1364zM793 1155l-418 -991h852z" />
    <glyph glyph-name="uni03A9" unicode="&#x3a9;" horiz-adv-x="1671" 
d="M262 0v164h346q-97 32 -180 114t-136.5 209t-53.5 271q0 153 56 284t152.5 220.5t229 140.5t282.5 51q204 0 368 -86.5t258.5 -246t94.5 -363.5q0 -113 -31.5 -214.5t-84 -176t-118.5 -127t-138 -76.5h346v-164h-586v164q193 49 310.5 207t117.5 358q0 153 -65.5 280
t-189.5 204t-282 77q-160 0 -284 -77t-188 -204.5t-64 -281.5q0 -125 51 -241.5t149.5 -204t225.5 -117.5v-164h-586z" />
    <glyph glyph-name="uni03A9" unicode="&#x2126;" horiz-adv-x="1671" 
d="M262 0v164h346q-97 32 -180 114t-136.5 209t-53.5 271q0 153 56 284t152.5 220.5t229 140.5t282.5 51q204 0 368 -86.5t258.5 -246t94.5 -363.5q0 -113 -31.5 -214.5t-84 -176t-118.5 -127t-138 -76.5h346v-164h-586v164q193 49 310.5 207t117.5 358q0 153 -65.5 280
t-189.5 204t-282 77q-160 0 -284 -77t-188 -204.5t-64 -281.5q0 -125 51 -241.5t149.5 -204t225.5 -117.5v-164h-586z" />
    <glyph glyph-name="pi" unicode="&#x3c0;" horiz-adv-x="1300" 
d="M229 768l27 154h1098l-27 -154h-184l-82 -469q-4 -23 -5.5 -33t-3.5 -33.5t2 -36.5t11.5 -29t24 -23t40.5 -7q52 0 103 31l14 -131q-79 -53 -170 -53q-237 0 -186 286l88 498h-393l-23 -125q-22 -120 -43.5 -207t-50.5 -165t-65 -129t-84 -88t-109 -52.5t-139 -13.5
l16 159q113 -3 186 104.5t119 360.5l29 156h-193z" />
    <glyph glyph-name="uni0401" unicode="&#x401;" horiz-adv-x="1177" 
d="M215 0l252 1434h809l-29 -164h-635l-82 -463h574l-29 -164h-573l-84 -479h655l-29 -164h-829zM578 1665q0 42 32.5 67t79.5 25q42 0 74.5 -25.5t32.5 -66.5q0 -45 -32 -71.5t-75 -26.5q-48 0 -80 26t-32 72zM1053 1665q0 41 33.5 66.5t80.5 25.5q42 0 73.5 -25t31.5 -67
q0 -45 -31.5 -71.5t-73.5 -26.5q-48 0 -81 26.5t-33 71.5z" />
    <glyph glyph-name="uni0402" unicode="&#x402;" horiz-adv-x="1560" 
d="M1544 500q0 -247 -122 -383.5t-316 -136.5q-139 0 -209 81l82 127q52 -45 127 -45q118 0 188 87t70 251q0 115 -61.5 168t-182.5 53q-51 0 -97.5 -8t-89.5 -26t-66.5 -29.5t-63.5 -34.5l-107 -604h-174l223 1270h-501l28 164h1178l-29 -164h-501l-91 -500q165 96 353 96
q165 0 263.5 -91t98.5 -275z" />
    <glyph glyph-name="uni0403" unicode="&#x403;" horiz-adv-x="1034" 
d="M215 0l252 1434h799l-29 -164h-625l-223 -1270h-174zM1274 1677l-414 -172l-47 99l399 213z" />
    <glyph glyph-name="uni0404" unicode="&#x404;" horiz-adv-x="1380" 
d="M1133 813l-29 -164h-709q4 -225 152.5 -365.5t374.5 -140.5q227 0 407 131l64 -139q-89 -72 -221 -113.5t-263 -41.5q-317 0 -505.5 186t-188.5 498q0 161 62.5 305.5t173 251.5t274 170t354.5 63q141 0 260 -38.5t187 -108.5l-96 -119q-152 102 -351 102
q-249 0 -434 -128t-235 -349h723z" />
    <glyph glyph-name="uni0405" unicode="&#x405;" horiz-adv-x="1124" 
d="M907 385q0 62 -32.5 112t-84 85t-114 67.5t-124.5 69t-113.5 79.5t-84 109t-32.5 148q0 77 31.5 147.5t91 127t158 90.5t222.5 34q112 0 213 -41.5t158 -107.5l-109 -127q-120 112 -280 112q-143 0 -221 -61.5t-78 -153.5q0 -61 32.5 -109t84 -81.5t114 -65t125 -67.5
t114 -80t84 -112t32.5 -154q0 -188 -131 -307t-347 -119q-171 0 -290.5 65.5t-173.5 165.5l112 115q55 -84 146.5 -133.5t201.5 -49.5q125 0 210 66t85 176z" />
    <glyph glyph-name="uni0406" unicode="&#x406;" horiz-adv-x="686" 
d="M256 0l252 1434h174l-252 -1434h-174z" />
    <glyph glyph-name="uni0407" unicode="&#x407;" horiz-adv-x="686" 
d="M256 0l252 1434h174l-252 -1434h-174zM698 1665q0 41 33.5 66.5t81.5 25.5q42 0 73.5 -25t31.5 -67q0 -45 -31.5 -71.5t-73.5 -26.5q-48 0 -81.5 26.5t-33.5 71.5zM356 1665q0 41 33 66.5t80 25.5q42 0 74 -25.5t32 -66.5q0 -45 -31.5 -71.5t-74.5 -26.5q-48 0 -80.5 26
t-32.5 72z" />
    <glyph glyph-name="uni0408" unicode="&#x408;" horiz-adv-x="765" 
d="M803 1434l-195 -1108q-63 -346 -375 -346q-67 0 -121.5 22t-80.5 53l82 133q52 -45 129 -45q88 0 133.5 55t64.5 156l191 1080h172z" />
    <glyph glyph-name="uni0409" unicode="&#x409;" horiz-adv-x="2095" 
d="M1098 0l223 1270h-520l-72 -271q-45 -168 -89.5 -305.5t-87 -239t-86 -180t-84.5 -127.5t-83 -83.5t-82.5 -47.5t-82.5 -18.5t-83 2.5l33 174q25 -3 47.5 1t57 25t66.5 59t74 111t82.5 174t88.5 255.5t96 347.5l72 287h856l-92 -533q130 10 190 10q231 0 347 -96.5
t116 -271.5q0 -258 -176.5 -402.5t-485.5 -144.5q-66 0 -177 2t-148 2zM1581 748q-60 0 -180 -13l-101 -569q165 -6 168 -6q193 0 310.5 94t117.5 262q0 115 -80 173.5t-235 58.5z" />
    <glyph glyph-name="uni040A" unicode="&#x40a;" horiz-adv-x="2150" 
d="M215 0l252 1434h174l-100 -572h768l100 572h174l-98 -564q143 11 192 11q227 0 345 -95.5t118 -263.5q0 -243 -177 -384.5t-480 -141.5q-51 0 -144 2t-129 2h-53l123 698h-768l-123 -698h-174zM1456 705l-96 -539q165 -6 172 -6q177 0 298.5 89.5t121.5 239.5
q0 110 -81 169t-235 59q-72 0 -180 -12z" />
    <glyph glyph-name="uni040B" unicode="&#x40b;" horiz-adv-x="1560" 
d="M244 1270l28 164h1178l-29 -164h-501l-91 -500q154 96 357 96q89 0 159 -29t119.5 -90t65 -155t-5.5 -225l-66 -367h-174l64 362q31 180 -28 260t-204 80q-146 0 -313 -98l-107 -604h-174l223 1270h-501z" />
    <glyph glyph-name="uni040C" unicode="&#x40c;" horiz-adv-x="1337" 
d="M1516 1434l-760 -701l528 -733h-211l-518 748l729 686h232zM215 0l252 1434h174l-252 -1434h-174zM1337 1677l-413 -172l-47 99l399 213z" />
    <glyph glyph-name="uni040E" unicode="&#x40e;" horiz-adv-x="1363" 
d="M1585 1434l-690 -1106q-116 -185 -206 -256.5t-208 -71.5q-48 0 -95 14t-71 37l82 139q46 -28 111 -28q105 0 203 151l34 54l-462 1067h188l379 -899l551 899h184zM635 1761h164q5 -64 44.5 -98.5t149.5 -34.5q174 0 256 133h144q-47 -115 -160 -185.5t-264 -70.5
q-166 0 -251.5 68.5t-82.5 187.5z" />
    <glyph glyph-name="uni040F" unicode="&#x40f;" horiz-adv-x="1536" 
d="M215 0l252 1434h174l-223 -1270h758l223 1270h174l-252 -1434h-473l-55 -317h-164l55 317h-469z" />
    <glyph glyph-name="uni0410" unicode="&#x410;" horiz-adv-x="1443" 
d="M31 0l870 1442h150l362 -1442h-176l-109 434h-653l-258 -434h-186zM940 1210l-367 -612h517z" />
    <glyph glyph-name="uni0411" unicode="&#x411;" horiz-adv-x="1253" 
d="M215 0l252 1434h811l-29 -164h-637l-71 -412q111 12 221 12q210 0 322 -93.5t112 -256.5q0 -259 -173.5 -393.5t-492.5 -134.5q-64 0 -170.5 4t-144.5 4zM723 707q-87 0 -211 -13l-94 -530q126 -8 168 -8q204 0 318 89t114 236q0 116 -71.5 171t-223.5 55z" />
    <glyph glyph-name="uni0412" unicode="&#x412;" horiz-adv-x="1263" 
d="M215 2l252 1430q320 8 395 8q406 0 406 -320q0 -138 -79 -238t-208 -139l-2 -4q102 -27 160.5 -97t58.5 -171q0 -120 -46 -212.5t-128.5 -149.5t-190 -86t-235.5 -29q-215 0 -383 8zM735 653h-231l-86 -487q94 -8 219 -8q181 0 279 74.5t98 209.5q0 211 -279 211z
M829 1276q-64 0 -217 -6l-82 -463h230q134 0 228.5 75.5t94.5 204.5q0 93 -64.5 141t-189.5 48z" />
    <glyph glyph-name="uni0413" unicode="&#x413;" horiz-adv-x="1034" 
d="M215 0l252 1434h799l-29 -164h-625l-223 -1270h-174z" />
    <glyph glyph-name="uni0414" unicode="&#x414;" horiz-adv-x="1533" 
d="M-16 -266l75 430h154q32 33 76.5 103.5t102.5 187t120.5 299.5t110.5 393l65 287h842l-223 -1270h194l-76 -430h-163l47 266h-1114l-48 -266h-163zM762 1014q-81 -329 -185.5 -556.5t-170.5 -293.5h727l194 1106h-502z" />
    <glyph glyph-name="uni0415" unicode="&#x415;" horiz-adv-x="1177" 
d="M215 0l252 1434h809l-29 -164h-635l-82 -463h574l-29 -164h-573l-84 -479h655l-29 -164h-829z" />
    <glyph glyph-name="uni0416" unicode="&#x416;" horiz-adv-x="1912" 
d="M2101 1434l-700 -697l471 -737h-195l-467 748l674 686h217zM868 0l252 1434h174l-252 -1434h-174zM772 764l-457 670h193l457 -686l-709 -748h-215z" />
    <glyph glyph-name="uni0417" unicode="&#x417;" horiz-adv-x="1183" 
d="M596 -20q-163 0 -286 63t-191 162l117 117q56 -83 156.5 -131t223.5 -48q143 0 235.5 76.5t92.5 210.5q0 101 -75 161t-236 60h-98l30 164h117q131 0 226.5 80t95.5 203q0 94 -66 143t-186 49q-82 0 -168.5 -35t-161.5 -90l-82 125q88 74 200 119t230 45q202 0 307 -89.5
t105 -248.5q0 -110 -65.5 -211t-205.5 -160l-2 -6q95 -27 152 -107t57 -200q0 -200 -147 -326t-375 -126z" />
    <glyph glyph-name="uni0418" unicode="&#x418;" horiz-adv-x="1628" 
d="M369 0h-154l252 1434h174l-199 -1131l1069 1131h154l-252 -1434h-174l199 1128z" />
    <glyph glyph-name="uni0419" unicode="&#x419;" horiz-adv-x="1628" 
d="M369 0h-154l252 1434h174l-199 -1131l1069 1131h154l-252 -1434h-174l199 1128zM733 1761h164q5 -64 45 -98.5t150 -34.5q174 0 256 133h143q-47 -115 -160 -185.5t-264 -70.5q-166 0 -251.5 68.5t-82.5 187.5z" />
    <glyph glyph-name="uni041A" unicode="&#x41a;" horiz-adv-x="1337" 
d="M1516 1434l-760 -701l528 -733h-211l-518 748l729 686h232zM215 0l252 1434h174l-252 -1434h-174z" />
    <glyph glyph-name="uni041B" unicode="&#x41b;" horiz-adv-x="1486" 
d="M1098 0l223 1270h-520l-72 -271q-45 -168 -89.5 -305.5t-87 -239t-86 -180t-84.5 -127.5t-83 -83.5t-82.5 -47.5t-82.5 -18.5t-83 2.5l33 174q25 -3 47.5 1t57 25t66.5 59t74 111t82.5 174t88.5 255.5t96 347.5l72 287h856l-252 -1434h-174z" />
    <glyph glyph-name="uni041C" unicode="&#x41c;" horiz-adv-x="1826" 
d="M215 0l252 1434h151l410 -736l645 736h191l-252 -1434h-174l204 1159l-634 -713h-27l-389 707l-203 -1153h-174z" />
    <glyph glyph-name="uni041D" unicode="&#x41d;" horiz-adv-x="1566" 
d="M1178 0l114 649h-788l-115 -649h-174l252 1434h174l-109 -621h789l109 621h174l-252 -1434h-174z" />
    <glyph glyph-name="uni041E" unicode="&#x41e;" horiz-adv-x="1667" 
d="M215 645q0 165 58.5 312.5t163 257.5t260 174.5t339.5 64.5q295 0 481.5 -176t186.5 -467q0 -180 -59 -335t-162.5 -263.5t-251 -170.5t-318.5 -62q-169 0 -303 51.5t-219.5 142t-130.5 210.5t-45 261zM403 655q0 -161 71 -279t186.5 -175.5t259.5 -57.5q125 0 234 45.5
t189.5 127.5t126.5 205t46 270q0 226 -136 362.5t-362 136.5q-122 0 -233 -44t-196 -123.5t-135.5 -201t-50.5 -266.5z" />
    <glyph glyph-name="uni041F" unicode="&#x41f;" horiz-adv-x="1556" 
d="M1167 0l224 1270h-779l-223 -1270h-174l252 1434h1126l-252 -1434h-174z" />
    <glyph glyph-name="uni0420" unicode="&#x420;" horiz-adv-x="1222" 
d="M389 0h-174l252 1434q39 0 185 2t192 2q126 0 218.5 -30t144 -83t75 -116t23.5 -138q0 -112 -40 -208t-114.5 -167.5t-190.5 -112t-260 -40.5q-119 0 -215 8zM831 1274q-83 0 -219 -4l-96 -553q113 -10 207 -10q180 0 287.5 92.5t107.5 247.5q0 107 -71.5 167t-215.5 60z
" />
    <glyph glyph-name="uni0421" unicode="&#x421;" horiz-adv-x="1343" 
d="M1296 252l66 -131q-80 -69 -209 -105t-252 -36q-158 0 -288 52t-216.5 142t-134 212t-47.5 263q0 228 110 412.5t302 288.5t428 104q148 0 260.5 -34t173.5 -91l-90 -125q-138 86 -332 86q-186 0 -337.5 -79t-239 -221.5t-87.5 -319.5q0 -147 62.5 -266t183.5 -190
t281 -71q212 0 366 109z" />
    <glyph glyph-name="uni0422" unicode="&#x422;" horiz-adv-x="1218" 
d="M244 1270l28 164h1178l-29 -164h-501l-224 -1270h-174l223 1270h-501z" />
    <glyph glyph-name="uni0423" unicode="&#x423;" horiz-adv-x="1363" 
d="M1585 1434l-690 -1106q-116 -185 -206 -256.5t-208 -71.5q-48 0 -95 14t-71 37l82 139q46 -28 111 -28q105 0 203 151l34 54l-462 1067h188l379 -899l551 899h184z" />
    <glyph glyph-name="uni0424" unicode="&#x424;" horiz-adv-x="1708" 
d="M760 -16l33 188h-2q-278 0 -434 136.5t-156 363.5q0 189 101.5 333t280.5 220.5t410 77.5l25 147h174l-25 -147q278 -2 438 -127.5t160 -348.5q0 -307 -212.5 -481t-579.5 -174h-6l-33 -188h-174zM1141 1141h-2l-144 -809h4q264 0 422 119.5t158 328.5q0 175 -113 268
t-325 93zM387 682q0 -172 113.5 -261t318.5 -89h2l144 809q-263 0 -420.5 -125.5t-157.5 -333.5z" />
    <glyph glyph-name="uni0425" unicode="&#x425;" horiz-adv-x="1359" 
d="M1552 1434l-630 -705l397 -729h-193l-329 600l-537 -600h-219l655 729l-381 705h197l315 -580l510 580h215z" />
    <glyph glyph-name="uni0426" unicode="&#x426;" horiz-adv-x="1587" 
d="M215 0l252 1434h174l-223 -1270h768l223 1270h174l-223 -1270h194l-75 -430h-164l47 266h-1147z" />
    <glyph glyph-name="uni0427" unicode="&#x427;" horiz-adv-x="1331" 
d="M1368 1434l-252 -1434h-174l111 627q-176 -111 -373 -111q-175 0 -281 87t-106 253q4 76 12 117l82 461h174l-74 -414q-12 -67 -12 -133q0 -207 254 -207q99 0 190.5 30t161.5 78l113 646h174z" />
    <glyph glyph-name="uni0428" unicode="&#x428;" horiz-adv-x="2037" 
d="M215 0l252 1434h174l-223 -1270h543l223 1270h174l-223 -1270h542l224 1270h174l-252 -1434h-1608z" />
    <glyph glyph-name="uni0429" unicode="&#x429;" horiz-adv-x="2078" 
d="M215 0l252 1434h174l-223 -1270h543l223 1270h174l-223 -1270h542l224 1270h174l-224 -1270h195l-76 -430h-164l47 266h-1638z" />
    <glyph glyph-name="uni042A" unicode="&#x42a;" horiz-adv-x="1370" 
d="M233 1270l29 164h516l-94 -533q133 10 203 10q236 0 353.5 -95.5t117.5 -266.5q0 -262 -169.5 -407.5t-502.5 -145.5q-66 0 -181.5 2t-152.5 2l223 1270h-342zM846 748q-71 0 -191 -13l-100 -569q165 -6 180 -6q205 0 319.5 91t114.5 261q0 115 -83.5 175.5t-239.5 60.5z
" />
    <glyph glyph-name="uni042B" unicode="&#x42b;" horiz-adv-x="1730" 
d="M1341 0l252 1434h174l-251 -1434h-175zM698 748q-60 0 -180 -13l-100 -569q165 -6 172 -6q196 0 310 93.5t114 260.5q0 113 -81.5 173.5t-234.5 60.5zM641 1434l-92 -533q130 10 190 10q230 0 346.5 -95.5t116.5 -266.5q0 -255 -168.5 -404t-492.5 -149q-66 0 -177.5 2
t-148.5 2l252 1434h174z" />
    <glyph glyph-name="uni042C" unicode="&#x42c;" horiz-adv-x="1232" 
d="M709 748q-71 0 -191 -13l-100 -569q165 -6 182 -6q195 0 314.5 92.5t119.5 259.5q0 236 -325 236zM641 1434l-92 -533q130 10 201 10q238 0 355.5 -95.5t117.5 -266.5q0 -269 -179 -411t-493 -142q-66 0 -182.5 2t-153.5 2l252 1434h174z" />
    <glyph glyph-name="uni042D" unicode="&#x42d;" horiz-adv-x="1386" 
d="M510 649l29 164h708q12 222 -119 349.5t-350 127.5t-409 -116l-68 133q89 67 231 107t289 40q282 0 443 -169.5t161 -473.5q0 -255 -107.5 -445.5t-292 -288t-419.5 -97.5q-164 0 -296 51t-216 133l103 131q77 -67 184 -110t229 -42q158 1 290.5 60.5t220.5 175
t108 270.5h-719z" />
    <glyph glyph-name="uni042E" unicode="&#x42e;" horiz-adv-x="2170" 
d="M504 649l-115 -649h-174l252 1434h174l-109 -621h271q25 137 89 253t160 203t228.5 136t286.5 49q283 0 462 -175t179 -466q0 -241 -96.5 -431t-270 -296t-393.5 -106q-162 0 -289 51.5t-207.5 142.5t-122 210.5t-41.5 260.5v4h-284zM967 655q0 -161 67 -279
t176.5 -175.5t245.5 -57.5q158 0 285 77.5t202.5 226.5t75.5 346q0 226 -128.5 361.5t-342.5 135.5q-115 0 -219.5 -44t-185 -123.5t-128.5 -201t-48 -266.5z" />
    <glyph glyph-name="uni042F" unicode="&#x42f;" horiz-adv-x="1275" 
d="M887 0l94 532h-268l-451 -532h-211l506 584q-107 47 -167 133t-60 205q0 78 22 151t72 140.5t123.5 117t184.5 79.5t247 30q49 0 171 -3t163 -3l-252 -1434h-174zM721 696h289l100 574q-141 6 -192 6q-99 0 -177.5 -27.5t-126 -75t-72 -108t-24.5 -129.5q0 -85 52 -151.5
t151 -88.5z" />
    <glyph glyph-name="uni0430" unicode="&#x430;" horiz-adv-x="1040" 
d="M442 133q65 0 153 84t156 194.5t89 194.5l32 164q-55 18 -124 18q-131 0 -234 -61.5t-158 -166t-55 -232.5q0 -90 36 -142.5t105 -52.5zM897 0h-162l58 324q-32 -52 -61.5 -94.5t-72.5 -91.5t-85.5 -81.5t-96.5 -54.5t-110 -22q-116 0 -176 88t-60 235q0 176 81 323
t220.5 231.5t306.5 84.5q177 0 301 -63z" />
    <glyph glyph-name="uni0431" unicode="&#x431;" horiz-adv-x="1075" 
d="M582 1264q72 30 158.5 53t143 34.5t116.5 37t102 65.5l35 -151q-39 -40 -100.5 -66t-120 -37t-140.5 -31t-143 -47q-80 -35 -137 -88.5t-93.5 -128t-58 -151t-39.5 -183.5q78 147 213.5 259t272.5 112q125 0 199.5 -81.5t74.5 -242.5q0 -176 -73 -323t-197 -231t-271 -84
q-93 0 -167 36.5t-119 98.5t-68 140t-23 165q0 166 36 311.5t98 249.5t138.5 176t162.5 107zM891 594q0 95 -44.5 144.5t-109.5 49.5q-77 0 -171.5 -74t-164 -174.5t-92.5 -183.5q13 -100 68.5 -161.5t154.5 -61.5q138 0 248.5 136.5t110.5 324.5z" />
    <glyph glyph-name="uni0432" unicode="&#x432;" horiz-adv-x="976" 
d="M971 715q-2 -77 -43.5 -133t-128.5 -95q66 -18 104.5 -57t38.5 -96q0 -64 -31 -126.5t-86 -113.5t-140 -82.5t-185 -31.5q-91 0 -164 31.5t-116.5 83t-66 113t-22.5 126.5q0 118 38.5 227t108.5 194t177.5 136t236.5 51q148 0 214.5 -64t64.5 -163zM778 332
q0 86 -102 112q-134 -37 -373 -59v-14q0 -117 61 -177.5t166 -60.5q98 0 173 58t75 141zM672 788q-131 0 -229 -89t-128 -224q479 54 482 215q1 48 -32 73t-93 25z" />
    <glyph glyph-name="uni0433" unicode="&#x433;" horiz-adv-x="858" 
d="M82 229q0 66 32.5 117t84.5 82t115.5 55t126.5 44t116 42t86.5 55t34.5 76q0 37 -31 62.5t-94 25.5q-124 0 -270 -73l-56 121q156 106 344 106q135 0 208 -65.5t71 -161.5q0 -67 -33.5 -119t-86 -84.5t-116 -58t-127 -45.5t-115.5 -41t-85 -51.5t-33 -69.5
q0 -47 37.5 -80t111.5 -33q149 0 310 115l75 -98q-69 -73 -175 -121.5t-212 -48.5q-157 0 -238 71.5t-81 177.5z" />
    <glyph glyph-name="uni0434" unicode="&#x434;" horiz-adv-x="1036" 
d="M487 -20q-167 0 -261.5 103t-94.5 279q0 151 62.5 282.5t182 214.5t269.5 83q146 0 242 -92q-3 72 -14 130.5t-41 119.5t-76.5 103.5t-124.5 71t-182 32.5l24 147q279 0 429.5 -157.5t150.5 -448.5q0 -251 -66 -446.5t-195.5 -308.5t-304.5 -113zM643 788
q-149 0 -246.5 -108.5t-97.5 -292.5q0 -124 54.5 -189t154.5 -65q99 0 180 74t130 197.5t65 277.5q-109 106 -240 106z" />
    <glyph glyph-name="uni0435" unicode="&#x435;" horiz-adv-x="952" 
d="M811 248l76 -98q-71 -73 -176 -121.5t-211 -48.5q-91 0 -164 31.5t-116.5 83t-66 113t-22.5 126.5q0 118 38.5 227t108.5 194t177.5 136t236.5 51q148 0 214.5 -64t64.5 -163q-2 -154 -161 -242.5t-507 -105.5q0 -115 61 -174.5t166 -59.5q120 0 281 115zM672 788
q-130 0 -227 -86.5t-130 -218.5q178 13 287.5 44t151.5 70.5t43 92.5q1 48 -32 73t-93 25z" />
    <glyph glyph-name="uni0436" unicode="&#x436;" horiz-adv-x="1296" 
d="M1407 922l-397 -453l266 -469h-182l-260 477l372 445h201zM557 0l156 922h155l-155 -922h-156zM422 494l-250 428h184l242 -445l-401 -477h-197z" />
    <glyph glyph-name="uni0437" unicode="&#x437;" horiz-adv-x="854" 
d="M401 -20q-110 0 -213.5 39.5t-138.5 95.5l92 112q47 -47 120 -73.5t149 -26.5q93 0 164 47.5t71 120.5q0 102 -186 102h-119l25 133h102q97 0 155 42.5t58 107.5q0 54 -45 84.5t-123 30.5q-83 0 -144.5 -21t-127.5 -61l-62 118q175 111 383 111q144 0 219.5 -56
t75.5 -155q0 -84 -44 -154t-142 -104v-4q76 -21 108.5 -63.5t32.5 -112.5q0 -94 -56.5 -166t-149.5 -109.5t-204 -37.5z" />
    <glyph glyph-name="uni0438" unicode="&#x438;" horiz-adv-x="1011" 
d="M371 133q74 0 170.5 84t169 194.5t92.5 194.5l53 316h158l-158 -922h-158l56 322q-37 -63 -81 -118.5t-100.5 -108.5t-123.5 -84t-134 -31q-94 0 -139 57.5t-45 144.5q0 88 25 207l112 533h158l-111 -502q-25 -112 -22 -184q0 -103 78 -103z" />
    <glyph glyph-name="uni0439" unicode="&#x439;" horiz-adv-x="1011" 
d="M371 133q74 0 170.5 84t169 194.5t92.5 194.5l53 316h158l-158 -922h-158l56 322q-37 -63 -81 -118.5t-100.5 -108.5t-123.5 -84t-134 -31q-94 0 -139 57.5t-45 144.5q0 88 25 207l112 533h158l-111 -502q-25 -112 -22 -184q0 -103 78 -103zM420 1380h145
q-11 -73 20 -117t113 -44q39 0 77.5 16t72 54t45.5 91h125q-30 -121 -124 -197.5t-228 -76.5q-136 0 -197 72.5t-49 201.5z" />
    <glyph glyph-name="uni043A" unicode="&#x43a;" horiz-adv-x="958" 
d="M1053 922l-465 -451l346 -471h-197l-340 471l437 451h219zM123 0l156 922h157l-155 -922h-158z" />
    <glyph glyph-name="uni043B" unicode="&#x43b;" horiz-adv-x="1013" 
d="M702 0l129 758h-309l-37 -156q-37 -154 -79.5 -265t-84.5 -178t-92.5 -105.5t-97.5 -52t-106 -13.5l16 159q22 -2 47 7t60 40.5t67 82.5t67 144t62 214l64 287h608l-156 -922h-158z" />
    <glyph glyph-name="uni043C" unicode="&#x43c;" horiz-adv-x="1222" 
d="M123 0l156 922h133l264 -457l399 457h150l-156 -922h-158l115 672l-381 -428h-6l-246 428l-112 -672h-158z" />
    <glyph glyph-name="uni043D" unicode="&#x43d;" horiz-adv-x="1062" 
d="M752 0l65 389h-471l-65 -389h-158l156 922h157l-63 -379h471l63 379h156l-154 -922h-157z" />
    <glyph glyph-name="uni043E" unicode="&#x43e;" horiz-adv-x="1032" 
d="M506 -20q-167 0 -271 104.5t-104 277.5q0 113 37.5 217t105 185t170.5 129.5t224 48.5q163 0 259.5 -98.5t96.5 -274.5q0 -259 -143.5 -424t-374.5 -165zM532 133q149 0 236.5 114.5t87.5 293.5q0 122 -55.5 184.5t-157.5 62.5q-149 0 -245.5 -108t-96.5 -293
q0 -122 64 -188t167 -66z" />
    <glyph glyph-name="uni043F" unicode="&#x43f;" horiz-adv-x="1050" 
d="M279 922h157l-55 -320q38 61 85 117t106 108.5t128 83.5t136 31q94 0 139 -58t45 -145q0 -73 -25 -207l-102 -532h-156l99 502q24 140 22 184q-2 48 -19 75t-59 27q-72 0 -170 -80.5t-174 -189t-100 -192.5l-55 -326h-158z" />
    <glyph glyph-name="uni0440" unicode="&#x440;" horiz-adv-x="1054" 
d="M207 -410h-158l84 494l141 838h158l-53 -316q37 61 81.5 116.5t100.5 107t122 82t130 30.5q112 0 173 -89t61 -235q0 -132 -47 -250.5t-126.5 -203t-189 -134.5t-229.5 -50q-92 0 -179 24zM332 328l-27 -158q27 -15 72 -26t84 -11q120 0 217.5 61.5t152 167t54.5 232.5
q0 89 -39 141.5t-107 52.5q-60 0 -149 -80t-162 -188t-96 -192z" />
    <glyph glyph-name="uni0441" unicode="&#x441;" horiz-adv-x="890" 
d="M778 248l74 -98q-71 -74 -169.5 -122t-201.5 -48q-92 0 -162 31t-109.5 83.5t-59 113t-19.5 126.5q0 118 37 227t105 194t173.5 136t231.5 51q163 0 237 -51l-55 -137q-35 13 -92.5 23.5t-105.5 10.5q-108 0 -191 -59t-125.5 -153t-42.5 -205q0 -107 54.5 -172.5
t154.5 -65.5q48 0 103.5 22t83 39.5t79.5 53.5z" />
    <glyph glyph-name="uni0442" unicode="&#x442;" horiz-adv-x="1519" 
d="M123 0l156 922h157l-53 -316q30 63 66.5 117t86 106t113 82.5t133.5 30.5q80 0 122 -48t42 -128q0 -78 -8 -135q32 60 68 110.5t84 98.5t108.5 75t126.5 27q80 0 122 -48t42 -128q0 -100 -25 -234l-106 -532h-164l102 502q27 128 25 184q-2 49 -19 75.5t-63 26.5
q-73 0 -153.5 -90t-135.5 -201.5t-78 -205.5l-57 -291h-164l103 502q26 124 24 184q-2 49 -19 75.5t-63 26.5q-58 0 -122 -58t-113.5 -141.5t-86 -170.5t-48.5 -152l-45 -266h-158z" />
    <glyph glyph-name="uni0443" unicode="&#x443;" horiz-adv-x="858" 
d="M150 -258q62 0 128 72t123 178q-15 140 -103.5 413.5t-193.5 516.5h172q51 -107 132 -353.5t110 -384.5q68 141 143.5 363t98.5 375h174q-121 -409 -249 -703t-265.5 -461.5t-267.5 -167.5q-96 0 -168 58l73 125q60 -31 93 -31z" />
    <glyph glyph-name="uni0444" unicode="&#x444;" horiz-adv-x="1316" 
d="M494 -410l75 430q-24 -18 -68 -29t-87 -11q-123 0 -203 112t-80 283q0 124 38.5 231t104 180t153.5 114.5t185 41.5q63 0 107 -14l86 506h158l-91 -533q55 41 160 41q121 0 199 -96.5t78 -253.5q0 -151 -40 -271t-108.5 -193t-153.5 -110.5t-180 -37.5q-71 0 -110 16
l-68 -406h-155zM299 373q-1 -108 49.5 -174t132.5 -66q57 0 109 21l106 634q-41 9 -78 9q-139 0 -228.5 -110.5t-90.5 -313.5zM961 788q-77 0 -109 -20l-111 -635q36 -8 66 -8q152 0 241 111t89 335q0 106 -45 161.5t-131 55.5z" />
    <glyph glyph-name="uni0445" unicode="&#x445;" horiz-adv-x="894" 
d="M1008 922l-394 -445l256 -477h-176l-182 354l-313 -354h-199l414 469l-240 453h180l166 -340l291 340h197z" />
    <glyph glyph-name="uni0446" unicode="&#x446;" horiz-adv-x="1048" 
d="M164 389l112 533h158l-110 -502q-26 -116 -23 -184q0 -103 78 -103q72 0 167 82t167.5 190.5t95.5 192.5l55 324h158l-131 -768h158l-80 -379h-148l53 225h-36q-62 0 -90.5 37.5t-16.5 109.5l29 170q-37 -62 -80.5 -117t-99.5 -107t-122.5 -82.5t-133.5 -30.5
q-94 0 -139.5 57.5t-45.5 144.5q0 88 25 207z" />
    <glyph glyph-name="uni0447" unicode="&#x447;" horiz-adv-x="919" 
d="M410 424q96 0 195 110t132 232l27 156h156l-154 -922h-158l84 500q-69 -105 -162 -167.5t-180 -62.5q-98 0 -145 57t-45 146q0 69 24 186l58 263h159l-59 -260q-16 -71 -16 -136q2 -49 20 -75.5t64 -26.5z" />
    <glyph glyph-name="uni0448" unicode="&#x448;" horiz-adv-x="1466" 
d="M385 133q67 0 140 77.5t124.5 177.5t81.5 198l72 336h164l-109 -502q-31 -146 -31 -184q0 -103 76 -103q52 0 109 47.5t103.5 120t83 151.5t56.5 150l54 320h157l-155 -922h-158l53 309q-166 -329 -379 -329q-82 0 -125 52.5t-43 133.5q0 53 9 106q-155 -292 -359 -292
q-83 0 -126.5 52.5t-43.5 133.5q0 16 0.5 31t3 32.5t3.5 28.5t5.5 32t6 29.5t7 35t7.5 34.5l117 533h164l-113 -502q-2 -10 -9 -40t-11.5 -50.5t-8.5 -48t-4 -45.5q0 -103 78 -103z" />
    <glyph glyph-name="uni0449" unicode="&#x449;" horiz-adv-x="1492" 
d="M731 586l72 336h164l-109 -502q-31 -146 -31 -184q0 -103 76 -103q63 0 133.5 71t121.5 165t83 190l66 363h163l-137 -768h160l-80 -379h-147l53 225h-41q-64 0 -94 37.5t-17 109.5l25 136q-159 -303 -365 -303q-82 0 -125 52.5t-43 133.5q0 53 9 106
q-155 -292 -359 -292q-83 0 -126.5 52.5t-43.5 133.5q0 16 0.5 31t3 32.5t3.5 28.5t5.5 32t6 29.5t7 35t7.5 34.5l117 533h164l-113 -502q-2 -10 -9 -40t-11.5 -50.5t-8.5 -48t-4 -45.5q0 -103 78 -103q67 0 140 77.5t124.5 177.5t81.5 198z" />
    <glyph glyph-name="uni044A" unicode="&#x44a;" horiz-adv-x="974" 
d="M156 922h483l-14 -86q-4 -5 -24.5 -29t-31.5 -39q-141 -177 -211 -340q78 99 192.5 171.5t217.5 72.5q90 0 152.5 -59.5t62.5 -172.5q0 -75 -38.5 -147t-101 -127.5t-139 -98t-157 -65t-150.5 -22.5q-62 0 -108 19t-71 51.5t-36.5 69.5t-11.5 79q0 246 256 569h-295z
M317 250q3 -117 119 -117q77 0 166.5 38.5t155 107t65.5 141.5q0 45 -30 71.5t-88 26.5q-87 0 -206.5 -80.5t-181.5 -185.5v-2z" />
    <glyph glyph-name="uni044B" unicode="&#x44b;" horiz-adv-x="1273" 
d="M168 389l137 533h164l-115 -420q66 81 159 135.5t183 54.5q89 0 152 -59t63 -172q0 -80 -34 -155.5t-90.5 -133.5t-127 -102t-146.5 -67t-146 -23q-62 0 -108.5 19t-71.5 51.5t-36.5 69.5t-11.5 79q0 82 29 190zM297 260q-2 -12 -2 -35q4 -92 108 -92q77 0 158 39
t136 107t55 143q0 54 -34.5 85.5t-80.5 31.5q-57 0 -132.5 -45t-134.5 -111t-73 -123zM1118 922h158l-156 -922h-157z" />
    <glyph glyph-name="uni044C" unicode="&#x44c;" horiz-adv-x="909" 
d="M696 692q89 0 152 -59t63 -172q0 -80 -34 -155.5t-90.5 -133.5t-127 -102t-146.5 -67t-146 -23q-62 0 -108.5 19t-71.5 51.5t-36.5 69.5t-11.5 79q0 82 29 190l137 533h164l-115 -420q66 81 159 135.5t183 54.5zM752 422q0 54 -34.5 85.5t-80.5 31.5q-57 0 -132.5 -45
t-134.5 -111t-73 -123q-2 -12 -2 -35q4 -92 108 -92q77 0 158 39t136 107t55 143z" />
    <glyph glyph-name="uni044D" unicode="&#x44d;" horiz-adv-x="880" 
d="M338 397l24 133h351q7 131 -58.5 194.5t-179.5 63.5q-135 0 -256 -79l-63 112q154 121 344 121q189 0 281.5 -102t92.5 -279q0 -140 -42 -252.5t-112.5 -183t-160 -108t-188.5 -37.5q-103 0 -180.5 39t-124.5 94l94 110q75 -90 211 -90q123 0 210 66.5t115 197.5h-358z
" />
    <glyph glyph-name="uni044E" unicode="&#x44e;" horiz-adv-x="1398" 
d="M905 -20q-156 0 -256 109t-100 298v2h-209l-66 -389h-151l149 922h152l-62 -379h207q42 172 168 285.5t310 113.5q159 0 251.5 -98.5t92.5 -274.5q0 -258 -136 -423.5t-350 -165.5zM1026 788q-143 0 -233.5 -108t-90.5 -293q0 -116 59.5 -185t158.5 -69q143 0 226 114.5
t83 293.5q0 122 -52.5 184.5t-150.5 62.5z" />
    <glyph glyph-name="uni044F" unicode="&#x44f;" horiz-adv-x="913" 
d="M639 922h276l-155 -922h-158l51 307h-170l-268 -307h-190l321 356q-68 25 -112 82t-44 140q0 50 14 97.5t47.5 93t84 79t128.5 54t175 20.5zM356 596q0 -135 179 -135h147l51 307h-143q-118 0 -176 -50.5t-58 -121.5z" />
    <glyph glyph-name="uni0451" unicode="&#x451;" horiz-adv-x="952" 
d="M811 248l76 -98q-71 -73 -176 -121.5t-211 -48.5q-91 0 -164 31.5t-116.5 83t-66 113t-22.5 126.5q0 118 38.5 227t108.5 194t177.5 136t236.5 51q148 0 214.5 -64t64.5 -163q-2 -154 -161 -242.5t-507 -105.5q0 -115 61 -174.5t166 -59.5q120 0 281 115zM672 788
q-130 0 -227 -86.5t-130 -218.5q178 13 287.5 44t151.5 70.5t43 92.5q1 48 -32 73t-93 25zM410 1249q0 42 29.5 68t70.5 26q37 0 65.5 -26.5t28.5 -67.5q0 -47 -28 -74.5t-66 -27.5q-43 0 -71.5 27t-28.5 75zM829 1249q0 41 31 67.5t72 26.5q37 0 65.5 -26.5t28.5 -67.5
q0 -47 -28 -74.5t-66 -27.5q-43 0 -73 27t-30 75z" />
    <glyph glyph-name="uni0452" unicode="&#x452;" horiz-adv-x="1095" 
d="M109 942l20 133h256l61 359h156l-59 -359h354l-23 -133h-354l-92 -487q87 128 196.5 213.5t223.5 85.5q63 0 110 -28t73 -76t38 -103t12 -117q0 -154 -56.5 -315t-164.5 -301.5t-248 -223.5h-180q161 105 273.5 250t163.5 289.5t51 284.5q0 80 -37.5 133t-108.5 53
q-74 0 -187.5 -115t-183.5 -231l-43 -254h-155l157 942h-253z" />
    <glyph glyph-name="uni0453" unicode="&#x453;" horiz-adv-x="858" 
d="M82 229q0 66 32.5 117t84.5 82t115.5 55t126.5 44t116 42t86.5 55t34.5 76q0 37 -31 62.5t-94 25.5q-124 0 -270 -73l-56 121q156 106 344 106q135 0 208 -65.5t71 -161.5q0 -67 -33.5 -119t-86 -84.5t-116 -58t-127 -45.5t-115.5 -41t-85 -51.5t-33 -69.5
q0 -47 37.5 -80t111.5 -33q149 0 310 115l75 -98q-69 -73 -175 -121.5t-212 -48.5q-157 0 -238 71.5t-81 177.5zM893 1380l-246 -293l-98 70l217 322z" />
    <glyph glyph-name="uni0454" unicode="&#x454;" horiz-adv-x="944" 
d="M713 535l-23 -134h-389q-9 -135 44.5 -201.5t178.5 -66.5q151 0 279 86l45 -123q-154 -116 -361 -116q-167 0 -261.5 96t-94.5 258q0 170 69.5 309t195 219t282.5 80q200 0 291 -113l-84 -118q-47 42 -101 59.5t-137 17.5q-125 0 -205 -71.5t-116 -181.5h387z" />
    <glyph glyph-name="uni0455" unicode="&#x455;" horiz-adv-x="776" 
d="M547 250q0 49 -37 87t-89.5 67t-104.5 62t-89 87t-37 125q0 115 88 189.5t244 74.5q101 0 172.5 -18.5t106.5 -44.5l-74 -121q-78 41 -197 41q-87 0 -127.5 -31.5t-40.5 -81.5q0 -36 26.5 -66.5t66 -52t86 -51t86 -61t66 -85.5t26.5 -122q0 -125 -96.5 -196.5
t-249.5 -71.5q-105 0 -187 23t-125 60l82 123q95 -63 219 -63q93 0 139 33.5t46 93.5z" />
    <glyph glyph-name="uni0456" unicode="&#x456;" horiz-adv-x="485" 
d="M141 0l156 922h158l-156 -922h-158zM338 1268q0 43 30 70.5t72 27.5q38 0 67.5 -27.5t29.5 -70.5q0 -49 -29 -78t-68 -29q-43 0 -72.5 29t-29.5 78z" />
    <glyph glyph-name="uni0457" unicode="&#x457;" horiz-adv-x="473" 
d="M141 0l156 922h156l-154 -922h-158zM213 1245q0 38 26 62t64 24q32 0 57 -24.5t25 -61.5q0 -40 -25 -65t-57 -25q-38 0 -64 25t-26 65zM492 1245q0 37 26 61.5t62 24.5q33 0 57.5 -24.5t24.5 -61.5q0 -40 -24 -65t-58 -25q-36 0 -62 25t-26 65z" />
    <glyph glyph-name="uni0458" unicode="&#x458;" horiz-adv-x="473" 
d="M483 922l-174 -990q-62 -358 -352 -358q-63 0 -116 17t-79 42l70 131q56 -36 115 -36q85 0 132.5 55.5t67.5 161.5l172 977h164zM360 1268q0 43 30 70.5t73 27.5q38 0 67 -27.5t29 -70.5q0 -49 -28.5 -78t-67.5 -29q-43 0 -73 29t-30 78z" />
    <glyph glyph-name="uni0459" unicode="&#x459;" horiz-adv-x="1484" 
d="M1036 922l-104 -420q66 81 158 135.5t182 54.5q89 0 152 -59t63 -172q0 -99 -52.5 -191t-133 -154t-176 -99t-183.5 -37q-62 0 -108 19t-71 51.5t-36.5 69.5t-11.5 79q0 85 28 190l95 369h-316l-37 -156q-37 -154 -79.5 -265t-84.5 -178t-92.5 -105.5t-97.5 -52
t-106 -13.5l16 159q23 -2 48 7t60 40.5t67 82.5t66.5 143.5t61.5 214.5l64 287h628zM1327 422q0 54 -34.5 85.5t-80.5 31.5q-57 0 -132.5 -45t-134.5 -111t-73 -123q-2 -12 -2 -35q4 -92 109 -92q77 0 157.5 39t135.5 107t55 143z" />
    <glyph glyph-name="uni045A" unicode="&#x45a;" horiz-adv-x="1548" 
d="M811 410h-461l-69 -410h-158l156 922h157l-61 -359h473l78 359h157l-88 -420q66 81 158 135.5t182 54.5q89 0 152 -59t63 -172q0 -80 -34 -155.5t-90.5 -133.5t-127 -102t-146.5 -67t-146 -23q-62 0 -108.5 19t-71.5 51.5t-36.5 69.5t-11.5 79q0 48 29 190zM1391 422
q0 54 -34.5 85.5t-80.5 31.5q-57 0 -132.5 -45t-134.5 -111t-73 -123q-2 -12 -2 -35q4 -92 108 -92q77 0 158 39t136 107t55 143z" />
    <glyph glyph-name="uni045B" unicode="&#x45b;" horiz-adv-x="1093" 
d="M109 942l20 133h256l61 359h156l-59 -359h354l-23 -133h-354l-92 -485q219 297 442 297q90 0 141.5 -51t51.5 -156q0 -40 -25 -203l-65 -344h-156l64 322q20 103 20 165q0 55 -17 84t-61 29q-56 0 -116 -31t-115 -84t-100.5 -109.5t-88.5 -121.5l-43 -254h-155l157 942
h-253z" />
    <glyph glyph-name="uni045C" unicode="&#x45c;" horiz-adv-x="958" 
d="M1053 922l-465 -451l346 -471h-197l-340 471l437 451h219zM123 0l156 922h157l-155 -922h-158zM952 1380l-245 -293l-99 70l217 322z" />
    <glyph glyph-name="uni045E" unicode="&#x45e;" horiz-adv-x="858" 
d="M150 -258q62 0 128 72t123 178q-15 140 -103.5 413.5t-193.5 516.5h172q51 -107 132 -353.5t110 -384.5q68 141 143.5 363t98.5 375h174q-121 -409 -249 -703t-265.5 -461.5t-267.5 -167.5q-96 0 -168 58l73 125q60 -31 93 -31zM334 1380h145q-11 -73 20 -117t113 -44
q39 0 77.5 16t72 54t45.5 91h125q-30 -121 -124 -197.5t-228 -76.5q-136 0 -197 72.5t-49 201.5z" />
    <glyph glyph-name="uni045F" unicode="&#x45f;" horiz-adv-x="1054" 
d="M123 0l156 922h157l-131 -768h463l129 768h158l-156 -922h-313l-43 -256h-148l43 256h-315z" />
    <glyph glyph-name="uni0462" unicode="&#x462;" horiz-adv-x="1304" 
d="M719 1434l-37 -205h322l-29 -164h-320l-37 -205q133 10 201 10q475 0 475 -358q0 -242 -180 -379t-487 -137q-66 0 -181.5 2t-152.5 2l186 1065h-270l29 164h270l37 205h174zM778 707q-70 0 -190 -13l-92 -528q159 -6 180 -6q86 0 162 20t136.5 58.5t96 102t35.5 144.5
q0 222 -328 222z" />
    <glyph glyph-name="uni0463" unicode="&#x463;" horiz-adv-x="952" 
d="M268 389l84 379h-254l27 154h256l106 512h158l-106 -512h290l-24 -154h-295l-55 -274q45 49 125 91t145 42q91 0 156 -56t65 -168q0 -108 -71 -207t-182 -157.5t-226 -58.5q-62 0 -108 19t-71 51.5t-36.5 69.5t-11.5 79q0 85 28 190zM786 365q0 53 -36 80.5t-84 27.5
q-88 0 -167.5 -66t-101.5 -155q-2 -12 -2 -27q4 -92 109 -92q110 0 196 76t86 156z" />
    <glyph glyph-name="uni0472" unicode="&#x472;" horiz-adv-x="1667" 
d="M215 645q0 165 58.5 312.5t163 257.5t260 174.5t339.5 64.5q295 0 481.5 -176t186.5 -467q0 -180 -59 -335t-162.5 -263.5t-251 -170.5t-318.5 -62q-169 0 -303 51.5t-219.5 142t-130.5 210.5t-45 261zM717 731q-76 0 -161 -37.5t-150 -87.5q11 -146 83.5 -252.5
t183.5 -158.5t247 -52q227 0 389 141.5t198 383.5q-61 -38 -139.5 -70.5t-146.5 -32.5q-66 0 -124 17t-101 41.5t-83.5 49t-90.5 41.5t-105 17zM1235 719q65 0 144 31.5t134 74.5q-11 211 -145 338t-350 127q-227 0 -398.5 -141t-207.5 -381q187 117 317 117q64 0 121 -17
t100 -41.5t84.5 -49t93 -41.5t107.5 -17z" />
    <glyph glyph-name="uni0473" unicode="&#x473;" horiz-adv-x="1032" 
d="M506 -20q-167 0 -271 104.5t-104 277.5q0 113 37.5 217t105 185t170.5 129.5t224 48.5q163 0 259.5 -98.5t96.5 -274.5q0 -259 -143.5 -424t-374.5 -165zM532 133q110 0 187 64t112 174q-59 -27 -98 -27q-47 0 -92.5 19t-75.5 41.5t-68.5 41.5t-72.5 19q-64 0 -123 -37
v-41q0 -122 64 -188t167 -66zM756 457q51 0 96 22q4 40 4 62q0 122 -55.5 184.5t-157.5 62.5q-114 0 -199.5 -65t-121.5 -182q70 37 114 37q49 0 97 -19t80 -41.5t71 -41.5t72 -19z" />
    <glyph glyph-name="uni0474" unicode="&#x474;" horiz-adv-x="1349" 
d="M1311 1032l-570 -1040h-129l-350 1442h176l279 -1178l469 874q47 90 85 147.5t78 98.5t82.5 56.5t92 13.5t112.5 -23l-49 -147q-25 10 -47 11.5t-40 -2.5t-37 -21t-33.5 -34t-35.5 -51.5t-37.5 -64t-44.5 -80.5q-1 -1 -1 -2z" />
    <glyph glyph-name="uni0475" unicode="&#x475;" horiz-adv-x="909" 
d="M821 590l-321 -598h-115l-262 930h170l139 -498q21 -76 39 -201q93 192 100 205l140 262q38 69 68 113.5t63.5 77t69 44.5t78 10t97.5 -20l-47 -145q-61 30 -113 -23q-31 -31 -99 -146q-5 -7 -7 -11z" />
    <glyph glyph-name="uni0490" unicode="&#x490;" horiz-adv-x="1034" 
d="M215 0l252 1434h635l45 256h164l-74 -420h-625l-223 -1270h-174z" />
    <glyph glyph-name="uni0491" unicode="&#x491;" horiz-adv-x="743" 
d="M141 0l156 922h414l37 215h147l-64 -369h-403l-129 -768h-158z" />
    <glyph glyph-name="uni0492" unicode="&#x492;" horiz-adv-x="1036" 
d="M217 0l113 649h-228l31 164h227l109 621h799l-29 -164h-625l-79 -457h389l-31 -164h-389l-113 -649h-174z" />
    <glyph glyph-name="uni0493" unicode="&#x493;" horiz-adv-x="796" 
d="M166 0l59 360h-172l23 134h172l74 428h577l-27 -154h-419l-47 -274h264l-23 -134h-264l-59 -360h-158z" />
    <glyph glyph-name="uni0494" unicode="&#x494;" horiz-adv-x="1249" 
d="M215 0l252 1434h799l-29 -164h-625l-88 -496q164 92 350 92q173 0 263 -97t90 -253q0 -77 -27 -235l-37 -207q-14 -83 -35 -151.5t-57 -135t-83 -112t-115.5 -73.5t-153.5 -28q-66 0 -124.5 24.5t-78.5 51.5l84 133q52 -45 127 -45q50 0 90 18.5t66.5 47t47.5 74t33 89.5
t23 103l45 243q17 96 17 174q0 98 -58.5 156.5t-177.5 58.5q-51 0 -97.5 -8t-89.5 -26t-66.5 -29.5t-63.5 -34.5l-107 -604h-174z" />
    <glyph glyph-name="uni0495" unicode="&#x495;" horiz-adv-x="983" 
d="M160 0l155 922h578l-27 -154h-420l-51 -305q59 40 138.5 68t158.5 28q48 0 95 -17.5t88 -52.5t66.5 -95.5t25.5 -137.5q0 -197 -115.5 -372.5t-312.5 -293.5h-179q435 286 435 633q0 90 -51.5 136.5t-135.5 46.5q-67 0 -132.5 -29t-104.5 -62l-54 -315h-157z" />
    <glyph glyph-name="uni0496" unicode="&#x496;" horiz-adv-x="1923" 
d="M2101 1434l-700 -697l366 -573h185l-76 -430h-164l47 266h-82l-467 748l674 686h217zM772 764l-457 670h193l457 -686l-709 -748h-215zM868 0l252 1434h174l-252 -1434h-174z" />
    <glyph glyph-name="uni0497" unicode="&#x497;" horiz-adv-x="1325" 
d="M1407 922l-397 -453l178 -315h160l-80 -379h-148l54 225h-9q-17 0 -31 2.5t-26 10.5t-19 12.5t-17.5 20.5t-14 20.5t-15 27t-14.5 27.5l-194 356l372 445h201zM422 494l-250 428h184l242 -445l-401 -477h-197zM557 0l156 922h155l-155 -922h-156z" />
    <glyph glyph-name="uni0498" unicode="&#x498;" horiz-adv-x="1183" 
d="M608 -317h-164l54 303q-127 18 -224.5 77t-154.5 142l117 117q56 -83 156.5 -131t223.5 -48q143 0 235.5 76.5t92.5 210.5q0 101 -75 161t-236 60h-98l30 164h117q131 0 226.5 80t95.5 203q0 94 -66 143t-186 49q-82 0 -168.5 -35t-161.5 -90l-82 125q88 74 200 119
t230 45q202 0 307 -89.5t105 -248.5q0 -110 -65.5 -211t-205.5 -160l-2 -6q95 -27 152 -107t57 -200q0 -186 -127.5 -308.5t-331.5 -139.5z" />
    <glyph glyph-name="uni0499" unicode="&#x499;" horiz-adv-x="854" 
d="M418 -256h-148l41 244q-88 12 -161 47.5t-101 79.5l92 112q47 -47 120 -73.5t149 -26.5q93 0 164 47.5t71 120.5q0 102 -186 102h-119l25 133h102q97 0 155 42.5t58 107.5q0 54 -45 84.5t-123 30.5q-83 0 -144.5 -21t-127.5 -61l-62 118q175 111 383 111q144 0 219.5 -56
t75.5 -155q0 -84 -44 -154t-142 -104v-4q76 -21 108.5 -63.5t32.5 -112.5q0 -128 -100.5 -212.5t-253.5 -98.5z" />
    <glyph glyph-name="uni049A" unicode="&#x49a;" horiz-adv-x="1337" 
d="M1516 1434l-760 -701l409 -569h185l-76 -430h-164l47 266h-84l-518 748l729 686h232zM215 0l252 1434h174l-252 -1434h-174z" />
    <glyph glyph-name="uni049B" unicode="&#x49b;" horiz-adv-x="950" 
d="M1053 922l-465 -451l233 -317h158l-80 -379h-147l53 225h-14q-13 0 -26 4t-23 9.5t-20.5 14.5t-17.5 16.5t-15.5 19t-12.5 17.5t-10 16t-7 12l-262 362l437 451h219zM123 0l156 922h157l-155 -922h-158z" />
    <glyph glyph-name="uni049C" unicode="&#x49c;" horiz-adv-x="1372" 
d="M1550 1434l-759 -701l528 -733h-211l-387 557l-33 -199h-153l133 758h153l-33 -182l531 500h231zM215 0l252 1434h174l-252 -1434h-174z" />
    <glyph glyph-name="uni049D" unicode="&#x49d;" horiz-adv-x="999" 
d="M1094 922l-465 -451l346 -471h-197l-227 319l-29 -159h-143l106 604h144l-21 -123l266 281h220zM123 0l156 922h157l-155 -922h-158z" />
    <glyph glyph-name="uni04A0" unicode="&#x4a0;" horiz-adv-x="1552" 
d="M430 0l223 1270h-401l29 164h577l-254 -1434h-174zM1731 1434l-760 -701l528 -733h-211l-518 748l729 686h232z" />
    <glyph glyph-name="uni04A1" unicode="&#x4a1;" horiz-adv-x="1165" 
d="M330 0l129 768h-297l24 154h457l-156 -922h-157zM1260 922l-465 -451l346 -471h-197l-340 471l436 451h220z" />
    <glyph glyph-name="uni04A2" unicode="&#x4a2;" horiz-adv-x="1607" 
d="M1178 0l114 649h-788l-115 -649h-174l252 1434h174l-109 -621h789l109 621h174l-224 -1270h195l-76 -430h-164l47 266h-204z" />
    <glyph glyph-name="uni04A3" unicode="&#x4a3;" horiz-adv-x="1091" 
d="M881 0q-62 0 -89.5 37t-15.5 110l41 242h-471l-65 -389h-158l156 922h157l-63 -379h471l63 379h156l-129 -768h158l-80 -379h-148l54 225h-37z" />
    <glyph glyph-name="uni04A4" unicode="&#x4a4;" horiz-adv-x="1955" 
d="M1157 0l113 649h-766l-115 -649h-174l252 1434h174l-109 -621h766l111 621h778l-28 -164h-605l-223 -1270h-174z" />
    <glyph glyph-name="uni04A5" unicode="&#x4a5;" horiz-adv-x="1351" 
d="M731 0l66 389h-451l-65 -389h-158l156 922h157l-63 -379h448l66 379h567l-27 -154h-409l-129 -768h-158z" />
    <glyph glyph-name="uni04AA" unicode="&#x4aa;" horiz-adv-x="1343" 
d="M1296 252l66 -131q-69 -60 -179 -95.5t-225 -43.5l-51 -299h-164l54 303q-270 32 -426 215.5t-156 447.5q0 228 110 412.5t302 288.5t428 104q148 0 260.5 -34t173.5 -91l-90 -125q-138 86 -332 86q-186 0 -337.5 -79t-239 -221.5t-87.5 -319.5q0 -147 62.5 -266
t183.5 -190t281 -71q212 0 366 109z" />
    <glyph glyph-name="uni04AB" unicode="&#x4ab;" horiz-adv-x="890" 
d="M778 248l74 -98q-62 -65 -144.5 -109.5t-172.5 -56.5l-39 -240h-148l41 246q-67 14 -118.5 49.5t-81 83.5t-44 101t-14.5 110q0 118 37 227t105 194t173.5 136t231.5 51q163 0 237 -51l-55 -137q-35 13 -92.5 23.5t-105.5 10.5q-108 0 -191 -59t-125.5 -153t-42.5 -205
q0 -107 54.5 -172.5t154.5 -65.5q48 0 103.5 22t83 39.5t79.5 53.5z" />
    <glyph glyph-name="uni04AE" unicode="&#x4ae;" horiz-adv-x="1236" 
d="M1468 1434l-659 -820l-107 -614h-174l107 614l-363 820h187l286 -656l519 656h204z" />
    <glyph glyph-name="uni04AF" unicode="&#x4af;" horiz-adv-x="841" 
d="M403 -410h-157l69 412q-39 224 -56 315t-54 262t-82 343h170q51 -204 91.5 -415.5t49.5 -332.5q128 162 210 370t91 378h180q-26 -252 -157 -513.5t-285 -408.5z" />
    <glyph glyph-name="uni04B0" unicode="&#x4b0;" horiz-adv-x="1236" 
d="M1468 1434l-594 -738h277l-27 -153h-327l-95 -543h-174l95 543h-328l27 153h276l-326 738h187l286 -656l519 656h204z" />
    <glyph glyph-name="uni04B1" unicode="&#x4b1;" horiz-adv-x="841" 
d="M403 -410h-157l69 410h-276l22 133h232q-82 452 -170 789h170q51 -204 91.5 -415.5t49.5 -332.5q128 162 210 370t91 378h180q-22 -204 -114.5 -417t-218.5 -372h196l-22 -133h-283z" />
    <glyph glyph-name="uni04B2" unicode="&#x4b2;" horiz-adv-x="1388" 
d="M1552 1434l-630 -705l307 -565h184l-76 -430h-163l47 266h-95l-329 600l-537 -600h-219l655 729l-381 705h197l315 -580l510 580h215z" />
    <glyph glyph-name="uni04B3" unicode="&#x4b3;" horiz-adv-x="925" 
d="M1008 922l-394 -445l174 -323h160l-80 -379h-147l53 225h-8q-26 0 -44.5 6t-35.5 26t-23.5 31t-25.5 49q-4 7 -6 11l-119 231l-313 -354h-199l414 469l-240 453h180l166 -340l291 340h197z" />
    <glyph glyph-name="uni04B6" unicode="&#x4b6;" horiz-adv-x="1372" 
d="M1368 1434l-223 -1270h194l-75 -430h-164l47 266h-205l111 627q-176 -111 -373 -111q-175 0 -281 87t-106 253q4 76 12 117l82 461h174l-74 -414q-12 -67 -12 -133q0 -207 254 -207q99 0 190.5 30t161.5 78l113 646h174z" />
    <glyph glyph-name="uni04B7" unicode="&#x4b7;" horiz-adv-x="919" 
d="M737 0q-108 0 -108 109q0 20 12 86l51 305q-69 -105 -162 -167.5t-180 -62.5q-98 0 -145 57t-45 146q0 69 24 186l58 263h159l-59 -260q-16 -70 -16 -136q2 -49 20 -75.5t64 -26.5q96 0 195 110t132 232l27 156h156l-129 -768h157l-80 -379h-147l53 225h-37z" />
    <glyph glyph-name="uni04B8" unicode="&#x4b8;" horiz-adv-x="1331" 
d="M1368 1434l-252 -1434h-174l111 627q-129 -80 -260 -99l-41 -237h-164l39 231q-153 13 -243.5 97t-90.5 237q4 76 12 117l82 461h174l-74 -414q-12 -67 -12 -133q0 -176 180 -203l58 324h164l-58 -322q141 19 262 102l113 646h174z" />
    <glyph glyph-name="uni04B9" unicode="&#x4b9;" horiz-adv-x="919" 
d="M332 127l26 149h-16q-97 0 -143.5 56.5t-46.5 140.5q0 70 32 225l49 224h160l-53 -234q-23 -101 -23 -162q2 -46 16.5 -71t51.5 -31l45 256h143l-36 -201q65 50 117.5 129.5t74.5 157.5l27 156h155l-153 -922h-158l84 500q-72 -109 -174 -172l-35 -201h-143z" />
    <glyph glyph-name="uni04BA" unicode="&#x4ba;" horiz-adv-x="1296" 
d="M467 1434h174l-119 -664q154 96 387 96q103 0 183 -37.5t130.5 -120.5t51.5 -204q0 -64 -12 -137l-66 -367h-174l59 336q15 97 15 131q1 123 -63 179t-187 56q-66 0 -119.5 -7.5t-98 -25t-67.5 -29t-65 -36.5l-107 -604h-174z" />
    <glyph glyph-name="uni04BB" unicode="&#x4bb;" horiz-adv-x="1050" 
d="M780 788q-72 0 -170 -80.5t-174 -189t-100 -192.5l-55 -326h-158l242 1434h157l-141 -832q38 61 85 117t106 108.5t128 83.5t136 31q94 0 139 -58t45 -145q0 -73 -25 -207l-102 -532h-156l99 502q24 140 22 184q-2 48 -19 75t-59 27z" />
    <glyph glyph-name="uni04C0" unicode="&#x4c0;" horiz-adv-x="450" 
d="M532 1434l-251 -1434h-158l252 1434h157z" />
    <glyph glyph-name="uni04CB" unicode="&#x4cb;" horiz-adv-x="1331" 
d="M1368 1434l-252 -1434h-205l-47 -266h-164l76 430h195l82 463q-176 -111 -373 -111q-175 0 -281 87t-106 253q4 76 12 117l82 461h174l-74 -414q-12 -67 -12 -133q0 -207 254 -207q99 0 190.5 30t161.5 78l113 646h174z" />
    <glyph glyph-name="uni04CC" unicode="&#x4cc;" horiz-adv-x="919" 
d="M410 424q96 0 195 110t132 232l27 156h156l-129 -775q-12 -72 -54.5 -109.5t-105.5 -37.5h-37l-35 -225h-147l63 379h158l59 346q-69 -105 -162 -167.5t-180 -62.5q-98 0 -145 57t-45 146q0 69 24 186l58 263h159l-59 -260q-16 -70 -16 -136q2 -49 20 -75.5t64 -26.5z
" />
    <glyph glyph-name="uni04CF" unicode="&#x4cf;" horiz-adv-x="686" 
d="M256 0l252 1434h174l-252 -1434h-174z" />
    <glyph glyph-name="uni04D0" unicode="&#x4d0;" horiz-adv-x="1443" 
d="M31 0l870 1442h150l362 -1442h-176l-109 434h-653l-258 -434h-186zM940 1210l-367 -612h517zM647 1761h164q5 -64 45 -98.5t150 -34.5q174 0 256 133h143q-47 -115 -160 -185.5t-264 -70.5q-166 0 -251.5 68.5t-82.5 187.5z" />
    <glyph glyph-name="uni04D1" unicode="&#x4d1;" horiz-adv-x="1040" 
d="M442 133q65 0 153 84t156 194.5t89 194.5l32 164q-55 18 -124 18q-131 0 -234 -61.5t-158 -166t-55 -232.5q0 -90 36 -142.5t105 -52.5zM897 0h-162l58 324q-32 -52 -61.5 -94.5t-72.5 -91.5t-85.5 -81.5t-96.5 -54.5t-110 -22q-116 0 -176 88t-60 235q0 176 81 323
t220.5 231.5t306.5 84.5q177 0 301 -63zM510 1380h145q-11 -73 20 -117t113 -44q39 0 77.5 16t72 54t45.5 91h125q-30 -121 -124 -197.5t-228 -76.5q-136 0 -197 72.5t-49 201.5z" />
    <glyph glyph-name="uni04D2" unicode="&#x4d2;" horiz-adv-x="1443" 
d="M31 0l870 1442h150l362 -1442h-176l-109 434h-653l-258 -434h-186zM940 1210l-367 -612h517zM643 1665q0 41 33 66.5t80 25.5q42 0 74 -25.5t32 -66.5q0 -45 -31.5 -71.5t-74.5 -26.5q-48 0 -80.5 26t-32.5 72zM1118 1665q0 41 33.5 66.5t81.5 25.5q42 0 73 -25t31 -67
q0 -45 -31 -71.5t-73 -26.5q-48 0 -81.5 26.5t-33.5 71.5z" />
    <glyph glyph-name="uni04D3" unicode="&#x4d3;" horiz-adv-x="1040" 
d="M442 133q65 0 153 84t156 194.5t89 194.5l32 164q-55 18 -124 18q-131 0 -234 -61.5t-158 -166t-55 -232.5q0 -90 36 -142.5t105 -52.5zM897 0h-162l58 324q-32 -52 -61.5 -94.5t-72.5 -91.5t-85.5 -81.5t-96.5 -54.5t-110 -22q-116 0 -176 88t-60 235q0 176 81 323
t220.5 231.5t306.5 84.5q177 0 301 -63zM471 1208q0 42 29.5 68.5t70.5 26.5q37 0 66 -27t29 -68q0 -47 -28.5 -74.5t-66.5 -27.5q-43 0 -71.5 27t-28.5 75zM891 1208q0 41 30.5 68t71.5 27q37 0 65.5 -27t28.5 -68q0 -47 -28 -74.5t-66 -27.5q-43 0 -72.5 27t-29.5 75z" />
    <glyph glyph-name="uni04D4" unicode="&#x4d4;" horiz-adv-x="1957" 
d="M2056 1434l-28 -164h-635l-82 -463h573l-29 -164h-573l-84 -479h655l-28 -164h-830l78 442h-506l-389 -442h-209l1276 1434h811zM1198 1155l-483 -549h387z" />
    <glyph glyph-name="uni04D5" unicode="&#x4d5;" horiz-adv-x="1607" 
d="M788 299q-193 -319 -421 -319q-116 0 -176 88t-60 235q0 176 81 323t220.5 231.5t306.5 84.5q189 0 310 -90q119 90 299 90q148 0 214 -64t64 -163q-2 -154 -161 -242.5t-507 -105.5q0 -115 61.5 -174.5t166.5 -59.5q119 0 280 115l76 -98q-71 -73 -176 -121.5
t-211 -48.5q-159 0 -258.5 92.5t-108.5 226.5zM442 133q64 0 150 82.5t152 188.5t94 190q49 108 84 147q-40 29 -84.5 38t-112.5 9q-177 0 -300.5 -134t-123.5 -326q0 -90 36 -142.5t105 -52.5zM1327 788q-130 0 -226.5 -86.5t-129.5 -218.5q178 13 287.5 44t151 70.5
t42.5 92.5q1 48 -32 73t-93 25z" />
    <glyph glyph-name="uni04D6" unicode="&#x4d6;" horiz-adv-x="1177" 
d="M215 0l252 1434h809l-29 -164h-635l-82 -463h574l-29 -164h-573l-84 -479h655l-29 -164h-829zM545 1761h164q5 -64 44.5 -98.5t149.5 -34.5q174 0 256 133h144q-47 -115 -160 -185.5t-264 -70.5q-166 0 -251.5 68.5t-82.5 187.5z" />
    <glyph glyph-name="uni04D7" unicode="&#x4d7;" horiz-adv-x="952" 
d="M811 248l76 -98q-71 -73 -176 -121.5t-211 -48.5q-91 0 -164 31.5t-116.5 83t-66 113t-22.5 126.5q0 118 38.5 227t108.5 194t177.5 136t236.5 51q148 0 214.5 -64t64.5 -163q-2 -154 -161 -242.5t-507 -105.5q0 -115 61 -174.5t166 -59.5q120 0 281 115zM672 788
q-130 0 -227 -86.5t-130 -218.5q178 13 287.5 44t151.5 70.5t43 92.5q1 48 -32 73t-93 25zM444 1380h146q-11 -73 20 -117t113 -44q39 0 77.5 16t72 54t45.5 91h124q-30 -121 -124 -197.5t-228 -76.5q-136 0 -197 72.5t-49 201.5z" />
    <glyph glyph-name="uni04D8" unicode="&#x4d8;" horiz-adv-x="1599" 
d="M242 813h1206q3 221 -128 349t-357 128q-242 0 -410 -116l-66 131q198 149 502 149q312 0 479.5 -171t167.5 -490q0 -127 -36.5 -247t-108.5 -222.5t-171 -179.5t-231.5 -120.5t-281.5 -43.5q-171 0 -300.5 59.5t-202 168.5t-92 263t29.5 342zM821 143q122 0 231 41
t187.5 110.5t131 161t69.5 193.5h-1039q-19 -139 23 -253t145.5 -183.5t251.5 -69.5z" />
    <glyph glyph-name="uni04D9" unicode="&#x4d9;" horiz-adv-x="935" 
d="M258 674l-76 98q71 73 176 121.5t211 48.5q97 0 169.5 -32t112 -85t58.5 -112.5t19 -124.5q0 -118 -38.5 -227t-108.5 -194t-177.5 -136t-236.5 -51q-148 0 -214.5 64t-64.5 163q1 100 66.5 169.5t215.5 113.5t386 55v6q0 48 -8.5 86t-30.5 74.5t-67 56.5t-111 20
q-121 0 -281 -114zM387 133q126 0 221.5 83t130.5 210q-179 -13 -286 -41t-148.5 -64.5t-42.5 -89.5q-1 -48 32 -73t93 -25z" />
    <glyph glyph-name="uni04DC" unicode="&#x4dc;" horiz-adv-x="1912" 
d="M2101 1434l-700 -697l471 -737h-195l-467 748l674 686h217zM868 0l252 1434h174l-252 -1434h-174zM772 764l-457 670h193l457 -686l-709 -748h-215zM879 1665q0 42 32.5 67t79.5 25q42 0 74.5 -25.5t32.5 -66.5q0 -45 -32 -71.5t-75 -26.5q-48 0 -80 26t-32 72z
M1354 1665q0 41 33.5 66.5t80.5 25.5q42 0 73.5 -25t31.5 -67q0 -45 -31.5 -71.5t-73.5 -26.5q-48 0 -81 26.5t-33 71.5z" />
    <glyph glyph-name="uni04DD" unicode="&#x4dd;" horiz-adv-x="1296" 
d="M1407 922l-397 -453l266 -469h-182l-260 477l372 445h201zM557 0l156 922h155l-155 -922h-156zM422 494l-250 428h184l242 -445l-401 -477h-197zM508 1208q0 42 29.5 68.5t70.5 26.5q37 0 65.5 -27t28.5 -68q0 -47 -28 -74.5t-66 -27.5q-43 0 -71.5 27t-28.5 75z
M928 1208q0 41 30.5 68t71.5 27q37 0 65.5 -27t28.5 -68q0 -47 -28 -74.5t-66 -27.5q-43 0 -72.5 27t-29.5 75z" />
    <glyph glyph-name="uni04DE" unicode="&#x4de;" horiz-adv-x="1183" 
d="M596 -20q-163 0 -286 63t-191 162l117 117q56 -83 156.5 -131t223.5 -48q143 0 235.5 76.5t92.5 210.5q0 101 -75 161t-236 60h-98l30 164h117q131 0 226.5 80t95.5 203q0 94 -66 143t-186 49q-82 0 -168.5 -35t-161.5 -90l-82 125q88 74 200 119t230 45q202 0 307 -89.5
t105 -248.5q0 -110 -65.5 -211t-205.5 -160l-2 -6q95 -27 152 -107t57 -200q0 -200 -147 -326t-375 -126zM483 1665q0 41 33 66.5t80 25.5q42 0 74 -25.5t32 -66.5q0 -45 -31.5 -71.5t-74.5 -26.5q-48 0 -80.5 26t-32.5 72zM958 1665q0 41 33.5 66.5t81.5 25.5
q42 0 73.5 -25t31.5 -67q0 -45 -31.5 -71.5t-73.5 -26.5q-48 0 -81.5 26.5t-33.5 71.5z" />
    <glyph glyph-name="uni04DF" unicode="&#x4df;" horiz-adv-x="854" 
d="M401 -20q-110 0 -213.5 39.5t-138.5 95.5l92 112q47 -47 120 -73.5t149 -26.5q93 0 164 47.5t71 120.5q0 102 -186 102h-119l25 133h102q97 0 155 42.5t58 107.5q0 54 -45 84.5t-123 30.5q-83 0 -144.5 -21t-127.5 -61l-62 118q175 111 383 111q144 0 219.5 -56
t75.5 -155q0 -84 -44 -154t-142 -104v-4q76 -21 108.5 -63.5t32.5 -112.5q0 -94 -56.5 -166t-149.5 -109.5t-204 -37.5zM264 1208q0 42 30 68.5t71 26.5q37 0 65.5 -27t28.5 -68q0 -47 -28 -74.5t-66 -27.5q-43 0 -72 27t-29 75zM684 1208q0 41 30.5 68t71.5 27q37 0 66 -27
t29 -68q0 -47 -28.5 -74.5t-66.5 -27.5q-43 0 -72.5 27t-29.5 75z" />
    <glyph glyph-name="uni04E2" unicode="&#x4e2;" horiz-adv-x="1628" 
d="M369 0h-154l252 1434h174l-199 -1131l1069 1131h154l-252 -1434h-174l199 1128zM784 1577l25 133h623l-25 -133h-623z" />
    <glyph glyph-name="uni04E3" unicode="&#x4e3;" horiz-adv-x="1011" 
d="M371 133q74 0 170.5 84t169 194.5t92.5 194.5l53 316h158l-158 -922h-158l56 322q-37 -63 -81 -118.5t-100.5 -108.5t-123.5 -84t-134 -31q-94 0 -139 57.5t-45 144.5q0 88 25 207l112 533h158l-111 -502q-25 -112 -22 -184q0 -103 78 -103zM412 1188l22 133h541
l-23 -133h-540z" />
    <glyph glyph-name="uni04E4" unicode="&#x4e4;" horiz-adv-x="1628" 
d="M369 0h-154l252 1434h174l-199 -1131l1069 1131h154l-252 -1434h-174l199 1128zM756 1665q0 42 32.5 67t79.5 25q42 0 74.5 -25.5t32.5 -66.5q0 -45 -32 -71.5t-75 -26.5q-48 0 -80 26t-32 72zM1231 1665q0 41 33.5 66.5t81.5 25.5q42 0 73 -25t31 -67q0 -45 -31 -71.5
t-73 -26.5q-48 0 -81.5 26.5t-33.5 71.5z" />
    <glyph glyph-name="uni04E5" unicode="&#x4e5;" horiz-adv-x="1011" 
d="M371 133q74 0 170.5 84t169 194.5t92.5 194.5l53 316h158l-158 -922h-158l56 322q-37 -63 -81 -118.5t-100.5 -108.5t-123.5 -84t-134 -31q-94 0 -139 57.5t-45 144.5q0 88 25 207l112 533h158l-111 -502q-25 -112 -22 -184q0 -103 78 -103zM379 1208q0 42 29.5 68.5
t70.5 26.5q37 0 65.5 -27t28.5 -68q0 -47 -28 -74.5t-66 -27.5q-43 0 -71.5 27t-28.5 75zM799 1208q0 41 30.5 68t71.5 27q37 0 65.5 -27t28.5 -68q0 -47 -28 -74.5t-66 -27.5q-43 0 -72.5 27t-29.5 75z" />
    <glyph glyph-name="uni04E6" unicode="&#x4e6;" horiz-adv-x="1667" 
d="M215 645q0 165 58.5 312.5t163 257.5t260 174.5t339.5 64.5q295 0 481.5 -176t186.5 -467q0 -180 -59 -335t-162.5 -263.5t-251 -170.5t-318.5 -62q-169 0 -303 51.5t-219.5 142t-130.5 210.5t-45 261zM403 655q0 -161 71 -279t186.5 -175.5t259.5 -57.5q125 0 234 45.5
t189.5 127.5t126.5 205t46 270q0 226 -136 362.5t-362 136.5q-122 0 -233 -44t-196 -123.5t-135.5 -201t-50.5 -266.5zM723 1665q0 41 33 66.5t80 25.5q42 0 74 -25.5t32 -66.5q0 -45 -31.5 -71.5t-74.5 -26.5q-48 0 -80.5 26t-32.5 72zM1198 1665q0 41 33.5 66.5t81.5 25.5
q42 0 73 -25t31 -67q0 -45 -31 -71.5t-73 -26.5q-48 0 -81.5 26.5t-33.5 71.5z" />
    <glyph glyph-name="uni04E7" unicode="&#x4e7;" horiz-adv-x="1032" 
d="M506 -20q-167 0 -271 104.5t-104 277.5q0 113 37.5 217t105 185t170.5 129.5t224 48.5q163 0 259.5 -98.5t96.5 -274.5q0 -259 -143.5 -424t-374.5 -165zM532 133q149 0 236.5 114.5t87.5 293.5q0 122 -55.5 184.5t-157.5 62.5q-149 0 -245.5 -108t-96.5 -293
q0 -122 64 -188t167 -66zM385 1208q0 42 29.5 68.5t70.5 26.5q37 0 66 -27t29 -68q0 -47 -28.5 -74.5t-66.5 -27.5q-43 0 -71.5 27t-28.5 75zM805 1208q0 41 30.5 68t71.5 27q37 0 65.5 -27t28.5 -68q0 -47 -28 -74.5t-66 -27.5q-43 0 -72.5 27t-29.5 75z" />
    <glyph glyph-name="uni04E8" unicode="&#x4e8;" horiz-adv-x="1667" 
d="M215 645q0 165 58.5 312.5t163 257.5t260 174.5t339.5 64.5q295 0 481.5 -176t186.5 -467q0 -180 -59 -335t-162.5 -263.5t-251 -170.5t-318.5 -62q-169 0 -303 51.5t-219.5 142t-130.5 210.5t-45 261zM1018 1290q-222 0 -391 -134.5t-211 -364.5h1100q0 226 -136 362.5
t-362 136.5zM920 143q217 0 375.5 130t203.5 354h-1096q6 -152 78.5 -263.5t186 -166t252.5 -54.5z" />
    <glyph glyph-name="uni04E9" unicode="&#x4e9;" horiz-adv-x="1032" 
d="M506 -20q-167 0 -271 104.5t-104 277.5q0 113 37.5 217t105 185t170.5 129.5t224 48.5q163 0 259.5 -98.5t96.5 -274.5q0 -259 -143.5 -424t-374.5 -165zM643 788q-116 0 -202.5 -66.5t-121.5 -186.5h537v6q0 122 -55.5 184.5t-157.5 62.5zM532 133q112 0 190.5 66.5
t111.5 181.5h-533q1 -119 65 -183.5t166 -64.5z" />
    <glyph glyph-name="uni04EE" unicode="&#x4ee;" horiz-adv-x="1363" 
d="M1585 1434l-690 -1106q-116 -185 -206 -256.5t-208 -71.5q-48 0 -95 14t-71 37l82 139q46 -28 111 -28q105 0 203 151l34 54l-462 1067h188l379 -899l551 899h184zM643 1577l25 133h622l-24 -133h-623z" />
    <glyph glyph-name="uni04EF" unicode="&#x4ef;" horiz-adv-x="858" 
d="M150 -258q62 0 128 72t123 178q-15 140 -103.5 413.5t-193.5 516.5h172q51 -107 132 -353.5t110 -384.5q68 141 143.5 363t98.5 375h174q-121 -409 -249 -703t-265.5 -461.5t-267.5 -167.5q-96 0 -168 58l73 125q60 -31 93 -31zM283 1188l22 133h541l-23 -133h-540z" />
    <glyph glyph-name="uni04F0" unicode="&#x4f0;" horiz-adv-x="1363" 
d="M1585 1434l-690 -1106q-116 -185 -206 -256.5t-208 -71.5q-48 0 -95 14t-71 37l82 139q46 -28 111 -28q105 0 203 151l34 54l-462 1067h188l379 -899l551 899h184zM604 1665q0 41 33 66.5t80 25.5q42 0 74 -25.5t32 -66.5q0 -45 -31.5 -71.5t-74.5 -26.5q-48 0 -80.5 26
t-32.5 72zM1079 1665q0 41 33.5 66.5t81.5 25.5q42 0 73 -25t31 -67q0 -45 -31 -71.5t-73 -26.5q-48 0 -81.5 26.5t-33.5 71.5z" />
    <glyph glyph-name="uni04F1" unicode="&#x4f1;" horiz-adv-x="858" 
d="M150 -258q62 0 128 72t123 178q-15 140 -103.5 413.5t-193.5 516.5h172q51 -107 132 -353.5t110 -384.5q68 141 143.5 363t98.5 375h174q-121 -409 -249 -703t-265.5 -461.5t-267.5 -167.5q-96 0 -168 58l73 125q60 -31 93 -31zM236 1208q0 42 29.5 68.5t70.5 26.5
q37 0 65.5 -27t28.5 -68q0 -47 -28 -74.5t-66 -27.5q-43 0 -71.5 27t-28.5 75zM655 1208q0 41 31 68t72 27q37 0 65.5 -27t28.5 -68q0 -47 -28 -74.5t-66 -27.5q-43 0 -73 27t-30 75z" />
    <glyph glyph-name="uni04F2" unicode="&#x4f2;" horiz-adv-x="1363" 
d="M1585 1434l-690 -1106q-116 -185 -206 -256.5t-208 -71.5q-48 0 -95 14t-71 37l82 139q46 -28 111 -28q105 0 203 151l34 54l-462 1067h188l379 -899l551 899h184zM1432 1712l-367 -207l-68 72l322 240zM1032 1743l-330 -238l-69 66l262 246z" />
    <glyph glyph-name="uni04F3" unicode="&#x4f3;" horiz-adv-x="858" 
d="M150 -258q62 0 128 72t123 178q-15 140 -103.5 413.5t-193.5 516.5h172q51 -107 132 -353.5t110 -384.5q68 141 143.5 363t98.5 375h174q-121 -409 -249 -703t-265.5 -461.5t-267.5 -167.5q-96 0 -168 58l73 125q60 -31 93 -31zM938 1374l-256 -287l-98 70l233 309z
M596 1393l-231 -306l-99 70l211 324z" />
    <glyph glyph-name="uni04F4" unicode="&#x4f4;" horiz-adv-x="1331" 
d="M1368 1434l-252 -1434h-174l111 627q-176 -111 -373 -111q-175 0 -281 87t-106 253q4 76 12 117l82 461h174l-74 -414q-12 -67 -12 -133q0 -207 254 -207q99 0 190.5 30t161.5 78l113 646h174zM557 1665q0 41 33 66.5t80 25.5q42 0 74 -25.5t32 -66.5q0 -45 -31.5 -71.5
t-74.5 -26.5q-48 0 -80.5 26t-32.5 72zM1032 1665q0 41 33.5 66.5t81.5 25.5q42 0 73 -25t31 -67q0 -45 -31 -71.5t-73 -26.5q-48 0 -81.5 26.5t-33.5 71.5z" />
    <glyph glyph-name="uni04F5" unicode="&#x4f5;" horiz-adv-x="919" 
d="M410 424q96 0 195 110t132 232l27 156h156l-154 -922h-158l84 500q-69 -105 -162 -167.5t-180 -62.5q-98 0 -145 57t-45 146q0 69 24 186l58 263h159l-59 -260q-16 -71 -16 -136q2 -49 20 -75.5t64 -26.5zM317 1208q0 42 30 68.5t71 26.5q37 0 65.5 -27t28.5 -68
q0 -47 -28 -74.5t-66 -27.5q-43 0 -72 27t-29 75zM737 1208q0 41 31 68t72 27q37 0 65.5 -27t28.5 -68q0 -47 -28 -74.5t-66 -27.5q-43 0 -73 27t-30 75z" />
    <glyph glyph-name="uni04F6" unicode="&#x4f6;" horiz-adv-x="1034" 
d="M215 0l252 1434h799l-29 -164h-625l-194 -1106h194l-75 -430h-164l47 266h-205z" />
    <glyph glyph-name="uni04F7" unicode="&#x4f7;" horiz-adv-x="755" 
d="M252 0q-109 0 -109 109q0 14 13 86l120 727h582l-27 -154h-421l-105 -614h158l-80 -379h-147l53 225h-37z" />
    <glyph glyph-name="uni04F8" unicode="&#x4f8;" horiz-adv-x="1730" 
d="M1341 0l252 1434h174l-251 -1434h-175zM698 748q-60 0 -180 -13l-100 -569q165 -6 172 -6q196 0 310 93.5t114 260.5q0 113 -81.5 173.5t-234.5 60.5zM641 1434l-92 -533q130 10 190 10q230 0 346.5 -95.5t116.5 -266.5q0 -255 -168.5 -404t-492.5 -149q-66 0 -177.5 2
t-148.5 2l252 1434h174zM786 1665q0 41 33 66.5t80 25.5q42 0 74.5 -25.5t32.5 -66.5q0 -45 -32 -71.5t-75 -26.5q-48 0 -80.5 26t-32.5 72zM1262 1665q0 41 33.5 66.5t80.5 25.5q42 0 73.5 -25t31.5 -67q0 -45 -31.5 -71.5t-73.5 -26.5q-48 0 -81 26.5t-33 71.5z" />
    <glyph glyph-name="uni04F9" unicode="&#x4f9;" horiz-adv-x="1273" 
d="M168 389l137 533h164l-115 -420q66 81 159 135.5t183 54.5q89 0 152 -59t63 -172q0 -80 -34 -155.5t-90.5 -133.5t-127 -102t-146.5 -67t-146 -23q-62 0 -108.5 19t-71.5 51.5t-36.5 69.5t-11.5 79q0 82 29 190zM297 260q-2 -12 -2 -35q4 -92 108 -92q77 0 158 39
t136 107t55 143q0 54 -34.5 85.5t-80.5 31.5q-57 0 -132.5 -45t-134.5 -111t-73 -123zM1118 922h158l-156 -922h-157zM522 1208q0 42 30 68.5t71 26.5q37 0 65.5 -27t28.5 -68q0 -47 -28 -74.5t-66 -27.5q-43 0 -72 27t-29 75zM942 1208q0 41 30.5 68t71.5 27q37 0 66 -27
t29 -68q0 -47 -28.5 -74.5t-66.5 -27.5q-43 0 -72.5 27t-29.5 75z" />
    <glyph glyph-name="uni1E9E" unicode="&#x1e9e;" horiz-adv-x="1290" 
d="M1087 385q0 58 -28 117.5t-81.5 118t-109 106.5t-133.5 107l330 385q-68 71 -186 71q-144 0 -216.5 -75.5t-97.5 -215.5l-176 -1003h-174l176 999q41 235 156 347t342 112q243 0 397 -203l-342 -379q66 -50 118 -98t103 -110t79 -133t28 -144q0 -183 -108.5 -295
t-286.5 -112q-198 0 -324 139l94 123q103 -99 215 -99q104 0 164.5 65t60.5 177z" />
    <glyph glyph-name="uni2010" unicode="&#x2010;" horiz-adv-x="796" 
d="M217 481l27 154h489l-26 -154h-490z" />
    <glyph glyph-name="uni2011" unicode="&#x2011;" horiz-adv-x="796" 
d="M217 481l27 154h489l-26 -154h-490z" />
    <glyph glyph-name="figuredash" unicode="&#x2012;" horiz-adv-x="1216" 
d="M299 653l25 144h847l-24 -144h-848z" />
    <glyph glyph-name="endash" unicode="&#x2013;" horiz-adv-x="1216" 
d="M268 481l25 144h848l-25 -144h-848z" />
    <glyph glyph-name="emdash" unicode="&#x2014;" horiz-adv-x="1646" 
d="M268 481l25 144h1278l-25 -144h-1278z" />
    <glyph glyph-name="uni2015" unicode="&#x2015;" horiz-adv-x="1583" 
d="M238 481l24 144h1278l-24 -144h-1278z" />
    <glyph glyph-name="quoteleft" unicode="&#x2018;" horiz-adv-x="489" 
d="M526 1126l-145 -77q-37 47 -37 129q0 112 56 202t175 142l68 -80q-65 -38 -102 -97t-37 -124q0 -67 22 -95z" />
    <glyph glyph-name="quoteright" unicode="&#x2019;" horiz-adv-x="489" 
d="M418 1438l145 75q35 -51 35 -127q0 -114 -56 -203t-175 -141l-68 80q65 38 102 97t37 124q0 69 -20 95z" />
    <glyph glyph-name="quotesinglbase" unicode="&#x201a;" horiz-adv-x="489" 
d="M178 76l146 76q34 -49 34 -127q0 -114 -56 -203t-175 -141l-68 79q66 38 103 97.5t37 124.5q0 67 -21 94z" />
    <glyph glyph-name="quotedblleft" unicode="&#x201c;" horiz-adv-x="786" 
d="M526 1126l-145 -77q-37 47 -37 129q0 112 56 202t175 142l68 -80q-65 -38 -102 -97t-37 -124q0 -67 22 -95zM823 1126l-145 -77q-37 47 -37 129q0 112 56 202t175 142l68 -80q-65 -38 -102 -97t-37 -124q0 -67 22 -95z" />
    <glyph glyph-name="quotedblright" unicode="&#x201d;" horiz-adv-x="786" 
d="M418 1438l145 75q35 -51 35 -127q0 -114 -56 -203t-175 -141l-68 80q65 38 102 97t37 124q0 69 -20 95zM715 1438l145 75q35 -51 35 -127q0 -114 -56 -203t-175 -141l-68 80q65 38 102 97t37 124q0 69 -20 95z" />
    <glyph glyph-name="quotedblbase" unicode="&#x201e;" horiz-adv-x="786" 
d="M178 76l146 76q34 -49 34 -127q0 -114 -56 -203t-175 -141l-68 79q66 38 103 97.5t37 124.5q0 67 -21 94zM475 76l146 76q34 -49 34 -127q0 -114 -56 -203t-175 -141l-68 79q66 38 103 97.5t37 124.5q0 67 -21 94z" />
    <glyph glyph-name="dagger" unicode="&#x2020;" horiz-adv-x="940" 
d="M205 840v143h311v451h154v-451h311v-143h-311v-1045h-154v1045h-311z" />
    <glyph glyph-name="daggerdbl" unicode="&#x2021;" horiz-adv-x="940" 
d="M205 840v143h311v451h154v-451h311v-143h-311v-389h311v-144h-311v-512h-154v512h-311v144h311v389h-311z" />
    <glyph glyph-name="bullet" unicode="&#x2022;" horiz-adv-x="471" 
d="M154 539q0 71 51 122.5t121 51.5q72 0 124 -51.5t52 -122.5t-52 -122.5t-124 -51.5q-70 0 -121 51.5t-51 122.5z" />
    <glyph glyph-name="ellipsis" unicode="&#x2026;" horiz-adv-x="1740" 
d="M788 111q0 42 32.5 75t84.5 33q46 0 78.5 -33.5t32.5 -74.5q0 -48 -31 -82.5t-80 -34.5q-54 0 -85.5 34t-31.5 83zM174 111q0 42 32.5 75t84.5 33q46 0 78 -33.5t32 -74.5q0 -48 -30.5 -82.5t-79.5 -34.5q-54 0 -85.5 34t-31.5 83zM1403 111q0 42 32.5 75t84.5 33
q46 0 78 -33.5t32 -74.5q0 -48 -30.5 -82.5t-79.5 -34.5q-54 0 -85.5 34t-31.5 83z" />
    <glyph glyph-name="perthousand" unicode="&#x2030;" horiz-adv-x="2662" 
d="M449 47l1052 1407l94 -70l-1050 -1404zM225 1083q0 157 103 259t252 102q153 0 255.5 -97t102.5 -255q0 -157 -104.5 -261t-255.5 -104q-149 0 -251 99.5t-102 256.5zM369 1085q0 -96 61.5 -158.5t151.5 -62.5q97 0 155 60.5t58 162.5q0 94 -62 157t-151 63
q-97 0 -155 -62.5t-58 -159.5zM1114 350q0 157 102.5 259t251.5 102q153 0 256 -97.5t103 -255.5q0 -156 -105 -260t-256 -104q-149 0 -250.5 99.5t-101.5 256.5zM1257 352q0 -96 61.5 -158.5t151.5 -62.5q97 0 155 60.5t58 162.5q0 94 -62 156.5t-151 62.5q-97 0 -155 -62
t-58 -159zM1980 350q0 157 103 259t252 102q153 0 255.5 -97.5t102.5 -255.5q0 -157 -104.5 -260.5t-255.5 -103.5q-149 0 -251 99.5t-102 256.5zM2124 352q0 -96 61.5 -158.5t151.5 -62.5q97 0 155 60.5t58 162.5q0 94 -62 156.5t-151 62.5q-97 0 -155 -62t-58 -159z" />
    <glyph glyph-name="guilsinglleft" unicode="&#x2039;" horiz-adv-x="696" 
d="M483 61l-307 463l2 8l422 426l98 -104l-340 -342l248 -365z" />
    <glyph glyph-name="guilsinglright" unicode="&#x203a;" horiz-adv-x="696" 
d="M389 958l307 -462l-2 -9l-422 -426l-96 103l338 344l-248 364z" />
    <glyph glyph-name="fraction" unicode="&#x2044;" horiz-adv-x="409" 
d="M-246 47l1053 1407l94 -70l-1051 -1404z" />
    <glyph glyph-name="zerosuperior" unicode="&#x2070;" horiz-adv-x="786" 
d="M262 1016q0 55 10.5 110.5t37 113.5t66.5 102t104.5 72t144.5 28q63 0 113 -20.5t80 -52t49.5 -74t26.5 -83t7 -82.5q0 -63 -13.5 -122.5t-42 -114t-70 -95.5t-101.5 -65t-131 -24q-133 0 -207 84.5t-74 222.5zM416 1024q0 -99 34 -146t103 -47q90 0 142.5 84t52.5 203
q0 105 -33 153t-103 48q-43 0 -77.5 -19.5t-56.5 -50t-36 -70.5t-20 -78.5t-6 -76.5z" />
    <glyph glyph-name="foursuperior" unicode="&#x2074;" horiz-adv-x="722" 
d="M555 717l29 162h-398l17 94l426 461h149l-411 -443h237l33 187h133l-33 -187h121l-20 -112h-121l-29 -162h-133z" />
    <glyph glyph-name="fivesuperior" unicode="&#x2075;" horiz-adv-x="690" 
d="M317 1049l115 385h426l-20 -113h-322l-57 -166q46 12 92 12q108 0 171.5 -58t63.5 -148q0 -117 -90 -186.5t-245 -69.5q-92 0 -160 30.5t-96 91.5l81 72q50 -82 177 -82q87 0 132.5 40.5t45.5 100.5q0 107 -160 107q-104 0 -154 -16z" />
    <glyph glyph-name="sixsuperior" unicode="&#x2076;" horiz-adv-x="778" 
d="M244 940q0 131 76.5 246.5t209.5 186t289 71.5l10 -101q-300 -38 -401 -258q76 76 203 76q118 0 180.5 -50.5t62.5 -139.5q0 -126 -89.5 -196t-239.5 -70q-145 0 -223 65t-78 170zM397 965q-9 -66 31 -107t125 -41q79 0 122.5 39.5t43.5 99.5q0 47 -33.5 75t-99.5 28
q-60 0 -110 -28t-79 -66z" />
    <glyph glyph-name="sevensuperior" unicode="&#x2077;" horiz-adv-x="641" 
d="M266 1311l23 123h569l-16 -86l-432 -631h-168l415 594h-391z" />
    <glyph glyph-name="eightsuperior" unicode="&#x2078;" horiz-adv-x="804" 
d="M590 1137h28q60 0 102 30t42 78q0 42 -33 64t-92 22q-65 0 -111.5 -30t-46.5 -78q0 -37 30.5 -61.5t80.5 -24.5zM600 1034h-22q-73 0 -126 -34.5t-53 -86.5q0 -47 40.5 -71.5t115.5 -24.5q74 0 127 35t53 90q0 42 -37.5 67t-97.5 25zM545 705q-124 0 -209.5 46.5
t-85.5 139.5q0 68 52.5 121.5t135.5 70.5v4q-46 18 -73 54.5t-27 87.5q0 98 84 156.5t221 58.5q124 0 196 -46.5t72 -127.5q0 -61 -45.5 -113t-122.5 -70v-2q66 -14 100 -55.5t34 -91.5q0 -114 -90.5 -173.5t-241.5 -59.5z" />
    <glyph glyph-name="ninesuperior" unicode="&#x2079;" horiz-adv-x="778" 
d="M911 1202q0 -139 -75 -252.5t-209 -179t-299 -65.5l-2 104q156 15 271 90t140 180q-88 -102 -219 -102q-104 0 -170.5 56t-66.5 143q0 120 91.5 194t239.5 74q145 0 222 -65.5t77 -176.5zM756 1176q10 67 -28.5 111t-123.5 44q-69 0 -117.5 -40t-48.5 -97
q0 -52 32.5 -83.5t96.5 -31.5q61 0 111.5 29t77.5 68z" />
    <glyph glyph-name="uni207A" unicode="&#x207a;" horiz-adv-x="737" 
d="M281 1028v113h217v215h112v-215h224v-113h-224v-215h-112v215h-217z" />
    <glyph glyph-name="uni207B" unicode="&#x207b;" horiz-adv-x="737" 
d="M281 1028v113h553v-113h-553z" />
    <glyph glyph-name="uni207C" unicode="&#x207c;" horiz-adv-x="737" 
d="M281 1171v113h553v-113h-553zM281 885v112h553v-112h-553z" />
    <glyph glyph-name="uni207D" unicode="&#x207d;" horiz-adv-x="434" 
d="M539 713l-88 -78q-104 61 -156.5 159.5t-52.5 202.5q0 164 91 297t265 217l64 -88q-134 -71 -204.5 -175t-70.5 -234q0 -93 40 -171t112 -130z" />
    <glyph glyph-name="uni207E" unicode="&#x207e;" horiz-adv-x="434" 
d="M274 1434l86 77q104 -61 156.5 -162t52.5 -206q0 -165 -100 -299t-256 -209l-63 88q274 153 274 403q0 92 -40 174t-110 134z" />
    <glyph glyph-name="zeroinferior" unicode="&#x2080;" horiz-adv-x="786" 
d="M137 299q0 55 10.5 110.5t37 113.5t66.5 102t104.5 72t144.5 28q63 0 113 -20.5t80 -52t49.5 -74t26.5 -82.5t7 -82q0 -63 -13.5 -123t-42 -114.5t-70 -95t-101.5 -65t-131 -24.5q-133 0 -207 84.5t-74 222.5zM291 307q0 -99 33.5 -145.5t103.5 -46.5q90 0 142.5 83.5
t52.5 202.5q0 105 -33 153t-103 48q-43 0 -77.5 -19.5t-56.5 -50t-36 -70.5t-20 -78.5t-6 -76.5z" />
    <glyph glyph-name="oneinferior" unicode="&#x2081;" horiz-adv-x="516" 
d="M145 573l242 146h102l-127 -719h-143l92 541l-123 -72z" />
    <glyph glyph-name="twoinferior" unicode="&#x2082;" horiz-adv-x="714" 
d="M72 0l18 104q11 7 60 35.5t69 40.5t66.5 41t69.5 46.5t60.5 46t57 50t41 48.5t30.5 52t9 50q0 40 -27.5 64t-79.5 24q-62 0 -103 -33.5t-54 -85.5l-119 43q21 95 103 147t184 52q118 0 185 -49.5t67 -136.5q0 -70 -39 -136t-105 -118.5t-135 -91t-147 -70.5h393l-23 -123
h-581z" />
    <glyph glyph-name="threeinferior" unicode="&#x2083;" horiz-adv-x="716" 
d="M356 -12q-86 0 -165 36t-113 111l88 72q56 -101 199 -101q68 0 111.5 33t43.5 88q0 38 -34 61t-95 23h-69l16 103h61q65 0 106.5 33t41.5 83q0 37 -30.5 58.5t-84.5 21.5q-122 0 -194 -92l-68 78q94 131 289 131q119 0 183.5 -46t64.5 -130q0 -62 -56.5 -113.5
t-128.5 -62.5v-2q71 -7 110.5 -48.5t39.5 -97.5q0 -113 -85 -176t-231 -63z" />
    <glyph glyph-name="fourinferior" unicode="&#x2084;" horiz-adv-x="722" 
d="M428 0l29 162h-398l17 94l426 461h149l-411 -443h237l33 187h133l-33 -187h121l-20 -112h-121l-29 -162h-133z" />
    <glyph glyph-name="fiveinferior" unicode="&#x2085;" horiz-adv-x="690" 
d="M190 332l115 385h426l-20 -113h-322l-57 -166q50 13 92 13q108 0 171.5 -58.5t63.5 -148.5q0 -117 -90 -186.5t-245 -69.5q-91 0 -159.5 31t-96.5 92l82 71q50 -82 176 -82q87 0 132.5 41t45.5 101q0 106 -160 106q-104 0 -154 -16z" />
    <glyph glyph-name="sixinferior" unicode="&#x2086;" horiz-adv-x="778" 
d="M119 223q0 131 76.5 246.5t209.5 186t289 71.5l11 -100q-142 -18 -246 -81.5t-156 -176.5q75 75 203 75q118 0 181 -50.5t63 -139.5q0 -126 -90 -196t-240 -70q-145 0 -223 65t-78 170zM272 248q-9 -66 31 -107t125 -41q79 0 122.5 40t43.5 100q0 47 -33.5 74.5
t-99.5 27.5q-60 0 -110 -28t-79 -66z" />
    <glyph glyph-name="seveninferior" unicode="&#x2087;" horiz-adv-x="641" 
d="M139 594l23 123h569l-16 -86l-432 -631h-168l415 594h-391z" />
    <glyph glyph-name="eightinferior" unicode="&#x2088;" horiz-adv-x="804" 
d="M463 420h29q60 0 101.5 30t41.5 78q0 42 -33 64t-92 22q-65 0 -111.5 -30t-46.5 -78q0 -37 30.5 -61.5t80.5 -24.5zM473 317h-22q-73 0 -126 -34t-53 -86q0 -47 40.5 -72t115.5 -25q74 0 127 35t53 90q0 42 -37.5 67t-97.5 25zM418 -12q-124 0 -209.5 46.5t-85.5 139.5
q0 68 52.5 122t135.5 71v4q-46 18 -73 54t-27 87q0 98 84 156.5t221 58.5q124 0 196 -46.5t72 -127.5q0 -61 -45.5 -112.5t-122.5 -69.5v-2q66 -14 100 -56t34 -92q0 -114 -90.5 -173.5t-241.5 -59.5z" />
    <glyph glyph-name="nineinferior" unicode="&#x2089;" horiz-adv-x="778" 
d="M784 485q0 -139 -75 -252.5t-209 -179t-299 -65.5l-2 104q156 15 271 90t140 180q-88 -102 -219 -102q-104 0 -170.5 56t-66.5 143q0 120 91.5 194t239.5 74q145 0 222 -65.5t77 -176.5zM629 459q10 67 -28.5 111t-123.5 44q-69 0 -117.5 -40t-48.5 -97q0 -52 32.5 -83.5
t96.5 -31.5q61 0 111.5 29t77.5 68z" />
    <glyph glyph-name="uni208A" unicode="&#x208a;" horiz-adv-x="737" 
d="M154 311v113h217v215h112v-215h224v-113h-224v-215h-112v215h-217z" />
    <glyph glyph-name="uni208B" unicode="&#x208b;" horiz-adv-x="737" 
d="M154 311v113h553v-113h-553z" />
    <glyph glyph-name="uni208C" unicode="&#x208c;" horiz-adv-x="737" 
d="M154 455v112h553v-112h-553zM154 168v113h553v-113h-553z" />
    <glyph glyph-name="uni208D" unicode="&#x208d;" horiz-adv-x="434" 
d="M414 -4l-88 -78q-104 61 -156.5 159.5t-52.5 203.5q0 164 91 297t265 217l64 -88q-134 -71 -204.5 -175.5t-70.5 -234.5q0 -93 40 -171t112 -130z" />
    <glyph glyph-name="uni208E" unicode="&#x208e;" horiz-adv-x="434" 
d="M147 717l86 78q104 -61 156.5 -162.5t52.5 -206.5q0 -165 -100 -299t-256 -209l-63 88q274 153 274 404q0 92 -39.5 173t-110.5 134z" />
    <glyph glyph-name="Euro" unicode="&#x20ac;" 
d="M184 840l76 133h129q95 221 292.5 351t479.5 130q76 0 151 -15t122 -40l-86 -137q-85 28 -215 28q-99 0 -198 -32t-193.5 -106t-151.5 -179h627l-72 -133h-608q-18 -58 -21 -123q-2 -33 -2 -92h535l-66 -133h-444q45 -159 177.5 -254t295.5 -95q114 0 182 23l2 -154
q-32 -14 -95 -23t-114 -9q-139 0 -257.5 45.5t-197.5 119.5t-128 163.5t-62 183.5h-217l74 133h127q0 59 4 92q9 92 18 123h-164z" />
    <glyph glyph-name="uni20AE" unicode="&#x20ae;" 
d="M1128 956l-294 -133l-39 -213l295 131l-23 -133l-295 -133l-84 -475h-174l68 391l-295 -133l22 135l297 131l37 215l-295 -133l23 135l297 131l69 398h-481l29 164h1136l-28 -164h-482l-55 -312l295 132z" />
    <glyph glyph-name="uni20B4" unicode="&#x20b4;" horiz-adv-x="1228" 
d="M299 844l23 133h616q32 33 51 80.5t19 89.5q0 143 -172 143q-155 0 -283 -106l-68 135q65 64 163.5 99.5t205.5 35.5q165 0 252.5 -72t87.5 -192q0 -61 -25.5 -118.5t-62.5 -94.5h145l-22 -133h-221q-57 -46 -167.5 -113t-156.5 -102h506l-23 -133h-626q-95 -88 -95 -195
q0 -72 60.5 -115t181.5 -43q99 0 170.5 33t134.5 94l74 -116q-142 -174 -401 -174q-166 0 -278 76t-112 212q0 123 95 228h-133l22 133h225q60 49 168.5 114t155.5 101h-510z" />
    <glyph glyph-name="uni20B8" unicode="&#x20b8;" 
d="M217 922l29 163h1095l-28 -163h-461l-162 -922h-174l162 922h-461zM283 1300l24 134h1096l-25 -134h-1095z" />
    <glyph glyph-name="uni20BA" unicode="&#x20ba;" 
d="M123 463l24 135l201 88l37 215l-201 -90l25 135l201 88l69 400h174l-55 -316l391 176l-24 -133l-392 -176l-36 -215l391 176l-23 -133l-393 -176l-82 -473q41 -4 143 -4q125 0 217.5 39.5t153.5 118t98.5 180.5t59.5 243h184q-26 -179 -77 -312t-138 -232.5t-218.5 -150
t-307.5 -50.5q-45 0 -138 2t-157 2h-23l97 553z" />
    <glyph glyph-name="uni20BD" unicode="&#x20bd;" horiz-adv-x="1228" 
d="M150 631l22 133h217l119 670q39 0 184 2t191 2q469 0 469 -363q0 -95 -34 -173.5t-103.5 -140t-186.5 -96t-272 -34.5h-215l-39 -215h354l-22 -133h-355l-49 -283h-174l49 283h-217l23 133h217l39 215h-217zM870 1274q-81 0 -217 -4l-90 -506h209q389 0 389 303
q0 207 -291 207z" />
    <glyph glyph-name="uni20BF" unicode="&#x20bf;" 
d="M207 2l252 1430q25 0 135 4l33 182h133l-33 -180q43 2 127 2q30 0 88 -4l33 182h133l-39 -211q191 -69 191 -287q0 -138 -79 -238t-208 -139l-2 -4q102 -27 160.5 -97t58.5 -171q0 -178 -98 -290.5t-267 -157.5l-39 -228h-133l35 203q-66 -4 -98 -4h-117l-35 -199h-133
l35 203q-67 0 -133 4zM727 653h-231l-86 -487q94 -8 219 -8q181 0 279 74.5t98 209.5q0 211 -279 211zM821 1276q-64 0 -217 -6l-82 -463h230q134 0 228.5 75.5t94.5 204.5q0 93 -64.5 141t-189.5 48z" />
    <glyph glyph-name="uni20C0" unicode="&#x20c0;" horiz-adv-x="1357" 
d="M109 0l22 133h1083l-22 -133h-1083zM1149 539l59 -131q-96 -73 -201.5 -102.5t-244.5 -29.5q-240 0 -395.5 140.5t-157.5 353.5q-1 139 52.5 264t148 218t231 147.5t293.5 54.5q279 0 414 -135l-103 -125q-75 55 -149.5 75.5t-188.5 20.5q-219 0 -365.5 -140.5
t-146.5 -350.5q0 -160 105 -259.5t307 -99.5q100 0 177 23t165 76z" />
    <glyph glyph-name="uni2116" unicode="&#x2116;" horiz-adv-x="2408" 
d="M1372 0h-139l-651 1145l-203 -1145h-164l252 1434h139l651 -1147l203 1147h164zM1686 967q0 73 25.5 140t74.5 121.5t130.5 87t184.5 32.5q146 0 246 -83t100 -216q0 -178 -112 -287t-293 -109q-161 0 -258.5 86t-97.5 228zM1841 975q0 -87 52.5 -138t152.5 -51
q113 0 179.5 69.5t66.5 176.5q0 83 -55 132.5t-144 49.5q-115 0 -183.5 -67.5t-68.5 -171.5zM1655 379l26 153h607l-27 -153h-606z" />
    <glyph glyph-name="trademark" unicode="&#x2122;" horiz-adv-x="1734" 
d="M918 788l114 646h129l221 -289l312 289h145l-115 -646h-153l80 449l-291 -270h-4l-203 270l-80 -449h-155zM258 1284l27 150h651l-27 -150h-250l-88 -496h-153l88 496h-248z" />
    <glyph glyph-name="arrowleft" unicode="&#x2190;" horiz-adv-x="1316" 
d="M743 1137l115 -115l-381 -381h840v-164h-842l383 -383l-115 -114l-579 579z" />
    <glyph glyph-name="arrowup" unicode="&#x2191;" horiz-adv-x="1320" 
d="M299 457l-115 116l578 580l579 -580l-114 -116l-383 383v-840h-164v838z" />
    <glyph glyph-name="arrowright" unicode="&#x2192;" horiz-adv-x="1316" 
d="M641 1022l117 115l579 -578l-579 -579l-117 114l383 383h-840v164h838z" />
    <glyph glyph-name="arrowdown" unicode="&#x2193;" horiz-adv-x="1320" 
d="M184 539l115 114l381 -381v840h164v-842l383 383l114 -114l-579 -580z" />
    <glyph glyph-name="partialdiff" unicode="&#x2202;" horiz-adv-x="1171" 
d="M168 414q0 141 63.5 261.5t181 193.5t263.5 73q131 0 221 -55.5t127 -130.5q0 113 -30.5 207t-93.5 168.5t-166.5 120.5t-241.5 55l24 147q324 -12 503 -197t179 -509q0 -121 -23.5 -233t-71.5 -209.5t-116.5 -170t-164.5 -114t-208 -41.5q-198 0 -322 123.5t-124 310.5z
M342 428q0 -124 80.5 -209.5t210.5 -85.5q81 0 149.5 39.5t115.5 105t76 147.5t38 171q-113 192 -328 192q-145 0 -243.5 -106t-98.5 -254z" />
    <glyph glyph-name="product" unicode="&#x220f;" horiz-adv-x="1802" 
d="M1528 -410v1680h-1024v-1680h-174v1844h1372v-1844h-174z" />
    <glyph glyph-name="summation" unicode="&#x2211;" horiz-adv-x="1300" 
d="M829 512l-614 805v117h1137v-164h-891l569 -758l-579 -758h901v-164h-1137v117z" />
    <glyph glyph-name="minus" unicode="&#x2212;" 
d="M264 666v143h930v-143h-930z" />
    <glyph glyph-name="uni2215" unicode="&#x2215;" horiz-adv-x="686" 
d="M-61 -379l682 1833l127 -47l-680 -1833z" />
    <glyph glyph-name="radical" unicode="&#x221a;" horiz-adv-x="1234" 
d="M51 758v164h330l344 -646l268 1158h570v-164h-426l-303 -1278h-140l-426 766h-217z" />
    <glyph glyph-name="infinity" unicode="&#x221e;" horiz-adv-x="1527" 
d="M1243 375q-111 0 -196 56t-162 153q-73 -99 -151 -154t-187 -55q-80 0 -152.5 37.5t-121 113t-48.5 172.5q0 134 91.5 231t236.5 97q53 0 101 -16.5t89.5 -49t73 -66.5t68.5 -81q34 48 65 81.5t74 66t97.5 49t119.5 16.5q139 0 223 -94t84 -242q0 -126 -83.5 -220.5
t-221.5 -94.5zM1212 883q-50 0 -96 -27t-76.5 -61.5t-72.5 -92.5q68 -89 127.5 -136.5t132.5 -47.5q77 0 122.5 53t45.5 123q0 79 -49 134t-134 55zM563 518q76 0 130 44t110 128q-35 47 -58 75.5t-54 59t-62 44.5t-64 14q-84 0 -135 -53.5t-51 -131.5q0 -83 56 -131.5
t128 -48.5z" />
    <glyph glyph-name="integral" unicode="&#x222b;" horiz-adv-x="675" 
d="M465 -35q0 -179 -55 -276.5t-189 -110.5q-31 -4 -96 0q-97 9 -154 55l45 131q59 -36 121 -36q92 0 128 63t36 184v1096q0 173 72.5 269t204.5 108q49 6 100 0q119 -11 192 -76l-57 -125q-58 44 -131 49q-68 3 -111 -16q-106 -45 -106 -227v-1088z" />
    <glyph glyph-name="approxequal" unicode="&#x2248;" 
d="M299 813l-74 105q65 70 138 108.5t141 38.5q56 0 122.5 -22.5t118 -50t116.5 -50t118 -22.5q94 0 186 92l66 -113q-130 -123 -254 -123q-55 0 -121 23t-117 50t-114 50t-113 23q-100 0 -213 -109zM299 444l-74 105q65 70 138 108.5t141 38.5q56 0 122.5 -22.5t118 -50
t116.5 -50t118 -22.5q94 0 186 92l66 -113q-129 -122 -254 -122q-55 0 -121 22.5t-117 50t-114 50t-113 22.5q-100 0 -213 -109z" />
    <glyph glyph-name="notequal" unicode="&#x2260;" 
d="M264 850v143h481l173 461l126 -47l-153 -414h303v-143h-356l-84 -225h440v-144h-494l-186 -501l-129 47l170 454h-291v144h344l84 225h-428z" />
    <glyph glyph-name="lessequal" unicode="&#x2264;" 
d="M209 522l27 152l806 -539l-28 -158zM1079 346l-805 545l13 70l995 540l-31 -178l-743 -397l602 -402z" />
    <glyph glyph-name="greaterequal" unicode="&#x2265;" 
d="M1212 674l-26 -152l-996 -545l29 158zM1251 891l-995 -545l31 178l745 402l-604 397l31 178l805 -540z" />
    <glyph glyph-name="angleleft" unicode="&#x2329;" horiz-adv-x="811" 
d="M954 1434l-573 -734l305 -700h-180l-309 713l2 8l559 713h196z" />
    <glyph glyph-name="angleright" unicode="&#x232a;" horiz-adv-x="811" 
d="M66 0l573 733l-305 701h180l309 -713l-2 -8l-559 -713h-196z" />
    <glyph glyph-name="lozenge" unicode="&#x25ca;" horiz-adv-x="978" 
d="M526 -8l-342 518l344 547h129l342 -525l-344 -540h-129zM350 512l242 -367l242 387l-242 363z" />
    <glyph glyph-name="spade" unicode="&#x2660;" horiz-adv-x="1294" 
d="M729 1044q112 -70 230.5 -181.5t206 -239t87.5 -215.5q0 -87 -60.5 -150t-178.5 -63q-164 0 -269 147q28 -119 79.5 -203.5t140.5 -138.5h-471q150 107 215 336q-103 -141 -265 -141q-118 0 -178.5 63.5t-60.5 151.5q0 66 51.5 157t130 179t169.5 167.5t173 130.5z" />
    <glyph glyph-name="club" unicode="&#x2663;" horiz-adv-x="1253" 
d="M465 780q0 109 77.5 186.5t186.5 77.5t186.5 -77.5t77.5 -186.5q0 -15 -4 -39q102 -8 173 -84t71 -178q0 -109 -77.5 -186.5t-186.5 -77.5q-65 0 -121 29.5t-92 79.5q64 -236 209 -324h-471q129 91 204 319q-37 -46 -93 -75t-116 -29q-109 0 -186.5 77.5t-77.5 186.5
q0 103 70.5 178.5t171.5 83.5q-2 12 -2 39z" />
    <glyph glyph-name="heart" unicode="&#x2665;" horiz-adv-x="1329" 
d="M799 0q-86 65 -179 158.5t-175.5 197.5t-135.5 212.5t-53 189.5q0 51 14.5 97t43.5 84.5t78 61.5t112 23q182 0 295 -213q109 213 293 213q83 0 140.5 -40t82 -98t24.5 -126q0 -82 -53 -191t-135 -213t-174 -197.5t-178 -158.5z" />
    <glyph glyph-name="diamond" unicode="&#x2666;" horiz-adv-x="1193" 
d="M1153 510q-222 -222 -475 -549q-213 280 -473 549q221 231 473 551q256 -324 475 -551z" />
    <glyph glyph-name="uniF350" unicode="&#xf350;" horiz-adv-x="1208" 
d="M25 0l694 1081h151l314 -1081h-176l-80 287h-535l-180 -287h-188zM764 872l-268 -421h387z" />
    <glyph glyph-name="uniF351" unicode="&#xf351;" horiz-adv-x="1067" 
d="M172 0l190 1075h711l-31 -164h-532l-45 -256q79 9 174 9q168 0 273.5 -74.5t105.5 -210.5t-62 -224t-167.5 -125.5t-256.5 -37.5q-95 0 -216 4t-144 4zM614 502q-99 0 -178 -8l-57 -332q153 -6 174 -6q141 0 214 45.5t73 158.5q0 142 -226 142z" />
    <glyph glyph-name="uniF352" unicode="&#xf352;" horiz-adv-x="1073" 
d="M172 2l188 1071q264 8 345 8q182 0 272 -67.5t90 -190.5q0 -94 -70.5 -166t-177.5 -94v-2q94 -13 146.5 -77.5t52.5 -153.5q0 -88 -34.5 -153.5t-97 -105t-143.5 -58.5t-180 -19q-251 0 -391 8zM629 467h-199l-53 -301q66 -8 207 -8q258 0 258 176q0 66 -55 99.5
t-158 33.5zM694 918q-50 0 -186 -7l-51 -290h194q96 0 165 46.5t69 127.5q0 123 -191 123z" />
    <glyph glyph-name="uniF353" unicode="&#xf353;" horiz-adv-x="874" 
d="M172 0l190 1075h682l-30 -164h-504l-160 -911h-178z" />
    <glyph glyph-name="uniF354" unicode="&#xf354;" horiz-adv-x="1271" 
d="M-12 -195l63 359h129q26 24 61 76t79.5 135.5t90 211.5t78.5 273l50 215h714l-159 -911h159l-63 -359h-168l35 195h-867l-34 -195h-168zM637 741q-60 -226 -136 -378.5t-126 -198.5h543l131 747h-367z" />
    <glyph glyph-name="uniF355" unicode="&#xf355;" horiz-adv-x="999" 
d="M172 0l190 1075h697l-31 -164h-518l-49 -286h467l-29 -164h-467l-53 -297h534l-28 -164h-713z" />
    <glyph glyph-name="uniF356" unicode="&#xf356;" horiz-adv-x="1605" 
d="M1757 1075l-555 -522l379 -553h-192l-383 561l528 514h223zM717 0l190 1075h174l-190 -1075h-174zM604 578l-354 497h194l357 -514l-549 -561h-236z" />
    <glyph glyph-name="uniF357" unicode="&#xf357;" horiz-adv-x="1003" 
d="M504 -18q-157 0 -264.5 52.5t-147.5 125.5l111 112q46 -59 126 -93t177 -34q130 0 204 49t74 136q0 135 -198 135h-160l29 164h151q102 0 157.5 50t55.5 118q0 129 -192 129q-188 0 -297 -101l-84 125q137 140 393 140q166 0 262 -75t96 -196q0 -96 -52 -164t-148 -96v-6
q76 -28 117.5 -82.5t41.5 -126.5q0 -167 -118.5 -264.5t-333.5 -97.5z" />
    <glyph glyph-name="uniF358" unicode="&#xf358;" horiz-adv-x="1343" 
d="M326 0h-154l190 1075h177l-136 -770l805 770h154l-191 -1075h-176l138 776z" />
    <glyph glyph-name="uniF359" unicode="&#xf359;" horiz-adv-x="1343" 
d="M326 0h-154l190 1075h177l-136 -770l805 770h154l-191 -1075h-176l138 776zM606 1393h152q-4 -66 30.5 -99.5t102.5 -33.5q144 0 196 133h132q-30 -106 -122 -181t-218 -75q-150 0 -214.5 65t-58.5 191z" />
    <glyph glyph-name="uniF35A" unicode="&#xf35a;" horiz-adv-x="1134" 
d="M1274 1075l-594 -516l426 -559h-223l-422 561l571 514h242zM172 0l190 1075h177l-191 -1075h-176z" />
    <glyph glyph-name="uniF35B" unicode="&#xf35b;" horiz-adv-x="1230" 
d="M883 0l161 911h-389l-55 -202q-52 -189 -103.5 -322.5t-103 -213.5t-107.5 -122.5t-115.5 -51.5t-127.5 1l29 168q22 -2 41 0.5t46 17.5t52 42.5t56.5 79.5t62 124.5t66.5 181.5t71 246l55 215h727l-190 -1075h-176z" />
    <glyph glyph-name="uniF35C" unicode="&#xf35c;" horiz-adv-x="1515" 
d="M172 0l190 1075h177l335 -514l484 514h176l-191 -1075h-176l144 799l-461 -480h-25l-329 504l-150 -823h-174z" />
    <glyph glyph-name="uniF35D" unicode="&#xf35d;" horiz-adv-x="1310" 
d="M961 0l81 467h-610l-82 -467h-178l190 1075h179l-80 -444h610l80 444h178l-190 -1075h-178z" />
    <glyph glyph-name="uniF35E" unicode="&#xf35e;" horiz-adv-x="1341" 
d="M166 481q0 124 42.5 233.5t122 193.5t203 133t275.5 49q158 0 284 -60t198.5 -172t72.5 -258q0 -274 -175.5 -446t-459.5 -172q-259 0 -411 138t-152 361zM354 487q0 -152 100 -247t281 -95q137 0 239 61t152 160.5t50 223.5q0 146 -101 241t-272 95q-202 0 -325.5 -121
t-123.5 -318z" />
    <glyph glyph-name="uniF35F" unicode="&#xf35f;" horiz-adv-x="1308" 
d="M958 0l160 911h-608l-160 -911h-178l190 1075h965l-190 -1075h-179z" />
    <glyph glyph-name="uniF360" unicode="&#xf360;" horiz-adv-x="1021" 
d="M346 0h-174l190 1075q31 0 156.5 2t165.5 2q182 0 286.5 -86t104.5 -221q0 -189 -127 -301.5t-358 -112.5q-84 0 -180 7zM676 915q-76 0 -170 -4l-66 -381q102 -8 158 -8q143 0 216 59.5t73 174.5q0 80 -55 119.5t-156 39.5z" />
    <glyph glyph-name="uniF361" unicode="&#xf361;" horiz-adv-x="1110" 
d="M1044 233l66 -129q-148 -122 -377 -122q-117 0 -212 26.5t-160.5 73t-109.5 110.5t-64.5 136.5t-20.5 154.5q0 93 25 180t78.5 165t130.5 136t188.5 92t245.5 34q243 0 366 -111l-94 -121q-103 68 -279 68q-219 0 -346 -120t-127 -306q0 -164 95 -259.5t288 -95.5
q177 0 307 88z" />
    <glyph glyph-name="uniF362" unicode="&#xf362;" horiz-adv-x="1007" 
d="M176 911l29 164h979l-29 -164h-401l-160 -911h-178l159 911h-399z" />
    </font>
</defs>
</svg>
