<?xml version="1.0" standalone="no"?>
<!DOCTYPE svg PUBLIC "-//W3C//DTD SVG 1.1//EN" "http://www.w3.org/Graphics/SVG/1.1/DTD/svg11.dtd" >
<svg xmlns="http://www.w3.org/2000/svg" xmlns:xlink="http://www.w3.org/1999/xlink" version="1.1">
<metadata>
Created by FontForge 20170731 at Wed Mar 15 10:29:03 2023
 By Aleksey,,,
Copyright (c) 2011 Paratype, Inc., ParaType Ltd. All rights reserved.
</metadata>
<defs>
<font id="Circe-ExtraLight" horiz-adv-x="1200" >
  <font-face 
    font-family="Circe Extra Light"
    font-weight="280"
    font-stretch="normal"
    units-per-em="2048"
    panose-1="2 11 3 2 2 2 3 2 2 3"
    ascent="1583"
    descent="-465"
    x-height="922"
    cap-height="1434"
    bbox="-1024 -709 3459 2036"
    underline-thickness="102"
    underline-position="-307"
    unicode-range="U+0020-FEFF"
  />
<missing-glyph horiz-adv-x="497" 
 />
    <glyph glyph-name="uniF350.var.accented" unicode="&#xf350;`" horiz-adv-x="1146" 
d="M43 0l508 1085h45l508 -1085h-66l-180 387h-573l-181 -387h-61zM571 1006l-262 -564h522zM774 1497l-237 -280l-33 30l233 291z" />
    <glyph glyph-name="uniF355.var.accented" unicode="&#xf355;`" horiz-adv-x="970" 
d="M190 0v1075h637v-57h-577v-443h528v-57h-528v-461h594v-57h-654zM723 1497l-238 -280l-32 30l233 291z" />
    <glyph glyph-name="uniF358.var.accented" unicode="&#xf358;`" horiz-adv-x="1320" 
d="M246 0h-56v1075h60v-981l825 981h55v-1075h-59v981zM840 1497l-238 -280l-33 30l234 291z" />
    <glyph glyph-name="uniF35E.var.accented" unicode="&#xf35e;`" horiz-adv-x="1325" 
d="M94 539q0 153 74 279t204 197.5t290 71.5t290.5 -71t204.5 -196.5t74 -280.5q0 -236 -163 -394.5t-406 -158.5q-242 0 -405 157.5t-163 395.5zM158 539q0 -212 145 -354t359 -142q219 0 362 141.5t143 354.5q0 139 -66 252t-181.5 176t-257.5 63q-215 0 -359.5 -140
t-144.5 -351zM870 1497l-237 -280l-33 30l234 291z" />
    <glyph glyph-name="uniF363.var.accented" unicode="&#xf363;`" horiz-adv-x="1058" 
d="M1028 1075l-405 -833q-62 -127 -120 -184.5t-134 -57.5q-72 0 -119 33l22 51q50 -29 97 -29q56 0 96.5 41t77.5 113l24 45l-536 821h73l494 -762l367 762h63zM737 1497l-237 -280l-33 30l233 291z" />
    <glyph glyph-name="uniF36B.var.accented" unicode="&#xf36b;`" horiz-adv-x="1355" 
d="M1104 0v1075h61v-1075h-61zM438 588q-74 0 -188 -6v-525q25 0 83.5 -2t96.5 -2q184 0 280.5 71.5t96.5 209.5q0 121 -94 187.5t-275 66.5zM250 1075v-436q76 6 188 6q215 0 323.5 -81.5t108.5 -231.5q0 -163 -119 -249.5t-327 -86.5q-46 0 -124.5 2t-109.5 2v1075h60z
M819 1497l-237 -280l-33 30l233 291z" />
    <glyph glyph-name="uniF36D.var.accented" unicode="&#xf36d;`" horiz-adv-x="1128" 
d="M334 520v58h637q-10 210 -149.5 331t-368.5 121q-205 0 -328 -90l-27 43q64 52 159.5 79.5t197.5 27.5q263 0 421 -149t158 -400q0 -157 -70.5 -283t-203 -199t-303.5 -73q-218 0 -383 112l28 49q156 -102 359 -102q225 0 364.5 133.5t147.5 341.5h-639zM696 1497
l-237 -280l-33 30l233 291z" />
    <glyph glyph-name="uniF36E.var.accented" unicode="&#xf36e;`" horiz-adv-x="1765" 
d="M190 0v1075h60v-497h321q14 221 165.5 366.5t381.5 145.5q243 0 398 -156t155 -395q0 -156 -69.5 -282t-196.5 -198.5t-287 -72.5q-233 0 -387 150.5t-160 383.5h-321v-520h-60zM635 539q0 -214 136.5 -354t348.5 -140q215 0 351.5 140t136.5 354q0 213 -137 352
t-351 139q-213 0 -349 -139t-136 -352zM924 1497l-238 -280l-33 30l234 291z" />
    <glyph glyph-name="uniF36F.var.accented" unicode="&#xf36f;`" horiz-adv-x="1017" 
d="M768 0v430h-291l-346 -430h-74l355 438q-107 28 -183.5 110.5t-76.5 192.5q0 150 107 244t310 94q48 0 137.5 -2t120.5 -2v-1075h-59zM467 487h301v531q-23 0 -93 2t-112 2q-172 0 -260 -79t-88 -200q0 -96 76 -169t176 -87zM758 1497l-238 -280l-33 30l234 291z" />
    <glyph glyph-name="uniF371.var.accented" unicode="&#xf371;`" horiz-adv-x="970" 
d="M190 0v1075h637v-57h-577v-443h528v-57h-528v-461h594v-57h-654zM281 1366q0 17 13 29t32 12q16 0 28.5 -12t12.5 -29q0 -19 -12.5 -32t-28.5 -13q-19 0 -32 12.5t-13 32.5zM639 1366q0 17 13 29t32 12q16 0 28.5 -12t12.5 -29q0 -19 -12.5 -32t-28.5 -13q-19 0 -32 12.5
t-13 32.5zM635 1497l-238 -280l-32 30l233 291z" />
    <glyph glyph-name="uni0410.var.accented" unicode="&#x410;`" horiz-adv-x="1413" 
d="M53 0l631 1448h45l631 -1448h-66l-231 532h-717l-229 -532h-64zM705 1358l-334 -768h667zM999 1698l-342 -182l-18 36l338 193z" />
    <glyph glyph-name="uni0415.var.accented" unicode="&#x415;`" horiz-adv-x="1177" 
d="M238 0v1434h778v-58h-717v-618h655v-58h-655v-643h737v-57h-798zM866 1698l-342 -182l-18 36l338 193z" />
    <glyph glyph-name="uni0418.var.accented" unicode="&#x418;`" horiz-adv-x="1636" 
d="M293 0h-55v1434h61v-1338l1044 1338h56v-1434h-62v1335zM1051 1698l-342 -182l-19 36l338 193z" />
    <glyph glyph-name="uni041E.var.accented" unicode="&#x41e;`" horiz-adv-x="1652" 
d="M117 717q0 205 92.5 373.5t255 265t360.5 96.5q148 0 279.5 -56t226 -153t149 -233.5t54.5 -292.5q0 -206 -93 -374.5t-255.5 -264.5t-360.5 -96q-197 0 -359 95t-255.5 264t-93.5 376zM180 717q0 -142 50 -267.5t135.5 -215t205 -141.5t254.5 -52q183 0 330.5 88
t231 243t83.5 345q0 143 -49.5 268.5t-135 215t-205 141t-255.5 51.5q-135 0 -254.5 -51.5t-205 -141t-135.5 -215t-50 -268.5zM1071 1698l-342 -182l-18 36l338 193z" />
    <glyph glyph-name="uni0423.var.accented" unicode="&#x423;`" horiz-adv-x="1310" 
d="M1272 1434l-504 -1115q-76 -169 -146 -244t-163 -75q-90 0 -144 43l21 51q56 -39 121 -39q126 0 225 211l31 62l-674 1106h67l635 -1047l469 1047h62zM952 1698l-342 -182l-18 36l338 193z" />
    <glyph glyph-name="uni042B.var.accented" unicode="&#x42b;`" horiz-adv-x="1669" 
d="M1372 0v1434h60v-1434h-60zM537 793q-113 0 -238 -13v-723q31 0 105 -2t124 -2q234 0 358 98.5t124 288.5q0 168 -120.5 260.5t-352.5 92.5zM299 1434v-594q120 10 238 10q267 0 400.5 -108t133.5 -304q0 -217 -145.5 -329.5t-403.5 -112.5q-56 0 -150.5 2t-133.5 2v1434
h61zM1057 1698l-342 -182l-19 36l338 193z" />
    <glyph glyph-name="uni042D.var.accented" unicode="&#x42d;`" horiz-adv-x="1398" 
d="M416 702v58h803q-12 292 -191.5 462.5t-474.5 170.5q-241 0 -399 -123l-27 43q78 69 194.5 104t241.5 35q327 0 522 -197.5t195 -531.5q0 -156 -51 -292t-142.5 -235.5t-225.5 -156.5t-292 -57q-270 0 -475 149l31 49q198 -139 440 -139q190 0 338.5 87t229.5 237t86 337
h-803zM856 1698l-342 -182l-18 36l338 193z" />
    <glyph glyph-name="uni042E.var.accented" unicode="&#x42e;`" horiz-adv-x="2199" 
d="M238 0v1434h61v-674h410q10 195 99 352.5t242.5 248.5t342.5 91q197 0 355 -95.5t245.5 -263t87.5 -376.5q0 -155 -51.5 -291t-141.5 -233.5t-218.5 -154t-276.5 -56.5q-144 0 -270.5 54.5t-216.5 149.5t-142.5 228.5t-54.5 287.5h-410v-702h-61zM770 717
q0 -190 80 -344.5t223.5 -243t321.5 -88.5q182 0 324.5 88.5t220 242.5t77.5 345q0 192 -78.5 346t-221 242t-322.5 88q-178 0 -321.5 -88t-223.5 -242.5t-80 -345.5zM1378 1698l-342 -182l-18 36l338 193z" />
    <glyph glyph-name="uni042F.var.accented" unicode="&#x42f;`" horiz-adv-x="1245" 
d="M948 0v586h-362l-439 -586h-73l450 594q-137 33 -236.5 142.5t-99.5 258.5q0 196 134.5 319.5t384.5 123.5q52 0 156.5 -2t144.5 -2v-1434h-60zM573 643h375v733q-31 0 -117 2t-135 2q-112 0 -198.5 -30.5t-139 -84t-79.5 -122t-27 -148.5q0 -132 97 -232t224 -120z
M1001 1698l-342 -182l-18 36l338 193z" />
    <glyph glyph-name="uni0401.var.accented" unicode="&#x401;`" horiz-adv-x="1177" 
d="M336 1630q0 19 12 31t31 12q15 0 27 -12.5t12 -30.5q0 -20 -11.5 -32.5t-27.5 -12.5q-19 0 -31 12.5t-12 32.5zM840 1630q0 18 12.5 30.5t30.5 12.5q15 0 27 -12.5t12 -30.5q0 -20 -11.5 -32.5t-27.5 -12.5q-18 0 -30.5 12.5t-12.5 32.5zM836 1722l-310 -202l-22 18
l289 207zM238 0v1434h778v-58h-717v-618h655v-58h-655v-643h737v-57h-798z" />
    <glyph glyph-name="uni0430.var.accented" unicode="&#x430;`" horiz-adv-x="935" 
d="M186 807l-18 49q134 84 283 84q179 0 255 -92t76 -273v-575h-57v160q-123 -170 -342 -170q-129 0 -208 72t-79 192q0 134 97.5 207.5t252.5 73.5q172 0 279 -76q0 57 -1 92.5t-5 81.5t-12 74t-21.5 60.5t-34 51t-49.5 35.5t-68.5 24t-89.5 7q-74 0 -130.5 -18.5
t-127.5 -59.5zM395 45q65 0 119.5 15t94 43.5t64.5 54t52 61.5v184q-116 82 -274 82q-76 0 -140 -22.5t-108.5 -75.5t-44.5 -129q0 -99 67 -156t170 -57zM684 1419l-229 -289l-37 25l223 299z" />
    <glyph glyph-name="uni0435.var.accented" unicode="&#x435;`" horiz-adv-x="1079" 
d="M903 164l23 -43q-58 -67 -149 -103t-187 -36q-214 0 -349 131.5t-135 347.5q0 137 50 243.5t155 171t252 64.5q180 0 296 -114t116 -300q0 -27 -4 -63h-801q1 -196 116 -311t306 -115q94 0 176 35t135 92zM555 885q-173 0 -275 -103.5t-114 -269.5h749q1 171 -97 272
t-263 101zM754 1419l-230 -289l-37 25l224 299z" />
    <glyph glyph-name="uni0438.var.accented" unicode="&#x438;`" horiz-adv-x="1148" 
d="M233 0h-59v922h59v-838l685 838h57v-922h-57v838zM766 1419l-229 -289l-37 25l223 299z" />
    <glyph glyph-name="uni043E.var.accented" unicode="&#x43e;`" horiz-adv-x="1165" 
d="M106 461q0 208 134 343.5t342 135.5q210 0 343.5 -135.5t133.5 -343.5t-133.5 -343.5t-343.5 -135.5q-208 0 -342 135.5t-134 343.5zM166 461q0 -186 116.5 -305t299.5 -119t299 119t116 305t-116 305t-299 119q-182 0 -299 -119t-117 -305zM776 1419l-229 -289l-37 25
l223 299z" />
    <glyph glyph-name="uni0443.var.accented" unicode="&#x443;`" horiz-adv-x="966" 
d="M932 922l-377 -922q-67 -163 -123 -253t-105.5 -123.5t-113.5 -33.5q-67 0 -143 39l20 45q68 -30 115 -30q79 0 143 71.5t131 235.5l21 49l-465 922h67l355 -707q26 -48 71 -149q8 23 18 48.5t22.5 56.5t19.5 48l278 703h66zM723 1419l-229 -289l-37 25l223 299z" />
    <glyph glyph-name="uni044B.var.accented" unicode="&#x44b;`" horiz-adv-x="1234" 
d="M174 0v922h59v-338h166q103 0 176 -22t113 -62.5t58 -91t18 -115.5q0 -134 -87.5 -213.5t-287.5 -79.5h-215zM391 528h-158v-473h156q170 0 243 61t73 177q0 115 -74.5 175t-239.5 60zM1004 0v922h57v-922h-57zM795 1419l-230 -289l-37 25l224 299z" />
    <glyph glyph-name="uni044D.var.accented" unicode="&#x44d;`" horiz-adv-x="1005" 
d="M328 444v52h512q-10 180 -127 284.5t-295 104.5q-93 0 -175.5 -35t-136.5 -94l-26 41q58 68 150 105.5t188 37.5q213 0 347 -131.5t134 -347.5q0 -201 -130 -340t-320 -139q-238 0 -355 112l29 45q113 -102 319 -102q164 0 279 115t121 292h-514zM647 1419l-229 -289
l-37 25l223 299z" />
    <glyph glyph-name="uni044E.var.accented" unicode="&#x44e;`" horiz-adv-x="1519" 
d="M174 0v922h62v-422h262q12 194 138 317t318 123q202 0 330.5 -135.5t128.5 -343.5t-129.5 -343.5t-329.5 -135.5q-197 0 -323.5 129t-132.5 331h-262v-442h-62zM561 461q0 -186 110 -303t283 -117q175 0 285.5 117t110.5 303q0 185 -110 302.5t-286 117.5
q-173 0 -283 -117.5t-110 -302.5zM956 1419l-229 -289l-37 25l223 299z" />
    <glyph glyph-name="uni044F.var.accented" unicode="&#x44f;`" horiz-adv-x="968" 
d="M532 922h263v-922h-58v375h-272l-297 -375h-74l312 387q-97 11 -168.5 81t-71.5 175q0 125 86.5 202t279.5 77zM225 643q0 -63 38 -114t88 -75t98 -24h288v436h-215q-152 0 -224.5 -61.5t-72.5 -161.5zM780 1419l-229 -289l-37 25l223 299z" />
    <glyph glyph-name="uni0451.var.accented" unicode="&#x451;`" horiz-adv-x="1079" 
d="M272 1278q0 15 12 27t29 12q14 0 26.5 -12t12.5 -27q0 -18 -12.5 -30.5t-26.5 -12.5q-17 0 -29 12t-12 31zM737 1278q0 15 12 27t29 12q15 0 27 -12t12 -27q0 -18 -12 -30.5t-27 -12.5q-17 0 -29 12t-12 31zM694 1419l-229 -289l-33 21l225 299zM903 164l23 -43
q-58 -67 -149 -103t-187 -36q-214 0 -349 131.5t-135 347.5q0 137 50 243.5t155 171t252 64.5q180 0 296 -114t116 -300q0 -27 -4 -63h-801q1 -196 116 -311t306 -115q94 0 176 35t135 92zM555 885q-173 0 -275 -103.5t-114 -269.5h749q1 171 -97 272t-263 101z" />
    <glyph glyph-name="fi" unicode="fi" horiz-adv-x="1003" 
d="M748 0v866h-480v-866h-57v1065q0 192 90 289.5t254 97.5q160 0 254 -94l-39 -37q-95 76 -209 76q-293 0 -293 -350v-125h537v-922h-57z" />
    <glyph glyph-name="fl" unicode="fl" horiz-adv-x="1124" 
d="M733 231v1100q-92 66 -198 66q-134 0 -200.5 -83t-66.5 -261v-131h275v-56h-275v-866h-57v1071q0 381 313 381q133 0 230 -72h37v-1106q0 -119 34 -173t117 -54t141 47l21 -47q-78 -55 -178 -55q-102 0 -147.5 58t-45.5 181z" />
    <glyph glyph-name=".notdef" horiz-adv-x="497" 
 />
    <glyph glyph-name=".null" horiz-adv-x="0" 
 />
    <glyph glyph-name="nonmarkingreturn" horiz-adv-x="682" 
 />
    <glyph glyph-name="space" unicode=" " horiz-adv-x="497" 
 />
    <glyph glyph-name="exclam" unicode="!" horiz-adv-x="634" 
d="M287 356v1078h61v-1078h-61zM268 49q0 18 15 31.5t36 13.5q19 0 33.5 -14t14.5 -31q0 -20 -14.5 -35.5t-33.5 -15.5q-21 0 -36 15t-15 36z" />
    <glyph glyph-name="quotedbl" unicode="&#x22;" horiz-adv-x="796" 
d="M512 1034v400h57v-400h-57zM227 1034v400h58v-400h-58z" />
    <glyph glyph-name="numbersign" unicode="#" horiz-adv-x="1380" 
d="M662 0l163 444h-475l-170 -462l-49 18l166 444h-215v54h233l164 438h-397v53h416l174 463l45 -18l-164 -445h475l172 463l47 -16l-166 -447h219v-53h-237l-162 -438h399v-54h-419l-170 -462zM532 936l-161 -438h475l162 438h-476z" />
    <glyph glyph-name="dollar" unicode="$" 
d="M977 348q0 72 -26.5 128.5t-71.5 93.5t-103 67t-122.5 54t-129 48.5t-122.5 56t-103 71.5t-71.5 101t-26.5 138q0 145 102.5 242t282.5 104v166h57v-168q105 -4 197.5 -42.5t148.5 -100.5l-35 -43q-126 129 -344 129q-160 0 -254 -78.5t-94 -208.5q0 -71 26.5 -125.5
t71.5 -90.5t103 -64.5t122.5 -51.5t129 -46.5t122.5 -56t103 -73.5t71.5 -104t26.5 -144q0 -155 -111 -254.5t-284 -111.5v-189h-57v187q-127 3 -248.5 58.5t-173.5 143.5l39 41q62 -85 171.5 -134.5t215.5 -49.5q103 0 189 33t142 104.5t56 169.5z" />
    <glyph glyph-name="percent" unicode="%" horiz-adv-x="1693" 
d="M295 10l1079 1442l35 -27l-1077 -1443zM115 1118q0 139 94.5 229.5t236.5 90.5t237 -90.5t95 -229.5q0 -140 -95 -230.5t-237 -90.5t-236.5 90.5t-94.5 230.5zM170 1118q0 -119 83 -195.5t193 -76.5q114 0 195.5 76t81.5 196q0 118 -82.5 194.5t-194.5 76.5t-194 -76.5
t-82 -194.5zM913 319q0 139 95 229.5t237 90.5t237 -90.5t95 -229.5q0 -140 -95 -230.5t-237 -90.5t-237 90.5t-95 230.5zM969 319q0 -119 83 -195.5t193 -76.5q114 0 195.5 76t81.5 196q0 118 -82.5 194.5t-194.5 76.5t-194 -76.5t-82 -194.5z" />
    <glyph glyph-name="ampersand" unicode="&#x26;" horiz-adv-x="1497" 
d="M1270 0l-193 244q-82 -122 -200.5 -192t-268.5 -70q-186 0 -310 115t-124 292q0 69 23.5 136t58.5 119.5t87 104.5t98.5 88t103.5 74q-98 15 -162 89.5t-64 177.5q0 116 82 195t199 79q115 0 197 -79t82 -195q0 -108 -73.5 -186t-178.5 -83l452 -573q72 123 111 276
t39 310h57q0 -173 -44 -339.5t-126 -295.5l227 -287h-73zM608 41q272 0 432 250l-460 586q-71 -50 -125 -97t-107 -107.5t-81.5 -130.5t-28.5 -143q0 -106 52.5 -189t136.5 -126t181 -43zM375 1178q0 -93 66 -159.5t159 -66.5q92 0 157.5 66.5t65.5 159.5q0 92 -65.5 157.5
t-157.5 65.5q-94 0 -159.5 -65.5t-65.5 -157.5z" />
    <glyph glyph-name="quotesingle" unicode="'" horiz-adv-x="512" 
d="M227 1034v400h58v-400h-58z" />
    <glyph glyph-name="parenleft" unicode="(" horiz-adv-x="534" 
d="M535 -389l-39 -33q-414 357 -414 883q0 242 96.5 461t319.5 421l37 -32q-212 -196 -304 -404t-92 -446q0 -237 97 -456.5t299 -393.5z" />
    <glyph glyph-name="parenright" unicode=")" horiz-adv-x="534" 
d="M39 -422l-39 33q202 174 298.5 393t96.5 457t-91.5 446t-303.5 404l37 32q223 -202 319.5 -421t96.5 -461q0 -526 -414 -883z" />
    <glyph glyph-name="asterisk" unicode="*" horiz-adv-x="919" 
d="M416 1401q0 21 14 35t35 14q19 0 34 -14t15 -35q0 -19 -15 -33t-34 -14q-20 0 -34.5 14t-14.5 33zM414 913q0 20 14.5 35t34.5 15q19 0 34 -15t15 -35q0 -19 -15 -33t-34 -14q-20 0 -34.5 14t-14.5 33zM631 1268q0 20 14 34.5t33 14.5q21 0 35 -14t14 -35
q0 -20 -13.5 -33.5t-35.5 -13.5q-19 0 -33 13.5t-14 33.5zM631 1049q0 19 14 33t33 14q21 0 35 -14t14 -33q0 -22 -13.5 -36t-35.5 -14q-19 0 -33 14.5t-14 35.5zM193 1049q0 19 14 33t35 14q19 0 33 -14t14 -33q0 -21 -14 -35.5t-33 -14.5q-22 0 -35.5 14t-13.5 36z
M193 1268q0 21 14 35t35 14q19 0 33 -14.5t14 -34.5t-14 -33.5t-33 -13.5q-22 0 -35.5 13.5t-13.5 33.5z" />
    <glyph glyph-name="plus" unicode="+" 
d="M150 711v53h421v422h54v-422h426v-53h-426v-426h-54v426h-421z" />
    <glyph glyph-name="comma" unicode="," horiz-adv-x="370" 
d="M133 43q0 20 15 33.5t40 13.5q40 0 70.5 -41.5t30.5 -111.5q0 -91 -51.5 -154.5t-126.5 -83.5l-15 31q52 15 95 63.5t47 116.5q3 88 -37 110q-3 -20 -29 -20q-15 0 -27 13t-12 30z" />
    <glyph glyph-name="hyphen" unicode="-" horiz-adv-x="833" 
d="M190 526v56h453v-56h-453z" />
    <glyph glyph-name="period" unicode="." horiz-adv-x="331" 
d="M117 49q0 18 15 31.5t36 13.5q19 0 33 -14t14 -31q0 -20 -14 -35.5t-33 -15.5q-21 0 -36 15t-15 36z" />
    <glyph glyph-name="slash" unicode="/" horiz-adv-x="616" 
d="M-61 -408l692 1860l47 -18l-690 -1860z" />
    <glyph glyph-name="zero" unicode="0" horiz-adv-x="1185" 
d="M150 717q0 162 25.5 292.5t77 230.5t138 155t201.5 55q93 0 167.5 -36t125.5 -100.5t84.5 -157t49 -201.5t15.5 -238t-15 -238t-48 -201.5t-83.5 -157t-124.5 -100.5t-167 -36q-115 0 -202 55t-139.5 155t-78.5 231t-26 292zM211 717q0 -152 22 -273t67 -213.5t120 -142
t176 -49.5q379 0 379 678q0 154 -21 274.5t-65 212.5t-119 141.5t-178 49.5q-82 0 -146.5 -33t-108 -91.5t-72.5 -144.5t-41.5 -186.5t-12.5 -222.5z" />
    <glyph glyph-name="one" unicode="1" horiz-adv-x="749" 
d="M109 1196l311 252h39v-1448h-60v1360l-256 -209z" />
    <glyph glyph-name="two" unicode="2" horiz-adv-x="1087" 
d="M115 0v49q68 67 114 113.5t127 132.5t137 154.5t123 160.5t108.5 168.5t70 161.5t28.5 156q0 56 -19 108t-56 94.5t-97.5 68.5t-136.5 26q-52 0 -103.5 -16.5t-99 -49t-81.5 -90t-44 -131.5l-51 16q10 80 47.5 144t91.5 103.5t116 60t124 20.5q93 0 167 -31t117 -81.5
t65 -109t22 -120.5q0 -82 -33.5 -179.5t-81.5 -183.5t-121 -184.5t-132.5 -168.5t-136 -149t-112 -113.5t-78.5 -74.5h762v-55h-837z" />
    <glyph glyph-name="three" unicode="3" horiz-adv-x="1093" 
d="M514 -18q-136 0 -243.5 61t-161.5 190l38 37q35 -81 98.5 -134t131.5 -74t143 -21q162 0 260.5 98t98.5 248q0 139 -95.5 228.5t-232.5 89.5h-131v57h117q109 0 197.5 96.5t88.5 231.5q0 147 -84 225t-225 78q-240 0 -330 -213l-37 30q38 113 137 177.5t232 64.5
q172 0 269.5 -95.5t97.5 -264.5q0 -112 -61.5 -210t-170.5 -139v-6q130 -18 208.5 -119.5t78.5 -230.5q0 -183 -119 -294t-305 -111z" />
    <glyph glyph-name="four" unicode="4" horiz-adv-x="1081" 
d="M725 0v395h-670v35l656 1004h67l-641 -979h588v467h57v-467h222v-60h-222v-395h-57z" />
    <glyph glyph-name="five" unicode="5" horiz-adv-x="1064" 
d="M258 774l84 660h600v-58h-551l-69 -536q82 24 161 24q202 0 328.5 -118t126.5 -310q0 -102 -35 -189t-93.5 -144t-135 -89t-160.5 -32q-125 0 -233.5 58.5t-171.5 176.5l38 39q57 -106 158 -160.5t209 -54.5q155 0 260 112t105 281q0 162 -115 269.5t-297 107.5
q-100 0 -209 -37z" />
    <glyph glyph-name="six" unicode="6" horiz-adv-x="1120" 
d="M117 508q0 152 40.5 292.5t108.5 248t156.5 192.5t185 137.5t193.5 73.5l26 -45q-88 -19 -172.5 -62t-164 -113.5t-142.5 -160.5t-107 -211t-59 -258q44 117 149.5 194.5t252.5 77.5q192 0 306 -122.5t114 -319.5q0 -188 -123.5 -319t-288.5 -131q-116 0 -208 42.5
t-149.5 116t-87.5 167.5t-30 200zM178 510q0 -73 16 -141t49 -128t81 -104t116.5 -70t149.5 -26q145 0 249.5 114t104.5 273q0 169 -98 280t-277 111q-81 0 -151.5 -28.5t-118 -75t-78.5 -99t-43 -106.5z" />
    <glyph glyph-name="seven" unicode="7" horiz-adv-x="954" 
d="M76 1376v58h801v-31l-562 -1403h-65l551 1376h-725z" />
    <glyph glyph-name="eight" unicode="8" horiz-adv-x="1204" 
d="M565 766h74q70 0 137.5 39.5t112.5 112.5t45 159q0 97 -49.5 171t-125 109.5t-161.5 35.5q-85 0 -159 -36t-122.5 -110t-48.5 -170q0 -129 93.5 -220t203.5 -91zM635 709h-60q-147 0 -252.5 -96t-105.5 -234q0 -146 113.5 -242t269.5 -96q161 0 274 93t113 245
q0 150 -102.5 240t-249.5 90zM602 -18q-116 0 -216.5 45.5t-165 136t-64.5 207.5q0 129 84 231t225 131v6q-110 29 -183 129.5t-73 210.5q0 165 113 269t278 104t280 -104t115 -269q0 -108 -70 -203.5t-188 -134.5v-6q136 -15 223 -116t87 -244q0 -119 -64.5 -210.5
t-164.5 -137t-216 -45.5z" />
    <glyph glyph-name="nine" unicode="9" horiz-adv-x="1118" 
d="M1001 924q0 -195 -52.5 -362t-145 -286.5t-219 -195.5t-273.5 -98l-22 47q272 47 448 257t199 541q-43 -113 -147 -183.5t-252 -70.5q-126 0 -224 60.5t-149 159t-51 217.5q0 93 37.5 176.5t98 141t138 91t156.5 33.5q116 0 205.5 -42t143.5 -116t81.5 -167.5
t27.5 -202.5zM940 922q0 92 -23 174.5t-68.5 150t-123 107t-178.5 39.5q-96 0 -182 -49.5t-139.5 -138t-53.5 -191.5q0 -101 41.5 -187t129 -142t206.5 -56q82 0 152 26t117.5 69.5t78.5 94t43 103.5z" />
    <glyph glyph-name="colon" unicode=":" horiz-adv-x="663" 
d="M283 893q0 18 15 31.5t36 13.5q19 0 33 -14t14 -31q0 -20 -14 -35.5t-33 -15.5q-21 0 -36 15t-15 36zM283 49q0 18 15 31.5t36 13.5q19 0 33 -14t14 -31q0 -20 -14 -35.5t-33 -15.5q-21 0 -36 15t-15 36z" />
    <glyph glyph-name="semicolon" unicode=";" horiz-adv-x="667" 
d="M283 893q0 18 15 31.5t36 13.5q19 0 33 -14t14 -31q0 -20 -14 -35.5t-33 -15.5q-21 0 -36 15t-15 36zM281 43q0 20 15 33.5t40 13.5q40 0 70 -41.5t30 -111.5q0 -91 -51.5 -154.5t-126.5 -83.5l-14 31q52 15 94.5 63.5t46.5 116.5q3 88 -37 110q-3 -20 -29 -20
q-15 0 -26.5 13t-11.5 30z" />
    <glyph glyph-name="less" unicode="&#x3c;" 
d="M969 199l-826 530v25l826 524v-64l-744 -473l744 -477v-65z" />
    <glyph glyph-name="equal" unicode="=" 
d="M150 881v53h901v-53h-901zM150 541v53h901v-53h-901z" />
    <glyph glyph-name="greater" unicode="&#x3e;" 
d="M1057 729l-826 -530v65l744 477l-744 473v64l826 -524v-25z" />
    <glyph glyph-name="question" unicode="?" horiz-adv-x="931" 
d="M795 1096q0 129 -94 213t-242 84q-101 0 -189 -47t-151 -134l-37 35q57 91 160.5 148t222.5 57q92 0 166.5 -28t122.5 -75.5t74 -110t26 -132.5q0 -77 -23.5 -139.5t-61.5 -104.5t-83.5 -77.5t-91 -68.5t-83.5 -68t-61.5 -84.5t-23.5 -110.5q0 -41 8 -80l-53 -4
q-10 44 -10 94q0 63 23.5 114.5t61 88t82.5 69.5t90 67.5t82.5 73t61 95t23.5 125.5zM350 49q0 18 15 31.5t36 13.5q19 0 33.5 -14t14.5 -31q0 -20 -14.5 -35.5t-33.5 -15.5q-21 0 -36 15t-15 36z" />
    <glyph glyph-name="at" unicode="@" horiz-adv-x="2091" 
d="M1380 0v137q-57 -65 -149 -110t-187 -45q-207 0 -332.5 130.5t-125.5 348.5q0 202 144 340.5t357 138.5q195 0 351 -98v-787h43q93 0 170 41t126 109.5t76 156.5t27 183q0 214 -105.5 385.5t-291.5 267.5t-418 96q-182 0 -341.5 -64.5t-271.5 -175.5t-176.5 -265
t-64.5 -328q0 -172 64.5 -325.5t176.5 -265.5t271.5 -177.5t341.5 -65.5q112 0 221 25l10 -53q-125 -27 -231 -27q-195 0 -365 69.5t-289 188.5t-187 283t-68 348q0 183 68 346.5t187 283t289 189.5t365 70q185 0 346.5 -59.5t276.5 -164.5t181 -255t66 -324
q0 -82 -18 -160.5t-56 -148.5t-92 -123t-131 -84t-168 -31h-90zM1053 37q97 0 190.5 52t136.5 114v602q-130 80 -295 80q-184 0 -312 -123.5t-128 -302.5q0 -194 111.5 -308t296.5 -114z" />
    <glyph glyph-name="A" unicode="A" horiz-adv-x="1413" 
d="M53 0l631 1448h45l631 -1448h-66l-231 532h-717l-229 -532h-64zM705 1358l-334 -768h667z" />
    <glyph glyph-name="B" unicode="B" horiz-adv-x="1263" 
d="M238 0v1434q35 0 167 2t195 2q447 0 447 -353q0 -142 -88.5 -230t-219.5 -110v-4q176 -17 271.5 -106.5t95.5 -241.5q0 -103 -38 -181t-107 -124.5t-159 -69t-200 -22.5q-63 0 -194.5 2t-169.5 2zM606 709h-307v-652q29 0 139.5 -2t163.5 -2q210 0 326 86.5t116 257.5
q0 149 -113.5 230.5t-324.5 81.5zM596 1380q-171 0 -297 -4v-612h319q156 0 261.5 85.5t105.5 227.5q0 151 -94.5 227t-294.5 76z" />
    <glyph glyph-name="C" unicode="C" horiz-adv-x="1345" 
d="M1241 184l27 -47q-74 -72 -194 -113.5t-247 -41.5q-156 0 -288 52.5t-225 147.5t-145 232.5t-52 302.5q0 206 85 372.5t244 264.5t363 98q269 0 432 -133l-31 -43q-148 117 -399 117q-186 0 -330.5 -89t-222.5 -242.5t-78 -344.5q0 -304 181 -490t470 -186
q121 0 226.5 38t183.5 105z" />
    <glyph glyph-name="D" unicode="D" horiz-adv-x="1505" 
d="M238 0v1434h22q52 0 153 3t171 3q167 0 303 -37.5t228.5 -102t155 -154.5t90.5 -191.5t28 -215.5q0 -156 -52.5 -290t-152.5 -235.5t-258.5 -159.5t-358.5 -58q-57 0 -158.5 2t-156.5 2h-14zM580 1382q-66 0 -151.5 -3t-129.5 -3v-1319q37 0 78 -0.5t73.5 -1t59 -1
t42.5 -1t17 -0.5q148 0 272 35t212.5 97.5t150 148.5t91.5 188t30 217q0 134 -43 247.5t-130.5 203.5t-233.5 141t-338 51z" />
    <glyph glyph-name="E" unicode="E" horiz-adv-x="1177" 
d="M238 0v1434h778v-58h-717v-618h655v-58h-655v-643h737v-57h-798z" />
    <glyph glyph-name="F" unicode="F" horiz-adv-x="1114" 
d="M238 0v1434h794v-58h-733v-659h672v-58h-672v-659h-61z" />
    <glyph glyph-name="G" unicode="G" horiz-adv-x="1488" 
d="M846 606v58h506v-486q-91 -91 -243.5 -143.5t-293.5 -52.5q-311 0 -504.5 201.5t-193.5 533.5q0 153 50 288.5t139 234t218.5 155.5t280.5 57q269 0 438 -133l-31 -47q-143 121 -399 121q-187 0 -332 -89t-223 -242.5t-78 -344.5q0 -305 177 -490.5t462 -185.5
q131 0 264 46t209 122v397h-446z" />
    <glyph glyph-name="H" unicode="H" horiz-adv-x="1581" 
d="M1284 0v702h-985v-702h-61v1434h61v-674h985v674h59v-1434h-59z" />
    <glyph glyph-name="I" unicode="I" horiz-adv-x="647" 
d="M293 0v1434h61v-1434h-61z" />
    <glyph glyph-name="J" unicode="J" horiz-adv-x="716" 
d="M477 1434v-1127q0 -77 -12.5 -133.5t-41.5 -101.5t-81.5 -67.5t-128.5 -22.5q-53 0 -100.5 17t-77.5 42l24 47q62 -47 148 -47q64 0 107.5 20.5t65 60t30 84.5t8.5 107v1121h59z" />
    <glyph glyph-name="K" unicode="K" horiz-adv-x="1277" 
d="M1182 1434l-705 -682l729 -752h-88l-725 748l705 686h84zM238 0v1434h61v-1434h-61z" />
    <glyph glyph-name="L" unicode="L" horiz-adv-x="1134" 
d="M238 0v1434h61v-1377h797v-57h-858z" />
    <glyph glyph-name="M" unicode="M" horiz-adv-x="1796" 
d="M238 0v1434h63l608 -830l590 830h60v-1434h-60v1341l-588 -827h-10l-602 821v-1335h-61z" />
    <glyph glyph-name="N" unicode="N" horiz-adv-x="1636" 
d="M1399 0h-49l-1055 1323v-1323h-57v1434h49l1052 -1328v1328h60v-1434z" />
    <glyph glyph-name="O" unicode="O" horiz-adv-x="1652" 
d="M117 717q0 205 92.5 373.5t255 265t360.5 96.5q148 0 279.5 -56t226 -153t149 -233.5t54.5 -292.5q0 -206 -93 -374.5t-255.5 -264.5t-360.5 -96q-197 0 -359 95t-255.5 264t-93.5 376zM180 717q0 -142 50 -267.5t135.5 -215t205 -141.5t254.5 -52q183 0 330.5 88
t231 243t83.5 345q0 143 -49.5 268.5t-135 215t-205 141t-255.5 51.5q-135 0 -254.5 -51.5t-205 -141t-135.5 -215t-50 -268.5z" />
    <glyph glyph-name="P" unicode="P" horiz-adv-x="1177" 
d="M299 0h-61v1434q41 0 166 2t161 2q113 0 201 -24.5t142 -64.5t89 -96t48.5 -114t13.5 -123q0 -66 -17.5 -127t-56 -116.5t-96 -96t-143.5 -64.5t-191 -24q-109 0 -256 10v-598zM571 1380q-136 0 -272 -4v-721q147 -10 252 -10q218 0 332 103.5t114 269.5q0 164 -104 263
t-322 99z" />
    <glyph glyph-name="Q" unicode="Q" horiz-adv-x="1652" 
d="M117 717q0 205 92.5 373.5t255 265t360.5 96.5q148 0 279.5 -56t226 -153t149 -233.5t54.5 -292.5q0 -169 -64 -314.5t-178 -246.5l131 -156h-77l-99 119q-186 -137 -422 -137q-197 0 -359 95t-255.5 264t-93.5 376zM180 717q0 -142 50 -267.5t135.5 -215t205 -141.5
t254.5 -52q221 0 383 125l-125 153l39 37l131 -155q103 94 160 227t57 289q0 143 -49.5 268.5t-135 215t-205 141t-255.5 51.5q-135 0 -254.5 -51.5t-205 -141t-135.5 -215t-50 -268.5z" />
    <glyph glyph-name="R" unicode="R" horiz-adv-x="1271" 
d="M299 0h-61v1434q45 0 169 2t140 2q114 0 201.5 -22.5t142 -59t89.5 -89.5t48.5 -109t13.5 -122q0 -145 -100 -255.5t-262 -141.5l520 -639h-76l-510 627h-315v-627zM543 1380q-108 0 -244 -4v-692h279q99 0 190.5 44t151 126t59.5 182q0 159 -103 251.5t-333 92.5z" />
    <glyph glyph-name="S" unicode="S" horiz-adv-x="1112" 
d="M932 348q0 72 -26.5 128.5t-71.5 93.5t-103 67t-122.5 54t-129 48.5t-122.5 56t-103 71.5t-71.5 101t-26.5 138q0 151 109 248.5t300 97.5q115 0 216.5 -39.5t160.5 -105.5l-35 -43q-126 129 -344 129q-157 0 -250.5 -78.5t-93.5 -208.5q0 -71 26.5 -125.5t71.5 -90.5
t103 -64.5t122.5 -51.5t129 -46.5t122.5 -56t103 -73.5t71.5 -104t26.5 -144q0 -165 -128 -266.5t-320 -101.5q-127 0 -251.5 56t-178.5 146l39 41q62 -85 171.5 -134.5t215.5 -49.5q103 0 189.5 33t143 104.5t56.5 169.5z" />
    <glyph glyph-name="T" unicode="T" horiz-adv-x="1210" 
d="M20 1376v58h1170v-58h-555v-1376h-60v1376h-555z" />
    <glyph glyph-name="U" unicode="U" horiz-adv-x="1538" 
d="M1321 1434v-832q0 -159 -42.5 -280t-117.5 -193t-169 -107.5t-204 -35.5q-123 0 -226 40t-180.5 117t-121 198t-43.5 275v818h62v-809q0 -277 140.5 -429.5t368.5 -152.5q101 0 185.5 34t149 102t101 179.5t36.5 257.5v818h61z" />
    <glyph glyph-name="V" unicode="V" horiz-adv-x="1343" 
d="M1311 1434l-613 -1448h-39l-626 1448h65l584 -1352l565 1352h64z" />
    <glyph glyph-name="W" unicode="W" horiz-adv-x="1941" 
d="M1905 1434l-420 -1434h-47l-463 1325l-451 -1325h-47l-442 1434h67l404 -1313l446 1313h49l459 -1315l385 1315h60z" />
    <glyph glyph-name="X" unicode="X" horiz-adv-x="1345" 
d="M1255 1434l-542 -705l561 -729h-74l-528 682l-527 -682h-73l563 729l-541 705h74l506 -658l508 658h73z" />
    <glyph glyph-name="Y" unicode="Y" horiz-adv-x="1161" 
d="M1126 1434l-518 -797v-637h-59v637l-514 797h71l474 -740l477 740h69z" />
    <glyph glyph-name="Z" unicode="Z" horiz-adv-x="1277" 
d="M123 1376v58h1053v-33l-1006 -1344h1026v-57h-1114v33l1003 1343h-962z" />
    <glyph glyph-name="bracketleft" unicode="[" horiz-adv-x="565" 
d="M123 -410v1741h436v-55h-379v-1630h379v-56h-436z" />
    <glyph glyph-name="backslash" unicode="\" horiz-adv-x="616" 
d="M-14 1452l692 -1860l-49 -18l-690 1860z" />
    <glyph glyph-name="bracketright" unicode="]" horiz-adv-x="565" 
d="M442 1331v-1741h-436v56h377v1630h-377v55h436z" />
    <glyph glyph-name="asciicircum" unicode="^" horiz-adv-x="962" 
d="M113 922l352 528h35l350 -528h-66l-301 462l-307 -462h-63z" />
    <glyph glyph-name="underscore" unicode="_" horiz-adv-x="544" 
d="M0 -410v58h545v-58h-545z" />
    <glyph glyph-name="grave" unicode="`" horiz-adv-x="512" 
d="M352 1130l-229 289l43 35l223 -299z" />
    <glyph glyph-name="a" unicode="a" horiz-adv-x="935" 
d="M186 807l-18 49q134 84 283 84q179 0 255 -92t76 -273v-575h-57v160q-123 -170 -342 -170q-129 0 -208 72t-79 192q0 134 97.5 207.5t252.5 73.5q172 0 279 -76q0 57 -1 92.5t-5 81.5t-12 74t-21.5 60.5t-34 51t-49.5 35.5t-68.5 24t-89.5 7q-74 0 -130.5 -18.5
t-127.5 -59.5zM395 45q65 0 119.5 15t94 43.5t64.5 54t52 61.5v184q-116 82 -274 82q-76 0 -140 -22.5t-108.5 -75.5t-44.5 -129q0 -99 67 -156t170 -57z" />
    <glyph glyph-name="b" unicode="b" horiz-adv-x="1126" 
d="M174 94v1340h59v-648q57 66 154 110t195 44q204 0 322 -128.5t118 -336.5q0 -225 -137.5 -359t-356.5 -134q-215 0 -354 112zM571 885q-102 0 -198 -50.5t-140 -111.5v-592q130 -94 299 -94q186 0 307.5 117.5t121.5 312.5q0 191 -104.5 304.5t-285.5 113.5z" />
    <glyph glyph-name="c" unicode="c" horiz-adv-x="1005" 
d="M899 170l29 -39q-57 -72 -148.5 -110.5t-191.5 -38.5q-213 0 -347.5 131.5t-134.5 347.5q0 201 130.5 340t320.5 139q231 0 352 -113l-28 -47q-119 105 -314 105q-166 0 -283.5 -122t-117.5 -302q0 -192 120 -308t306 -116q91 0 173 36.5t134 96.5z" />
    <glyph glyph-name="d" unicode="d" horiz-adv-x="1132" 
d="M899 0v145q-59 -69 -149.5 -115t-186.5 -46q-207 0 -332 129.5t-125 345.5q0 211 142 346t356 135q172 0 295 -92v586h57v-1434h-57zM571 39q94 0 187 51t141 113v588q-135 94 -295 94q-187 0 -312.5 -118.5t-125.5 -305.5q0 -194 111 -308t294 -114z" />
    <glyph glyph-name="e" unicode="e" horiz-adv-x="1079" 
d="M903 164l23 -43q-58 -67 -149 -103t-187 -36q-214 0 -349 131.5t-135 347.5q0 137 50 243.5t155 171t252 64.5q180 0 296 -114t116 -300q0 -27 -4 -63h-801q1 -196 116 -311t306 -115q94 0 176 35t135 92zM555 885q-173 0 -275 -103.5t-114 -269.5h749q1 171 -97 272
t-263 101z" />
    <glyph glyph-name="f" unicode="f" horiz-adv-x="692" 
d="M211 0v1071q0 381 313 381q142 0 230 -76l-23 -45q-91 66 -201 66q-131 0 -196.5 -83.5t-65.5 -260.5v-131h391v-56h-391v-866h-57z" />
    <glyph glyph-name="g" unicode="g" horiz-adv-x="997" 
d="M35 -141q0 105 76 175t211 97q-35 38 -35 94q0 62 39 101q-90 39 -141.5 115t-51.5 175q0 140 98.5 232t255.5 92q139 0 232 -74l258 72v-55l-211 -58q76 -85 76 -209q0 -139 -99 -230t-256 -91q-67 0 -116 14q-29 -33 -29 -84q0 -52 37 -86q70 8 110 8q206 0 330.5 -75
t124.5 -213q0 -136 -124.5 -210.5t-330.5 -74.5q-207 0 -330.5 74t-123.5 211zM96 -141q0 -107 108 -168.5t285 -61.5q180 0 287 60.5t107 169.5t-107.5 171t-286.5 62q-177 0 -285 -62t-108 -171zM195 616q0 -116 81 -191t211 -75t211.5 75t81.5 191t-82.5 192.5
t-210.5 76.5t-210 -76.5t-82 -192.5z" />
    <glyph glyph-name="h" unicode="h" horiz-adv-x="1132" 
d="M174 0v1434h59v-652q58 67 157.5 111.5t197.5 44.5q197 0 293 -101.5t96 -316.5v-520h-57v508q0 191 -84 283t-258 92q-102 0 -200 -47.5t-145 -110.5v-725h-59z" />
    <glyph glyph-name="i" unicode="i" horiz-adv-x="522" 
d="M231 0v922h58v-922h-58zM215 1288q0 19 14 32t33 13q17 0 30 -13t13 -32q0 -20 -12.5 -33.5t-30.5 -13.5q-19 0 -33 13.5t-14 33.5z" />
    <glyph glyph-name="j" unicode="j" horiz-adv-x="526" 
d="M293 922v-990q0 -358 -289 -358q-101 0 -174 53l20 47q65 -45 146 -45q126 0 183 77t57 228v988h57zM217 1288q0 19 14 32t33 13q17 0 30 -13t13 -32q0 -20 -12.5 -33.5t-30.5 -13.5q-19 0 -33 13.5t-14 33.5z" />
    <glyph glyph-name="k" unicode="k" horiz-adv-x="935" 
d="M848 922l-461 -437l500 -485h-82l-492 481l457 441h78zM174 0v1434h59v-1434h-59z" />
    <glyph glyph-name="l" unicode="l" horiz-adv-x="565" 
d="M174 231v1203h59v-1160q0 -119 33.5 -173t116.5 -54q81 0 143 47l19 -47q-74 -55 -178 -55q-100 0 -146.5 58.5t-46.5 180.5z" />
    <glyph glyph-name="m" unicode="m" horiz-adv-x="1652" 
d="M1497 606v-606h-57v590q0 151 -66 222t-196 71q-104 0 -187 -47.5t-131 -124.5q4 -16 4 -64v-647h-57v647q0 106 -69 171t-193 65q-99 0 -183.5 -48t-128.5 -114v-721h-59v922h59v-140q51 69 142 112.5t186 43.5q110 0 187.5 -47t103.5 -131q49 81 144 129.5t198 48.5
q143 0 223 -76.5t80 -255.5z" />
    <glyph glyph-name="n" unicode="n" horiz-adv-x="1132" 
d="M174 0v922h59v-140q57 66 156.5 111t198.5 45q197 0 293 -101.5t96 -316.5v-520h-57v508q0 191 -84 283t-258 92q-102 0 -199 -47.5t-146 -110.5v-725h-59z" />
    <glyph glyph-name="o" unicode="o" horiz-adv-x="1165" 
d="M106 461q0 208 134 343.5t342 135.5q210 0 343.5 -135.5t133.5 -343.5t-133.5 -343.5t-343.5 -135.5q-208 0 -342 135.5t-134 343.5zM166 461q0 -186 116.5 -305t299.5 -119t299 119t116 305t-116 305t-299 119q-182 0 -299 -119t-117 -305z" />
    <glyph glyph-name="p" unicode="p" horiz-adv-x="1130" 
d="M174 -410v1332h59v-136q56 67 155 110.5t200 43.5q202 0 320 -129t118 -336q0 -140 -57.5 -252t-165 -176.5t-246.5 -64.5q-201 0 -324 92v-484h-59zM575 885q-103 0 -199 -46.5t-143 -109.5v-594q137 -98 322 -98q182 0 296 120.5t114 311.5q0 189 -103.5 302.5
t-286.5 113.5z" />
    <glyph glyph-name="q" unicode="q" horiz-adv-x="1132" 
d="M901 -410v537q-57 -63 -148 -104t-184 -41q-210 0 -336.5 130.5t-126.5 348.5q0 202 144.5 340.5t357.5 138.5q194 0 350 -98v-1252h-57zM575 37q97 0 190.5 48.5t135.5 107.5v612q-130 80 -295 80q-184 0 -312 -123.5t-128 -302.5q0 -192 111.5 -307t297.5 -115z" />
    <glyph glyph-name="r" unicode="r" horiz-adv-x="655" 
d="M174 0v922h59v-134q97 150 261 150q96 0 143 -35l-19 -55q-35 21 -61 28t-72 7q-47 0 -88 -14t-71.5 -39.5t-51.5 -50.5t-41 -58v-721h-59z" />
    <glyph glyph-name="s" unicode="s" horiz-adv-x="837" 
d="M662 233q0 48 -22.5 84t-59 56.5t-83.5 39.5t-95.5 32.5t-95.5 35.5t-83.5 49t-59 73t-22.5 106q0 102 76.5 166.5t204.5 64.5q81 0 152.5 -27.5t111.5 -70.5l-29 -43q-85 88 -237 88q-98 0 -158.5 -51.5t-60.5 -124.5q0 -51 22.5 -89.5t59 -60.5t83 -41.5t95.5 -33
t95.5 -34.5t83 -46t59 -68t22.5 -100q0 -124 -88 -190t-221 -66q-86 0 -175.5 38.5t-121.5 88.5l37 36q35 -49 112 -79.5t150 -30.5q102 0 175 51.5t73 146.5z" />
    <glyph glyph-name="t" unicode="t" horiz-adv-x="704" 
d="M154 350v828h59v-256h397v-56h-397v-497q0 -163 57 -243.5t183 -80.5q84 0 149 49l25 -47q-81 -57 -185 -57q-151 0 -219.5 89.5t-68.5 270.5z" />
    <glyph glyph-name="u" unicode="u" horiz-adv-x="1120" 
d="M946 922v-922h-57v160q-59 -74 -161.5 -126t-209.5 -52q-183 0 -273.5 101.5t-90.5 313.5v525h59v-510q0 -189 78.5 -282t245.5 -93q104 0 203 56.5t149 125.5v703h57z" />
    <glyph glyph-name="v" unicode="v" horiz-adv-x="960" 
d="M926 922l-422 -936h-35l-436 936h67l301 -652q48 -105 88 -198q45 113 89 207l286 643h62z" />
    <glyph glyph-name="w" unicode="w" horiz-adv-x="1400" 
d="M1364 922l-301 -936h-43l-277 729q-33 93 -41 119q-8 -21 -22.5 -63t-22.5 -64l-270 -721h-39l-313 936h63l232 -701q3 -8 43 -137q10 25 27 71.5t24 65.5l258 701h43l262 -697l53 -143q9 34 47 154l218 686h59z" />
    <glyph glyph-name="x" unicode="x" horiz-adv-x="993" 
d="M899 922l-362 -447l383 -475h-72l-352 434l-353 -434h-69l383 473l-363 449h72l330 -410l333 410h70z" />
    <glyph glyph-name="y" unicode="y" horiz-adv-x="966" 
d="M932 922l-377 -922q-67 -163 -123 -253t-105.5 -123.5t-113.5 -33.5q-67 0 -143 39l20 45q68 -30 115 -30q79 0 143 71.5t131 235.5l21 49l-465 922h67l355 -707q26 -48 71 -149q8 23 18 48.5t22.5 56.5t19.5 48l278 703h66z" />
    <glyph glyph-name="z" unicode="z" horiz-adv-x="978" 
d="M131 866v56h748v-33l-693 -834h682v-55h-768v33l688 833h-657z" />
    <glyph glyph-name="braceleft" unicode="{" horiz-adv-x="602" 
d="M225 -164v397q0 58 -16.5 99.5t-45 63t-58.5 30.5t-64 8v53q31 0 60.5 10.5t58.5 34t47 70t18 111.5v366q0 124 51.5 188t172.5 64h112v-55h-102q-94 0 -135 -50.5t-41 -160.5v-369q0 -99 -42 -161.5t-112 -71.5q70 -8 112 -65t42 -169v-376q0 -207 188 -207h90v-56h-106
q-115 0 -172.5 60t-57.5 186z" />
    <glyph glyph-name="bar" unicode="|" horiz-adv-x="645" 
d="M293 0v1434h59v-1434h-59z" />
    <glyph glyph-name="braceright" unicode="}" horiz-adv-x="602" 
d="M377 233v-397q0 -126 -57.5 -186t-172.5 -60h-106v56h90q188 0 188 207v376q0 112 42 169t112 65q-70 9 -112 71.5t-42 161.5v369q0 110 -41 160.5t-135 50.5h-102v55h113q122 0 172.5 -64t50.5 -188v-366q0 -65 18 -111.5t47 -70t58.5 -34t60.5 -10.5v-53q-34 1 -64 -8
t-58.5 -30.5t-45 -63t-16.5 -99.5z" />
    <glyph glyph-name="asciitilde" unicode="~" 
d="M162 686l-33 39q123 117 248 117q56 0 122 -24t116.5 -52t115 -52t117.5 -24q97 0 194 94l29 -41q-112 -106 -225 -106q-55 0 -120.5 24t-116.5 53t-116 53t-118 24q-105 0 -213 -105z" />
    <glyph glyph-name="uni00A0" unicode="&#xa0;" horiz-adv-x="497" 
 />
    <glyph glyph-name="exclamdown" unicode="&#xa1;" horiz-adv-x="634" 
d="M350 582v-1078h-61v1078h61zM369 889q0 -18 -15.5 -31.5t-36.5 -13.5q-19 0 -33 14t-14 31q0 20 14 35.5t33 15.5q21 0 36.5 -15t15.5 -36z" />
    <glyph glyph-name="cent" unicode="&#xa2;" 
d="M985 170l29 -39q-55 -70 -142.5 -108t-185.5 -41v-228h-57v230q-196 14 -316 143t-120 334q0 197 125 335t311 144v223h57v-225q200 -10 309 -111l-28 -47q-119 105 -314 105q-166 0 -283.5 -122t-117.5 -302q0 -192 120 -308t306 -116q91 0 173 36.5t134 96.5z" />
    <glyph glyph-name="sterling" unicode="&#xa3;" 
d="M174 594v49h160q-11 32 -45 107t-52 144t-18 159q0 75 28 146t79 127t130.5 90t174.5 34q115 0 215.5 -39.5t159.5 -105.5l-33 -43q-131 131 -346 131q-102 0 -182.5 -50t-122 -127.5t-41.5 -164.5q0 -88 18.5 -156t52 -140t45.5 -112h371v-49h-358q12 -52 12 -117
q0 -182 -105 -327q30 6 62 6q82 0 235.5 -53.5t229.5 -53.5q123 0 229 101l31 -44q-117 -114 -264 -114q-79 0 -233.5 53t-233.5 53q-127 0 -242 -112l-31 45q69 67 148 100q114 134 114 340q0 58 -14 123h-174z" />
    <glyph glyph-name="currency" unicode="&#xa4;" 
d="M147 715q0 176 109 307l-195 197l37 36l195 -194q122 119 309 119q184 0 309 -119l207 207l37 -37l-207 -209q109 -131 109 -307t-109 -307l197 -201l-37 -37l-197 199q-122 -119 -309 -119q-186 0 -309 117l-211 -209l-37 37l211 213q-109 131 -109 307zM203 715
q0 -82 27.5 -157t77.5 -132t126.5 -91t167.5 -34t167.5 34t126.5 91t77.5 132t27.5 157q0 171 -109 291t-290 120q-120 0 -212.5 -57.5t-139.5 -150t-47 -203.5z" />
    <glyph glyph-name="yen" unicode="&#xa5;" 
d="M150 635v51h387l-474 748h72l465 -740l467 740h70l-478 -748h390v-51h-420v-283h420v-49h-420v-303h-62v303h-417v49h417v283h-417z" />
    <glyph glyph-name="brokenbar" unicode="&#xa6;" horiz-adv-x="645" 
d="M352 901h-59v533h59v-533zM293 532h59v-532h-59v532z" />
    <glyph glyph-name="section" unicode="&#xa7;" horiz-adv-x="1073" 
d="M156 510q0 144 88 244t229 120q-90 37 -152.5 108t-62.5 169q0 124 83 203.5t216 79.5q164 0 254 -119l-35 -41q-23 26 -34 36t-39.5 30.5t-64.5 29t-83 8.5q-101 0 -170.5 -67.5t-69.5 -165.5q0 -52 22 -97t59.5 -77.5t78 -55t86.5 -38.5q156 -8 256.5 -111t100.5 -256
q0 -142 -89 -242.5t-229 -120.5q89 -39 150 -108.5t61 -165.5q0 -124 -83 -203.5t-216 -79.5q-164 0 -254 119l35 41q23 -26 34 -36t39.5 -30.5t64.5 -29t83 -8.5q101 0 170.5 67.5t69.5 165.5q0 51 -21.5 95.5t-58.5 76.5t-78.5 54.5t-87.5 37.5q-154 9 -253 112t-99 255z
M213 510q0 -135 97 -225t227 -90q133 0 228 89.5t95 225.5q0 137 -95.5 227t-227.5 90t-228 -90.5t-96 -226.5z" />
    <glyph glyph-name="dieresis" unicode="&#xa8;" horiz-adv-x="765" 
d="M123 1282q0 17 13 30t32 13q15 0 28 -13t13 -30q0 -21 -12.5 -34t-28.5 -13q-19 0 -32 13t-13 34zM555 1282q0 17 13 30t32 13q17 0 30 -13t13 -30q0 -21 -12.5 -34t-30.5 -13q-19 0 -32 13t-13 34z" />
    <glyph glyph-name="copyright" unicode="&#xa9;" horiz-adv-x="2084" 
d="M162 453q0 180 67 342.5t182.5 280.5t280 187.5t350.5 69.5t350.5 -69.5t280.5 -187.5t183 -280.5t67 -342.5t-67 -342.5t-183 -281t-280.5 -188t-350.5 -69.5t-350.5 69.5t-280 188t-182.5 281t-67 342.5zM213 453q0 -169 63 -322t172 -264.5t264 -177.5t330 -66
q234 0 425 112t298 302t107 416q0 169 -63 322t-172.5 264.5t-264.5 177t-330 65.5t-330 -65.5t-264 -177t-172 -264.5t-63 -322zM1370 170l29 -39q-57 -72 -148.5 -110.5t-191.5 -38.5q-213 0 -347 131.5t-134 347.5q0 201 130 340t320 139q231 0 352 -113l-28 -47
q-119 105 -314 105q-166 0 -283.5 -122t-117.5 -302q0 -192 120 -308t306 -116q91 0 173 36.5t134 96.5z" />
    <glyph glyph-name="ordfeminine" unicode="&#xaa;" horiz-adv-x="808" 
d="M213 1237l-29 35q40 34 99 55t118 21q120 0 185 -62.5t65 -179.5v-387h-53v110q-85 -116 -254 -116q-101 0 -164 56.5t-63 135.5q0 94 67.5 146.5t184.5 52.5q144 0 229 -57v47q0 102 -53 154t-154 52q-92 0 -178 -63zM360 760q147 0 238 108v140q-39 24 -102 39.5
t-117 15.5q-85 0 -146 -41.5t-61 -112.5q0 -65 55.5 -107t132.5 -42z" />
    <glyph glyph-name="guillemotleft" unicode="&#xab;" horiz-adv-x="993" 
d="M801 88l-359 420v8l361 416l39 -35l-334 -385l330 -387zM473 88l-358 420v8l360 416l39 -35l-334 -385l330 -387z" />
    <glyph glyph-name="logicalnot" unicode="&#xac;" 
d="M145 711v53h910v-322h-51v269h-859z" />
    <glyph glyph-name="uni00AD" unicode="&#xad;" horiz-adv-x="833" 
d="M190 526v56h453v-56h-453z" />
    <glyph glyph-name="registered" unicode="&#xae;" horiz-adv-x="1128" 
d="M117 1016q0 186 131 316t317 130t316.5 -130t130.5 -316t-130.5 -316.5t-316.5 -130.5t-317 130.5t-131 316.5zM168 1016q0 -164 116.5 -281t280.5 -117t281 117t117 281t-117 280.5t-281 116.5t-280.5 -116.5t-116.5 -280.5zM446 737h-45v574h146q201 0 201 -162
q0 -57 -39 -102t-105 -60l199 -250h-58l-192 244h-107v-244zM543 1274h-97v-256h111q55 0 100 36.5t45 94.5q0 59 -41 92t-118 33z" />
    <glyph glyph-name="macron" unicode="&#xaf;" horiz-adv-x="741" 
d="M123 1278v51h495v-51h-495z" />
    <glyph glyph-name="degree" unicode="&#xb0;" horiz-adv-x="794" 
d="M117 1167q0 117 81.5 198t198.5 81q116 0 197.5 -80.5t81.5 -196.5q0 -117 -81.5 -199.5t-197.5 -82.5q-117 0 -198.5 81.5t-81.5 198.5zM170 1167q0 -94 66.5 -160.5t160.5 -66.5t161 66.5t67 160.5t-67 161t-161 67t-160.5 -67t-66.5 -161z" />
    <glyph glyph-name="plusminus" unicode="&#xb1;" 
d="M150 862v53h421v420h54v-420h426v-53h-426v-313h-54v313h-421zM150 369v53h901v-53h-901z" />
    <glyph glyph-name="twosuperior" unicode="&#xb2;" horiz-adv-x="675" 
d="M86 717v41q11 8 56 41t68 50t68 53.5t71.5 61.5t61 62.5t53.5 68.5t32.5 67.5t13.5 70.5q0 69 -45 115.5t-131 46.5q-66 0 -123 -36.5t-68 -103.5l-45 15q11 80 81 126t155 46q115 0 173 -59.5t58 -149.5q0 -43 -19.5 -89.5t-45 -84.5t-69.5 -82t-75 -70.5t-80.5 -62.5
t-65.5 -47t-50 -33h446v-47h-520z" />
    <glyph glyph-name="threesuperior" unicode="&#xb3;" horiz-adv-x="686" 
d="M328 709q-84 0 -152.5 31.5t-101.5 99.5l35 26q27 -57 87 -84.5t130 -27.5q94 0 150 45.5t56 115.5q0 64 -53.5 105t-132.5 41h-78v43h70q63 0 113.5 44t50.5 107q0 69 -48.5 105.5t-129.5 36.5q-144 0 -197 -107l-31 29q25 57 86.5 90t147.5 33q106 0 166.5 -47
t60.5 -131q0 -58 -38 -106t-105 -68v-3q80 -9 127 -59.5t47 -116.5q0 -92 -73.5 -147t-186.5 -55z" />
    <glyph glyph-name="acute" unicode="&#xb4;" horiz-adv-x="512" 
d="M389 1419l-229 -289l-37 25l223 299z" />
    <glyph glyph-name="mu" unicode="&#xb5;" horiz-adv-x="1124" 
d="M948 922v-922h-57v160q-59 -74 -161.5 -126t-209.5 -52q-222 0 -305 143v-535h-59v1332h59v-510q0 -189 78.5 -282t245.5 -93q104 0 203 56.5t149 125.5v703h57z" />
    <glyph glyph-name="mu" unicode="&#x3bc;" horiz-adv-x="1124" 
d="M948 922v-922h-57v160q-59 -74 -161.5 -126t-209.5 -52q-222 0 -305 143v-535h-59v1332h59v-510q0 -189 78.5 -282t245.5 -93q104 0 203 56.5t149 125.5v703h57z" />
    <glyph glyph-name="paragraph" unicode="&#xb6;" horiz-adv-x="854" 
d="M115 985q0 210 110 329.5t305 119.5h246v-56h-192v-1464q0 -165 -61 -252.5t-210 -87.5q-108 0 -182 59l27 45q65 -49 151 -49q54 0 93.5 15t62.5 39.5t37 62.5t19 77t5 89v627q-180 2 -295.5 121.5t-115.5 324.5z" />
    <glyph glyph-name="periodcentered" unicode="&#xb7;" horiz-adv-x="497" 
d="M199 604q0 18 15 31.5t36 13.5q19 0 33 -14t14 -31q0 -20 -14 -35.5t-33 -15.5q-21 0 -36 15t-15 36z" />
    <glyph glyph-name="cedilla" unicode="&#xb8;" horiz-adv-x="638" 
d="M123 -365l20 35q77 -41 150 -41t119.5 30.5t46.5 80.5q0 110 -168 110h-12v150h38v-115q199 -3 199 -147q0 -67 -58.5 -108.5t-158.5 -41.5q-80 0 -176 47z" />
    <glyph glyph-name="onesuperior" unicode="&#xb9;" horiz-adv-x="466" 
d="M66 1311l190 129h35v-723h-51v655l-152 -100z" />
    <glyph glyph-name="ordmasculine" unicode="&#xba;" horiz-adv-x="905" 
d="M121 1028q0 139 95 229.5t237 90.5t236.5 -90.5t94.5 -229.5q0 -140 -94.5 -230.5t-236.5 -90.5t-237 90.5t-95 230.5zM176 1028q0 -119 83.5 -195.5t193.5 -76.5q114 0 195 76t81 196q0 118 -82 194t-194 76q-113 0 -195 -76t-82 -194z" />
    <glyph glyph-name="guillemotright" unicode="&#xbb;" horiz-adv-x="993" 
d="M877 508l-357 -420l-39 37l330 387l-334 385l39 35l361 -416v-8zM549 508l-356 -420l-39 37l329 387l-333 385l38 35l361 -416v-8z" />
    <glyph glyph-name="onequarter" unicode="&#xbc;" horiz-adv-x="1316" 
d="M100 1311l191 129h35v-723h-52v655l-151 -100zM117 10l1079 1442l35 -27l-1077 -1443zM1096 0v190h-402v33l387 494h52l-377 -481h340v225h49v-225h131v-46h-131v-190h-49z" />
    <glyph glyph-name="onehalf" unicode="&#xbd;" horiz-adv-x="1349" 
d="M100 1311l191 129h35v-723h-52v655l-151 -100zM47 10l1079 1442l35 -27l-1077 -1443zM748 0v41q10 7 56 40.5t68.5 50.5t68 53.5t71 61.5t60 62.5t53.5 68.5t32.5 67.5t13.5 70.5q0 69 -45 115.5t-131 46.5q-66 0 -122.5 -36t-67.5 -103l-45 14q11 80 81 126t154 46
q115 0 173.5 -59.5t58.5 -149.5q0 -43 -19.5 -89.5t-45 -84.5t-70 -82t-75 -70.5t-80.5 -63t-65.5 -46.5t-50.5 -33h447v-47h-520z" />
    <glyph glyph-name="threequarters" unicode="&#xbe;" horiz-adv-x="1390" 
d="M211 10l1079 1442l35 -27l-1077 -1443zM1167 0v190h-401v33l387 494h51l-377 -481h340v225h50v-225h131v-46h-131v-190h-50zM330 709q-84 0 -152.5 31.5t-101.5 99.5l35 26q27 -57 87 -84.5t130 -27.5q94 0 150.5 45.5t56.5 115.5q0 64 -54 105t-133 41h-78v43h70
q63 0 113.5 44t50.5 107q0 69 -48.5 105.5t-129.5 36.5q-144 0 -197 -107l-31 29q25 57 86.5 90t147.5 33q106 0 166.5 -47t60.5 -131q0 -58 -38 -106t-105 -68v-3q80 -9 127 -59.5t47 -116.5q0 -92 -73.5 -147t-186.5 -55z" />
    <glyph glyph-name="questiondown" unicode="&#xbf;" horiz-adv-x="931" 
d="M137 -158q0 -129 94 -213t242 -84q101 0 189 47t151 134l37 -35q-57 -91 -160.5 -148t-222.5 -57q-92 0 -166.5 28t-122.5 75.5t-74 110t-26 132.5q0 77 23.5 139.5t61.5 104.5t83.5 77.5t91 68.5t83.5 68t61.5 84.5t23.5 110.5q0 41 -8 80l53 4q10 -44 10 -94
q0 -63 -23.5 -114.5t-61 -88t-82.5 -69.5t-90 -67.5t-82.5 -73t-61 -95t-23.5 -125.5zM582 889q0 -18 -15.5 -31.5t-36.5 -13.5q-19 0 -33 14t-14 31q0 20 14 35.5t33 15.5q22 0 37 -15t15 -36z" />
    <glyph glyph-name="Agrave" unicode="&#xc0;" horiz-adv-x="1413" 
d="M53 0l631 1448h45l631 -1448h-66l-231 532h-717l-229 -532h-64zM705 1358l-334 -768h667zM762 1516l-340 182l22 47l338 -193z" />
    <glyph glyph-name="Aacute" unicode="&#xc1;" horiz-adv-x="1413" 
d="M53 0l631 1448h45l631 -1448h-66l-231 532h-717l-229 -532h-64zM705 1358l-334 -768h667zM999 1698l-342 -182l-18 36l338 193z" />
    <glyph glyph-name="Acircumflex" unicode="&#xc2;" horiz-adv-x="1413" 
d="M53 0l631 1448h45l631 -1448h-66l-231 532h-717l-229 -532h-64zM705 1358l-334 -768h667zM362 1550l340 193h9l342 -191l-31 -36l-315 174l-318 -174z" />
    <glyph glyph-name="Atilde" unicode="&#xc3;" horiz-adv-x="1413" 
d="M53 0l631 1448h45l631 -1448h-66l-231 532h-717l-229 -532h-64zM705 1358l-334 -768h667zM395 1581l-22 37q81 72 166 72q63 0 169 -49.5t160 -49.5q83 0 150 72l22 -39q-78 -84 -174 -84q-57 0 -167 48t-169 48q-69 0 -135 -55z" />
    <glyph glyph-name="Adieresis" unicode="&#xc4;" horiz-adv-x="1413" 
d="M53 0l631 1448h45l631 -1448h-66l-231 532h-717l-229 -532h-64zM705 1358l-334 -768h667zM420 1630q0 20 14 31.5t35 11.5q20 0 33.5 -11.5t13.5 -31.5q0 -21 -13.5 -33t-33.5 -12q-21 0 -35 12t-14 33zM899 1630q0 20 14 31.5t35 11.5q18 0 31.5 -12t13.5 -31
q0 -21 -13.5 -33t-31.5 -12q-21 0 -35 12t-14 33z" />
    <glyph glyph-name="Aring" unicode="&#xc5;" horiz-adv-x="1413" 
d="M500 1595q0 82 57.5 124t147.5 42q92 0 150 -42t58 -124q0 -72 -49 -116t-127 -52l623 -1427h-66l-231 532h-717l-229 -532h-64l621 1427q-77 8 -125.5 52t-48.5 116zM705 1358l-334 -768h667zM547 1595q0 -63 44.5 -97t113.5 -34q71 0 116 34t45 97q0 64 -44.5 95.5
t-116.5 31.5q-71 0 -114.5 -31.5t-43.5 -95.5z" />
    <glyph glyph-name="AE" unicode="&#xc6;" horiz-adv-x="1974" 
d="M1833 0h-801v547h-565l-387 -547h-74l1026 1434h780v-58h-718v-618h657v-58h-657v-643h739v-57zM1032 1343l-524 -739h524v739z" />
    <glyph glyph-name="Ccedilla" unicode="&#xc7;" horiz-adv-x="1345" 
d="M631 -362l20 34q81 -43 152 -43q73 0 119.5 30.5t46.5 80.5q0 110 -168 110h-13v134q-302 12 -486.5 211t-184.5 522q0 206 85 372.5t244 264.5t363 98q269 0 432 -133l-31 -43q-148 117 -399 117q-186 0 -330.5 -89t-222.5 -242.5t-78 -344.5q0 -304 181 -490t470 -186
q121 0 226.5 38t183.5 105l27 -47q-74 -72 -194 -113.5t-247 -41.5v-97q201 -3 201 -147q0 -67 -58 -108.5t-157 -41.5q-91 0 -182 50z" />
    <glyph glyph-name="Egrave" unicode="&#xc8;" horiz-adv-x="1177" 
d="M238 0v1434h778v-58h-717v-618h655v-58h-655v-643h737v-57h-798zM727 1516l-340 182l23 47l338 -193z" />
    <glyph glyph-name="Eacute" unicode="&#xc9;" horiz-adv-x="1177" 
d="M238 0v1434h778v-58h-717v-618h655v-58h-655v-643h737v-57h-798zM862 1698l-342 -182l-18 36l338 193z" />
    <glyph glyph-name="Ecircumflex" unicode="&#xca;" horiz-adv-x="1177" 
d="M238 0v1434h778v-58h-717v-618h655v-58h-655v-643h737v-57h-798zM287 1550l340 193h8l342 -191l-31 -36l-315 174l-318 -174z" />
    <glyph glyph-name="Edieresis" unicode="&#xcb;" horiz-adv-x="1177" 
d="M238 0v1434h778v-58h-717v-618h655v-58h-655v-643h737v-57h-798zM344 1630q0 20 14 31.5t35 11.5q20 0 33.5 -11.5t13.5 -31.5q0 -21 -13.5 -33t-33.5 -12q-21 0 -35 12t-14 33zM823 1630q0 20 14 31.5t35 11.5q18 0 32 -12t14 -31q0 -21 -14 -33t-32 -12q-21 0 -35 12
t-14 33z" />
    <glyph glyph-name="Igrave" unicode="&#xcc;" horiz-adv-x="647" 
d="M293 0v1434h61v-1434h-61zM354 1516l-340 182l23 47l338 -193z" />
    <glyph glyph-name="Iacute" unicode="&#xcd;" horiz-adv-x="647" 
d="M293 0v1434h61v-1434h-61zM633 1698l-342 -182l-19 36l338 193z" />
    <glyph glyph-name="Icircumflex" unicode="&#xce;" horiz-adv-x="647" 
d="M293 0v1434h61v-1434h-61zM-20 1550l339 193h9l342 -191l-31 -36l-315 174l-318 -174z" />
    <glyph glyph-name="Idieresis" unicode="&#xcf;" horiz-adv-x="647" 
d="M293 0v1434h61v-1434h-61zM37 1630q0 20 14 31.5t35 11.5q20 0 33.5 -11.5t13.5 -31.5q0 -21 -13.5 -33t-33.5 -12q-21 0 -35 12t-14 33zM516 1630q0 20 14 31.5t35 11.5q18 0 31.5 -12t13.5 -31q0 -21 -13.5 -33t-31.5 -12q-21 0 -35 12t-14 33z" />
    <glyph glyph-name="Eth" unicode="&#xd0;" horiz-adv-x="1558" 
d="M20 707v55h271v672h22q51 0 153 3t171 3q167 0 303 -37.5t228.5 -102t155 -154.5t90.5 -191.5t28 -215.5q0 -156 -52 -290t-152 -235.5t-258.5 -159.5t-358.5 -58q-55 0 -158 2t-158 2h-14v707h-271zM633 1382q-66 0 -151.5 -3t-129.5 -3v-614h422v-55h-422v-650
q37 0 78.5 -0.5t74 -1t59.5 -1t43.5 -1t17.5 -0.5q183 0 328.5 53.5t237 147.5t139.5 217.5t48 267.5q0 134 -43 247.5t-130.5 203.5t-233.5 141t-338 51z" />
    <glyph glyph-name="Ntilde" unicode="&#xd1;" horiz-adv-x="1636" 
d="M1399 0h-49l-1055 1323v-1323h-57v1434h49l1052 -1328v1328h60v-1434zM516 1581l-22 37q81 72 165 72q63 0 169.5 -49.5t160.5 -49.5q83 0 150 72l22 -39q-78 -84 -174 -84q-57 0 -167 48t-169 48q-69 0 -135 -55z" />
    <glyph glyph-name="Ograve" unicode="&#xd2;" horiz-adv-x="1652" 
d="M117 717q0 205 92.5 373.5t255 265t360.5 96.5q148 0 279.5 -56t226 -153t149 -233.5t54.5 -292.5q0 -206 -93 -374.5t-255.5 -264.5t-360.5 -96q-197 0 -359 95t-255.5 264t-93.5 376zM180 717q0 -142 50 -267.5t135.5 -215t205 -141.5t254.5 -52q183 0 330.5 88
t231 243t83.5 345q0 143 -49.5 268.5t-135 215t-205 141t-255.5 51.5q-135 0 -254.5 -51.5t-205 -141t-135.5 -215t-50 -268.5zM973 1516l-340 182l22 47l338 -193z" />
    <glyph glyph-name="Oacute" unicode="&#xd3;" horiz-adv-x="1652" 
d="M117 717q0 205 92.5 373.5t255 265t360.5 96.5q148 0 279.5 -56t226 -153t149 -233.5t54.5 -292.5q0 -206 -93 -374.5t-255.5 -264.5t-360.5 -96q-197 0 -359 95t-255.5 264t-93.5 376zM180 717q0 -142 50 -267.5t135.5 -215t205 -141.5t254.5 -52q183 0 330.5 88
t231 243t83.5 345q0 143 -49.5 268.5t-135 215t-205 141t-255.5 51.5q-135 0 -254.5 -51.5t-205 -141t-135.5 -215t-50 -268.5zM1071 1698l-342 -182l-18 36l338 193z" />
    <glyph glyph-name="Ocircumflex" unicode="&#xd4;" horiz-adv-x="1652" 
d="M117 717q0 205 92.5 373.5t255 265t360.5 96.5q148 0 279.5 -56t226 -153t149 -233.5t54.5 -292.5q0 -206 -93 -374.5t-255.5 -264.5t-360.5 -96q-197 0 -359 95t-255.5 264t-93.5 376zM180 717q0 -142 50 -267.5t135.5 -215t205 -141.5t254.5 -52q183 0 330.5 88
t231 243t83.5 345q0 143 -49.5 268.5t-135 215t-205 141t-255.5 51.5q-135 0 -254.5 -51.5t-205 -141t-135.5 -215t-50 -268.5zM489 1550l340 193h9l342 -191l-31 -36l-315 174l-318 -174z" />
    <glyph glyph-name="Otilde" unicode="&#xd5;" horiz-adv-x="1652" 
d="M117 717q0 205 92.5 373.5t255 265t360.5 96.5q148 0 279.5 -56t226 -153t149 -233.5t54.5 -292.5q0 -206 -93 -374.5t-255.5 -264.5t-360.5 -96q-197 0 -359 95t-255.5 264t-93.5 376zM180 717q0 -142 50 -267.5t135.5 -215t205 -141.5t254.5 -52q183 0 330.5 88
t231 243t83.5 345q0 143 -49.5 268.5t-135 215t-205 141t-255.5 51.5q-135 0 -254.5 -51.5t-205 -141t-135.5 -215t-50 -268.5zM520 1581l-22 37q81 72 166 72q63 0 169 -49.5t160 -49.5q83 0 150 72l22 -39q-78 -84 -174 -84q-57 0 -167 48t-169 48q-69 0 -135 -55z" />
    <glyph glyph-name="Odieresis" unicode="&#xd6;" horiz-adv-x="1652" 
d="M117 717q0 205 92.5 373.5t255 265t360.5 96.5q148 0 279.5 -56t226 -153t149 -233.5t54.5 -292.5q0 -206 -93 -374.5t-255.5 -264.5t-360.5 -96q-197 0 -359 95t-255.5 264t-93.5 376zM180 717q0 -142 50 -267.5t135.5 -215t205 -141.5t254.5 -52q183 0 330.5 88
t231 243t83.5 345q0 143 -49.5 268.5t-135 215t-205 141t-255.5 51.5q-135 0 -254.5 -51.5t-205 -141t-135.5 -215t-50 -268.5zM543 1630q0 20 14 31.5t35 11.5q20 0 33.5 -11.5t13.5 -31.5q0 -21 -13.5 -33t-33.5 -12q-21 0 -35 12t-14 33zM1022 1630q0 20 14 31.5t35 11.5
q18 0 31.5 -12t13.5 -31q0 -21 -13.5 -33t-31.5 -12q-21 0 -35 12t-14 33z" />
    <glyph glyph-name="multiply" unicode="&#xd7;" 
d="M266 1036l37 37l297 -299l297 299l37 -37l-297 -299l301 -299l-37 -37l-301 299l-301 -299l-37 37l301 299z" />
    <glyph glyph-name="Oslash" unicode="&#xd8;" horiz-adv-x="1652" 
d="M117 717q0 205 92.5 373.5t255 265t360.5 96.5q146 0 274.5 -54t225.5 -151l105 103l36 -35l-106 -105q174 -206 174 -493q0 -206 -93 -374.5t-255.5 -264.5t-360.5 -96q-148 0 -278.5 55.5t-227.5 155.5l-102 -99l-37 39l103 100q-166 203 -166 484zM1470 717
q0 262 -155 450l-950 -929q88 -94 206 -145.5t254 -51.5q183 0 330.5 88t231 243t83.5 345zM180 717q0 -253 148 -441l952 928q-88 90 -205 139.5t-250 49.5q-135 0 -254.5 -51.5t-205 -141t-135.5 -215t-50 -268.5z" />
    <glyph glyph-name="Ugrave" unicode="&#xd9;" horiz-adv-x="1538" 
d="M1321 1434v-832q0 -159 -42.5 -280t-117.5 -193t-169 -107.5t-204 -35.5q-123 0 -226 40t-180.5 117t-121 198t-43.5 275v818h62v-809q0 -277 140.5 -429.5t368.5 -152.5q101 0 185.5 34t149 102t101 179.5t36.5 257.5v818h61zM889 1516l-340 182l22 47l338 -193z" />
    <glyph glyph-name="Uacute" unicode="&#xda;" horiz-adv-x="1538" 
d="M1321 1434v-832q0 -159 -42.5 -280t-117.5 -193t-169 -107.5t-204 -35.5q-123 0 -226 40t-180.5 117t-121 198t-43.5 275v818h62v-809q0 -277 140.5 -429.5t368.5 -152.5q101 0 185.5 34t149 102t101 179.5t36.5 257.5v818h61zM1008 1698l-342 -182l-19 36l338 193z" />
    <glyph glyph-name="Ucircumflex" unicode="&#xdb;" horiz-adv-x="1538" 
d="M1321 1434v-832q0 -159 -42.5 -280t-117.5 -193t-169 -107.5t-204 -35.5q-123 0 -226 40t-180.5 117t-121 198t-43.5 275v818h62v-809q0 -277 140.5 -429.5t368.5 -152.5q101 0 185.5 34t149 102t101 179.5t36.5 257.5v818h61zM424 1550l340 193h8l342 -191l-31 -36
l-315 174l-317 -174z" />
    <glyph glyph-name="Udieresis" unicode="&#xdc;" horiz-adv-x="1538" 
d="M1321 1434v-832q0 -159 -42.5 -280t-117.5 -193t-169 -107.5t-204 -35.5q-123 0 -226 40t-180.5 117t-121 198t-43.5 275v818h62v-809q0 -277 140.5 -429.5t368.5 -152.5q101 0 185.5 34t149 102t101 179.5t36.5 257.5v818h61zM477 1630q0 20 14 31.5t35 11.5
q20 0 33.5 -11.5t13.5 -31.5q0 -21 -13.5 -33t-33.5 -12q-21 0 -35 12t-14 33zM956 1630q0 20 14.5 31.5t35.5 11.5q18 0 31.5 -12t13.5 -31q0 -21 -13.5 -33t-31.5 -12q-21 0 -35.5 12t-14.5 33z" />
    <glyph glyph-name="Yacute" unicode="&#xdd;" horiz-adv-x="1161" 
d="M1126 1434l-518 -797v-637h-59v637l-514 797h71l474 -740l477 740h69zM834 1698l-342 -182l-19 36l338 193z" />
    <glyph glyph-name="Thorn" unicode="&#xde;" horiz-adv-x="1177" 
d="M299 0h-61v1434h61v-224q41 0 141 2t125 2q113 0 201 -24.5t142 -64t89 -95.5t48.5 -113.5t13.5 -123.5t-17.5 -127t-56 -116.5t-96 -96t-143.5 -64.5t-191 -24q-109 0 -256 10v-375zM567 1157q-146 0 -268 -4v-719q147 -10 252 -10q218 0 332 103t114 268q0 79 -24 143
t-74 114t-134.5 77.5t-197.5 27.5z" />
    <glyph glyph-name="germandbls" unicode="&#xdf;" horiz-adv-x="1103" 
d="M930 295q0 57 -24 104.5t-62 81t-84.5 63t-93 58.5t-84.5 60t-62 74.5t-24 94.5q0 50 23.5 92t57 73.5t67.5 62.5t57.5 72t23.5 88q0 77 -62.5 127.5t-148.5 50.5q-135 0 -199.5 -85t-64.5 -268v-1050h-60v1069q0 389 330 389q113 0 189.5 -63.5t76.5 -161.5
q0 -55 -24 -101t-58 -77.5t-67.5 -61.5t-57.5 -66.5t-24 -78.5q0 -49 24 -89.5t62.5 -70t85 -56.5t93 -57.5t85 -66t62.5 -88t24 -117.5q0 -137 -87 -226t-214 -89q-97 0 -171 45.5t-111 107.5l26 41q39 -54 101.5 -96.5t144.5 -42.5q100 0 175 72.5t75 185.5z" />
    <glyph glyph-name="agrave" unicode="&#xe0;" horiz-adv-x="935" 
d="M186 807l-18 49q134 84 283 84q179 0 255 -92t76 -273v-575h-57v160q-123 -170 -342 -170q-129 0 -208 72t-79 192q0 134 97.5 207.5t252.5 73.5q172 0 279 -76q0 57 -1 92.5t-5 81.5t-12 74t-21.5 60.5t-34 51t-49.5 35.5t-68.5 24t-89.5 7q-74 0 -130.5 -18.5
t-127.5 -59.5zM395 45q65 0 119.5 15t94 43.5t64.5 54t52 61.5v184q-116 82 -274 82q-76 0 -140 -22.5t-108.5 -75.5t-44.5 -129q0 -99 67 -156t170 -57zM526 1130l-229 289l43 35l223 -299z" />
    <glyph glyph-name="aacute" unicode="&#xe1;" horiz-adv-x="935" 
d="M186 807l-18 49q134 84 283 84q179 0 255 -92t76 -273v-575h-57v160q-123 -170 -342 -170q-129 0 -208 72t-79 192q0 134 97.5 207.5t252.5 73.5q172 0 279 -76q0 57 -1 92.5t-5 81.5t-12 74t-21.5 60.5t-34 51t-49.5 35.5t-68.5 24t-89.5 7q-74 0 -130.5 -18.5
t-127.5 -59.5zM395 45q65 0 119.5 15t94 43.5t64.5 54t52 61.5v184q-116 82 -274 82q-76 0 -140 -22.5t-108.5 -75.5t-44.5 -129q0 -99 67 -156t170 -57zM643 1419l-229 -289l-37 25l223 299z" />
    <glyph glyph-name="acircumflex" unicode="&#xe2;" horiz-adv-x="935" 
d="M186 807l-18 49q134 84 283 84q179 0 255 -92t76 -273v-575h-57v160q-123 -170 -342 -170q-129 0 -208 72t-79 192q0 134 97.5 207.5t252.5 73.5q172 0 279 -76q0 57 -1 92.5t-5 81.5t-12 74t-21.5 60.5t-34 51t-49.5 35.5t-68.5 24t-89.5 7q-74 0 -130.5 -18.5
t-127.5 -59.5zM395 45q65 0 119.5 15t94 43.5t64.5 54t52 61.5v184q-116 82 -274 82q-76 0 -140 -22.5t-108.5 -75.5t-44.5 -129q0 -99 67 -156t170 -57zM473 1450l246 -268l-31 -37l-219 233l-221 -231l-33 35l250 268h8z" />
    <glyph glyph-name="atilde" unicode="&#xe3;" horiz-adv-x="935" 
d="M186 807l-18 49q134 84 283 84q179 0 255 -92t76 -273v-575h-57v160q-123 -170 -342 -170q-129 0 -208 72t-79 192q0 134 97.5 207.5t252.5 73.5q172 0 279 -76q0 57 -1 92.5t-5 81.5t-12 74t-21.5 60.5t-34 51t-49.5 35.5t-68.5 24t-89.5 7q-74 0 -130.5 -18.5
t-127.5 -59.5zM395 45q65 0 119.5 15t94 43.5t64.5 54t52 61.5v184q-116 82 -274 82q-76 0 -140 -22.5t-108.5 -75.5t-44.5 -129q0 -99 67 -156t170 -57zM197 1200l-27 31q105 94 190 94q40 0 78.5 -24.5t74.5 -49t71 -24.5q61 0 155 84l25 -33q-103 -100 -186 -100
q-30 0 -60.5 15t-52 33t-52 33t-61.5 15q-63 0 -155 -74z" />
    <glyph glyph-name="adieresis" unicode="&#xe4;" horiz-adv-x="935" 
d="M186 807l-18 49q134 84 283 84q179 0 255 -92t76 -273v-575h-57v160q-123 -170 -342 -170q-129 0 -208 72t-79 192q0 134 97.5 207.5t252.5 73.5q172 0 279 -76q0 57 -1 92.5t-5 81.5t-12 74t-21.5 60.5t-34 51t-49.5 35.5t-68.5 24t-89.5 7q-74 0 -130.5 -18.5
t-127.5 -59.5zM395 45q65 0 119.5 15t94 43.5t64.5 54t52 61.5v184q-116 82 -274 82q-76 0 -140 -22.5t-108.5 -75.5t-44.5 -129q0 -99 67 -156t170 -57zM195 1282q0 17 13 30t32 13q15 0 28 -13t13 -30q0 -21 -12.5 -34t-28.5 -13q-19 0 -32 13t-13 34zM627 1282
q0 17 13 30t32 13q17 0 30 -13t13 -30q0 -21 -12.5 -34t-30.5 -13q-19 0 -32 13t-13 34z" />
    <glyph glyph-name="aring" unicode="&#xe5;" horiz-adv-x="935" 
d="M186 807l-18 49q134 84 283 84q179 0 255 -92t76 -273v-575h-57v160q-123 -170 -342 -170q-129 0 -208 72t-79 192q0 134 97.5 207.5t252.5 73.5q172 0 279 -76q0 57 -1 92.5t-5 81.5t-12 74t-21.5 60.5t-34 51t-49.5 35.5t-68.5 24t-89.5 7q-74 0 -130.5 -18.5
t-127.5 -59.5zM395 45q65 0 119.5 15t94 43.5t64.5 54t52 61.5v184q-116 82 -274 82q-76 0 -140 -22.5t-108.5 -75.5t-44.5 -129q0 -99 67 -156t170 -57zM254 1257q0 84 58.5 142.5t142.5 58.5q85 0 143.5 -59t58.5 -142q0 -82 -58.5 -139t-143.5 -57t-143 57t-58 139z
M297 1260q0 -68 45.5 -114t112.5 -46q66 0 112.5 46.5t46.5 113.5q0 66 -46.5 112.5t-112.5 46.5q-67 0 -112.5 -46.5t-45.5 -112.5z" />
    <glyph glyph-name="ae" unicode="&#xe6;" horiz-adv-x="1640" 
d="M451 940q239 0 303 -176q126 176 368 176q181 0 297.5 -114.5t116.5 -299.5q0 -27 -4 -63h-750v-232q53 -93 148 -143.5t223 -50.5q93 0 175.5 35t135.5 92l21 -43q-58 -67 -149 -103t-187 -36q-127 0 -228.5 48t-166.5 136q-73 -87 -159.5 -131.5t-203.5 -44.5
q-135 0 -215 72t-80 192q0 134 97.5 207.5t252.5 73.5q55 0 145 -7.5t134 -15.5q9 192 -52.5 282.5t-228.5 90.5q-74 0 -130.5 -18.5t-127.5 -59.5l-18 49q134 84 283 84zM782 575v-63h695q0 171 -99 272t-264 101q-118 0 -205.5 -51.5t-136.5 -141.5q10 -62 10 -117z
M395 45q65 0 119.5 15t94 43.5t64.5 54t52 61.5v242q-168 24 -274 24q-76 0 -140 -22.5t-108.5 -75.5t-44.5 -129q0 -99 67 -156t170 -57z" />
    <glyph glyph-name="ccedilla" unicode="&#xe7;" horiz-adv-x="1005" 
d="M387 -365l21 35q77 -41 149 -41q73 0 119.5 30.5t46.5 80.5q0 110 -168 110h-12v134q-196 14 -316.5 143t-120.5 334q0 201 130.5 340t320.5 139q231 0 352 -113l-28 -47q-119 105 -314 105q-166 0 -283.5 -122t-117.5 -302q0 -192 120 -308t306 -116q91 0 173 36.5
t134 96.5l29 -39q-57 -72 -148.5 -110.5t-191.5 -38.5h-6v-97q198 -3 198 -147q0 -67 -58.5 -108.5t-158.5 -41.5q-80 0 -176 47z" />
    <glyph glyph-name="egrave" unicode="&#xe8;" horiz-adv-x="1079" 
d="M903 164l23 -43q-58 -67 -149 -103t-187 -36q-214 0 -349 131.5t-135 347.5q0 137 50 243.5t155 171t252 64.5q180 0 296 -114t116 -300q0 -27 -4 -63h-801q1 -196 116 -311t306 -115q94 0 176 35t135 92zM555 885q-173 0 -275 -103.5t-114 -269.5h749q1 171 -97 272
t-263 101zM586 1130l-230 289l43 35l224 -299z" />
    <glyph glyph-name="eacute" unicode="&#xe9;" horiz-adv-x="1079" 
d="M903 164l23 -43q-58 -67 -149 -103t-187 -36q-214 0 -349 131.5t-135 347.5q0 137 50 243.5t155 171t252 64.5q180 0 296 -114t116 -300q0 -27 -4 -63h-801q1 -196 116 -311t306 -115q94 0 176 35t135 92zM555 885q-173 0 -275 -103.5t-114 -269.5h749q1 171 -97 272
t-263 101zM772 1419l-229 -289l-37 25l223 299z" />
    <glyph glyph-name="ecircumflex" unicode="&#xea;" horiz-adv-x="1079" 
d="M903 164l23 -43q-58 -67 -149 -103t-187 -36q-214 0 -349 131.5t-135 347.5q0 137 50 243.5t155 171t252 64.5q180 0 296 -114t116 -300q0 -27 -4 -63h-801q1 -196 116 -311t306 -115q94 0 176 35t135 92zM555 885q-173 0 -275 -103.5t-114 -269.5h749q1 171 -97 272
t-263 101zM565 1450l246 -268l-31 -37l-219 233l-221 -231l-33 35l250 268h8z" />
    <glyph glyph-name="edieresis" unicode="&#xeb;" horiz-adv-x="1079" 
d="M903 164l23 -43q-58 -67 -149 -103t-187 -36q-214 0 -349 131.5t-135 347.5q0 137 50 243.5t155 171t252 64.5q180 0 296 -114t116 -300q0 -27 -4 -63h-801q1 -196 116 -311t306 -115q94 0 176 35t135 92zM555 885q-173 0 -275 -103.5t-114 -269.5h749q1 171 -97 272
t-263 101zM283 1282q0 17 13 30t32 13q15 0 28 -13t13 -30q0 -21 -12.5 -34t-28.5 -13q-19 0 -32 13t-13 34zM715 1282q0 17 13 30t32 13q17 0 30 -13t13 -30q0 -21 -12.5 -34t-30.5 -13q-19 0 -32 13t-13 34z" />
    <glyph glyph-name="igrave" unicode="&#xec;" horiz-adv-x="522" 
d="M231 0v922h58v-922h-58zM274 1130l-229 289l43 35l223 -299z" />
    <glyph glyph-name="iacute" unicode="&#xed;" horiz-adv-x="522" 
d="M231 0v922h58v-922h-58zM471 1419l-229 -289l-37 25l223 299z" />
    <glyph glyph-name="icircumflex" unicode="&#xee;" horiz-adv-x="522" 
d="M231 0v922h58v-922h-58zM268 1450l246 -268l-31 -37l-219 233l-221 -231l-33 35l250 268h8z" />
    <glyph glyph-name="idieresis" unicode="&#xef;" horiz-adv-x="522" 
d="M231 0v922h58v-922h-58zM2 1282q0 17 13 30t32 13q15 0 28 -13t13 -30q0 -21 -12.5 -34t-28.5 -13q-19 0 -32 13t-13 34zM434 1282q0 17 13 30t32 13q17 0 30 -13t13 -30q0 -21 -12.5 -34t-30.5 -13q-19 0 -32 13t-13 34z" />
    <glyph glyph-name="eth" unicode="&#xf0;" horiz-adv-x="1165" 
d="M426 1110l-20 49l231 123q-106 92 -248 150l64 20q122 -52 233 -143l213 112l21 -49l-191 -102q157 -145 243.5 -341t86.5 -405q0 -248 -132 -395t-345 -147q-208 0 -342 135.5t-134 343.5t134 343.5t342 135.5q134 0 238.5 -69.5t160.5 -192.5q-24 165 -103 311
t-198 256zM166 461q0 -186 116.5 -305t299.5 -119q187 0 302.5 134t112.5 359q-9 64 -41 126.5t-83.5 114t-127.5 83t-163 31.5q-182 0 -299 -119t-117 -305z" />
    <glyph glyph-name="ntilde" unicode="&#xf1;" horiz-adv-x="1132" 
d="M174 0v922h59v-140q57 66 156.5 111t198.5 45q197 0 293 -101.5t96 -316.5v-520h-57v508q0 191 -84 283t-258 92q-102 0 -199 -47.5t-146 -110.5v-725h-59zM293 1200l-27 31q105 94 191 94q40 0 78.5 -24.5t74 -49t70.5 -24.5q62 0 156 84l24 -33q-103 -100 -186 -100
q-30 0 -60 15t-51.5 33t-52 33t-61.5 15q-64 0 -156 -74z" />
    <glyph glyph-name="ograve" unicode="&#xf2;" horiz-adv-x="1165" 
d="M106 461q0 208 134 343.5t342 135.5q210 0 343.5 -135.5t133.5 -343.5t-133.5 -343.5t-343.5 -135.5q-208 0 -342 135.5t-134 343.5zM166 461q0 -186 116.5 -305t299.5 -119t299 119t116 305t-116 305t-299 119q-182 0 -299 -119t-117 -305zM618 1130l-229 289l43 35
l223 -299z" />
    <glyph glyph-name="oacute" unicode="&#xf3;" horiz-adv-x="1165" 
d="M106 461q0 208 134 343.5t342 135.5q210 0 343.5 -135.5t133.5 -343.5t-133.5 -343.5t-343.5 -135.5q-208 0 -342 135.5t-134 343.5zM166 461q0 -186 116.5 -305t299.5 -119t299 119t116 305t-116 305t-299 119q-182 0 -299 -119t-117 -305zM776 1419l-229 -289l-37 25
l223 299z" />
    <glyph glyph-name="ocircumflex" unicode="&#xf4;" horiz-adv-x="1165" 
d="M106 461q0 208 134 343.5t342 135.5q210 0 343.5 -135.5t133.5 -343.5t-133.5 -343.5t-343.5 -135.5q-208 0 -342 135.5t-134 343.5zM166 461q0 -186 116.5 -305t299.5 -119t299 119t116 305t-116 305t-299 119q-182 0 -299 -119t-117 -305zM586 1450l245 -268l-30 -37
l-219 233l-222 -231l-32 35l250 268h8z" />
    <glyph glyph-name="otilde" unicode="&#xf5;" horiz-adv-x="1165" 
d="M106 461q0 208 134 343.5t342 135.5q210 0 343.5 -135.5t133.5 -343.5t-133.5 -343.5t-343.5 -135.5q-208 0 -342 135.5t-134 343.5zM166 461q0 -186 116.5 -305t299.5 -119t299 119t116 305t-116 305t-299 119q-182 0 -299 -119t-117 -305zM309 1200l-26 31
q105 94 190 94q40 0 78.5 -24.5t74 -49t70.5 -24.5q62 0 156 84l25 -33q-103 -100 -187 -100q-30 0 -60 15t-51.5 33t-52 33t-61.5 15q-64 0 -156 -74z" />
    <glyph glyph-name="odieresis" unicode="&#xf6;" horiz-adv-x="1165" 
d="M106 461q0 208 134 343.5t342 135.5q210 0 343.5 -135.5t133.5 -343.5t-133.5 -343.5t-343.5 -135.5q-208 0 -342 135.5t-134 343.5zM166 461q0 -186 116.5 -305t299.5 -119t299 119t116 305t-116 305t-299 119q-182 0 -299 -119t-117 -305zM326 1282q0 17 13 30t32 13
q15 0 28 -13t13 -30q0 -21 -12.5 -34t-28.5 -13q-19 0 -32 13t-13 34zM758 1282q0 17 13 30t32 13q17 0 30 -13t13 -30q0 -21 -12.5 -34t-30.5 -13q-19 0 -32 13t-13 34z" />
    <glyph glyph-name="divide" unicode="&#xf7;" 
d="M555 1178q0 18 13 30.5t34 12.5q18 0 30.5 -12.5t12.5 -30.5q0 -19 -12.5 -33.5t-30.5 -14.5q-21 0 -34 14t-13 34zM555 299q0 16 13 29.5t34 13.5q18 0 30.5 -13.5t12.5 -29.5q0 -19 -12.5 -33t-30.5 -14q-21 0 -34 14t-13 33zM150 711v53h901v-53h-901z" />
    <glyph glyph-name="oslash" unicode="&#xf8;" horiz-adv-x="1165" 
d="M106 461q0 208 134 343.5t342 135.5q201 0 336 -129l112 113l33 -37l-113 -113q109 -131 109 -313q0 -208 -133.5 -343.5t-343.5 -135.5q-189 0 -312 108l-116 -117l-35 39l112 113q-125 131 -125 336zM166 461q0 -180 106 -295l605 604q-118 115 -295 115
q-182 0 -299 -119t-117 -305zM997 461q0 155 -88 270l-600 -602q112 -92 273 -92q183 0 299 119t116 305z" />
    <glyph glyph-name="ugrave" unicode="&#xf9;" horiz-adv-x="1120" 
d="M946 922v-922h-57v160q-59 -74 -161.5 -126t-209.5 -52q-183 0 -273.5 101.5t-90.5 313.5v525h59v-510q0 -189 78.5 -282t245.5 -93q104 0 203 56.5t149 125.5v703h57zM596 1130l-229 289l43 35l223 -299z" />
    <glyph glyph-name="uacute" unicode="&#xfa;" horiz-adv-x="1120" 
d="M946 922v-922h-57v160q-59 -74 -161.5 -126t-209.5 -52q-183 0 -273.5 101.5t-90.5 313.5v525h59v-510q0 -189 78.5 -282t245.5 -93q104 0 203 56.5t149 125.5v703h57zM756 1419l-230 -289l-37 25l224 299z" />
    <glyph glyph-name="ucircumflex" unicode="&#xfb;" horiz-adv-x="1120" 
d="M946 922v-922h-57v160q-59 -74 -161.5 -126t-209.5 -52q-183 0 -273.5 101.5t-90.5 313.5v525h59v-510q0 -189 78.5 -282t245.5 -93q104 0 203 56.5t149 125.5v703h57zM555 1450l246 -268l-31 -37l-219 233l-221 -231l-33 35l250 268h8z" />
    <glyph glyph-name="udieresis" unicode="&#xfc;" horiz-adv-x="1120" 
d="M946 922v-922h-57v160q-59 -74 -161.5 -126t-209.5 -52q-183 0 -273.5 101.5t-90.5 313.5v525h59v-510q0 -189 78.5 -282t245.5 -93q104 0 203 56.5t149 125.5v703h57zM301 1282q0 17 13 30t32 13q15 0 28 -13t13 -30q0 -21 -12.5 -34t-28.5 -13q-19 0 -32 13t-13 34z
M733 1282q0 17 13 30t32 13q17 0 30 -13t13 -30q0 -21 -12.5 -34t-30.5 -13q-19 0 -32 13t-13 34z" />
    <glyph glyph-name="yacute" unicode="&#xfd;" horiz-adv-x="966" 
d="M932 922l-377 -922q-67 -163 -123 -253t-105.5 -123.5t-113.5 -33.5q-67 0 -143 39l20 45q68 -30 115 -30q79 0 143 71.5t131 235.5l21 49l-465 922h67l355 -707q26 -48 71 -149q8 23 18 48.5t22.5 56.5t19.5 48l278 703h66zM676 1419l-230 -289l-36 25l223 299z" />
    <glyph glyph-name="thorn" unicode="&#xfe;" horiz-adv-x="1130" 
d="M174 -410v1844h59v-643q57 66 155 107.5t200 41.5q202 0 320 -129t118 -336q0 -140 -57.5 -252t-165 -176.5t-246.5 -64.5q-201 0 -324 92v-484h-59zM575 885q-103 0 -199 -46.5t-143 -109.5v-594q137 -98 322 -98q182 0 296 120.5t114 311.5q0 189 -103.5 302.5
t-286.5 113.5z" />
    <glyph glyph-name="ydieresis" unicode="&#xff;" horiz-adv-x="966" 
d="M932 922l-377 -922q-67 -163 -123 -253t-105.5 -123.5t-113.5 -33.5q-67 0 -143 39l20 45q68 -30 115 -30q79 0 143 71.5t131 235.5l21 49l-465 922h67l355 -707q26 -48 71 -149q8 23 18 48.5t22.5 56.5t19.5 48l278 703h66zM227 1282q0 17 13 30t32 13q15 0 28 -13
t13 -30q0 -21 -12.5 -34t-28.5 -13q-19 0 -32 13t-13 34zM659 1282q0 17 13.5 30t32.5 13q17 0 30 -13t13 -30q0 -21 -12.5 -34t-30.5 -13q-19 0 -32.5 13t-13.5 34z" />
    <glyph glyph-name="Amacron" unicode="&#x100;" horiz-adv-x="1413" 
d="M53 0l631 1448h45l631 -1448h-66l-231 532h-717l-229 -532h-64zM705 1358l-334 -768h667zM401 1608v49h609v-49h-609z" />
    <glyph glyph-name="amacron" unicode="&#x101;" horiz-adv-x="935" 
d="M186 807l-18 49q134 84 283 84q179 0 255 -92t76 -273v-575h-57v160q-123 -170 -342 -170q-129 0 -208 72t-79 192q0 134 97.5 207.5t252.5 73.5q172 0 279 -76q0 57 -1 92.5t-5 81.5t-12 74t-21.5 60.5t-34 51t-49.5 35.5t-68.5 24t-89.5 7q-74 0 -130.5 -18.5
t-127.5 -59.5zM395 45q65 0 119.5 15t94 43.5t64.5 54t52 61.5v184q-116 82 -274 82q-76 0 -140 -22.5t-108.5 -75.5t-44.5 -129q0 -99 67 -156t170 -57zM221 1278v51h496v-51h-496z" />
    <glyph glyph-name="Abreve" unicode="&#x102;" horiz-adv-x="1413" 
d="M53 0l631 1448h45l631 -1448h-66l-231 532h-717l-229 -532h-64zM705 1358l-334 -768h667zM389 1710l29 31q117 -139 293 -139q93 0 165.5 40t120.5 99l27 -31q-49 -69 -129 -115.5t-184 -46.5q-61 0 -117.5 17t-96 43.5t-66 52t-42.5 49.5z" />
    <glyph glyph-name="abreve" unicode="&#x103;" horiz-adv-x="935" 
d="M186 807l-18 49q134 84 283 84q179 0 255 -92t76 -273v-575h-57v160q-123 -170 -342 -170q-129 0 -208 72t-79 192q0 134 97.5 207.5t252.5 73.5q172 0 279 -76q0 57 -1 92.5t-5 81.5t-12 74t-21.5 60.5t-34 51t-49.5 35.5t-68.5 24t-89.5 7q-74 0 -130.5 -18.5
t-127.5 -59.5zM395 45q65 0 119.5 15t94 43.5t64.5 54t52 61.5v184q-116 82 -274 82q-76 0 -140 -22.5t-108.5 -75.5t-44.5 -129q0 -99 67 -156t170 -57zM195 1362l28 31q22 -26 39 -43.5t49.5 -42.5t73 -38.5t86.5 -13.5q136 0 244 138l24 -31q-52 -70 -115.5 -114
t-154.5 -44q-54 0 -102 16.5t-81.5 44t-54 50.5t-36.5 47z" />
    <glyph glyph-name="Aogonek" unicode="&#x104;" horiz-adv-x="1413" 
d="M1331 -342l19 -39q-56 -29 -125 -29q-36 0 -71.5 9t-69.5 29t-55 58.5t-21 90.5q0 96 81.5 161.5t194.5 81.5l-221 512h-717l-229 -532h-64l631 1448h45l631 -1448h-31q-103 -3 -183.5 -62.5t-80.5 -148.5q0 -43 18.5 -74t46.5 -46.5t54.5 -22t50.5 -6.5q57 0 96 18z
M705 1358l-334 -768h667z" />
    <glyph glyph-name="aogonek" unicode="&#x105;" horiz-adv-x="935" 
d="M774 -342l19 -39q-56 -29 -125 -29q-36 0 -71.5 9t-69.5 29t-55 58.5t-21 90.5q0 95 81 161t193 82v140q-123 -170 -342 -170q-129 0 -208 72t-79 192q0 134 97.5 207.5t252.5 73.5q172 0 279 -76q0 57 -1 92.5t-5 81.5t-12 74t-21.5 60.5t-34 51t-49.5 35.5t-68.5 24
t-89.5 7q-74 0 -130.5 -18.5t-127.5 -59.5l-18 49q134 84 283 84q179 0 255 -92t76 -273v-575q-105 0 -189.5 -60.5t-84.5 -150.5q0 -43 18.5 -74t46.5 -46.5t54.5 -22t50.5 -6.5q57 0 96 18zM395 45q65 0 119.5 15t94 43.5t64.5 54t52 61.5v184q-116 82 -274 82
q-76 0 -140 -22.5t-108.5 -75.5t-44.5 -129q0 -99 67 -156t170 -57z" />
    <glyph glyph-name="Cacute" unicode="&#x106;" horiz-adv-x="1345" 
d="M1241 184l27 -47q-74 -72 -194 -113.5t-247 -41.5q-156 0 -288 52.5t-225 147.5t-145 232.5t-52 302.5q0 206 85 372.5t244 264.5t363 98q269 0 432 -133l-31 -43q-148 117 -399 117q-186 0 -330.5 -89t-222.5 -242.5t-78 -344.5q0 -304 181 -490t470 -186
q121 0 226.5 38t183.5 105zM1042 1698l-342 -182l-18 36l338 193z" />
    <glyph glyph-name="cacute" unicode="&#x107;" horiz-adv-x="1005" 
d="M899 170l29 -39q-57 -72 -148.5 -110.5t-191.5 -38.5q-213 0 -347.5 131.5t-134.5 347.5q0 201 130.5 340t320.5 139q231 0 352 -113l-28 -47q-119 105 -314 105q-166 0 -283.5 -122t-117.5 -302q0 -192 120 -308t306 -116q91 0 173 36.5t134 96.5zM760 1419l-230 -289
l-36 25l223 299z" />
    <glyph glyph-name="Ccircumflex" unicode="&#x108;" horiz-adv-x="1345" 
d="M1241 184l27 -47q-74 -72 -194 -113.5t-247 -41.5q-156 0 -288 52.5t-225 147.5t-145 232.5t-52 302.5q0 206 85 372.5t244 264.5t363 98q269 0 432 -133l-31 -43q-148 117 -399 117q-186 0 -330.5 -89t-222.5 -242.5t-78 -344.5q0 -304 181 -490t470 -186
q121 0 226.5 38t183.5 105zM465 1550l340 193h8l342 -191l-31 -36l-315 174l-317 -174z" />
    <glyph glyph-name="ccircumflex" unicode="&#x109;" horiz-adv-x="1005" 
d="M899 170l29 -39q-57 -72 -148.5 -110.5t-191.5 -38.5q-213 0 -347.5 131.5t-134.5 347.5q0 201 130.5 340t320.5 139q231 0 352 -113l-28 -47q-119 105 -314 105q-166 0 -283.5 -122t-117.5 -302q0 -192 120 -308t306 -116q91 0 173 36.5t134 96.5zM573 1450l246 -268
l-31 -37l-219 233l-221 -231l-33 35l250 268h8z" />
    <glyph glyph-name="Cdotaccent" unicode="&#x10a;" horiz-adv-x="1345" 
d="M1241 184l27 -47q-74 -72 -194 -113.5t-247 -41.5q-156 0 -288 52.5t-225 147.5t-145 232.5t-52 302.5q0 206 85 372.5t244 264.5t363 98q269 0 432 -133l-31 -43q-148 117 -399 117q-186 0 -330.5 -89t-222.5 -242.5t-78 -344.5q0 -304 181 -490t470 -186
q121 0 226.5 38t183.5 105zM729 1632q0 21 14.5 33t36.5 12q18 0 31.5 -12t13.5 -33q0 -22 -13.5 -35.5t-31.5 -13.5q-22 0 -36.5 13t-14.5 36z" />
    <glyph glyph-name="cdotaccent" unicode="&#x10b;" horiz-adv-x="1005" 
d="M899 170l29 -39q-57 -72 -148.5 -110.5t-191.5 -38.5q-213 0 -347.5 131.5t-134.5 347.5q0 201 130.5 340t320.5 139q231 0 352 -113l-28 -47q-119 105 -314 105q-166 0 -283.5 -122t-117.5 -302q0 -192 120 -308t306 -116q91 0 173 36.5t134 96.5zM537 1288q0 19 14 32
t33 13q17 0 30 -13t13 -32q0 -20 -12.5 -33.5t-30.5 -13.5q-19 0 -33 13.5t-14 33.5z" />
    <glyph glyph-name="Ccaron" unicode="&#x10c;" horiz-adv-x="1345" 
d="M1241 184l27 -47q-74 -72 -194 -113.5t-247 -41.5q-156 0 -288 52.5t-225 147.5t-145 232.5t-52 302.5q0 206 85 372.5t244 264.5t363 98q269 0 432 -133l-31 -43q-148 117 -399 117q-186 0 -330.5 -89t-222.5 -242.5t-78 -344.5q0 -304 181 -490t470 -186
q121 0 226.5 38t183.5 105zM807 1520l-342 190l27 35l319 -174l315 174l29 -35l-340 -190h-8z" />
    <glyph glyph-name="ccaron" unicode="&#x10d;" horiz-adv-x="1005" 
d="M899 170l29 -39q-57 -72 -148.5 -110.5t-191.5 -38.5q-213 0 -347.5 131.5t-134.5 347.5q0 201 130.5 340t320.5 139q231 0 352 -113l-28 -47q-119 105 -314 105q-166 0 -283.5 -122t-117.5 -302q0 -192 120 -308t306 -116q91 0 173 36.5t134 96.5zM582 1147l-250 268
l33 37l221 -244l219 242l33 -35l-248 -268h-8z" />
    <glyph glyph-name="Dcaron" unicode="&#x10e;" horiz-adv-x="1505" 
d="M238 0v1434h22q52 0 153 3t171 3q167 0 303 -37.5t228.5 -102t155 -154.5t90.5 -191.5t28 -215.5q0 -156 -52.5 -290t-152.5 -235.5t-258.5 -159.5t-358.5 -58q-57 0 -158.5 2t-156.5 2h-14zM580 1382q-66 0 -151.5 -3t-129.5 -3v-1319q37 0 78 -0.5t73.5 -1t59 -1
t42.5 -1t17 -0.5q148 0 272 35t212.5 97.5t150 148.5t91.5 188t30 217q0 134 -43 247.5t-130.5 203.5t-233.5 141t-338 51zM686 1520l-342 190l27 35l319 -174l316 174l28 -35l-340 -190h-8z" />
    <glyph glyph-name="dcaron" unicode="&#x10f;" horiz-adv-x="1132" 
d="M899 0v145q-59 -69 -149.5 -115t-186.5 -46q-207 0 -332 129.5t-125 345.5q0 211 142 346t356 135q172 0 295 -92v586h57v-1434h-57zM571 39q94 0 187 51t141 113v588q-135 94 -295 94q-187 0 -312.5 -118.5t-125.5 -305.5q0 -194 111 -308t294 -114zM1194 1434h57
q19 -38 19 -86q0 -92 -37.5 -158t-95.5 -94l-25 30q46 30 74 87.5t28 127.5q0 55 -20 93z" />
    <glyph glyph-name="Dcroat" unicode="&#x110;" horiz-adv-x="1558" 
d="M20 707v55h271v672h22q51 0 153 3t171 3q167 0 303 -37.5t228.5 -102t155 -154.5t90.5 -191.5t28 -215.5q0 -156 -52 -290t-152 -235.5t-258.5 -159.5t-358.5 -58q-55 0 -158 2t-158 2h-14v707h-271zM633 1382q-66 0 -151.5 -3t-129.5 -3v-614h422v-55h-422v-650
q37 0 78.5 -0.5t74 -1t59.5 -1t43.5 -1t17.5 -0.5q183 0 328.5 53.5t237 147.5t139.5 217.5t48 267.5q0 134 -43 247.5t-130.5 203.5t-233.5 141t-338 51z" />
    <glyph glyph-name="dcroat" unicode="&#x111;" horiz-adv-x="1132" 
d="M500 1135v49h399v250h57v-250h232v-49h-232v-1135h-57v145q-59 -69 -149.5 -115t-186.5 -46q-207 0 -332 129.5t-125 345.5q0 211 142 346t356 135q172 0 295 -92v287h-399zM571 39q94 0 187 51t141 113v588q-135 94 -295 94q-187 0 -312.5 -118.5t-125.5 -305.5
q0 -194 111 -308t294 -114z" />
    <glyph glyph-name="Emacron" unicode="&#x112;" horiz-adv-x="1177" 
d="M238 0v1434h778v-58h-717v-618h655v-58h-655v-643h737v-57h-798zM322 1608v49h608v-49h-608z" />
    <glyph glyph-name="emacron" unicode="&#x113;" horiz-adv-x="1079" 
d="M903 164l23 -43q-58 -67 -149 -103t-187 -36q-214 0 -349 131.5t-135 347.5q0 137 50 243.5t155 171t252 64.5q180 0 296 -114t116 -300q0 -27 -4 -63h-801q1 -196 116 -311t306 -115q94 0 176 35t135 92zM555 885q-173 0 -275 -103.5t-114 -269.5h749q1 171 -97 272
t-263 101zM295 1278v51h496v-51h-496z" />
    <glyph glyph-name="Edotaccent" unicode="&#x116;" horiz-adv-x="1177" 
d="M238 0v1434h778v-58h-717v-618h655v-58h-655v-643h737v-57h-798zM584 1632q0 21 14.5 33t36.5 12q18 0 31.5 -12t13.5 -33q0 -22 -13.5 -35.5t-31.5 -13.5q-22 0 -36.5 13t-14.5 36z" />
    <glyph glyph-name="edotaccent" unicode="&#x117;" horiz-adv-x="1079" 
d="M903 164l23 -43q-58 -67 -149 -103t-187 -36q-214 0 -349 131.5t-135 347.5q0 137 50 243.5t155 171t252 64.5q180 0 296 -114t116 -300q0 -27 -4 -63h-801q1 -196 116 -311t306 -115q94 0 176 35t135 92zM555 885q-173 0 -275 -103.5t-114 -269.5h749q1 171 -97 272
t-263 101zM496 1288q0 19 14 32t33 13q17 0 30 -13t13 -32q0 -20 -12.5 -33.5t-30.5 -13.5q-19 0 -33 13.5t-14 33.5z" />
    <glyph glyph-name="Eogonek" unicode="&#x118;" horiz-adv-x="1177" 
d="M238 0v1434h778v-58h-717v-618h655v-58h-655v-643h737v-57h-10q-103 -3 -183.5 -62.5t-80.5 -148.5q0 -43 18.5 -74t46.5 -46.5t54.5 -22t50.5 -6.5q57 0 96 18l19 -39q-56 -29 -125 -29q-36 0 -71.5 9t-69.5 29t-55 58.5t-21 90.5q0 76 53 135t137 88h-657z" />
    <glyph glyph-name="eogonek" unicode="&#x119;" horiz-adv-x="1079" 
d="M903 164l23 -43q-64 -75 -176 -113q-156 -99 -156 -219q0 -43 18 -74t46 -46.5t54.5 -22t51.5 -6.5q57 0 96 18l17 -39q-56 -29 -125 -29q-36 0 -71.5 9t-69.5 29t-55 58.5t-21 90.5q0 121 139 213q-39 -8 -84 -8q-214 0 -349 131.5t-135 347.5q0 137 50 243.5t155 171
t252 64.5q180 0 296 -114t116 -300q0 -27 -4 -63h-801q1 -196 116 -311t306 -115q94 0 176 35t135 92zM555 885q-173 0 -275 -103.5t-114 -269.5h749q1 171 -97 272t-263 101z" />
    <glyph glyph-name="Ecaron" unicode="&#x11a;" horiz-adv-x="1177" 
d="M238 0v1434h778v-58h-717v-618h655v-58h-655v-643h737v-57h-798zM643 1520l-342 190l27 35l319 -174l316 174l28 -35l-340 -190h-8z" />
    <glyph glyph-name="ecaron" unicode="&#x11b;" horiz-adv-x="1079" 
d="M903 164l23 -43q-58 -67 -149 -103t-187 -36q-214 0 -349 131.5t-135 347.5q0 137 50 243.5t155 171t252 64.5q180 0 296 -114t116 -300q0 -27 -4 -63h-801q1 -196 116 -311t306 -115q94 0 176 35t135 92zM555 885q-173 0 -275 -103.5t-114 -269.5h749q1 171 -97 272
t-263 101zM559 1147l-250 268l33 37l221 -244l219 242l33 -35l-248 -268h-8z" />
    <glyph glyph-name="Gcircumflex" unicode="&#x11c;" horiz-adv-x="1488" 
d="M846 606v58h506v-486q-91 -91 -243.5 -143.5t-293.5 -52.5q-311 0 -504.5 201.5t-193.5 533.5q0 153 50 288.5t139 234t218.5 155.5t280.5 57q269 0 438 -133l-31 -47q-143 121 -399 121q-187 0 -332 -89t-223 -242.5t-78 -344.5q0 -305 177 -490.5t462 -185.5
q131 0 264 46t209 122v397h-446zM465 1550l340 193h8l342 -191l-31 -36l-315 174l-317 -174z" />
    <glyph glyph-name="gcircumflex" unicode="&#x11d;" horiz-adv-x="997" 
d="M35 -141q0 105 76 175t211 97q-35 38 -35 94q0 62 39 101q-90 39 -141.5 115t-51.5 175q0 140 98.5 232t255.5 92q139 0 232 -74l258 72v-55l-211 -58q76 -85 76 -209q0 -139 -99 -230t-256 -91q-67 0 -116 14q-29 -33 -29 -84q0 -52 37 -86q70 8 110 8q206 0 330.5 -75
t124.5 -213q0 -136 -124.5 -210.5t-330.5 -74.5q-207 0 -330.5 74t-123.5 211zM96 -141q0 -107 108 -168.5t285 -61.5q180 0 287 60.5t107 169.5t-107.5 171t-286.5 62q-177 0 -285 -62t-108 -171zM195 616q0 -116 81 -191t211 -75t211.5 75t81.5 191t-82.5 192.5
t-210.5 76.5t-210 -76.5t-82 -192.5zM500 1450l245 -268l-30 -37l-219 233l-222 -231l-32 35l250 268h8z" />
    <glyph glyph-name="Gbreve" unicode="&#x11e;" horiz-adv-x="1488" 
d="M846 606v58h506v-486q-91 -91 -243.5 -143.5t-293.5 -52.5q-311 0 -504.5 201.5t-193.5 533.5q0 153 50 288.5t139 234t218.5 155.5t280.5 57q269 0 438 -133l-31 -47q-143 121 -399 121q-187 0 -332 -89t-223 -242.5t-78 -344.5q0 -305 177 -490.5t462 -185.5
q131 0 264 46t209 122v397h-446zM500 1710l28 31q117 -139 293 -139q93 0 166 40t121 99l27 -31q-49 -69 -129.5 -115.5t-184.5 -46.5q-61 0 -117 17t-95.5 43.5t-66 52t-42.5 49.5z" />
    <glyph glyph-name="gbreve" unicode="&#x11f;" horiz-adv-x="997" 
d="M35 -141q0 105 76 175t211 97q-35 38 -35 94q0 62 39 101q-90 39 -141.5 115t-51.5 175q0 140 98.5 232t255.5 92q139 0 232 -74l258 72v-55l-211 -58q76 -85 76 -209q0 -139 -99 -230t-256 -91q-67 0 -116 14q-29 -33 -29 -84q0 -52 37 -86q70 8 110 8q206 0 330.5 -75
t124.5 -213q0 -136 -124.5 -210.5t-330.5 -74.5q-207 0 -330.5 74t-123.5 211zM96 -141q0 -107 108 -168.5t285 -61.5q180 0 287 60.5t107 169.5t-107.5 171t-286.5 62q-177 0 -285 -62t-108 -171zM195 616q0 -116 81 -191t211 -75t211.5 75t81.5 191t-82.5 192.5
t-210.5 76.5t-210 -76.5t-82 -192.5zM221 1362l29 31q22 -26 39 -43.5t49.5 -42.5t73 -38.5t86.5 -13.5q135 0 243 138l25 -31q-52 -70 -115.5 -114t-154.5 -44q-54 0 -102 16.5t-82 44t-54.5 50.5t-36.5 47z" />
    <glyph glyph-name="Gdotaccent" unicode="&#x120;" horiz-adv-x="1488" 
d="M846 606v58h506v-486q-91 -91 -243.5 -143.5t-293.5 -52.5q-311 0 -504.5 201.5t-193.5 533.5q0 153 50 288.5t139 234t218.5 155.5t280.5 57q269 0 438 -133l-31 -47q-143 121 -399 121q-187 0 -332 -89t-223 -242.5t-78 -344.5q0 -305 177 -490.5t462 -185.5
q131 0 264 46t209 122v397h-446zM743 1632q0 21 14.5 33t37.5 12q18 0 31.5 -12t13.5 -33q0 -22 -13.5 -35.5t-31.5 -13.5q-22 0 -37 13t-15 36z" />
    <glyph glyph-name="gdotaccent" unicode="&#x121;" horiz-adv-x="997" 
d="M35 -141q0 105 76 175t211 97q-35 38 -35 94q0 62 39 101q-90 39 -141.5 115t-51.5 175q0 140 98.5 232t255.5 92q139 0 232 -74l258 72v-55l-211 -58q76 -85 76 -209q0 -139 -99 -230t-256 -91q-67 0 -116 14q-29 -33 -29 -84q0 -52 37 -86q70 8 110 8q206 0 330.5 -75
t124.5 -213q0 -136 -124.5 -210.5t-330.5 -74.5q-207 0 -330.5 74t-123.5 211zM96 -141q0 -107 108 -168.5t285 -61.5q180 0 287 60.5t107 169.5t-107.5 171t-286.5 62q-177 0 -285 -62t-108 -171zM195 616q0 -116 81 -191t211 -75t211.5 75t81.5 191t-82.5 192.5
t-210.5 76.5t-210 -76.5t-82 -192.5zM449 1288q0 19 14 32t33 13q17 0 30 -13t13 -32q0 -20 -12.5 -33.5t-30.5 -13.5q-19 0 -33 13.5t-14 33.5z" />
    <glyph glyph-name="uni0122" unicode="&#x122;" horiz-adv-x="1488" 
d="M846 606v58h506v-486q-91 -91 -243.5 -143.5t-293.5 -52.5q-311 0 -504.5 201.5t-193.5 533.5q0 153 50 288.5t139 234t218.5 155.5t280.5 57q269 0 438 -133l-31 -47q-143 121 -399 121q-187 0 -332 -89t-223 -242.5t-78 -344.5q0 -305 177 -490.5t462 -185.5
q131 0 264 46t209 122v397h-446zM760 -156l41 25q36 -3 59 -31t23 -71q0 -73 -37.5 -115t-106.5 -64l-16 31q102 40 102 135q0 76 -65 90z" />
    <glyph glyph-name="uni0123" unicode="&#x123;" horiz-adv-x="997" 
d="M35 -141q0 105 76 175t211 97q-35 38 -35 94q0 62 39 101q-90 39 -141.5 115t-51.5 175q0 140 98.5 232t255.5 92q139 0 232 -74l258 72v-55l-211 -58q76 -85 76 -209q0 -139 -99 -230t-256 -91q-67 0 -116 14q-29 -33 -29 -84q0 -52 37 -86q70 8 110 8q206 0 330.5 -75
t124.5 -213q0 -136 -124.5 -210.5t-330.5 -74.5q-207 0 -330.5 74t-123.5 211zM96 -141q0 -107 108 -168.5t285 -61.5q180 0 287 60.5t107 169.5t-107.5 171t-286.5 62q-177 0 -285 -62t-108 -171zM195 616q0 -116 81 -191t211 -75t211.5 75t81.5 191t-82.5 192.5
t-210.5 76.5t-210 -76.5t-82 -192.5zM539 1174l-41 -25q-36 3 -59 31t-23 71q0 73 37 115t106 64l16 -31q-52 -21 -77 -53t-25 -82q0 -76 66 -90z" />
    <glyph glyph-name="Hcircumflex" unicode="&#x124;" horiz-adv-x="1581" 
d="M1284 0v702h-985v-702h-61v1434h61v-674h985v674h59v-1434h-59zM446 1550l340 193h9l342 -191l-31 -36l-315 174l-318 -174z" />
    <glyph glyph-name="hcircumflex" unicode="&#x125;" horiz-adv-x="1132" 
d="M174 0v1434h59v-652q58 67 157.5 111.5t197.5 44.5q197 0 293 -101.5t96 -316.5v-520h-57v508q0 191 -84 283t-258 92q-102 0 -200 -47.5t-145 -110.5v-725h-59zM-8 1550l340 193h8l342 -191l-31 -36l-315 174l-318 -174z" />
    <glyph glyph-name="Hbar" unicode="&#x126;" horiz-adv-x="1601" 
d="M59 1079v56h189v299h61v-299h985v299h60v-299h190v-56h-190v-1079h-60v702h-985v-702h-61v1079h-189zM309 760h985v319h-985v-319z" />
    <glyph glyph-name="hbar" unicode="&#x127;" horiz-adv-x="1144" 
d="M-86 1110v55h272v269h60v-269h372v-55h-372v-328q58 67 157 111.5t197 44.5q197 0 293 -101.5t96 -316.5v-520h-57v508q0 191 -84 283t-258 92q-102 0 -199.5 -47.5t-144.5 -110.5v-725h-60v1110h-272z" />
    <glyph glyph-name="Imacron" unicode="&#x12a;" horiz-adv-x="647" 
d="M293 0v1434h61v-1434h-61zM23 1608v49h608v-49h-608z" />
    <glyph glyph-name="imacron" unicode="&#x12b;" horiz-adv-x="522" 
d="M231 0v922h58v-922h-58zM12 1278v51h496v-51h-496z" />
    <glyph glyph-name="Iogonek" unicode="&#x12e;" horiz-adv-x="647" 
d="M346 -342l19 -39q-56 -29 -125 -29q-36 0 -71.5 9t-69.5 29t-55 58.5t-21 90.5q0 95 79.5 161t190.5 82v1414h61v-1434h-10q-103 -3 -183.5 -62.5t-80.5 -148.5q0 -43 18.5 -74t46.5 -46.5t54.5 -22t50.5 -6.5q57 0 96 18z" />
    <glyph glyph-name="iogonek" unicode="&#x12f;" horiz-adv-x="522" 
d="M281 -342l18 -39q-56 -29 -125 -29q-36 0 -71.5 9t-69.5 29t-55 58.5t-21 90.5q0 95 81 161t193 82v902h58v-922h-10q-104 -3 -184.5 -63t-80.5 -148q0 -43 18.5 -74t46.5 -46.5t54.5 -22t50.5 -6.5q58 0 97 18zM213 1288q0 19 14 32t33 13q17 0 30 -13t13 -32
q0 -20 -12.5 -33.5t-30.5 -13.5q-19 0 -33 13.5t-14 33.5z" />
    <glyph glyph-name="Idotaccent" unicode="&#x130;" horiz-adv-x="647" 
d="M293 0v1434h61v-1434h-61zM276 1632q0 21 14.5 33t37.5 12q18 0 31.5 -12t13.5 -33q0 -22 -13.5 -35.5t-31.5 -13.5q-22 0 -37 13t-15 36z" />
    <glyph glyph-name="dotlessi" unicode="&#x131;" horiz-adv-x="522" 
d="M231 0v922h58v-922h-58z" />
    <glyph glyph-name="Jcircumflex" unicode="&#x134;" horiz-adv-x="716" 
d="M477 1434v-1127q0 -77 -12.5 -133.5t-41.5 -101.5t-81.5 -67.5t-128.5 -22.5q-53 0 -100.5 17t-77.5 42l24 47q62 -47 148 -47q64 0 107.5 20.5t65 60t30 84.5t8.5 107v1121h59zM86 1550l340 193h8l342 -191l-31 -36l-315 174l-317 -174z" />
    <glyph glyph-name="jcircumflex" unicode="&#x135;" horiz-adv-x="522" 
d="M293 922v-990q0 -358 -289 -358q-101 0 -174 53l20 47q65 -45 146 -45q126 0 183 77t57 228v988h57zM268 1450l246 -268l-31 -37l-219 233l-221 -231l-33 35l250 268h8z" />
    <glyph glyph-name="uni0136" unicode="&#x136;" horiz-adv-x="1277" 
d="M1182 1434l-705 -682l729 -752h-88l-725 748l705 686h84zM238 0v1434h61v-1434h-61zM565 -156l41 25q36 -3 59 -31t23 -71q0 -73 -37 -115t-106 -64l-17 31q103 41 103 135q0 76 -66 90z" />
    <glyph glyph-name="uni0137" unicode="&#x137;" horiz-adv-x="935" 
d="M848 922l-461 -437l500 -485h-82l-492 481l457 441h78zM174 0v1434h59v-1434h-59zM401 -156l41 25q36 -3 59 -31t23 -71q0 -73 -37 -115t-106 -64l-16 31q102 40 102 135q0 76 -66 90z" />
    <glyph glyph-name="Lacute" unicode="&#x139;" horiz-adv-x="1134" 
d="M238 0v1434h61v-1377h797v-57h-858zM854 1698l-342 -182l-18 36l337 193z" />
    <glyph glyph-name="lacute" unicode="&#x13a;" horiz-adv-x="565" 
d="M174 231v1203h59v-1160q0 -119 33.5 -173t116.5 -54q81 0 143 47l19 -47q-74 -55 -178 -55q-100 0 -146.5 58.5t-46.5 180.5zM506 1698l-342 -182l-19 36l338 193z" />
    <glyph glyph-name="uni013B" unicode="&#x13b;" horiz-adv-x="1134" 
d="M238 0v1434h61v-1377h797v-57h-858zM590 -156l41 25q36 -3 59 -31t23 -71q0 -73 -37.5 -115t-106.5 -64l-16 31q102 40 102 135q0 76 -65 90z" />
    <glyph glyph-name="uni013C" unicode="&#x13c;" horiz-adv-x="565" 
d="M174 231v1203h59v-1160q0 -119 33.5 -173t116.5 -54q81 0 143 47l19 -47q-74 -55 -178 -55q-100 0 -146.5 58.5t-46.5 180.5zM272 -156l41 25q36 -3 59 -31t23 -71q0 -73 -37 -115t-106 -64l-16 31q102 40 102 135q0 76 -66 90z" />
    <glyph glyph-name="Lcaron" unicode="&#x13d;" horiz-adv-x="1134" 
d="M238 0v1434h61v-1377h797v-57h-858zM731 1434h57q19 -38 19 -86q0 -92 -37.5 -158t-95.5 -94l-25 30q46 30 74.5 88t28.5 127q0 53 -21 93z" />
    <glyph glyph-name="lcaron" unicode="&#x13e;" horiz-adv-x="565" 
d="M174 231v1203h59v-1160q0 -119 33.5 -173t116.5 -54q81 0 143 47l19 -47q-74 -55 -178 -55q-100 0 -146.5 58.5t-46.5 180.5zM475 1434h57q19 -38 19 -86q0 -92 -37.5 -158t-95.5 -94l-25 30q46 30 74.5 88t28.5 127q0 53 -21 93z" />
    <glyph glyph-name="Ldot" unicode="&#x13f;" horiz-adv-x="1134" 
d="M238 0v1434h61v-1377h797v-57h-858zM788 766q0 18 15.5 31.5t36.5 13.5q19 0 33 -14t14 -31q0 -20 -14 -35.5t-33 -15.5q-22 0 -37 15.5t-15 35.5z" />
    <glyph glyph-name="ldot" unicode="&#x140;" horiz-adv-x="583" 
d="M174 231v1203h59v-1160q0 -119 33.5 -173t116.5 -54q81 0 143 47l19 -47q-74 -55 -178 -55q-100 0 -146.5 58.5t-46.5 180.5zM457 631q0 19 14 32t33 13q17 0 30 -13t13 -32q0 -20 -12.5 -33.5t-30.5 -13.5q-19 0 -33 13.5t-14 33.5z" />
    <glyph glyph-name="Lslash" unicode="&#x141;" horiz-adv-x="1155" 
d="M59 494v63l199 102v775h61v-742l402 209v-59l-402 -211v-574h797v-57h-858v598z" />
    <glyph glyph-name="lslash" unicode="&#x142;" horiz-adv-x="626" 
d="M39 516v62l176 92v764h59v-734l244 127v-59l-244 -129v-365q0 -119 33.5 -173t116.5 -54q81 0 143 47l19 -47q-74 -55 -178 -55q-100 0 -146.5 58.5t-46.5 180.5v377z" />
    <glyph glyph-name="Nacute" unicode="&#x143;" horiz-adv-x="1636" 
d="M1399 0h-49l-1055 1323v-1323h-57v1434h49l1052 -1328v1328h60v-1434zM1102 1698l-342 -182l-19 36l338 193z" />
    <glyph glyph-name="nacute" unicode="&#x144;" horiz-adv-x="1132" 
d="M174 0v922h59v-140q57 66 156.5 111t198.5 45q197 0 293 -101.5t96 -316.5v-520h-57v508q0 191 -84 283t-258 92q-102 0 -199 -47.5t-146 -110.5v-725h-59zM764 1419l-229 -289l-37 25l223 299z" />
    <glyph glyph-name="uni0145" unicode="&#x145;" horiz-adv-x="1636" 
d="M1399 0h-49l-1055 1323v-1323h-57v1434h49l1052 -1328v1328h60v-1434zM756 -156l41 25q36 -3 59 -31t23 -71q0 -73 -37.5 -115t-106.5 -64l-16 31q102 40 102 135q0 76 -65 90z" />
    <glyph glyph-name="uni0146" unicode="&#x146;" horiz-adv-x="1132" 
d="M174 0v922h59v-140q57 66 156.5 111t198.5 45q197 0 293 -101.5t96 -316.5v-520h-57v508q0 191 -84 283t-258 92q-102 0 -199 -47.5t-146 -110.5v-725h-59zM518 -156l41 25q36 -3 59 -31t23 -71q0 -73 -37 -115t-106 -64l-17 31q103 41 103 135q0 76 -66 90z" />
    <glyph glyph-name="Ncaron" unicode="&#x147;" horiz-adv-x="1636" 
d="M1399 0h-49l-1055 1323v-1323h-57v1434h49l1052 -1328v1328h60v-1434zM813 1520l-342 190l27 35l319 -174l316 174l28 -35l-340 -190h-8z" />
    <glyph glyph-name="ncaron" unicode="&#x148;" horiz-adv-x="1132" 
d="M174 0v922h59v-140q57 66 156.5 111t198.5 45q197 0 293 -101.5t96 -316.5v-520h-57v508q0 191 -84 283t-258 92q-102 0 -199 -47.5t-146 -110.5v-725h-59zM561 1147l-250 268l33 37l221 -244l219 242l33 -35l-248 -268h-8z" />
    <glyph glyph-name="Eng" unicode="&#x14a;" horiz-adv-x="1636" 
d="M1399 1434v-1534q0 -159 -59 -242.5t-205 -83.5q-53 0 -101 17t-78 42l25 48q63 -48 147 -48q64 0 107.5 20.5t65 60.5t30 85t8.5 107v94l-1044 1323v-1323h-57v1434h49l1052 -1340v1340h60z" />
    <glyph glyph-name="eng" unicode="&#x14b;" horiz-adv-x="1132" 
d="M174 0v922h59v-140q57 66 156.5 111t198.5 45q197 0 293 -101.5t96 -316.5v-588q0 -358 -289 -358q-101 0 -174 53l21 47q65 -45 145 -45q126 0 183 77t57 228v574q0 191 -84 283t-258 92q-102 0 -199 -47.5t-146 -110.5v-725h-59z" />
    <glyph glyph-name="Omacron" unicode="&#x14c;" horiz-adv-x="1652" 
d="M117 717q0 205 92.5 373.5t255 265t360.5 96.5q148 0 279.5 -56t226 -153t149 -233.5t54.5 -292.5q0 -206 -93 -374.5t-255.5 -264.5t-360.5 -96q-197 0 -359 95t-255.5 264t-93.5 376zM180 717q0 -142 50 -267.5t135.5 -215t205 -141.5t254.5 -52q183 0 330.5 88
t231 243t83.5 345q0 143 -49.5 268.5t-135 215t-205 141t-255.5 51.5q-135 0 -254.5 -51.5t-205 -141t-135.5 -215t-50 -268.5zM524 1608v49h609v-49h-609z" />
    <glyph glyph-name="omacron" unicode="&#x14d;" horiz-adv-x="1165" 
d="M106 461q0 208 134 343.5t342 135.5q210 0 343.5 -135.5t133.5 -343.5t-133.5 -343.5t-343.5 -135.5q-208 0 -342 135.5t-134 343.5zM166 461q0 -186 116.5 -305t299.5 -119t299 119t116 305t-116 305t-299 119q-182 0 -299 -119t-117 -305zM336 1278v51h495v-51h-495z
" />
    <glyph glyph-name="Ohungarumlaut" unicode="&#x150;" horiz-adv-x="1652" 
d="M117 717q0 205 92.5 373.5t255 265t360.5 96.5q148 0 279.5 -56t226 -153t149 -233.5t54.5 -292.5q0 -206 -93 -374.5t-255.5 -264.5t-360.5 -96q-197 0 -359 95t-255.5 264t-93.5 376zM180 717q0 -142 50 -267.5t135.5 -215t205 -141.5t254.5 -52q183 0 330.5 88
t231 243t83.5 345q0 143 -49.5 268.5t-135 215t-205 141t-255.5 51.5q-135 0 -254.5 -51.5t-205 -141t-135.5 -215t-50 -268.5zM1305 1706l-328 -190l-27 28l320 201zM944 1714l-319 -198l-27 28l303 201z" />
    <glyph glyph-name="ohungarumlaut" unicode="&#x151;" horiz-adv-x="1165" 
d="M106 461q0 208 134 343.5t342 135.5q210 0 343.5 -135.5t133.5 -343.5t-133.5 -343.5t-343.5 -135.5q-208 0 -342 135.5t-134 343.5zM166 461q0 -186 116.5 -305t299.5 -119t299 119t116 305t-116 305t-299 119q-182 0 -299 -119t-117 -305zM950 1417l-231 -287l-37 25
l227 297zM649 1423l-225 -293l-37 25l221 299z" />
    <glyph glyph-name="OE" unicode="&#x152;" horiz-adv-x="2146" 
d="M1206 0v88q-154 -106 -379 -106q-156 0 -288 52.5t-225 147.5t-145 232.5t-52 302.5q0 206 85 372.5t244 264.5t363 98q245 0 397 -106v88h779v-58h-717v-618h655v-58h-655v-643h737v-57h-799zM831 41q223 0 375 117v1120q-149 115 -395 115q-186 0 -330.5 -89
t-222.5 -242.5t-78 -344.5q0 -304 181 -490t470 -186z" />
    <glyph glyph-name="oe" unicode="&#x153;" horiz-adv-x="1734" 
d="M1559 164l22 -43q-58 -67 -149 -103t-187 -36q-202 0 -336 118q-127 -118 -325 -118q-210 0 -344 135.5t-134 343.5t134 343.5t344 135.5q187 0 315 -115q121 115 320 115q180 0 295.5 -114t115.5 -300q0 -27 -4 -63h-801q1 -196 116 -311t306 -115q94 0 176.5 35
t135.5 92zM584 37q171 0 284 104q-106 128 -106 320q0 197 102 323q-115 101 -280 101q-182 0 -299 -119t-117 -305t116.5 -305t299.5 -119zM1210 885q-173 0 -275 -103.5t-114 -269.5h752q0 171 -99 272t-264 101z" />
    <glyph glyph-name="Racute" unicode="&#x154;" horiz-adv-x="1271" 
d="M299 0h-61v1434q45 0 169 2t140 2q114 0 201.5 -22.5t142 -59t89.5 -89.5t48.5 -109t13.5 -122q0 -145 -100 -255.5t-262 -141.5l520 -639h-76l-510 627h-315v-627zM543 1380q-108 0 -244 -4v-692h279q99 0 190.5 44t151 126t59.5 182q0 159 -103 251.5t-333 92.5z
M791 1698l-342 -182l-19 36l338 193z" />
    <glyph glyph-name="racute" unicode="&#x155;" horiz-adv-x="655" 
d="M174 0v922h59v-134q97 150 261 150q96 0 143 -35l-19 -55q-35 21 -61 28t-72 7q-47 0 -88 -14t-71.5 -39.5t-51.5 -50.5t-41 -58v-721h-59zM594 1419l-229 -289l-37 25l223 299z" />
    <glyph glyph-name="uni0156" unicode="&#x156;" horiz-adv-x="1271" 
d="M299 0h-61v1434q45 0 169 2t140 2q114 0 201.5 -22.5t142 -59t89.5 -89.5t48.5 -109t13.5 -122q0 -145 -100 -255.5t-262 -141.5l520 -639h-76l-510 627h-315v-627zM543 1380q-108 0 -244 -4v-692h279q99 0 190.5 44t151 126t59.5 182q0 159 -103 251.5t-333 92.5z
M561 -156l41 25q36 -3 59 -31t23 -71q0 -73 -37 -115t-106 -64l-17 31q103 41 103 135q0 76 -66 90z" />
    <glyph glyph-name="uni0157" unicode="&#x157;" horiz-adv-x="655" 
d="M174 0v922h59v-134q97 150 261 150q96 0 143 -35l-19 -55q-35 21 -61 28t-72 7q-47 0 -88 -14t-71.5 -39.5t-51.5 -50.5t-41 -58v-721h-59zM246 -156l41 25q36 -3 59 -31t23 -71q0 -73 -37.5 -115t-106.5 -64l-16 31q102 40 102 135q0 76 -65 90z" />
    <glyph glyph-name="Rcaron" unicode="&#x158;" horiz-adv-x="1271" 
d="M299 0h-61v1434q45 0 169 2t140 2q114 0 201.5 -22.5t142 -59t89.5 -89.5t48.5 -109t13.5 -122q0 -145 -100 -255.5t-262 -141.5l520 -639h-76l-510 627h-315v-627zM543 1380q-108 0 -244 -4v-692h279q99 0 190.5 44t151 126t59.5 182q0 159 -103 251.5t-333 92.5z
M557 1520l-342 190l27 35l319 -174l316 174l28 -35l-340 -190h-8z" />
    <glyph glyph-name="rcaron" unicode="&#x159;" horiz-adv-x="655" 
d="M174 0v922h59v-134q97 150 261 150q96 0 143 -35l-19 -55q-35 21 -61 28t-72 7q-47 0 -88 -14t-71.5 -39.5t-51.5 -50.5t-41 -58v-721h-59zM383 1147l-250 268l33 37l221 -244l219 242l33 -35l-248 -268h-8z" />
    <glyph glyph-name="Sacute" unicode="&#x15a;" horiz-adv-x="1112" 
d="M932 348q0 72 -26.5 128.5t-71.5 93.5t-103 67t-122.5 54t-129 48.5t-122.5 56t-103 71.5t-71.5 101t-26.5 138q0 151 109 248.5t300 97.5q115 0 216.5 -39.5t160.5 -105.5l-35 -43q-126 129 -344 129q-157 0 -250.5 -78.5t-93.5 -208.5q0 -71 26.5 -125.5t71.5 -90.5
t103 -64.5t122.5 -51.5t129 -46.5t122.5 -56t103 -73.5t71.5 -104t26.5 -144q0 -165 -128 -266.5t-320 -101.5q-127 0 -251.5 56t-178.5 146l39 41q62 -85 171.5 -134.5t215.5 -49.5q103 0 189.5 33t143 104.5t56.5 169.5zM825 1698l-342 -182l-18 36l338 193z" />
    <glyph glyph-name="sacute" unicode="&#x15b;" horiz-adv-x="837" 
d="M662 233q0 48 -22.5 84t-59 56.5t-83.5 39.5t-95.5 32.5t-95.5 35.5t-83.5 49t-59 73t-22.5 106q0 102 76.5 166.5t204.5 64.5q81 0 152.5 -27.5t111.5 -70.5l-29 -43q-85 88 -237 88q-98 0 -158.5 -51.5t-60.5 -124.5q0 -51 22.5 -89.5t59 -60.5t83 -41.5t95.5 -33
t95.5 -34.5t83 -46t59 -68t22.5 -100q0 -124 -88 -190t-221 -66q-86 0 -175.5 38.5t-121.5 88.5l37 36q35 -49 112 -79.5t150 -30.5q102 0 175 51.5t73 146.5zM627 1419l-230 -289l-37 25l224 299z" />
    <glyph glyph-name="Scircumflex" unicode="&#x15c;" horiz-adv-x="1112" 
d="M932 348q0 72 -26.5 128.5t-71.5 93.5t-103 67t-122.5 54t-129 48.5t-122.5 56t-103 71.5t-71.5 101t-26.5 138q0 151 109 248.5t300 97.5q115 0 216.5 -39.5t160.5 -105.5l-35 -43q-126 129 -344 129q-157 0 -250.5 -78.5t-93.5 -208.5q0 -71 26.5 -125.5t71.5 -90.5
t103 -64.5t122.5 -51.5t129 -46.5t122.5 -56t103 -73.5t71.5 -104t26.5 -144q0 -165 -128 -266.5t-320 -101.5q-127 0 -251.5 56t-178.5 146l39 41q62 -85 171.5 -134.5t215.5 -49.5q103 0 189.5 33t143 104.5t56.5 169.5zM211 1550l340 193h8l342 -191l-31 -36l-315 174
l-317 -174z" />
    <glyph glyph-name="scircumflex" unicode="&#x15d;" horiz-adv-x="837" 
d="M662 233q0 48 -22.5 84t-59 56.5t-83.5 39.5t-95.5 32.5t-95.5 35.5t-83.5 49t-59 73t-22.5 106q0 102 76.5 166.5t204.5 64.5q81 0 152.5 -27.5t111.5 -70.5l-29 -43q-85 88 -237 88q-98 0 -158.5 -51.5t-60.5 -124.5q0 -51 22.5 -89.5t59 -60.5t83 -41.5t95.5 -33
t95.5 -34.5t83 -46t59 -68t22.5 -100q0 -124 -88 -190t-221 -66q-86 0 -175.5 38.5t-121.5 88.5l37 36q35 -49 112 -79.5t150 -30.5q102 0 175 51.5t73 146.5zM430 1450l246 -268l-31 -37l-219 233l-221 -231l-33 35l250 268h8z" />
    <glyph glyph-name="Scedilla" unicode="&#x15e;" horiz-adv-x="1112" 
d="M360 -362l21 34q81 -43 151 -43q73 0 119.5 30.5t46.5 80.5q0 110 -168 110h-12v134q-123 6 -236.5 60.5t-164.5 139.5l39 41q62 -85 171.5 -134.5t215.5 -49.5q103 0 189.5 33t143 104.5t56.5 169.5q0 72 -26.5 128.5t-71.5 93.5t-103 67t-122.5 54t-129 48.5t-122.5 56
t-103 71.5t-71.5 101t-26.5 138q0 151 109 248.5t300 97.5q115 0 216.5 -39.5t160.5 -105.5l-35 -43q-126 129 -344 129q-157 0 -250.5 -78.5t-93.5 -208.5q0 -71 26.5 -125.5t71.5 -90.5t103 -64.5t122.5 -51.5t129 -46.5t122.5 -56t103 -73.5t71.5 -104t26.5 -144
q0 -163 -125 -264t-313 -104v-97q201 -3 201 -147q0 -67 -58 -108.5t-157 -41.5q-92 0 -183 50z" />
    <glyph glyph-name="scedilla" unicode="&#x15f;" horiz-adv-x="837" 
d="M223 -365l21 35q77 -41 149 -41q73 0 119.5 30.5t46.5 80.5q0 110 -168 110h-12v134q-81 7 -158 43.5t-106 81.5l37 36q35 -49 112 -79.5t150 -30.5q102 0 175 51.5t73 146.5q0 48 -22.5 84t-59 56.5t-83.5 39.5t-95.5 32.5t-95.5 35.5t-83.5 49t-59 73t-22.5 106
q0 102 76.5 166.5t204.5 64.5q81 0 152.5 -27.5t111.5 -70.5l-29 -43q-85 88 -237 88q-98 0 -158.5 -51.5t-60.5 -124.5q0 -51 22.5 -89.5t59 -60.5t83 -41.5t95.5 -33t95.5 -34.5t83 -46t59 -68t22.5 -100q0 -123 -86.5 -188.5t-216.5 -67.5v-97q198 -3 198 -147
q0 -67 -58.5 -108.5t-158.5 -41.5q-80 0 -176 47z" />
    <glyph glyph-name="Scaron" unicode="&#x160;" horiz-adv-x="1112" 
d="M932 348q0 72 -26.5 128.5t-71.5 93.5t-103 67t-122.5 54t-129 48.5t-122.5 56t-103 71.5t-71.5 101t-26.5 138q0 151 109 248.5t300 97.5q115 0 216.5 -39.5t160.5 -105.5l-35 -43q-126 129 -344 129q-157 0 -250.5 -78.5t-93.5 -208.5q0 -71 26.5 -125.5t71.5 -90.5
t103 -64.5t122.5 -51.5t129 -46.5t122.5 -56t103 -73.5t71.5 -104t26.5 -144q0 -165 -128 -266.5t-320 -101.5q-127 0 -251.5 56t-178.5 146l39 41q62 -85 171.5 -134.5t215.5 -49.5q103 0 189.5 33t143 104.5t56.5 169.5zM565 1520l-342 190l27 35l319 -174l316 174l28 -35
l-340 -190h-8z" />
    <glyph glyph-name="scaron" unicode="&#x161;" horiz-adv-x="837" 
d="M662 233q0 48 -22.5 84t-59 56.5t-83.5 39.5t-95.5 32.5t-95.5 35.5t-83.5 49t-59 73t-22.5 106q0 102 76.5 166.5t204.5 64.5q81 0 152.5 -27.5t111.5 -70.5l-29 -43q-85 88 -237 88q-98 0 -158.5 -51.5t-60.5 -124.5q0 -51 22.5 -89.5t59 -60.5t83 -41.5t95.5 -33
t95.5 -34.5t83 -46t59 -68t22.5 -100q0 -124 -88 -190t-221 -66q-86 0 -175.5 38.5t-121.5 88.5l37 36q35 -49 112 -79.5t150 -30.5q102 0 175 51.5t73 146.5zM416 1147l-250 268l33 37l221 -244l219 242l33 -35l-248 -268h-8z" />
    <glyph glyph-name="uni0162" unicode="&#x162;" horiz-adv-x="1210" 
d="M428 -362l21 34q81 -43 151 -43q73 0 119.5 30.5t46.5 80.5q0 110 -168 110h-12v150h-11v1376h-555v58h1170v-58h-555v-1376h-10v-115q200 -3 200 -147q0 -67 -58 -108.5t-157 -41.5q-91 0 -182 50z" />
    <glyph glyph-name="uni0163" unicode="&#x163;" horiz-adv-x="704" 
d="M193 -365l20 35q77 -41 149 -41q73 0 119.5 30.5t46.5 80.5q0 110 -168 110h-12v150q-101 26 -147.5 112.5t-46.5 237.5v828h59v-256h397v-56h-397v-497q0 -163 57 -243.5t183 -80.5q84 0 149 49l25 -47q-81 -57 -185 -57q-23 0 -55 4v-109q199 -3 199 -147
q0 -67 -58.5 -108.5t-158.5 -41.5q-80 0 -176 47z" />
    <glyph glyph-name="Tcaron" unicode="&#x164;" horiz-adv-x="1210" 
d="M20 1376v58h1170v-58h-555v-1376h-60v1376h-555zM602 1520l-342 190l27 35l319 -174l316 174l28 -35l-340 -190h-8z" />
    <glyph glyph-name="tcaron" unicode="&#x165;" horiz-adv-x="704" 
d="M154 350v828h59v-256h397v-56h-397v-497q0 -163 57 -243.5t183 -80.5q84 0 149 49l25 -47q-81 -57 -185 -57q-151 0 -219.5 89.5t-68.5 270.5zM489 1434h58q18 -36 18 -86q0 -92 -37.5 -158t-95.5 -94l-24 30q46 30 74 87.5t28 127.5q0 53 -21 93z" />
    <glyph glyph-name="Umacron" unicode="&#x16a;" horiz-adv-x="1538" 
d="M1321 1434v-832q0 -159 -42.5 -280t-117.5 -193t-169 -107.5t-204 -35.5q-123 0 -226 40t-180.5 117t-121 198t-43.5 275v818h62v-809q0 -277 140.5 -429.5t368.5 -152.5q101 0 185.5 34t149 102t101 179.5t36.5 257.5v818h61zM467 1608v49h608v-49h-608z" />
    <glyph glyph-name="umacron" unicode="&#x16b;" horiz-adv-x="1120" 
d="M946 922v-922h-57v160q-59 -74 -161.5 -126t-209.5 -52q-183 0 -273.5 101.5t-90.5 313.5v525h59v-510q0 -189 78.5 -282t245.5 -93q104 0 203 56.5t149 125.5v703h57zM311 1278v51h496v-51h-496z" />
    <glyph glyph-name="Ubreve" unicode="&#x16c;" horiz-adv-x="1538" 
d="M1321 1434v-832q0 -159 -42.5 -280t-117.5 -193t-169 -107.5t-204 -35.5q-123 0 -226 40t-180.5 117t-121 198t-43.5 275v818h62v-809q0 -277 140.5 -429.5t368.5 -152.5q101 0 185.5 34t149 102t101 179.5t36.5 257.5v818h61zM451 1710l28 31q117 -139 293 -139
q93 0 166 40t121 99l26 -31q-49 -69 -129 -115.5t-184 -46.5q-61 0 -117 17t-95.5 43.5t-66 52t-42.5 49.5z" />
    <glyph glyph-name="ubreve" unicode="&#x16d;" horiz-adv-x="1120" 
d="M946 922v-922h-57v160q-59 -74 -161.5 -126t-209.5 -52q-183 0 -273.5 101.5t-90.5 313.5v525h59v-510q0 -189 78.5 -282t245.5 -93q104 0 203 56.5t149 125.5v703h57zM285 1362l28 31q22 -26 39 -43.5t49.5 -42.5t73 -38.5t86.5 -13.5q136 0 244 138l24 -31
q-52 -70 -115.5 -114t-154.5 -44q-54 0 -102 16.5t-81.5 44t-54 50.5t-36.5 47z" />
    <glyph glyph-name="Uring" unicode="&#x16e;" horiz-adv-x="1538" 
d="M1321 1434v-832q0 -159 -42.5 -280t-117.5 -193t-169 -107.5t-204 -35.5q-123 0 -226 40t-180.5 117t-121 198t-43.5 275v818h62v-809q0 -277 140.5 -429.5t368.5 -152.5q101 0 185.5 34t149 102t101 179.5t36.5 257.5v818h61zM563 1595q0 82 57.5 124t147.5 42
q92 0 150.5 -42t58.5 -124q0 -80 -59.5 -125t-149.5 -45q-89 0 -147 45t-58 125zM610 1595q0 -63 44.5 -97t113.5 -34q71 0 116.5 34t45.5 97q0 64 -45 95.5t-117 31.5q-71 0 -114.5 -31.5t-43.5 -95.5z" />
    <glyph glyph-name="uring" unicode="&#x16f;" horiz-adv-x="1120" 
d="M946 922v-922h-57v160q-59 -74 -161.5 -126t-209.5 -52q-183 0 -273.5 101.5t-90.5 313.5v525h59v-510q0 -189 78.5 -282t245.5 -93q104 0 203 56.5t149 125.5v703h57zM356 1257q0 84 58.5 142.5t142.5 58.5q85 0 144 -59t59 -142q0 -82 -59 -139t-144 -57t-143 57
t-58 139zM399 1260q0 -68 45.5 -114t112.5 -46q66 0 113 46.5t47 113.5q0 66 -47 112.5t-113 46.5q-67 0 -112.5 -46.5t-45.5 -112.5z" />
    <glyph glyph-name="Uhungarumlaut" unicode="&#x170;" horiz-adv-x="1538" 
d="M1321 1434v-832q0 -159 -42.5 -280t-117.5 -193t-169 -107.5t-204 -35.5q-123 0 -226 40t-180.5 117t-121 198t-43.5 275v818h62v-809q0 -277 140.5 -429.5t368.5 -152.5q101 0 185.5 34t149 102t101 179.5t36.5 257.5v818h61zM1221 1706l-328 -190l-27 28l320 201z
M860 1714l-319 -198l-27 28l303 201z" />
    <glyph glyph-name="uhungarumlaut" unicode="&#x171;" horiz-adv-x="1120" 
d="M946 922v-922h-57v160q-59 -74 -161.5 -126t-209.5 -52q-183 0 -273.5 101.5t-90.5 313.5v525h59v-510q0 -189 78.5 -282t245.5 -93q104 0 203 56.5t149 125.5v703h57zM928 1417l-232 -287l-37 25l228 297zM627 1423l-226 -293l-36 25l221 299z" />
    <glyph glyph-name="Uogonek" unicode="&#x172;" horiz-adv-x="1538" 
d="M1321 1434v-832q0 -137 -31.5 -245.5t-88.5 -181t-130 -116.5t-162 -61q-184 -79 -184 -209q0 -43 18.5 -74t46.5 -46.5t54.5 -22t50.5 -6.5q57 0 96 18l19 -39q-56 -29 -125 -29q-36 0 -71.5 9t-69.5 29t-55 58.5t-21 90.5q0 131 163 211q-14 -2 -43 -2q-123 0 -226 40
t-180.5 117t-121 198t-43.5 275v818h62v-809q0 -277 140.5 -429.5t368.5 -152.5q101 0 185.5 34t149 102t101 179.5t36.5 257.5v818h61z" />
    <glyph glyph-name="uogonek" unicode="&#x173;" horiz-adv-x="1120" 
d="M938 -342l18 -39q-56 -29 -125 -29q-36 0 -71.5 9t-69.5 29t-55 58.5t-21 90.5q0 95 81.5 161t193.5 82v140q-59 -74 -161.5 -126t-209.5 -52q-183 0 -273.5 101.5t-90.5 313.5v525h59v-510q0 -189 78.5 -282t245.5 -93q104 0 203 56.5t149 125.5v703h57v-922h-10
q-103 -3 -183.5 -62.5t-80.5 -148.5q0 -43 18.5 -74t46.5 -46.5t54.5 -22t50.5 -6.5q57 0 96 18z" />
    <glyph glyph-name="Ydieresis" unicode="&#x178;" horiz-adv-x="1161" 
d="M1126 1434l-518 -797v-637h-59v637l-514 797h71l474 -740l477 740h69zM295 1630q0 20 14 31.5t35 11.5q20 0 33.5 -11.5t13.5 -31.5q0 -21 -13.5 -33t-33.5 -12q-21 0 -35 12t-14 33zM774 1630q0 20 14 31.5t35 11.5q18 0 31.5 -12t13.5 -31q0 -21 -13.5 -33t-31.5 -12
q-21 0 -35 12t-14 33z" />
    <glyph glyph-name="Zacute" unicode="&#x179;" horiz-adv-x="1277" 
d="M123 1376v58h1053v-33l-1006 -1344h1026v-57h-1114v33l1003 1343h-962zM905 1698l-342 -182l-18 36l338 193z" />
    <glyph glyph-name="zacute" unicode="&#x17a;" horiz-adv-x="978" 
d="M131 866v56h748v-33l-693 -834h682v-55h-768v33l688 833h-657zM700 1419l-229 -289l-37 25l223 299z" />
    <glyph glyph-name="Zdotaccent" unicode="&#x17b;" horiz-adv-x="1277" 
d="M123 1376v58h1053v-33l-1006 -1344h1026v-57h-1114v33l1003 1343h-962zM573 1632q0 21 14.5 33t37.5 12q18 0 31.5 -12t13.5 -33q0 -22 -13.5 -35.5t-31.5 -13.5q-22 0 -37 13t-15 36z" />
    <glyph glyph-name="zdotaccent" unicode="&#x17c;" horiz-adv-x="978" 
d="M131 866v56h748v-33l-693 -834h682v-55h-768v33l688 833h-657zM440 1288q0 19 14 32t33 13q17 0 30 -13t13 -32q0 -20 -12.5 -33.5t-30.5 -13.5q-19 0 -33 13.5t-14 33.5z" />
    <glyph glyph-name="Zcaron" unicode="&#x17d;" horiz-adv-x="1277" 
d="M123 1376v58h1053v-33l-1006 -1344h1026v-57h-1114v33l1003 1343h-962zM633 1520l-342 190l26 35l320 -174l315 174l29 -35l-340 -190h-8z" />
    <glyph glyph-name="zcaron" unicode="&#x17e;" horiz-adv-x="978" 
d="M131 866v56h748v-33l-693 -834h682v-55h-768v33l688 833h-657zM489 1147l-249 268l32 37l222 -244l219 242l32 -35l-247 -268h-9z" />
    <glyph glyph-name="longs" unicode="&#x17f;" horiz-adv-x="516" 
d="M211 0v1071q0 381 313 381q142 0 230 -76l-23 -45q-91 66 -201 66q-131 0 -196.5 -83.5t-65.5 -260.5v-1053h-57z" />
    <glyph glyph-name="uni018F" unicode="&#x18f;" horiz-adv-x="1593" 
d="M100 760h1309q-11 290 -189.5 461.5t-471.5 171.5q-244 0 -402 -123l-27 43q78 69 196 104t243 35q327 0 522 -197.5t195 -531.5q0 -210 -82.5 -377t-241 -265.5t-367.5 -98.5t-366.5 101.5t-239 277.5t-78.5 399zM782 41q143 0 261.5 51t197.5 140.5t123 210t47 259.5
h-1247q4 -185 78.5 -334t215 -238t324.5 -89z" />
    <glyph glyph-name="florin" unicode="&#x192;" 
d="M696 1053l-24 -131h375v-56h-385l-168 -934q-33 -181 -107 -269.5t-221 -88.5q-101 0 -174 53l20 47q65 -45 144 -45q125 0 188 75.5t92 236.5l166 925h-350v56h360l27 149q36 198 116.5 289.5t231.5 91.5q144 0 232 -76l-25 -45q-87 66 -199 66q-128 0 -196.5 -80.5
t-102.5 -263.5z" />
    <glyph glyph-name="uni01DD" unicode="&#x1dd;" horiz-adv-x="1079" 
d="M178 758l-22 43q59 66 157.5 102.5t196.5 36.5q212 0 337.5 -130t125.5 -349q0 -209 -117 -344t-328 -135q-189 0 -307.5 113.5t-118.5 299.5q0 13 2 43t2 39h803q-2 174 -109.5 291t-291.5 117q-96 0 -187.5 -35.5t-142.5 -91.5zM535 37q168 0 271.5 109.5t106.5 279.5
h-751q-4 -186 97 -287.5t276 -101.5z" />
    <glyph glyph-name="uni0218" unicode="&#x218;" horiz-adv-x="1112" 
d="M932 348q0 72 -26.5 128.5t-71.5 93.5t-103 67t-122.5 54t-129 48.5t-122.5 56t-103 71.5t-71.5 101t-26.5 138q0 151 109 248.5t300 97.5q115 0 216.5 -39.5t160.5 -105.5l-35 -43q-126 129 -344 129q-157 0 -250.5 -78.5t-93.5 -208.5q0 -71 26.5 -125.5t71.5 -90.5
t103 -64.5t122.5 -51.5t129 -46.5t122.5 -56t103 -73.5t71.5 -104t26.5 -144q0 -165 -128 -266.5t-320 -101.5q-127 0 -251.5 56t-178.5 146l39 41q62 -85 171.5 -134.5t215.5 -49.5q103 0 189.5 33t143 104.5t56.5 169.5zM498 -156l41 25q36 -3 59 -31t23 -71
q0 -73 -37.5 -115t-106.5 -64l-16 31q102 40 102 135q0 76 -65 90z" />
    <glyph glyph-name="uni0219" unicode="&#x219;" horiz-adv-x="837" 
d="M662 233q0 48 -22.5 84t-59 56.5t-83.5 39.5t-95.5 32.5t-95.5 35.5t-83.5 49t-59 73t-22.5 106q0 102 76.5 166.5t204.5 64.5q81 0 152.5 -27.5t111.5 -70.5l-29 -43q-85 88 -237 88q-98 0 -158.5 -51.5t-60.5 -124.5q0 -51 22.5 -89.5t59 -60.5t83 -41.5t95.5 -33
t95.5 -34.5t83 -46t59 -68t22.5 -100q0 -124 -88 -190t-221 -66q-86 0 -175.5 38.5t-121.5 88.5l37 36q35 -49 112 -79.5t150 -30.5q102 0 175 51.5t73 146.5zM375 -156l41 25q36 -3 59 -31t23 -71q0 -73 -37.5 -115t-106.5 -64l-16 31q102 40 102 135q0 76 -65 90z" />
    <glyph glyph-name="uni021A" unicode="&#x21a;" horiz-adv-x="1210" 
d="M20 1376v58h1170v-58h-555v-1376h-60v1376h-555zM559 -156l41 25q36 -3 59 -31t23 -71q0 -73 -37 -115t-106 -64l-17 31q103 41 103 135q0 76 -66 90z" />
    <glyph glyph-name="uni021B" unicode="&#x21b;" horiz-adv-x="704" 
d="M154 350v828h59v-256h397v-56h-397v-497q0 -163 57 -243.5t183 -80.5q84 0 149 49l25 -47q-81 -57 -185 -57q-151 0 -219.5 89.5t-68.5 270.5zM348 -156l41 25q36 -3 59 -31t23 -71q0 -73 -37 -115t-106 -64l-17 31q103 41 103 135q0 76 -66 90z" />
    <glyph glyph-name="uni0237" unicode="&#x237;" horiz-adv-x="522" 
d="M293 922v-990q0 -358 -289 -358q-101 0 -174 53l20 47q65 -45 146 -45q126 0 183 77t57 228v988h57z" />
    <glyph glyph-name="uni0259" unicode="&#x259;" horiz-adv-x="1079" 
d="M178 758l-22 43q59 66 157.5 102.5t196.5 36.5q212 0 337.5 -130t125.5 -349q0 -209 -117 -344t-328 -135q-189 0 -307.5 113.5t-118.5 299.5q0 13 2 43t2 39h803q-2 174 -109.5 291t-291.5 117q-96 0 -187.5 -35.5t-142.5 -91.5zM535 37q168 0 271.5 109.5t106.5 279.5
h-751q-4 -186 97 -287.5t276 -101.5z" />
    <glyph glyph-name="uni02BC" unicode="&#x2bc;" horiz-adv-x="403" 
d="M184 1294l49 35q48 -52 48 -133q0 -170 -134 -240l-24 31q49 27 75.5 79.5t26.5 117.5q0 69 -41 110z" />
    <glyph glyph-name="circumflex" unicode="&#x2c6;" horiz-adv-x="749" 
d="M381 1450l246 -268l-31 -37l-219 233l-221 -231l-33 35l250 268h8z" />
    <glyph glyph-name="caron" unicode="&#x2c7;" horiz-adv-x="751" 
d="M373 1147l-250 268l33 37l221 -244l219 242l33 -35l-248 -268h-8z" />
    <glyph glyph-name="breve" unicode="&#x2d8;" horiz-adv-x="790" 
d="M123 1362l29 31q22 -27 39 -44t49 -42t72.5 -38.5t86.5 -13.5q136 0 244 138l25 -31q-117 -158 -271 -158q-54 0 -102 16.5t-81.5 44t-54 50.5t-36.5 47z" />
    <glyph glyph-name="dotaccent" unicode="&#x2d9;" horiz-adv-x="335" 
d="M123 1288q0 19 14 32t33 13q17 0 30 -13t13 -32q0 -20 -12.5 -33.5t-30.5 -13.5q-19 0 -33 13.5t-14 33.5z" />
    <glyph glyph-name="ring" unicode="&#x2da;" horiz-adv-x="649" 
d="M123 1257q0 84 58.5 142.5t142.5 58.5t143 -59t59 -142q0 -82 -58.5 -139t-143.5 -57t-143 57t-58 139zM166 1260q0 -68 45.5 -114t112.5 -46q66 0 112.5 46.5t46.5 113.5q0 66 -46.5 112.5t-112.5 46.5q-67 0 -112.5 -46.5t-45.5 -112.5z" />
    <glyph glyph-name="ogonek" unicode="&#x2db;" horiz-adv-x="587" 
d="M446 -342l19 -39q-56 -29 -125 -29q-36 0 -71.5 9t-69.5 29t-55 58.5t-21 90.5q0 108 102.5 178t229.5 70v-25q-105 0 -190 -60.5t-85 -150.5q0 -43 18.5 -74t46.5 -46.5t54.5 -22t50.5 -6.5q57 0 96 18z" />
    <glyph glyph-name="tilde" unicode="&#x2dc;" horiz-adv-x="839" 
d="M150 1200l-27 31q105 94 190 94q40 0 78.5 -24.5t74.5 -49t71 -24.5q61 0 155 84l25 -33q-103 -100 -187 -100q-30 0 -60 15t-51.5 33t-52 33t-61.5 15q-63 0 -155 -74z" />
    <glyph glyph-name="hungarumlaut" unicode="&#x2dd;" horiz-adv-x="808" 
d="M686 1417l-231 -287l-37 25l227 297zM385 1423l-225 -293l-37 25l221 299z" />
    <glyph glyph-name="gravecomb" unicode="&#x300;" horiz-adv-x="0" 
d="M-526 1130l-230 289l43 35l224 -299z" />
    <glyph glyph-name="acutecomb" unicode="&#x301;" horiz-adv-x="0" 
d="M-352 1419l-230 -289l-36 25l223 299z" />
    <glyph glyph-name="Delta" unicode="&#x394;" horiz-adv-x="1441" 
d="M76 0l620 1450h33l635 -1450h-1288zM713 1343l-547 -1286h1108z" />
    <glyph glyph-name="Delta" unicode="&#x2206;" horiz-adv-x="1441" 
d="M76 0l620 1450h33l635 -1450h-1288zM713 1343l-547 -1286h1108z" />
    <glyph glyph-name="uni03A9" unicode="&#x3a9;" horiz-adv-x="1652" 
d="M184 0v57h383q-196 66 -321 248.5t-125 421.5q0 153 55 288t149 231t224.5 151t277.5 55q197 0 358.5 -94t254 -260t92.5 -371q0 -240 -125.5 -422t-323.5 -248h385v-57h-503v57q224 51 363.5 234.5t139.5 429.5q0 187 -82.5 341t-230 242.5t-328.5 88.5
q-137 0 -256.5 -52t-204.5 -142t-133.5 -214.5t-48.5 -265.5q0 -243 140 -428t362 -234v-57h-502z" />
    <glyph glyph-name="uni03A9" unicode="&#x2126;" horiz-adv-x="1652" 
d="M184 0v57h383q-196 66 -321 248.5t-125 421.5q0 153 55 288t149 231t224.5 151t277.5 55q197 0 358.5 -94t254 -260t92.5 -371q0 -240 -125.5 -422t-323.5 -248h385v-57h-503v57q224 51 363.5 234.5t139.5 429.5q0 187 -82.5 341t-230 242.5t-328.5 88.5
q-137 0 -256.5 -52t-204.5 -142t-133.5 -214.5t-48.5 -265.5q0 -243 140 -428t362 -234v-57h-502z" />
    <glyph glyph-name="pi" unicode="&#x3c0;" horiz-adv-x="1325" 
d="M111 866v56h1101v-56h-223v-628q0 -105 22.5 -148t86.5 -43q33 0 70 14t61 33l18 -47q-74 -55 -166 -55q-77 0 -113 49t-36 156v669h-541v-172q0 -167 -14.5 -290t-40.5 -201t-66 -124.5t-85 -64.5t-105 -18l-4 57q62 0 106.5 29t79.5 97.5t53 192t19 302.5v192h-223z
" />
    <glyph glyph-name="uni0401" unicode="&#x401;" horiz-adv-x="1177" 
d="M238 0v1434h778v-58h-717v-618h655v-58h-655v-643h737v-57h-798zM344 1630q0 20 14 31.5t35 11.5q20 0 33.5 -11.5t13.5 -31.5q0 -21 -13.5 -33t-33.5 -12q-21 0 -35 12t-14 33zM823 1630q0 20 14 31.5t35 11.5q18 0 32 -12t14 -31q0 -21 -14 -33t-32 -12q-21 0 -35 12
t-14 33z" />
    <glyph glyph-name="uni0402" unicode="&#x402;" horiz-adv-x="1552" 
d="M1436 420q0 -227 -91.5 -332.5t-246.5 -105.5q-52 0 -104 20.5t-72 38.5l24 47q62 -47 148 -47q131 0 205.5 92t74.5 285q0 202 -94 296.5t-279 94.5q-44 0 -86 -7t-71.5 -15.5t-64.5 -25t-52.5 -27t-49.5 -30.5t-42 -26v-678h-60v1376h-555v58h1170v-58h-555v-641
q42 28 71.5 45.5t79 40t106.5 34t122 11.5q95 0 169.5 -24t132.5 -75t89 -138.5t31 -208.5z" />
    <glyph glyph-name="uni0403" unicode="&#x403;" horiz-adv-x="1026" 
d="M238 0v1434h784v-58h-723v-1376h-61zM907 1698l-342 -182l-18 36l338 193z" />
    <glyph glyph-name="uni0404" unicode="&#x404;" horiz-adv-x="1396" 
d="M981 760v-58h-803q3 -197 89 -347.5t238 -232t347 -81.5q227 0 422 139l29 -49q-205 -149 -457 -149q-325 0 -527 202.5t-202 532.5q0 210 87.5 377t251.5 262.5t378 95.5q125 0 242.5 -35t195.5 -104l-31 -43q-158 123 -399 123q-289 0 -469.5 -176t-194.5 -457h803z
" />
    <glyph glyph-name="uni0405" unicode="&#x405;" horiz-adv-x="1112" 
d="M932 348q0 72 -26.5 128.5t-71.5 93.5t-103 67t-122.5 54t-129 48.5t-122.5 56t-103 71.5t-71.5 101t-26.5 138q0 151 109 248.5t300 97.5q115 0 216.5 -39.5t160.5 -105.5l-35 -43q-126 129 -344 129q-157 0 -250.5 -78.5t-93.5 -208.5q0 -71 26.5 -125.5t71.5 -90.5
t103 -64.5t122.5 -51.5t129 -46.5t122.5 -56t103 -73.5t71.5 -104t26.5 -144q0 -165 -128 -266.5t-320 -101.5q-127 0 -251.5 56t-178.5 146l39 41q62 -85 171.5 -134.5t215.5 -49.5q103 0 189.5 33t143 104.5t56.5 169.5z" />
    <glyph glyph-name="uni0406" unicode="&#x406;" horiz-adv-x="647" 
d="M293 0v1434h61v-1434h-61z" />
    <glyph glyph-name="uni0407" unicode="&#x407;" horiz-adv-x="647" 
d="M137 1630q0 18 14 30.5t33 12.5q16 0 28.5 -12.5t12.5 -30.5q0 -19 -12.5 -32t-28.5 -13q-19 0 -33 12.5t-14 32.5zM424 1630q0 19 13 31t32 12q18 0 30.5 -12.5t12.5 -30.5q0 -20 -12.5 -32.5t-30.5 -12.5q-19 0 -32 12.5t-13 32.5zM293 0v1434h61v-1434h-61z" />
    <glyph glyph-name="uni0408" unicode="&#x408;" horiz-adv-x="716" 
d="M477 1434v-1127q0 -77 -12.5 -133.5t-41.5 -101.5t-81.5 -67.5t-128.5 -22.5q-53 0 -100.5 17t-77.5 42l24 47q62 -47 148 -47q64 0 107.5 20.5t65 60t30 84.5t8.5 107v1121h59z" />
    <glyph glyph-name="uni0409" unicode="&#x409;" horiz-adv-x="2131" 
d="M1180 0v1376h-672l-23 -270q-17 -213 -41.5 -384t-52 -285.5t-62.5 -198.5t-66.5 -129.5t-70 -71.5t-68 -32.5t-65.5 -4.5v59q24 -1 45.5 4.5t54.5 30t61 67t61 124.5t59 193.5t50.5 283.5t39.5 385l21 287h790v-594q120 10 238 10q267 0 400.5 -108t133.5 -304
q0 -217 -146 -329.5t-405 -112.5q-56 0 -149.5 2t-132.5 2zM1479 793q-116 0 -238 -13v-723q31 0 105 -2t124 -2q234 0 358 98.5t124 288.5q0 168 -120.5 260.5t-352.5 92.5z" />
    <glyph glyph-name="uni040A" unicode="&#x40a;" horiz-adv-x="2215" 
d="M238 0v1434h61v-621h965v621h59v-619q147 12 240 12q268 0 401 -103.5t133 -295.5q0 -215 -145.5 -323.5t-405.5 -108.5q-45 0 -121.5 2t-109.5 2h-51v756h-965v-756h-61zM1323 758v-701q32 0 106.5 -2t124.5 -2q235 0 357.5 94.5t122.5 280.5q0 166 -119 254t-352 88
q-125 0 -240 -12z" />
    <glyph glyph-name="uni040B" unicode="&#x40b;" horiz-adv-x="1552" 
d="M20 1376v58h1170v-58h-555v-643q176 133 397 133q190 0 297 -112t107 -346v-408h-60v399q0 204 -92.5 307t-265.5 103q-27 0 -54 -2.5t-48 -6t-47 -11t-41.5 -12t-40 -16t-34.5 -16t-34.5 -18.5t-29.5 -17t-29 -18t-25 -16v-676h-60v1376h-555z" />
    <glyph glyph-name="uni040C" unicode="&#x40c;" horiz-adv-x="1277" 
d="M1182 1434l-705 -682l729 -752h-88l-725 748l705 686h84zM238 0v1434h61v-1434h-61zM924 1698l-342 -182l-19 36l338 193z" />
    <glyph glyph-name="uni040E" unicode="&#x40e;" horiz-adv-x="1310" 
d="M1272 1434l-504 -1115q-76 -169 -146 -244t-163 -75q-90 0 -144 43l21 51q56 -39 121 -39q126 0 225 211l31 62l-674 1106h67l635 -1047l469 1047h62zM334 1731h57q42 -69 117 -112.5t170 -43.5q96 0 175 44t105 112h58q-24 -88 -122.5 -145.5t-215.5 -57.5
q-122 0 -215.5 57t-128.5 146z" />
    <glyph glyph-name="uni040F" unicode="&#x40f;" horiz-adv-x="1558" 
d="M238 0v1434h61v-1377h961v1377h61v-1434h-514v-326h-57v326h-512z" />
    <glyph glyph-name="uni0410" unicode="&#x410;" horiz-adv-x="1413" 
d="M53 0l631 1448h45l631 -1448h-66l-231 532h-717l-229 -532h-64zM705 1358l-334 -768h667z" />
    <glyph glyph-name="uni0411" unicode="&#x411;" horiz-adv-x="1245" 
d="M238 0v1434h772v-58h-711v-549q153 13 260 13q261 0 394.5 -107t133.5 -299q0 -217 -144 -327.5t-402 -110.5q-59 0 -161.5 2t-141.5 2zM559 782q-145 0 -260 -12v-713q32 0 116 -2t134 -2q233 0 355 97t122 282q0 165 -118.5 257.5t-348.5 92.5z" />
    <glyph glyph-name="uni0412" unicode="&#x412;" horiz-adv-x="1263" 
d="M238 0v1434q35 0 167 2t195 2q447 0 447 -353q0 -142 -88.5 -230t-219.5 -110v-4q176 -17 271.5 -106.5t95.5 -241.5q0 -103 -38 -181t-107 -124.5t-159 -69t-200 -22.5q-63 0 -194.5 2t-169.5 2zM606 709h-307v-652q29 0 139.5 -2t163.5 -2q210 0 326 86.5t116 257.5
q0 149 -113.5 230.5t-324.5 81.5zM596 1380q-171 0 -297 -4v-612h319q156 0 261.5 85.5t105.5 227.5q0 151 -94.5 227t-294.5 76z" />
    <glyph glyph-name="uni0413" unicode="&#x413;" horiz-adv-x="1026" 
d="M238 0v1434h784v-58h-723v-1376h-61z" />
    <glyph glyph-name="uni0414" unicode="&#x414;" horiz-adv-x="1511" 
d="M39 -281v338h154q28 35 61.5 109t74 200.5t73.5 332t47 448.5l16 287h774v-1377h195v-338h-58v281h-1280v-281h-57zM506 1110q-12 -192 -36.5 -362t-52 -282.5t-59 -203t-55.5 -136.5t-43 -69h920v1319h-656z" />
    <glyph glyph-name="uni0415" unicode="&#x415;" horiz-adv-x="1177" 
d="M238 0v1434h778v-58h-717v-618h655v-58h-655v-643h737v-57h-798z" />
    <glyph glyph-name="uni0416" unicode="&#x416;" horiz-adv-x="1851" 
d="M1759 1434l-635 -684l658 -750h-82l-651 748l628 686h82zM895 0v1434h61v-1434h-61zM727 748l-633 686h80l629 -686l-651 -748h-80z" />
    <glyph glyph-name="uni0417" unicode="&#x417;" horiz-adv-x="1165" 
d="M535 -18q-126 0 -254.5 58.5t-184.5 143.5l37 37q71 -83 184.5 -131.5t208.5 -48.5q193 0 306.5 99.5t113.5 265.5q0 138 -88.5 218.5t-236.5 80.5h-191v57h176q108 0 196.5 95.5t88.5 229.5q0 148 -94 227t-242 79q-125 0 -215 -42.5t-166 -123.5l-37 35
q72 90 181.5 140t234.5 50q183 0 290 -97t107 -268q0 -107 -60.5 -204.5t-166.5 -139.5v-6q129 -13 206 -110.5t77 -225.5q0 -193 -133 -306t-338 -113z" />
    <glyph glyph-name="uni0418" unicode="&#x418;" horiz-adv-x="1636" 
d="M293 0h-55v1434h61v-1338l1044 1338h56v-1434h-62v1335z" />
    <glyph glyph-name="uni0419" unicode="&#x419;" horiz-adv-x="1636" 
d="M293 0h-55v1434h61v-1338l1044 1338h56v-1434h-62v1335zM471 1731h57q42 -69 117 -112.5t170 -43.5q96 0 175.5 44t105.5 112h57q-24 -88 -122.5 -145.5t-215.5 -57.5q-122 0 -215.5 57t-128.5 146z" />
    <glyph glyph-name="uni041A" unicode="&#x41a;" horiz-adv-x="1277" 
d="M1182 1434l-705 -682l729 -752h-88l-725 748l705 686h84zM238 0v1434h61v-1434h-61z" />
    <glyph glyph-name="uni041B" unicode="&#x41b;" horiz-adv-x="1478" 
d="M1180 0v1376h-672l-23 -270q-17 -213 -41.5 -384t-52 -285.5t-62.5 -198.5t-66.5 -129.5t-70 -71.5t-68 -32.5t-65.5 -4.5v59q24 -1 45.5 4.5t54.5 30t61 67t61 124.5t59 193.5t50.5 283.5t39.5 385l21 287h790v-1434h-61z" />
    <glyph glyph-name="uni041C" unicode="&#x41c;" horiz-adv-x="1796" 
d="M238 0v1434h63l608 -830l590 830h60v-1434h-60v1341l-588 -827h-10l-602 821v-1335h-61z" />
    <glyph glyph-name="uni041D" unicode="&#x41d;" horiz-adv-x="1581" 
d="M1284 0v702h-985v-702h-61v1434h61v-674h985v674h59v-1434h-59z" />
    <glyph glyph-name="uni041E" unicode="&#x41e;" horiz-adv-x="1652" 
d="M117 717q0 205 92.5 373.5t255 265t360.5 96.5q148 0 279.5 -56t226 -153t149 -233.5t54.5 -292.5q0 -206 -93 -374.5t-255.5 -264.5t-360.5 -96q-197 0 -359 95t-255.5 264t-93.5 376zM180 717q0 -142 50 -267.5t135.5 -215t205 -141.5t254.5 -52q183 0 330.5 88
t231 243t83.5 345q0 143 -49.5 268.5t-135 215t-205 141t-255.5 51.5q-135 0 -254.5 -51.5t-205 -141t-135.5 -215t-50 -268.5z" />
    <glyph glyph-name="uni041F" unicode="&#x41f;" horiz-adv-x="1579" 
d="M1280 0v1376h-981v-1376h-61v1434h1103v-1434h-61z" />
    <glyph glyph-name="uni0420" unicode="&#x420;" horiz-adv-x="1177" 
d="M299 0h-61v1434q41 0 166 2t161 2q113 0 201 -24.5t142 -64.5t89 -96t48.5 -114t13.5 -123q0 -66 -17.5 -127t-56 -116.5t-96 -96t-143.5 -64.5t-191 -24q-109 0 -256 10v-598zM571 1380q-136 0 -272 -4v-721q147 -10 252 -10q218 0 332 103.5t114 269.5q0 164 -104 263
t-322 99z" />
    <glyph glyph-name="uni0421" unicode="&#x421;" horiz-adv-x="1345" 
d="M1241 184l27 -47q-74 -72 -194 -113.5t-247 -41.5q-156 0 -288 52.5t-225 147.5t-145 232.5t-52 302.5q0 206 85 372.5t244 264.5t363 98q269 0 432 -133l-31 -43q-148 117 -399 117q-186 0 -330.5 -89t-222.5 -242.5t-78 -344.5q0 -304 181 -490t470 -186
q121 0 226.5 38t183.5 105z" />
    <glyph glyph-name="uni0422" unicode="&#x422;" horiz-adv-x="1210" 
d="M20 1376v58h1170v-58h-555v-1376h-60v1376h-555z" />
    <glyph glyph-name="uni0423" unicode="&#x423;" horiz-adv-x="1310" 
d="M1272 1434l-504 -1115q-76 -169 -146 -244t-163 -75q-90 0 -144 43l21 51q56 -39 121 -39q126 0 225 211l31 62l-674 1106h67l635 -1047l469 1047h62z" />
    <glyph glyph-name="uni0424" unicode="&#x424;" horiz-adv-x="1693" 
d="M815 -16v186h-18q-207 0 -364.5 65.5t-247 195t-89.5 306.5q0 268 192 418t517 150h10v145h59v-145h11q330 0 520 -150.5t190 -417.5q0 -177 -89.5 -306t-246.5 -195t-364 -66h-21v-186h-59zM887 1249h-13v-1024h21q186 0 327.5 56t225.5 173.5t84 282.5t-81.5 281.5
t-225.5 173.5t-338 57zM160 737q0 -164 83.5 -281t226 -174t329.5 -57h16v1024h-12q-191 0 -335 -58t-226 -174.5t-82 -279.5z" />
    <glyph glyph-name="uni0425" unicode="&#x425;" horiz-adv-x="1345" 
d="M1255 1434l-542 -705l561 -729h-74l-528 682l-527 -682h-73l563 729l-541 705h74l506 -658l508 658h73z" />
    <glyph glyph-name="uni0426" unicode="&#x426;" horiz-adv-x="1603" 
d="M238 0v1434h61v-1377h971v1377h61v-1377h195v-338h-58v281h-1230z" />
    <glyph glyph-name="uni0427" unicode="&#x427;" horiz-adv-x="1277" 
d="M1040 1434v-1434h-61v684q-76 -51 -191.5 -91t-238.5 -40q-192 0 -308 114t-116 345v422h61v-414q0 -200 101 -304t276 -104q213 0 416 131v691h61z" />
    <glyph glyph-name="uni0428" unicode="&#x428;" horiz-adv-x="2029" 
d="M238 0v1434h59v-1377h688v1377h59v-1377h689v1377h59v-1434h-1554z" />
    <glyph glyph-name="uni0429" unicode="&#x429;" horiz-adv-x="2064" 
d="M238 0v1434h59v-1377h688v1377h59v-1377h689v1377h59v-1377h195v-338h-58v281h-1691z" />
    <glyph glyph-name="uni042A" unicode="&#x42a;" horiz-adv-x="1359" 
d="M2 1376v58h444v-594q120 10 256 10q270 0 404.5 -108t134.5 -304q0 -217 -146.5 -329.5t-408.5 -112.5q-56 0 -159 2t-142 2v1376h-383zM702 793q-131 0 -256 -13v-723q31 0 114.5 -2t133.5 -2q235 0 359.5 98t124.5 289q0 168 -122 260.5t-354 92.5z" />
    <glyph glyph-name="uni042B" unicode="&#x42b;" horiz-adv-x="1669" 
d="M1372 0v1434h60v-1434h-60zM537 793q-113 0 -238 -13v-723q31 0 105 -2t124 -2q234 0 358 98.5t124 288.5q0 168 -120.5 260.5t-352.5 92.5zM299 1434v-594q120 10 238 10q267 0 400.5 -108t133.5 -304q0 -217 -145.5 -329.5t-403.5 -112.5q-56 0 -150.5 2t-133.5 2v1434
h61z" />
    <glyph glyph-name="uni042C" unicode="&#x42c;" horiz-adv-x="1210" 
d="M555 793q-131 0 -256 -13v-723q31 0 114.5 -2t133.5 -2q235 0 359 98t124 289q0 168 -121.5 260.5t-353.5 92.5zM299 1434v-594q120 10 256 10q269 0 403 -108t134 -304q0 -217 -146.5 -329.5t-406.5 -112.5q-56 0 -159 2t-142 2v1434h61z" />
    <glyph glyph-name="uni042D" unicode="&#x42d;" horiz-adv-x="1398" 
d="M416 702v58h803q-12 292 -191.5 462.5t-474.5 170.5q-241 0 -399 -123l-27 43q78 69 194.5 104t241.5 35q327 0 522 -197.5t195 -531.5q0 -156 -51 -292t-142.5 -235.5t-225.5 -156.5t-292 -57q-270 0 -475 149l31 49q198 -139 440 -139q190 0 338.5 87t229.5 237t86 337
h-803z" />
    <glyph glyph-name="uni042E" unicode="&#x42e;" horiz-adv-x="2199" 
d="M238 0v1434h61v-674h410q10 195 99 352.5t242.5 248.5t342.5 91q197 0 355 -95.5t245.5 -263t87.5 -376.5q0 -155 -51.5 -291t-141.5 -233.5t-218.5 -154t-276.5 -56.5q-144 0 -270.5 54.5t-216.5 149.5t-142.5 228.5t-54.5 287.5h-410v-702h-61zM770 717
q0 -190 80 -344.5t223.5 -243t321.5 -88.5q182 0 324.5 88.5t220 242.5t77.5 345q0 192 -78.5 346t-221 242t-322.5 88q-178 0 -321.5 -88t-223.5 -242.5t-80 -345.5z" />
    <glyph glyph-name="uni042F" unicode="&#x42f;" horiz-adv-x="1245" 
d="M948 0v586h-362l-439 -586h-73l450 594q-137 33 -236.5 142.5t-99.5 258.5q0 196 134.5 319.5t384.5 123.5q52 0 156.5 -2t144.5 -2v-1434h-60zM573 643h375v733q-31 0 -117 2t-135 2q-112 0 -198.5 -30.5t-139 -84t-79.5 -122t-27 -148.5q0 -132 97 -232t224 -120z" />
    <glyph glyph-name="uni0430" unicode="&#x430;" horiz-adv-x="935" 
d="M186 807l-18 49q134 84 283 84q179 0 255 -92t76 -273v-575h-57v160q-123 -170 -342 -170q-129 0 -208 72t-79 192q0 134 97.5 207.5t252.5 73.5q172 0 279 -76q0 57 -1 92.5t-5 81.5t-12 74t-21.5 60.5t-34 51t-49.5 35.5t-68.5 24t-89.5 7q-74 0 -130.5 -18.5
t-127.5 -59.5zM395 45q65 0 119.5 15t94 43.5t64.5 54t52 61.5v184q-116 82 -274 82q-76 0 -140 -22.5t-108.5 -75.5t-44.5 -129q0 -99 67 -156t170 -57z" />
    <glyph glyph-name="uni0431" unicode="&#x431;" horiz-adv-x="1142" 
d="M918 1452l32 -37q-33 -55 -86.5 -81.5t-107 -31t-140.5 -21t-163 -48.5q-56 -23 -101 -61.5t-75 -87.5t-51.5 -101.5t-34.5 -114.5t-19.5 -114.5t-9.5 -112.5h4q48 128 167 203.5t259 75.5q207 0 325.5 -128t118.5 -339q0 -96 -35 -182.5t-95.5 -150t-146 -101
t-181.5 -37.5q-215 0 -344.5 151t-129.5 412q0 57 2 106t10 117t22 124.5t39 120t59.5 112.5t86 93t115.5 70q76 31 160.5 47t135.5 20t101.5 26.5t82.5 70.5zM166 537q0 -236 114.5 -368t292.5 -132q171 0 287.5 120.5t116.5 293.5q0 186 -105 299.5t-290 113.5
q-87 0 -162.5 -29t-126.5 -77t-84 -105t-43 -116z" />
    <glyph glyph-name="uni0432" unicode="&#x432;" horiz-adv-x="980" 
d="M174 0v922q35 0 127.5 3t155.5 3q186 0 277 -56.5t91 -177.5q0 -81 -50 -141.5t-146 -73.5v-4q124 -17 179.5 -73t55.5 -154q0 -123 -101 -188.5t-300 -65.5q-61 0 -156 3t-133 3zM496 444h-263v-391q29 0 104 -2t126 -2q340 0 340 205q0 190 -307 190zM459 872
q-49 0 -226 -6v-372h281q115 0 182.5 53t67.5 141q0 53 -23.5 90.5t-67.5 57t-95.5 28t-118.5 8.5z" />
    <glyph glyph-name="uni0433" unicode="&#x433;" horiz-adv-x="708" 
d="M174 0v922h533v-56h-474v-866h-59z" />
    <glyph glyph-name="uni0434" unicode="&#x434;" horiz-adv-x="1050" 
d="M20 -240v295h113q50 62 97 217.5t61 374.5l14 275h553v-867h154v-295h-56v240h-880v-240h-56zM346 627q-14 -202 -60.5 -360.5t-90.5 -211.5h606v811h-441z" />
    <glyph glyph-name="uni0435" unicode="&#x435;" horiz-adv-x="1079" 
d="M903 164l23 -43q-58 -67 -149 -103t-187 -36q-214 0 -349 131.5t-135 347.5q0 137 50 243.5t155 171t252 64.5q180 0 296 -114t116 -300q0 -27 -4 -63h-801q1 -196 116 -311t306 -115q94 0 176 35t135 92zM555 885q-173 0 -275 -103.5t-114 -269.5h749q1 171 -97 272
t-263 101z" />
    <glyph glyph-name="uni0436" unicode="&#x436;" horiz-adv-x="1300" 
d="M1221 922l-392 -443l416 -479h-71l-412 479l387 443h72zM618 0v922h58v-922h-58zM465 479l-393 443h73l385 -443l-405 -479h-72z" />
    <glyph glyph-name="uni0437" unicode="&#x437;" horiz-adv-x="931" 
d="M440 -18q-90 0 -196.5 35t-149.5 87l31 46q55 -53 143.5 -83t161.5 -30q146 0 235 61t89 164q0 85 -65.5 133.5t-176.5 48.5h-156v50h146q86 0 149.5 58.5t63.5 143.5q0 90 -71.5 139.5t-194.5 49.5q-172 0 -297 -109l-27 43q56 58 144 89.5t188 31.5q153 0 235 -63
t82 -175q0 -73 -41.5 -133t-128.5 -92v-4q98 -7 153.5 -70t55.5 -147q0 -127 -103.5 -200.5t-269.5 -73.5z" />
    <glyph glyph-name="uni0438" unicode="&#x438;" horiz-adv-x="1148" 
d="M233 0h-59v922h59v-838l685 838h57v-922h-57v838z" />
    <glyph glyph-name="uni0439" unicode="&#x439;" horiz-adv-x="1148" 
d="M233 0h-59v922h59v-838l685 838h57v-922h-57v838zM322 1407h51q0 -83 59 -136.5t156 -53.5q92 0 149.5 54t57.5 136h51q0 -103 -73 -171.5t-185 -68.5q-122 0 -194 67t-72 173z" />
    <glyph glyph-name="uni043A" unicode="&#x43a;" horiz-adv-x="966" 
d="M881 922l-494 -441l528 -481h-86l-520 479l490 443h82zM174 0v922h59v-922h-59z" />
    <glyph glyph-name="uni043B" unicode="&#x43b;" horiz-adv-x="1071" 
d="M840 0v864h-445l-14 -241q-42 -627 -301 -627l-4 57q21 -1 44.5 8t58 44.5t62 94.5t51.5 172t32 263l16 287h557v-922h-57z" />
    <glyph glyph-name="uni043C" unicode="&#x43c;" horiz-adv-x="1265" 
d="M174 0v922h57l410 -564l397 564h54v-922h-58v836l-393 -557h-6l-402 557v-836h-59z" />
    <glyph glyph-name="uni043D" unicode="&#x43d;" horiz-adv-x="1136" 
d="M903 0v442h-670v-442h-59v922h59v-424h670v424h60v-922h-60z" />
    <glyph glyph-name="uni043E" unicode="&#x43e;" horiz-adv-x="1165" 
d="M106 461q0 208 134 343.5t342 135.5q210 0 343.5 -135.5t133.5 -343.5t-133.5 -343.5t-343.5 -135.5q-208 0 -342 135.5t-134 343.5zM166 461q0 -186 116.5 -305t299.5 -119t299 119t116 305t-116 305t-299 119q-182 0 -299 -119t-117 -305z" />
    <glyph glyph-name="uni043F" unicode="&#x43f;" horiz-adv-x="1126" 
d="M893 0v866h-660v-866h-59v922h778v-922h-59z" />
    <glyph glyph-name="uni0440" unicode="&#x440;" horiz-adv-x="1130" 
d="M174 -410v1332h59v-136q56 67 155 110.5t200 43.5q202 0 320 -129t118 -336q0 -140 -57.5 -252t-165 -176.5t-246.5 -64.5q-201 0 -324 92v-484h-59zM575 885q-103 0 -199 -46.5t-143 -109.5v-594q137 -98 322 -98q182 0 296 120.5t114 311.5q0 189 -103.5 302.5
t-286.5 113.5z" />
    <glyph glyph-name="uni0441" unicode="&#x441;" horiz-adv-x="1005" 
d="M899 170l29 -39q-57 -72 -148.5 -110.5t-191.5 -38.5q-213 0 -347.5 131.5t-134.5 347.5q0 201 130.5 340t320.5 139q231 0 352 -113l-28 -47q-119 105 -314 105q-166 0 -283.5 -122t-117.5 -302q0 -192 120 -308t306 -116q91 0 173 36.5t134 96.5z" />
    <glyph glyph-name="uni0442" unicode="&#x442;" horiz-adv-x="886" 
d="M23 864v58h839v-58h-391v-864h-57v864h-391z" />
    <glyph glyph-name="uni0443" unicode="&#x443;" horiz-adv-x="966" 
d="M932 922l-377 -922q-67 -163 -123 -253t-105.5 -123.5t-113.5 -33.5q-67 0 -143 39l20 45q68 -30 115 -30q79 0 143 71.5t131 235.5l21 49l-465 922h67l355 -707q26 -48 71 -149q8 23 18 48.5t22.5 56.5t19.5 48l278 703h66z" />
    <glyph glyph-name="uni0444" unicode="&#x444;" horiz-adv-x="1343" 
d="M643 -410v392h-37q-229 0 -364.5 134.5t-135.5 344.5q0 94 34.5 180.5t97 153t158 106t208.5 39.5h39v494h57v-494h43q216 0 356 -137.5t140 -341.5q0 -210 -135 -344.5t-361 -134.5h-43v-392h-57zM166 461q0 -188 119.5 -306t326.5 -118h31v848h-41
q-197 0 -316.5 -121.5t-119.5 -302.5zM743 885h-43v-848h35q205 0 324 118t119 306q0 112 -51 207.5t-152 156t-232 60.5z" />
    <glyph glyph-name="uni0445" unicode="&#x445;" horiz-adv-x="993" 
d="M899 922l-362 -447l383 -475h-72l-352 434l-353 -434h-69l383 473l-363 449h72l330 -410l333 410h70z" />
    <glyph glyph-name="uni0446" unicode="&#x446;" horiz-adv-x="1140" 
d="M174 0v922h59v-867h658v867h57v-867h154v-295h-55v240h-873z" />
    <glyph glyph-name="uni0447" unicode="&#x447;" horiz-adv-x="960" 
d="M786 922v-922h-57v416q-119 -88 -295 -88q-319 0 -319 342v252h61v-252q0 -144 70.5 -215.5t204.5 -71.5q167 0 278 88v451h57z" />
    <glyph glyph-name="uni0448" unicode="&#x448;" horiz-adv-x="1425" 
d="M174 0v922h57v-867h453v867h57v-867h453v867h57v-922h-1077z" />
    <glyph glyph-name="uni0449" unicode="&#x449;" horiz-adv-x="1443" 
d="M174 0v922h57v-867h453v867h57v-867h453v867h57v-867h154v-295h-55v240h-1176z" />
    <glyph glyph-name="uni044A" unicode="&#x44a;" horiz-adv-x="1007" 
d="M2 866v56h360v-338h187q103 0 176 -22t113 -62.5t57.5 -91t17.5 -115.5q0 -293 -374 -293h-234v866h-303zM541 528h-179v-473h177q169 0 241 60.5t72 177.5q0 115 -73.5 175t-237.5 60z" />
    <glyph glyph-name="uni044B" unicode="&#x44b;" horiz-adv-x="1234" 
d="M174 0v922h59v-338h166q103 0 176 -22t113 -62.5t58 -91t18 -115.5q0 -134 -87.5 -213.5t-287.5 -79.5h-215zM391 528h-158v-473h156q170 0 243 61t73 177q0 115 -74.5 175t-239.5 60zM1004 0v922h57v-922h-57z" />
    <glyph glyph-name="uni044C" unicode="&#x44c;" horiz-adv-x="876" 
d="M174 0v922h59v-338h185q103 0 176 -22t113 -62.5t57.5 -91t17.5 -115.5q0 -293 -372 -293h-236zM410 528h-177v-473h175q170 0 242.5 60.5t72.5 177.5q0 115 -73.5 175t-239.5 60z" />
    <glyph glyph-name="uni044D" unicode="&#x44d;" horiz-adv-x="1005" 
d="M328 444v52h512q-10 180 -127 284.5t-295 104.5q-93 0 -175.5 -35t-136.5 -94l-26 41q58 68 150 105.5t188 37.5q213 0 347 -131.5t134 -347.5q0 -201 -130 -340t-320 -139q-238 0 -355 112l29 45q113 -102 319 -102q164 0 279 115t121 292h-514z" />
    <glyph glyph-name="uni044E" unicode="&#x44e;" horiz-adv-x="1519" 
d="M174 0v922h62v-422h262q12 194 138 317t318 123q202 0 330.5 -135.5t128.5 -343.5t-129.5 -343.5t-329.5 -135.5q-197 0 -323.5 129t-132.5 331h-262v-442h-62zM561 461q0 -186 110 -303t283 -117q175 0 285.5 117t110.5 303q0 185 -110 302.5t-286 117.5
q-173 0 -283 -117.5t-110 -302.5z" />
    <glyph glyph-name="uni044F" unicode="&#x44f;" horiz-adv-x="968" 
d="M532 922h263v-922h-58v375h-272l-297 -375h-74l312 387q-97 11 -168.5 81t-71.5 175q0 125 86.5 202t279.5 77zM225 643q0 -63 38 -114t88 -75t98 -24h288v436h-215q-152 0 -224.5 -61.5t-72.5 -161.5z" />
    <glyph glyph-name="uni0451" unicode="&#x451;" horiz-adv-x="1079" 
d="M903 164l23 -43q-58 -67 -149 -103t-187 -36q-214 0 -349 131.5t-135 347.5q0 137 50 243.5t155 171t252 64.5q180 0 296 -114t116 -300q0 -27 -4 -63h-801q1 -196 116 -311t306 -115q94 0 176 35t135 92zM555 885q-173 0 -275 -103.5t-114 -269.5h749q1 171 -97 272
t-263 101zM287 1282q0 17 13 30t32 13q15 0 28 -13t13 -30q0 -21 -12.5 -34t-28.5 -13q-19 0 -32 13t-13 34zM719 1282q0 17 13 30t32 13q17 0 30 -13t13 -30q0 -21 -12.5 -34t-30.5 -13q-19 0 -32 13t-13 34z" />
    <glyph glyph-name="uni0452" unicode="&#x452;" horiz-adv-x="1241" 
d="M2 1026v49h305v359h58v-359h436v-49h-436v-412q58 66 157.5 110t198.5 44q195 0 292 -101.5t97 -314.5q0 -110 -22 -218.5t-65.5 -211.5t-118 -190.5t-171.5 -141.5h-69q107 63 185.5 153t121 191.5t61.5 200t19 201.5q0 192 -83.5 284.5t-256.5 92.5
q-103 0 -200.5 -48.5t-145.5 -111.5v-553h-58v1026h-305z" />
    <glyph glyph-name="uni0453" unicode="&#x453;" horiz-adv-x="708" 
d="M174 0v922h533v-56h-474v-866h-59zM659 1419l-229 -289l-37 25l223 299z" />
    <glyph glyph-name="uni0454" unicode="&#x454;" horiz-adv-x="1005" 
d="M678 496v-52h-514q4 -189 123.5 -298t302.5 -109q79 0 158 25t137 77l26 -45q-117 -112 -333 -112q-206 0 -339 134t-133 345q0 216 134.5 347.5t347.5 131.5q96 0 188 -37.5t150 -105.5l-27 -41q-54 59 -136 94t-175 35q-178 0 -295 -104.5t-129 -284.5h514z" />
    <glyph glyph-name="uni0455" unicode="&#x455;" horiz-adv-x="837" 
d="M662 233q0 48 -22.5 84t-59 56.5t-83.5 39.5t-95.5 32.5t-95.5 35.5t-83.5 49t-59 73t-22.5 106q0 102 76.5 166.5t204.5 64.5q81 0 152.5 -27.5t111.5 -70.5l-29 -43q-85 88 -237 88q-98 0 -158.5 -51.5t-60.5 -124.5q0 -51 22.5 -89.5t59 -60.5t83 -41.5t95.5 -33
t95.5 -34.5t83 -46t59 -68t22.5 -100q0 -124 -88 -190t-221 -66q-86 0 -175.5 38.5t-121.5 88.5l37 36q35 -49 112 -79.5t150 -30.5q102 0 175 51.5t73 146.5z" />
    <glyph glyph-name="uni0456" unicode="&#x456;" horiz-adv-x="522" 
d="M231 0v922h58v-922h-58zM215 1288q0 19 14 32t33 13q17 0 30 -13t13 -32q0 -20 -12.5 -33.5t-30.5 -13.5q-19 0 -33 13.5t-14 33.5z" />
    <glyph glyph-name="uni0457" unicode="&#x457;" horiz-adv-x="534" 
d="M104 1280q0 17 12 29t31 12q14 0 26.5 -12t12.5 -29q0 -18 -12.5 -30.5t-26.5 -12.5q-19 0 -31 12t-12 31zM350 1280q0 17 13 29t30 12q16 0 28.5 -12t12.5 -29q0 -18 -12.5 -30.5t-28.5 -12.5q-18 0 -30.5 12.5t-12.5 30.5zM238 0v922h57v-922h-57z" />
    <glyph glyph-name="uni0458" unicode="&#x458;" horiz-adv-x="522" 
d="M293 922v-990q0 -358 -289 -358q-101 0 -174 53l20 47q65 -45 146 -45q126 0 183 77t57 228v988h57zM217 1288q0 19 14 32t33 13q17 0 30 -13t13 -32q0 -20 -12.5 -33.5t-30.5 -13.5q-19 0 -33 13.5t-14 33.5z" />
    <glyph glyph-name="uni0459" unicode="&#x459;" horiz-adv-x="1517" 
d="M840 0v864h-445l-14 -241q-42 -627 -301 -627l-4 57q21 -1 44.5 8t58 44.5t62 94.5t51.5 172t32 263l16 287h557v-338h162q103 0 176 -22t113 -62.5t57.5 -91t17.5 -115.5q0 -293 -374 -293h-209zM1051 528h-154v-473h152q170 0 242.5 60.5t72.5 177.5q0 115 -74 175
t-239 60z" />
    <glyph glyph-name="uni045A" unicode="&#x45a;" horiz-adv-x="1583" 
d="M174 0v922h59v-390h670v390h60v-373h161q201 0 283 -71t82 -204q0 -131 -86 -202.5t-289 -71.5h-211v477h-670v-477h-59zM1116 494h-153v-439h151q172 0 242.5 53t70.5 166t-72 166.5t-239 53.5z" />
    <glyph glyph-name="uni045B" unicode="&#x45b;" horiz-adv-x="1241" 
d="M2 1026v49h305v359h58v-359h436v-49h-436v-412q58 66 157.5 110t198.5 44q196 0 292.5 -101.5t96.5 -316.5v-350h-59v340q0 189 -83.5 281t-256.5 92q-103 0 -200.5 -48.5t-145.5 -111.5v-553h-58v1026h-305z" />
    <glyph glyph-name="uni045C" unicode="&#x45c;" horiz-adv-x="966" 
d="M881 922l-494 -441l528 -481h-86l-520 479l490 443h82zM174 0v922h59v-922h-59zM694 1419l-229 -289l-37 25l223 299z" />
    <glyph glyph-name="uni045E" unicode="&#x45e;" horiz-adv-x="966" 
d="M932 922l-377 -922q-67 -163 -123 -253t-105.5 -123.5t-113.5 -33.5q-67 0 -143 39l20 45q68 -30 115 -30q79 0 143 71.5t131 235.5l21 49l-465 922h67l355 -707q26 -48 71 -149q8 23 18 48.5t22.5 56.5t19.5 48l278 703h66zM233 1407h52q0 -83 59 -136.5t156 -53.5
q92 0 149.5 54t57.5 136h51q0 -103 -73 -171.5t-185 -68.5q-123 0 -195 67t-72 173z" />
    <glyph glyph-name="uni045F" unicode="&#x45f;" horiz-adv-x="1105" 
d="M174 0v922h59v-867h639v867h60v-922h-352v-279h-54v279h-352z" />
    <glyph glyph-name="uni0462" unicode="&#x462;" horiz-adv-x="1282" 
d="M369 1434v-267h354v-57h-354v-283q159 13 258 13q269 0 402.5 -106t133.5 -300q0 -217 -146 -327.5t-407 -110.5q-56 0 -159 2t-142 2v1110h-303v57h303v267h60zM627 782q-143 0 -258 -12v-713q32 0 115 -2t132 -2q235 0 359.5 96t124.5 285q0 169 -120 258.5t-353 89.5z
" />
    <glyph glyph-name="uni0463" unicode="&#x463;" horiz-adv-x="1005" 
d="M2 866v56h303v512h57v-512h345v-56h-345v-297h185q103 0 175.5 -21t113 -61t58 -89.5t17.5 -114.5q0 -283 -372 -283h-234v866h-303zM547 514h-185v-459h183q165 0 236 59.5t71 170.5t-72 170t-233 59z" />
    <glyph glyph-name="uni0472" unicode="&#x472;" horiz-adv-x="1652" 
d="M117 717q0 205 92.5 373.5t255 265t360.5 96.5q148 0 279.5 -56t226 -153t149 -233.5t54.5 -292.5q0 -206 -93 -374.5t-255.5 -264.5t-360.5 -96q-197 0 -359 95t-255.5 264t-93.5 376zM539 788q-92 0 -192 -47.5t-163 -107.5q28 -257 208 -424.5t433 -167.5
q183 0 330.5 88t231 243t83.5 345q0 2 -1 6.5t-1 7.5q-70 -55 -161 -93t-177 -38q-69 0 -133 19.5t-114.5 47t-100.5 55t-112.5 47t-130.5 19.5zM180 717v-17q75 62 171 103t192 41q69 0 134 -19.5t116 -47t102 -55.5t113 -47.5t127 -19.5q86 0 177.5 42t153.5 96
q-13 129 -67 240.5t-138 190.5t-197 124t-239 45q-135 0 -254.5 -51.5t-205 -141t-135.5 -215t-50 -268.5z" />
    <glyph glyph-name="uni0473" unicode="&#x473;" horiz-adv-x="1165" 
d="M106 461q0 208 134 343.5t342 135.5q210 0 343.5 -135.5t133.5 -343.5t-133.5 -343.5t-343.5 -135.5q-208 0 -342 135.5t-134 343.5zM367 512q-104 0 -201 -84q11 -173 126 -282t290 -109q171 0 286 107t127 276q-83 -64 -180 -64q-54 0 -117 24.5t-111 53.5t-108.5 53.5
t-111.5 24.5zM821 412q96 0 176 69q-8 179 -123 291.5t-292 112.5q-173 0 -289 -110t-127 -283q102 75 205 75q55 0 118.5 -24t111 -53.5t108.5 -53.5t112 -24z" />
    <glyph glyph-name="uni0474" unicode="&#x474;" horiz-adv-x="1341" 
d="M1075 1047l-377 -1061h-39l-626 1448h65l582 -1348l356 1022q57 164 109.5 241.5t108.5 89t128 -11.5l-12 -55q-36 14 -64.5 15t-54 -14t-45.5 -38.5t-43 -69t-42 -94t-46 -124.5z" />
    <glyph glyph-name="uni0475" unicode="&#x475;" horiz-adv-x="972" 
d="M780 651l-258 -665h-37l-452 936h67l316 -652q28 -53 88 -190q11 28 74 199l159 409q46 123 87.5 180t86.5 63.5t103 -16.5l-15 -53q-24 14 -44.5 16.5t-39.5 -8.5t-34.5 -27.5t-33.5 -49t-32.5 -63.5t-34.5 -79z" />
    <glyph glyph-name="uni0490" unicode="&#x490;" horiz-adv-x="1026" 
d="M238 0v1434h725v278h59v-336h-723v-1376h-61z" />
    <glyph glyph-name="uni0491" unicode="&#x491;" horiz-adv-x="708" 
d="M174 0v922h477v237h56v-293h-474v-866h-59z" />
    <glyph glyph-name="uni0492" unicode="&#x492;" horiz-adv-x="1079" 
d="M291 0v662h-271v55h271v717h784v-58h-723v-659h443v-55h-443v-662h-61z" />
    <glyph glyph-name="uni0493" unicode="&#x493;" horiz-adv-x="729" 
d="M207 0v438h-197v49h197v435h532v-56h-473v-379h324v-49h-324v-438h-59z" />
    <glyph glyph-name="uni0494" unicode="&#x494;" horiz-adv-x="1216" 
d="M238 0v1434h784v-58h-723v-641q41 28 71.5 45.5t80 40t106.5 34t121 11.5q93 0 167.5 -24t133 -75.5t90 -140t31.5 -208.5v-402q0 -116 -27 -203t-74.5 -138t-106.5 -76t-130 -25q-52 0 -104 20.5t-72 38.5l24 48q63 -48 148 -48q131 0 205.5 93t74.5 286v406
q0 202 -93.5 296.5t-278.5 94.5q-44 0 -86 -7t-71.5 -15.5t-65 -25.5t-53 -27t-49.5 -30t-42 -26v-678h-61z" />
    <glyph glyph-name="uni0495" unicode="&#x495;" horiz-adv-x="1067" 
d="M174 0v922h543v-56h-484v-428q57 63 152.5 104.5t194.5 41.5q48 0 93 -8.5t94.5 -34t85.5 -65t59.5 -107.5t23.5 -156q0 -413 -352 -623h-70q108 66 181 139t112 153t54.5 158t15.5 173q0 74 -19.5 131t-50 91t-72.5 55.5t-82 29.5t-84 8q-103 0 -190.5 -42.5
t-145.5 -108.5v-377h-59z" />
    <glyph glyph-name="uni0496" unicode="&#x496;" horiz-adv-x="1914" 
d="M1759 1434l-635 -684l607 -693h184v-338h-57v281h-158l-651 748l628 686h82zM727 748l-633 686h80l629 -686l-651 -748h-80zM895 0v1434h61v-1434h-61z" />
    <glyph glyph-name="uni0497" unicode="&#x497;" horiz-adv-x="1339" 
d="M1221 922l-392 -443l367 -424h143v-295h-55v240h-110l-412 479l387 443h72zM465 479l-393 443h73l385 -443l-405 -479h-72zM618 0v922h58v-922h-58z" />
    <glyph glyph-name="uni0498" unicode="&#x498;" horiz-adv-x="1165" 
d="M569 -326h-57v308q-124 6 -243.5 63t-172.5 139l37 37q71 -83 184.5 -131.5t208.5 -48.5q193 0 306.5 99.5t113.5 265.5q0 138 -88.5 218.5t-236.5 80.5h-191v57h176q108 0 196.5 95.5t88.5 229.5q0 148 -94 227t-242 79q-125 0 -215 -42.5t-166 -123.5l-37 35
q72 90 181.5 140t234.5 50q183 0 290 -97t107 -268q0 -107 -60.5 -204.5t-166.5 -139.5v-6q129 -13 206 -110.5t77 -225.5q0 -185 -122.5 -296.5t-314.5 -120.5v-310z" />
    <glyph glyph-name="uni0499" unicode="&#x499;" horiz-adv-x="931" 
d="M483 -279h-53v261q-91 3 -192.5 37t-143.5 85l31 46q55 -53 143.5 -83t161.5 -30q146 0 235 61t89 164q0 85 -65.5 133.5t-176.5 48.5h-156v50h146q86 0 149.5 58.5t63.5 143.5q0 90 -71.5 139.5t-194.5 49.5q-172 0 -297 -109l-27 43q56 58 144 89.5t188 31.5
q153 0 235 -63t82 -175q0 -73 -41.5 -133t-128.5 -92v-4q98 -7 153.5 -70t55.5 -147q0 -119 -90.5 -191t-239.5 -81v-263z" />
    <glyph glyph-name="uni049A" unicode="&#x49a;" horiz-adv-x="1335" 
d="M1182 1434l-705 -682l674 -695h184v-338h-57v281h-160l-725 748l705 686h84zM238 0v1434h61v-1434h-61z" />
    <glyph glyph-name="uni049B" unicode="&#x49b;" horiz-adv-x="999" 
d="M881 922l-494 -441l469 -428v2h143v-295h-55v240h-115l-520 479l490 443h82zM174 0v922h59v-922h-59z" />
    <glyph glyph-name="uni049C" unicode="&#x49c;" horiz-adv-x="1286" 
d="M1190 1434l-703 -682l727 -752h-88l-643 664v-299h-61v745h61v-285l623 609h84zM238 0v1434h61v-1434h-61z" />
    <glyph glyph-name="uni049D" unicode="&#x49d;" horiz-adv-x="972" 
d="M887 922l-494 -441l529 -481h-86l-445 410v-226h-57v553h57v-190l414 375h82zM174 0v922h59v-922h-59z" />
    <glyph glyph-name="uni04A0" unicode="&#x4a0;" horiz-adv-x="1507" 
d="M1411 1434l-704 -682l729 -752h-88l-725 748l704 686h84zM467 0v1376h-465v58h526v-1434h-61z" />
    <glyph glyph-name="uni04A1" unicode="&#x4a1;" horiz-adv-x="1138" 
d="M1053 922l-494 -441l528 -481h-86l-520 479l490 443h82zM2 866v56h404v-922h-60v866h-344z" />
    <glyph glyph-name="uni04A2" unicode="&#x4a2;" horiz-adv-x="1615" 
d="M1284 0v702h-985v-702h-61v1434h61v-674h985v674h59v-1377h195v-338h-57v281h-197z" />
    <glyph glyph-name="uni04A3" unicode="&#x4a3;" horiz-adv-x="1155" 
d="M903 0v442h-670v-442h-59v922h59v-424h670v424h60v-867h153v-295h-55v240h-158z" />
    <glyph glyph-name="uni04A4" unicode="&#x4a4;" horiz-adv-x="2039" 
d="M1262 0v702h-963v-702h-61v1434h61v-674h963v674h774v-58h-713v-1376h-61z" />
    <glyph glyph-name="uni04A5" unicode="&#x4a5;" horiz-adv-x="1406" 
d="M883 0v442h-650v-442h-59v922h59v-424h650v424h522v-56h-463v-866h-59z" />
    <glyph glyph-name="uni04AA" unicode="&#x4aa;" horiz-adv-x="1345" 
d="M1241 184l27 -47q-69 -68 -181 -109t-231 -46v-308h-57v310q-307 9 -494.5 208.5t-187.5 524.5q0 206 85 372.5t244 264.5t363 98q269 0 432 -133l-31 -43q-148 117 -399 117q-186 0 -330.5 -89t-222.5 -242.5t-78 -344.5q0 -304 181 -490t470 -186q121 0 226.5 38
t183.5 105z" />
    <glyph glyph-name="uni04AB" unicode="&#x4ab;" horiz-adv-x="1005" 
d="M899 170l29 -39q-54 -67 -137.5 -105.5t-176.5 -43.5v-261h-53v261q-202 9 -328.5 139t-126.5 340q0 201 130.5 340t320.5 139q231 0 352 -113l-28 -47q-119 105 -314 105q-166 0 -283.5 -122t-117.5 -302q0 -192 120 -308t306 -116q91 0 173 36.5t134 96.5z" />
    <glyph glyph-name="uni04AE" unicode="&#x4ae;" horiz-adv-x="1161" 
d="M1126 1434l-518 -797v-637h-59v637l-514 797h71l474 -740l477 740h69z" />
    <glyph glyph-name="uni04AF" unicode="&#x4af;" horiz-adv-x="960" 
d="M926 922l-410 -920v-412h-59v412l-424 920h67l301 -652q17 -37 49 -114.5t39 -94.5q73 184 89 218l286 643h62z" />
    <glyph glyph-name="uni04B0" unicode="&#x4b0;" horiz-adv-x="1161" 
d="M1126 1434l-497 -766h395v-58h-416v-610h-59v610h-412v58h391l-493 766h71l474 -740l477 740h69z" />
    <glyph glyph-name="uni04B1" unicode="&#x4b1;" horiz-adv-x="960" 
d="M926 922l-387 -867h266v-55h-289v-410h-59v410h-299v55h274l-399 867h67l301 -652q17 -37 49 -114.5t39 -94.5q73 184 89 218l286 643h62z" />
    <glyph glyph-name="uni04B2" unicode="&#x4b2;" horiz-adv-x="1392" 
d="M1255 1434l-542 -705l516 -672h184v-338h-57v281h-156l-528 682l-527 -682h-73l563 729l-541 705h74l506 -658l508 658h73z" />
    <glyph glyph-name="uni04B3" unicode="&#x4b3;" horiz-adv-x="1017" 
d="M899 922l-362 -447l337 -420h144v-295h-55v240h-115l-352 434l-353 -434h-69l383 473l-363 449h72l330 -410l333 410h70z" />
    <glyph glyph-name="uni04B6" unicode="&#x4b6;" horiz-adv-x="1312" 
d="M1040 1434v-1377h195v-338h-57v281h-199v684q-76 -51 -191.5 -91t-238.5 -40q-192 0 -308 114t-116 345v422h61v-414q0 -200 101 -304t276 -104q213 0 416 131v691h61z" />
    <glyph glyph-name="uni04B7" unicode="&#x4b7;" horiz-adv-x="978" 
d="M786 922v-867h154v-295h-55v240h-156v416q-119 -88 -295 -88q-319 0 -319 342v252h61v-252q0 -144 70.5 -215.5t204.5 -71.5q167 0 278 88v451h57z" />
    <glyph glyph-name="uni04B8" unicode="&#x4b8;" horiz-adv-x="1277" 
d="M1040 1434v-1434h-61v684q-60 -41 -152.5 -74t-195.5 -43v-305h-62v301h-20q-93 0 -168.5 25.5t-133.5 78t-90 140t-32 205.5v422h61v-414q0 -199 100 -298t277 -99h6v387h62v-385q195 18 348 118v691h61z" />
    <glyph glyph-name="uni04B9" unicode="&#x4b9;" horiz-adv-x="960" 
d="M786 922v-922h-57v416q-95 -74 -240 -86v-207h-57v205q-317 0 -317 342v252h61v-252q0 -278 256 -287v283h57v-283q140 10 240 88v451h57z" />
    <glyph glyph-name="uni04BA" unicode="&#x4ba;" horiz-adv-x="1265" 
d="M238 0v1434h59v-701q68 51 185.5 92t242.5 41q93 0 168.5 -26.5t133.5 -80.5t90 -143.5t32 -207.5v-408h-59v399q0 202 -100.5 306t-278.5 104q-217 0 -414 -133v-676h-59z" />
    <glyph glyph-name="uni04BB" unicode="&#x4bb;" horiz-adv-x="1132" 
d="M174 0v1434h59v-652q58 67 157.5 111.5t197.5 44.5q197 0 293 -101.5t96 -316.5v-520h-57v508q0 191 -84 283t-258 92q-102 0 -200 -47.5t-145 -110.5v-725h-59z" />
    <glyph glyph-name="uni04C0" unicode="&#x4c0;" horiz-adv-x="645" 
d="M293 0v1434h59v-1434h-59z" />
    <glyph glyph-name="uni04CB" unicode="&#x4cb;" horiz-adv-x="1277" 
d="M1040 1434v-1434h-198v-281h-58v338h195v627q-76 -51 -191.5 -91t-238.5 -40q-192 0 -308 114t-116 345v422h61v-414q0 -200 101 -304t276 -104q213 0 416 131v691h61z" />
    <glyph glyph-name="uni04CC" unicode="&#x4cc;" horiz-adv-x="960" 
d="M786 922v-922h-155v-240h-56v295h154v361q-119 -88 -295 -88q-319 0 -319 342v252h61v-252q0 -144 70.5 -215.5t204.5 -71.5q167 0 278 88v451h57z" />
    <glyph glyph-name="uni04CF" unicode="&#x4cf;" horiz-adv-x="647" 
d="M293 0v1434h61v-1434h-61z" />
    <glyph glyph-name="uni04D0" unicode="&#x4d0;" horiz-adv-x="1413" 
d="M53 0l631 1448h45l631 -1448h-66l-231 532h-717l-229 -532h-64zM705 1358l-334 -768h667zM367 1731h57q42 -69 117 -112.5t170 -43.5q96 0 175 44t105 112h58q-24 -88 -122.5 -145.5t-215.5 -57.5q-122 0 -215.5 57t-128.5 146z" />
    <glyph glyph-name="uni04D1" unicode="&#x4d1;" horiz-adv-x="935" 
d="M186 807l-18 49q134 84 283 84q179 0 255 -92t76 -273v-575h-57v160q-123 -170 -342 -170q-129 0 -208 72t-79 192q0 134 97.5 207.5t252.5 73.5q172 0 279 -76q0 57 -1 92.5t-5 81.5t-12 74t-21.5 60.5t-34 51t-49.5 35.5t-68.5 24t-89.5 7q-74 0 -130.5 -18.5
t-127.5 -59.5zM395 45q65 0 119.5 15t94 43.5t64.5 54t52 61.5v184q-116 82 -274 82q-76 0 -140 -22.5t-108.5 -75.5t-44.5 -129q0 -99 67 -156t170 -57zM188 1407h52q0 -83 59 -136.5t156 -53.5q92 0 149.5 54t57.5 136h51q0 -103 -73 -171.5t-185 -68.5q-123 0 -195 67
t-72 173z" />
    <glyph glyph-name="uni04D2" unicode="&#x4d2;" horiz-adv-x="1413" 
d="M53 0l631 1448h45l631 -1448h-66l-231 532h-717l-229 -532h-64zM705 1358l-334 -768h667zM420 1630q0 20 14 31.5t35 11.5q20 0 33.5 -11.5t13.5 -31.5q0 -21 -13.5 -33t-33.5 -12q-21 0 -35 12t-14 33zM899 1630q0 20 14 31.5t35 11.5q18 0 31.5 -12t13.5 -31
q0 -21 -13.5 -33t-31.5 -12q-21 0 -35 12t-14 33z" />
    <glyph glyph-name="uni04D3" unicode="&#x4d3;" horiz-adv-x="935" 
d="M186 807l-18 49q134 84 283 84q179 0 255 -92t76 -273v-575h-57v160q-123 -170 -342 -170q-129 0 -208 72t-79 192q0 134 97.5 207.5t252.5 73.5q172 0 279 -76q0 57 -1 92.5t-5 81.5t-12 74t-21.5 60.5t-34 51t-49.5 35.5t-68.5 24t-89.5 7q-74 0 -130.5 -18.5
t-127.5 -59.5zM395 45q65 0 119.5 15t94 43.5t64.5 54t52 61.5v184q-116 82 -274 82q-76 0 -140 -22.5t-108.5 -75.5t-44.5 -129q0 -99 67 -156t170 -57zM203 1241q0 17 13 30t32 13q15 0 28 -13t13 -30q0 -21 -12.5 -34t-28.5 -13q-19 0 -32 13t-13 34zM635 1241
q0 17 13 30t32 13q17 0 30 -13t13 -30q0 -21 -12.5 -34t-30.5 -13q-19 0 -32 13t-13 34z" />
    <glyph glyph-name="uni04D4" unicode="&#x4d4;" horiz-adv-x="1974" 
d="M1833 0h-801v547h-565l-387 -547h-74l1026 1434h780v-58h-718v-618h657v-58h-657v-643h739v-57zM1032 1343l-524 -739h524v739z" />
    <glyph glyph-name="uni04D5" unicode="&#x4d5;" horiz-adv-x="1640" 
d="M451 940q239 0 303 -176q126 176 368 176q181 0 297.5 -114.5t116.5 -299.5q0 -27 -4 -63h-750v-232q53 -93 148 -143.5t223 -50.5q93 0 175.5 35t135.5 92l21 -43q-58 -67 -149 -103t-187 -36q-127 0 -228.5 48t-166.5 136q-73 -87 -159.5 -131.5t-203.5 -44.5
q-135 0 -215 72t-80 192q0 134 97.5 207.5t252.5 73.5q55 0 145 -7.5t134 -15.5q9 192 -52.5 282.5t-228.5 90.5q-74 0 -130.5 -18.5t-127.5 -59.5l-18 49q134 84 283 84zM782 575v-63h695q0 171 -99 272t-264 101q-118 0 -205.5 -51.5t-136.5 -141.5q10 -62 10 -117z
M395 45q65 0 119.5 15t94 43.5t64.5 54t52 61.5v242q-168 24 -274 24q-76 0 -140 -22.5t-108.5 -75.5t-44.5 -129q0 -99 67 -156t170 -57z" />
    <glyph glyph-name="uni04D6" unicode="&#x4d6;" horiz-adv-x="1177" 
d="M238 0v1434h778v-58h-717v-618h655v-58h-655v-643h737v-57h-798zM303 1731h57q42 -69 117 -112.5t170 -43.5q96 0 175.5 44t105.5 112h57q-24 -88 -122.5 -145.5t-215.5 -57.5q-122 0 -215.5 57t-128.5 146z" />
    <glyph glyph-name="uni04D7" unicode="&#x4d7;" horiz-adv-x="1079" 
d="M903 164l23 -43q-58 -67 -149 -103t-187 -36q-214 0 -349 131.5t-135 347.5q0 137 50 243.5t155 171t252 64.5q180 0 296 -114t116 -300q0 -27 -4 -63h-801q1 -196 116 -311t306 -115q94 0 176 35t135 92zM555 885q-173 0 -275 -103.5t-114 -269.5h749q1 171 -97 272
t-263 101zM301 1407h51q0 -83 59 -136.5t156 -53.5q92 0 149.5 54t57.5 136h51q0 -103 -73 -171.5t-185 -68.5q-122 0 -194 67t-72 173z" />
    <glyph glyph-name="uni04D8" unicode="&#x4d8;" horiz-adv-x="1593" 
d="M100 760h1309q-11 290 -189.5 461.5t-471.5 171.5q-244 0 -402 -123l-27 43q78 69 196 104t243 35q327 0 522 -197.5t195 -531.5q0 -210 -82.5 -377t-241 -265.5t-367.5 -98.5t-366.5 101.5t-239 277.5t-78.5 399zM782 41q143 0 261.5 51t197.5 140.5t123 210t47 259.5
h-1247q4 -185 78.5 -334t215 -238t324.5 -89z" />
    <glyph glyph-name="uni04D9" unicode="&#x4d9;" horiz-adv-x="1079" 
d="M178 758l-22 43q59 66 157.5 102.5t196.5 36.5q212 0 337.5 -130t125.5 -349q0 -209 -117 -344t-328 -135q-189 0 -307.5 113.5t-118.5 299.5q0 13 2 43t2 39h803q-2 174 -109.5 291t-291.5 117q-96 0 -187.5 -35.5t-142.5 -91.5zM535 37q168 0 271.5 109.5t106.5 279.5
h-751q-4 -186 97 -287.5t276 -101.5z" />
    <glyph glyph-name="uni04DC" unicode="&#x4dc;" horiz-adv-x="1851" 
d="M1759 1434l-635 -684l658 -750h-82l-651 748l628 686h82zM895 0v1434h61v-1434h-61zM727 748l-633 686h80l629 -686l-651 -748h-80zM639 1630q0 20 14 31.5t35 11.5q20 0 33.5 -11.5t13.5 -31.5q0 -21 -13.5 -33t-33.5 -12q-21 0 -35 12t-14 33zM1118 1630q0 20 14 31.5
t35 11.5q18 0 31.5 -12t13.5 -31q0 -21 -13.5 -33t-31.5 -12q-21 0 -35 12t-14 33z" />
    <glyph glyph-name="uni04DD" unicode="&#x4dd;" horiz-adv-x="1300" 
d="M1221 922l-392 -443l416 -479h-71l-412 479l387 443h72zM618 0v922h58v-922h-58zM465 479l-393 443h73l385 -443l-405 -479h-72zM389 1241q0 17 13 30t32 13q15 0 28 -13t13 -30q0 -21 -12.5 -34t-28.5 -13q-19 0 -32 13t-13 34zM821 1241q0 17 13 30t32 13q17 0 30 -13
t13 -30q0 -21 -12.5 -34t-30.5 -13q-19 0 -32 13t-13 34z" />
    <glyph glyph-name="uni04DE" unicode="&#x4de;" horiz-adv-x="1165" 
d="M535 -18q-126 0 -254.5 58.5t-184.5 143.5l37 37q71 -83 184.5 -131.5t208.5 -48.5q193 0 306.5 99.5t113.5 265.5q0 138 -88.5 218.5t-236.5 80.5h-191v57h176q108 0 196.5 95.5t88.5 229.5q0 148 -94 227t-242 79q-125 0 -215 -42.5t-166 -123.5l-37 35
q72 90 181.5 140t234.5 50q183 0 290 -97t107 -268q0 -107 -60.5 -204.5t-166.5 -139.5v-6q129 -13 206 -110.5t77 -225.5q0 -193 -133 -306t-338 -113zM256 1630q0 20 14 31.5t35 11.5q20 0 33.5 -11.5t13.5 -31.5q0 -21 -13.5 -33t-33.5 -12q-21 0 -35 12t-14 33z
M735 1630q0 20 14 31.5t35 11.5q18 0 31.5 -12t13.5 -31q0 -21 -13.5 -33t-31.5 -12q-21 0 -35 12t-14 33z" />
    <glyph glyph-name="uni04DF" unicode="&#x4df;" horiz-adv-x="931" 
d="M440 -18q-90 0 -196.5 35t-149.5 87l31 46q55 -53 143.5 -83t161.5 -30q146 0 235 61t89 164q0 85 -65.5 133.5t-176.5 48.5h-156v50h146q86 0 149.5 58.5t63.5 143.5q0 90 -71.5 139.5t-194.5 49.5q-172 0 -297 -109l-27 43q56 58 144 89.5t188 31.5q153 0 235 -63
t82 -175q0 -73 -41.5 -133t-128.5 -92v-4q98 -7 153.5 -70t55.5 -147q0 -127 -103.5 -200.5t-269.5 -73.5zM180 1241q0 17 13 30t32 13q15 0 28 -13t13 -30q0 -21 -12.5 -34t-28.5 -13q-19 0 -32 13t-13 34zM612 1241q0 17 13 30t32 13q17 0 30 -13t13 -30q0 -21 -12.5 -34
t-30.5 -13q-19 0 -32 13t-13 34z" />
    <glyph glyph-name="uni04E2" unicode="&#x4e2;" horiz-adv-x="1636" 
d="M293 0h-55v1434h61v-1338l1044 1338h56v-1434h-62v1335zM514 1608v49h608v-49h-608z" />
    <glyph glyph-name="uni04E3" unicode="&#x4e3;" horiz-adv-x="1148" 
d="M233 0h-59v922h59v-838l685 838h57v-922h-57v838zM338 1278v51h496v-51h-496z" />
    <glyph glyph-name="uni04E4" unicode="&#x4e4;" horiz-adv-x="1636" 
d="M293 0h-55v1434h61v-1338l1044 1338h56v-1434h-62v1335zM528 1630q0 20 14.5 31.5t35.5 11.5q20 0 33.5 -11.5t13.5 -31.5q0 -21 -13.5 -33t-33.5 -12q-21 0 -35.5 12t-14.5 33zM1008 1630q0 20 14 31.5t35 11.5q18 0 31.5 -12t13.5 -31q0 -21 -13.5 -33t-31.5 -12
q-21 0 -35 12t-14 33z" />
    <glyph glyph-name="uni04E5" unicode="&#x4e5;" horiz-adv-x="1148" 
d="M233 0h-59v922h59v-838l685 838h57v-922h-57v838zM313 1241q0 17 13 30t32 13q15 0 28 -13t13 -30q0 -21 -12.5 -34t-28.5 -13q-19 0 -32 13t-13 34zM745 1241q0 17 13.5 30t32.5 13q17 0 30 -13t13 -30q0 -21 -12.5 -34t-30.5 -13q-19 0 -32.5 13t-13.5 34z" />
    <glyph glyph-name="uni04E6" unicode="&#x4e6;" horiz-adv-x="1652" 
d="M117 717q0 205 92.5 373.5t255 265t360.5 96.5q148 0 279.5 -56t226 -153t149 -233.5t54.5 -292.5q0 -206 -93 -374.5t-255.5 -264.5t-360.5 -96q-197 0 -359 95t-255.5 264t-93.5 376zM180 717q0 -142 50 -267.5t135.5 -215t205 -141.5t254.5 -52q183 0 330.5 88
t231 243t83.5 345q0 143 -49.5 268.5t-135 215t-205 141t-255.5 51.5q-135 0 -254.5 -51.5t-205 -141t-135.5 -215t-50 -268.5zM539 1630q0 20 14 31.5t35 11.5q20 0 33.5 -11.5t13.5 -31.5q0 -21 -13.5 -33t-33.5 -12q-21 0 -35 12t-14 33zM1018 1630q0 20 14 31.5t35 11.5
q18 0 31.5 -12t13.5 -31q0 -21 -13.5 -33t-31.5 -12q-21 0 -35 12t-14 33z" />
    <glyph glyph-name="uni04E7" unicode="&#x4e7;" horiz-adv-x="1165" 
d="M106 461q0 208 134 343.5t342 135.5q210 0 343.5 -135.5t133.5 -343.5t-133.5 -343.5t-343.5 -135.5q-208 0 -342 135.5t-134 343.5zM166 461q0 -186 116.5 -305t299.5 -119t299 119t116 305t-116 305t-299 119q-182 0 -299 -119t-117 -305zM322 1241q0 17 13 30t32 13
q15 0 28 -13t13 -30q0 -21 -12.5 -34t-28.5 -13q-19 0 -32 13t-13 34zM754 1241q0 17 13 30t32 13q17 0 30 -13t13 -30q0 -21 -12.5 -34t-30.5 -13q-19 0 -32 13t-13 34z" />
    <glyph glyph-name="uni04E8" unicode="&#x4e8;" horiz-adv-x="1652" 
d="M117 717q0 205 92.5 373.5t255 265t360.5 96.5q148 0 279.5 -56t226 -153t149 -233.5t54.5 -292.5q0 -206 -93 -374.5t-255.5 -264.5t-360.5 -96q-197 0 -359 95t-255.5 264t-93.5 376zM825 41q178 0 324 84t230.5 232.5t90.5 332.5h-1290q6 -184 92 -332.5t231.5 -232.5
t321.5 -84zM825 1393q-175 0 -320 -83.5t-231.5 -231t-93.5 -330.5h1288q-7 183 -92.5 330.5t-230 231t-320.5 83.5z" />
    <glyph glyph-name="uni04E9" unicode="&#x4e9;" horiz-adv-x="1165" 
d="M106 461q0 208 134 343.5t342 135.5q210 0 343.5 -135.5t133.5 -343.5t-133.5 -343.5t-343.5 -135.5q-208 0 -342 135.5t-134 343.5zM582 37q177 0 291.5 111t123.5 288h-831q7 -177 123 -288t293 -111zM582 885q-173 0 -289 -110t-127 -283h829q-9 174 -124 283.5
t-289 109.5z" />
    <glyph glyph-name="uni04EE" unicode="&#x4ee;" horiz-adv-x="1310" 
d="M1272 1434l-504 -1115q-76 -169 -146 -244t-163 -75q-90 0 -144 43l21 51q56 -39 121 -39q126 0 225 211l31 62l-674 1106h67l635 -1047l469 1047h62zM365 1608v49h608v-49h-608z" />
    <glyph glyph-name="uni04EF" unicode="&#x4ef;" horiz-adv-x="966" 
d="M932 922l-377 -922q-67 -163 -123 -253t-105.5 -123.5t-113.5 -33.5q-67 0 -143 39l20 45q68 -30 115 -30q79 0 143 71.5t131 235.5l21 49l-465 922h67l355 -707q26 -48 71 -149q8 23 18 48.5t22.5 56.5t19.5 48l278 703h66zM244 1278v51h495v-51h-495z" />
    <glyph glyph-name="uni04F0" unicode="&#x4f0;" horiz-adv-x="1310" 
d="M1272 1434l-504 -1115q-76 -169 -146 -244t-163 -75q-90 0 -144 43l21 51q56 -39 121 -39q126 0 225 211l31 62l-674 1106h67l635 -1047l469 1047h62zM367 1630q0 20 14 31.5t35 11.5q20 0 33.5 -11.5t13.5 -31.5q0 -21 -13.5 -33t-33.5 -12q-21 0 -35 12t-14 33z
M846 1630q0 20 14 31.5t35 11.5q18 0 31.5 -12t13.5 -31q0 -21 -13.5 -33t-31.5 -12q-21 0 -35 12t-14 33z" />
    <glyph glyph-name="uni04F1" unicode="&#x4f1;" horiz-adv-x="966" 
d="M932 922l-377 -922q-67 -163 -123 -253t-105.5 -123.5t-113.5 -33.5q-67 0 -143 39l20 45q68 -30 115 -30q79 0 143 71.5t131 235.5l21 49l-465 922h67l355 -707q26 -48 71 -149q8 23 18 48.5t22.5 56.5t19.5 48l278 703h66zM221 1241q0 17 13 30t32 13q15 0 28 -13
t13 -30q0 -21 -12.5 -34t-28.5 -13q-19 0 -32 13t-13 34zM653 1241q0 17 13 30t32 13q17 0 30 -13t13 -30q0 -21 -12.5 -34t-30.5 -13q-19 0 -32 13t-13 34z" />
    <glyph glyph-name="uni04F2" unicode="&#x4f2;" horiz-adv-x="1310" 
d="M1272 1434l-504 -1115q-76 -169 -146 -244t-163 -75q-90 0 -144 43l21 51q56 -39 121 -39q126 0 225 211l31 62l-674 1106h67l635 -1047l469 1047h62zM1094 1706l-328 -190l-27 28l320 201zM733 1714l-319 -198l-27 28l303 201z" />
    <glyph glyph-name="uni04F3" unicode="&#x4f3;" horiz-adv-x="966" 
d="M932 922l-377 -922q-67 -163 -123 -253t-105.5 -123.5t-113.5 -33.5q-67 0 -143 39l20 45q68 -30 115 -30q79 0 143 71.5t131 235.5l21 49l-465 922h67l355 -707q26 -48 71 -149q8 23 18 48.5t22.5 56.5t19.5 48l278 703h66zM870 1417l-231 -287l-37 25l227 297z
M569 1423l-225 -293l-37 25l221 299z" />
    <glyph glyph-name="uni04F4" unicode="&#x4f4;" horiz-adv-x="1277" 
d="M1040 1434v-1434h-61v684q-76 -51 -191.5 -91t-238.5 -40q-192 0 -308 114t-116 345v422h61v-414q0 -200 101 -304t276 -104q213 0 416 131v691h61zM303 1630q0 20 14 31.5t35 11.5q20 0 33.5 -11.5t13.5 -31.5q0 -21 -13.5 -33t-33.5 -12q-21 0 -35 12t-14 33zM782 1630
q0 20 14 31.5t35 11.5q18 0 32 -12t14 -31q0 -21 -14 -33t-32 -12q-21 0 -35 12t-14 33z" />
    <glyph glyph-name="uni04F5" unicode="&#x4f5;" horiz-adv-x="960" 
d="M786 922v-922h-57v416q-119 -88 -295 -88q-319 0 -319 342v252h61v-252q0 -144 70.5 -215.5t204.5 -71.5q167 0 278 88v451h57zM193 1241q0 17 13 30t32 13q15 0 28 -13t13 -30q0 -21 -12.5 -34t-28.5 -13q-19 0 -32 13t-13 34zM625 1241q0 17 13 30t32 13q17 0 30 -13
t13 -30q0 -21 -12.5 -34t-30.5 -13q-19 0 -32 13t-13 34z" />
    <glyph glyph-name="uni04F6" unicode="&#x4f6;" horiz-adv-x="1026" 
d="M238 0v1434h784v-58h-723v-1319h195v-338h-58v281h-198z" />
    <glyph glyph-name="uni04F7" unicode="&#x4f7;" horiz-adv-x="708" 
d="M174 0v922h533v-56h-474v-811h154v-295h-55v240h-158z" />
    <glyph glyph-name="uni04F8" unicode="&#x4f8;" horiz-adv-x="1669" 
d="M1372 0v1434h60v-1434h-60zM537 793q-113 0 -238 -13v-723q31 0 105 -2t124 -2q234 0 358 98.5t124 288.5q0 168 -120.5 260.5t-352.5 92.5zM299 1434v-594q120 10 238 10q267 0 400.5 -108t133.5 -304q0 -217 -145.5 -329.5t-403.5 -112.5q-56 0 -150.5 2t-133.5 2v1434
h61zM547 1630q0 20 14 31.5t35 11.5q20 0 33.5 -11.5t13.5 -31.5q0 -21 -13.5 -33t-33.5 -12q-21 0 -35 12t-14 33zM1026 1630q0 20 14 31.5t35 11.5q18 0 31.5 -12t13.5 -31q0 -21 -13.5 -33t-31.5 -12q-21 0 -35 12t-14 33z" />
    <glyph glyph-name="uni04F9" unicode="&#x4f9;" horiz-adv-x="1234" 
d="M174 0v922h59v-338h166q103 0 176 -22t113 -62.5t58 -91t18 -115.5q0 -134 -87.5 -213.5t-287.5 -79.5h-215zM391 528h-158v-473h156q170 0 243 61t73 177q0 115 -74.5 175t-239.5 60zM1004 0v922h57v-922h-57zM356 1241q0 17 13 30t32 13q15 0 28 -13t13 -30
q0 -21 -12.5 -34t-28.5 -13q-19 0 -32 13t-13 34zM788 1241q0 17 13.5 30t32.5 13q17 0 30 -13t13 -30q0 -21 -12.5 -34t-30.5 -13q-19 0 -32.5 13t-13.5 34z" />
    <glyph glyph-name="uni1E9E" unicode="&#x1e9e;" horiz-adv-x="1228" 
d="M1044 322q0 63 -26.5 127t-64.5 116t-104.5 115t-121 107t-139.5 108l280 420q-98 78 -241 78q-146 0 -237 -88.5t-91 -266.5v-1044h-61v1057q0 197 108.5 299t280.5 102q179 0 321 -121l-286 -420q76 -55 133 -101.5t119 -108t102 -119t66 -127.5t26 -140
q0 -145 -98.5 -239t-227.5 -94q-99 0 -163 31.5t-130 90.5l35 43q32 -27 50 -40t50 -31.5t68 -26.5t80 -8q104 0 188 78t84 203z" />
    <glyph glyph-name="uni2010" unicode="&#x2010;" horiz-adv-x="833" 
d="M190 526v56h453v-56h-453z" />
    <glyph glyph-name="uni2011" unicode="&#x2011;" horiz-adv-x="833" 
d="M190 526v56h453v-56h-453z" />
    <glyph glyph-name="figuredash" unicode="&#x2012;" horiz-adv-x="1202" 
d="M199 698v54h802v-54h-802z" />
    <glyph glyph-name="endash" unicode="&#x2013;" horiz-adv-x="1202" 
d="M199 526v54h802v-54h-802z" />
    <glyph glyph-name="emdash" unicode="&#x2014;" horiz-adv-x="1615" 
d="M199 526v54h1218v-54h-1218z" />
    <glyph glyph-name="uni2015" unicode="&#x2015;" horiz-adv-x="1615" 
d="M199 526v54h1218v-54h-1218z" />
    <glyph glyph-name="quoteleft" unicode="&#x2018;" horiz-adv-x="485" 
d="M281 1135l-48 -33q-47 51 -47 133q0 171 133 238l25 -31q-50 -27 -76 -78t-26 -117q0 -73 39 -112z" />
    <glyph glyph-name="quoteright" unicode="&#x2019;" horiz-adv-x="485" 
d="M203 1438l49 35q47 -51 47 -134q0 -169 -133 -239l-25 30q49 28 76 80t27 117q0 70 -41 111z" />
    <glyph glyph-name="quotesinglbase" unicode="&#x201a;" horiz-adv-x="485" 
d="M203 76l49 35q47 -51 47 -134q0 -169 -133 -239l-25 31q49 28 76 79.5t27 116.5q0 70 -41 111z" />
    <glyph glyph-name="quotedblleft" unicode="&#x201c;" horiz-adv-x="729" 
d="M524 1135l-47 -33q-47 51 -47 133q0 171 133 238l25 -31q-50 -27 -76.5 -78t-26.5 -117q0 -73 39 -112zM281 1135l-48 -33q-47 51 -47 133q0 171 133 238l25 -31q-50 -27 -76 -78t-26 -117q0 -73 39 -112z" />
    <glyph glyph-name="quotedblright" unicode="&#x201d;" horiz-adv-x="729" 
d="M446 1438l50 35q47 -51 47 -134q0 -169 -133 -239l-25 30q49 27 75.5 79.5t26.5 117.5q0 70 -41 111zM203 1438l49 35q47 -51 47 -134q0 -169 -133 -239l-25 30q49 28 76 80t27 117q0 70 -41 111z" />
    <glyph glyph-name="quotedblbase" unicode="&#x201e;" horiz-adv-x="729" 
d="M446 76l50 35q47 -51 47 -134q0 -169 -133 -239l-25 31q49 27 75.5 79t26.5 117q0 70 -41 111zM203 76l49 35q47 -51 47 -134q0 -169 -133 -239l-25 31q49 28 76 79.5t27 116.5q0 70 -41 111z" />
    <glyph glyph-name="dagger" unicode="&#x2020;" horiz-adv-x="841" 
d="M82 885v53h311v496h56v-496h311v-53h-311v-1090h-56v1090h-311z" />
    <glyph glyph-name="daggerdbl" unicode="&#x2021;" horiz-adv-x="841" 
d="M82 885v53h311v496h56v-496h311v-53h-311v-479h311v-54h-311v-557h-56v557h-311v54h311v479h-311z" />
    <glyph glyph-name="bullet" unicode="&#x2022;" horiz-adv-x="303" 
d="M76 535q0 31 22.5 53t53.5 22t53 -22t22 -53t-22 -53.5t-53 -22.5t-53.5 22.5t-22.5 53.5z" />
    <glyph glyph-name="ellipsis" unicode="&#x2026;" horiz-adv-x="1703" 
d="M1417 49q0 18 15 31.5t36 13.5q19 0 33.5 -14t14.5 -31q0 -20 -14.5 -35.5t-33.5 -15.5q-21 0 -36 15t-15 36zM803 49q0 18 15 31.5t36 13.5q19 0 33 -14t14 -31q0 -20 -14 -35.5t-33 -15.5q-21 0 -36 15t-15 36zM188 49q0 18 15.5 31.5t36.5 13.5q19 0 33 -14t14 -31
q0 -20 -14 -35.5t-33 -15.5q-22 0 -37 15t-15 36z" />
    <glyph glyph-name="perthousand" unicode="&#x2030;" horiz-adv-x="2525" 
d="M1745 319q0 139 95 229.5t237 90.5t236.5 -90.5t94.5 -229.5q0 -140 -94.5 -230.5t-236.5 -90.5t-237 90.5t-95 230.5zM1800 319q0 -119 83.5 -195.5t193.5 -76.5q114 0 195 76t81 196q0 118 -82 194.5t-194 76.5t-194.5 -76.5t-82.5 -194.5zM295 10l1079 1442l35 -27
l-1077 -1443zM115 1118q0 139 94.5 229.5t236.5 90.5t237 -90.5t95 -229.5q0 -140 -95 -230.5t-237 -90.5t-236.5 90.5t-94.5 230.5zM170 1118q0 -119 83 -195.5t193 -76.5q114 0 195.5 76t81.5 196q0 118 -82.5 194.5t-194.5 76.5t-194 -76.5t-82 -194.5zM913 319
q0 139 95 229.5t237 90.5t237 -90.5t95 -229.5q0 -140 -95 -230.5t-237 -90.5t-237 90.5t-95 230.5zM969 319q0 -119 83 -195.5t193 -76.5q114 0 195.5 76t81.5 196q0 118 -82.5 194.5t-194.5 76.5t-194 -76.5t-82 -194.5z" />
    <glyph glyph-name="guilsinglleft" unicode="&#x2039;" horiz-adv-x="665" 
d="M473 88l-358 420v8l360 416l39 -35l-334 -385l330 -387z" />
    <glyph glyph-name="guilsinglright" unicode="&#x203a;" horiz-adv-x="665" 
d="M549 508l-356 -420l-39 37l329 387l-333 385l38 35l361 -416v-8z" />
    <glyph glyph-name="fraction" unicode="&#x2044;" horiz-adv-x="376" 
d="M-369 10l1080 1442l34 -27l-1077 -1443z" />
    <glyph glyph-name="zerosuperior" unicode="&#x2070;" horiz-adv-x="743" 
d="M96 1075q0 163 72.5 265t204.5 102t203 -102.5t71 -264.5t-70 -264t-202 -102q-134 0 -206.5 101.5t-72.5 264.5zM152 1075q0 -145 59 -232t164 -87q109 0 163 85.5t54 233.5q0 146 -57 233t-162 87q-107 0 -164 -86.5t-57 -233.5z" />
    <glyph glyph-name="foursuperior" unicode="&#x2074;" horiz-adv-x="661" 
d="M440 717v190h-401v33l387 494h51l-377 -482h340v226h49v-226h132v-45h-132v-190h-49z" />
    <glyph glyph-name="fivesuperior" unicode="&#x2075;" horiz-adv-x="659" 
d="M154 1094l51 340h373v-45h-336l-39 -250q58 14 102 14q121 0 195.5 -59t74.5 -156q0 -104 -75.5 -166.5t-182.5 -62.5q-181 0 -251 116l30 31q34 -51 92.5 -77.5t122.5 -26.5q89 0 149 52.5t60 131.5q0 75 -65 124.5t-172 49.5q-59 0 -129 -16z" />
    <glyph glyph-name="sixsuperior" unicode="&#x2076;" horiz-adv-x="735" 
d="M96 975q0 94 37.5 178t98.5 143t137.5 97t156.5 49l13 -37q-91 -15 -171 -61t-139.5 -129t-74.5 -189q27 57 89.5 94t149.5 37q117 0 185.5 -61.5t68.5 -161.5q0 -94 -76 -159.5t-180 -65.5q-144 0 -219.5 75t-75.5 191zM152 969q0 -89 62 -153t175 -64q83 0 143 53
t60 127q0 79 -56 131.5t-157 52.5q-91 0 -151.5 -45t-75.5 -102z" />
    <glyph glyph-name="sevensuperior" unicode="&#x2077;" horiz-adv-x="591" 
d="M47 1386v48h498v-31l-336 -686h-57l329 669h-434z" />
    <glyph glyph-name="eightsuperior" unicode="&#x2078;" horiz-adv-x="749" 
d="M354 1106h43q64 0 117 42t53 103q0 67 -57.5 107.5t-134.5 40.5q-78 0 -134.5 -40.5t-56.5 -107.5q0 -61 53 -103t117 -42zM395 1065h-35q-85 0 -146.5 -45t-61.5 -109q0 -69 65.5 -114t157.5 -45q93 0 158 44t65 115q0 70 -59 112t-144 42zM377 709q-114 0 -195.5 52.5
t-81.5 141.5q0 65 49 115t132 65v4q-65 15 -107.5 63.5t-42.5 106.5q0 83 70 134t174 51t175 -51t71 -134q0 -54 -41 -101.5t-113 -68.5v-2q82 -9 133 -58.5t51 -121.5q0 -90 -80 -143t-194 -53z" />
    <glyph glyph-name="ninesuperior" unicode="&#x2079;" horiz-adv-x="735" 
d="M639 1171q0 -195 -127 -322.5t-322 -139.5l-6 36q169 20 281.5 127t116.5 252q-28 -58 -91 -95.5t-149 -37.5q-118 0 -187 62t-69 161q0 95 77 161.5t181 66.5q143 0 219 -76t76 -195zM584 1178q0 92 -62.5 156.5t-177.5 64.5q-82 0 -142.5 -53.5t-60.5 -126.5
q0 -79 57 -133t158 -54q89 0 149.5 45.5t78.5 100.5z" />
    <glyph glyph-name="uni207A" unicode="&#x207a;" horiz-adv-x="737" 
d="M100 1063v45h244v244h45v-244h248v-45h-248v-246h-45v246h-244z" />
    <glyph glyph-name="uni207B" unicode="&#x207b;" horiz-adv-x="737" 
d="M100 1063v45h537v-45h-537z" />
    <glyph glyph-name="uni207C" unicode="&#x207c;" horiz-adv-x="737" 
d="M100 934v45h537v-45h-537zM100 1192v45h537v-45h-537z" />
    <glyph glyph-name="uni207D" unicode="&#x207d;" horiz-adv-x="368" 
d="M348 659l-33 -30q-129 74 -191.5 195t-62.5 247q0 121 62.5 236t193.5 204l29 -30q-118 -80 -174.5 -186t-56.5 -224q0 -121 58.5 -230.5t174.5 -181.5z" />
    <glyph glyph-name="uni207E" unicode="&#x207e;" horiz-adv-x="368" 
d="M20 1481l33 30q129 -74 191.5 -195t62.5 -247q0 -121 -62.5 -236t-193.5 -204l-28 30q118 80 174.5 186t56.5 224q0 120 -59.5 230t-174.5 182z" />
    <glyph glyph-name="zeroinferior" unicode="&#x2080;" horiz-adv-x="743" 
d="M96 358q0 163 72.5 265t204.5 102t203 -102.5t71 -264.5t-70 -264t-202 -102q-134 0 -206.5 101.5t-72.5 264.5zM152 358q0 -145 59 -232t164 -87q109 0 163 85.5t54 233.5q0 146 -57 233t-162 87q-107 0 -164 -86.5t-57 -233.5z" />
    <glyph glyph-name="oneinferior" unicode="&#x2081;" horiz-adv-x="466" 
d="M66 594l190 129h35v-723h-51v655l-152 -100z" />
    <glyph glyph-name="twoinferior" unicode="&#x2082;" horiz-adv-x="675" 
d="M86 0v41q11 8 56 41t68 50t68 53.5t71.5 61.5t61 62.5t53.5 68.5t32.5 67.5t13.5 70.5q0 69 -45 115.5t-131 46.5q-66 0 -123 -36t-68 -103l-45 14q11 80 81 126t155 46q115 0 173 -59.5t58 -149.5q0 -43 -19.5 -89.5t-45 -84.5t-69.5 -82t-75 -70.5t-80.5 -62.5
t-65.5 -47t-50 -33h446v-47h-520z" />
    <glyph glyph-name="threeinferior" unicode="&#x2083;" horiz-adv-x="686" 
d="M328 -8q-84 0 -152.5 31.5t-101.5 99.5l35 27q27 -57 87 -85t130 -28q94 0 150 46t56 116q0 64 -53.5 104.5t-132.5 40.5h-78v43h70q63 0 113.5 44.5t50.5 107.5q0 68 -48.5 104.5t-129.5 36.5q-144 0 -197 -107l-31 29q25 57 86.5 90t147.5 33q106 0 166.5 -47
t60.5 -131q0 -58 -38 -106t-105 -68v-2q80 -9 127 -59.5t47 -116.5q0 -92 -73.5 -147.5t-186.5 -55.5z" />
    <glyph glyph-name="fourinferior" unicode="&#x2084;" horiz-adv-x="661" 
d="M440 0v190h-401v33l387 494h51l-377 -481h340v225h49v-225h132v-46h-132v-190h-49z" />
    <glyph glyph-name="fiveinferior" unicode="&#x2085;" horiz-adv-x="659" 
d="M154 377l51 340h373v-45h-336l-39 -250q58 14 102 14q121 0 195.5 -59t74.5 -156q0 -104 -75.5 -166.5t-182.5 -62.5q-180 0 -251 117l30 30q34 -51 92.5 -77.5t122.5 -26.5q89 0 149 52.5t60 131.5q0 75 -65 124.5t-172 49.5q-59 0 -129 -16z" />
    <glyph glyph-name="sixinferior" unicode="&#x2086;" horiz-adv-x="735" 
d="M96 258q0 94 37.5 178t98.5 143t137.5 97t156.5 49l13 -37q-91 -15 -171 -61t-139.5 -129t-74.5 -189q27 57 89.5 94t149.5 37q117 0 185.5 -61.5t68.5 -161.5q0 -94 -76 -159.5t-180 -65.5q-144 0 -219.5 75t-75.5 191zM152 252q0 -89 62 -153t175 -64q83 0 143 53
t60 127q0 79 -56 131.5t-157 52.5q-91 0 -151.5 -45t-75.5 -102z" />
    <glyph glyph-name="seveninferior" unicode="&#x2087;" horiz-adv-x="591" 
d="M47 670v47h498v-31l-336 -686h-57l329 670h-434z" />
    <glyph glyph-name="eightinferior" unicode="&#x2088;" horiz-adv-x="749" 
d="M354 389h43q64 0 117 42.5t53 103.5q0 67 -57.5 107t-134.5 40q-78 0 -134.5 -40t-56.5 -107q0 -61 53 -103.5t117 -42.5zM395 348h-35q-85 0 -146.5 -44.5t-61.5 -108.5q0 -69 66 -114.5t157 -45.5q92 0 157.5 44.5t65.5 115.5q0 70 -59 111.5t-144 41.5zM377 -8
q-114 0 -195.5 52.5t-81.5 141.5q0 65 49 115.5t132 65.5v4q-65 15 -107.5 63.5t-42.5 106.5q0 83 70 133.5t174 50.5t175 -50.5t71 -133.5q0 -54 -41 -101.5t-113 -68.5v-2q82 -9 133 -59t51 -122q0 -90 -80 -143t-194 -53z" />
    <glyph glyph-name="nineinferior" unicode="&#x2089;" horiz-adv-x="735" 
d="M639 455q0 -195 -127 -323t-322 -140l-6 37q169 20 281.5 127t116.5 252q-28 -58 -91 -96t-149 -38q-118 0 -187 62.5t-69 161.5q0 95 77 161t181 66q143 0 219 -75.5t76 -194.5zM584 461q0 92 -62.5 156.5t-177.5 64.5q-82 0 -142.5 -53.5t-60.5 -126.5q0 -79 57 -133
t158 -54q89 0 149.5 45.5t78.5 100.5z" />
    <glyph glyph-name="uni208A" unicode="&#x208a;" horiz-adv-x="737" 
d="M100 346v45h244v244h45v-244h248v-45h-248v-246h-45v246h-244z" />
    <glyph glyph-name="uni208B" unicode="&#x208b;" horiz-adv-x="737" 
d="M100 346v45h537v-45h-537z" />
    <glyph glyph-name="uni208C" unicode="&#x208c;" horiz-adv-x="737" 
d="M100 217v45h537v-45h-537zM100 475v45h537v-45h-537z" />
    <glyph glyph-name="uni208D" unicode="&#x208d;" horiz-adv-x="368" 
d="M348 -57l-33 -31q-129 74 -191.5 195t-62.5 247q0 121 62.5 236.5t193.5 204.5l29 -31q-118 -80 -174.5 -186t-56.5 -224q0 -120 58.5 -229.5t174.5 -181.5z" />
    <glyph glyph-name="uni208E" unicode="&#x208e;" horiz-adv-x="368" 
d="M20 764l33 31q88 -50 147 -128t83 -156t24 -159q0 -121 -62.5 -236t-193.5 -204l-28 31q118 80 174.5 185.5t56.5 223.5q0 120 -59.5 230t-174.5 182z" />
    <glyph glyph-name="Euro" unicode="&#x20ac;" 
d="M41 877l20 51h156q60 234 237.5 379t426.5 145q76 0 155.5 -17t124.5 -42l-22 -56q-119 56 -258 56q-222 0 -381.5 -127.5t-216.5 -337.5h749l-18 -51h-744q-14 -71 -14 -160q0 -71 8 -123h680l-16 -49h-656q50 -233 218.5 -368.5t412.5 -135.5q147 0 227 47l13 -57
q-32 -22 -105.5 -35.5t-136.5 -13.5q-272 0 -458.5 151t-235.5 412h-166l20 49h138q-6 58 -6 123q0 89 14 160h-166z" />
    <glyph glyph-name="uni20AE" unicode="&#x20ae;" horiz-adv-x="1210" 
d="M41 1376v58h1128v-58h-534v-469l301 158v-59l-301 -160v-281l301 158v-59l-301 -160v-504h-60v473l-301 -158v64l301 156v280l-301 -158v64l301 156v499h-534z" />
    <glyph glyph-name="uni20B4" unicode="&#x20b4;" horiz-adv-x="1228" 
d="M164 879v49h665q87 107 74 227q0 108 -74.5 173t-197.5 65q-200 0 -324 -127l-33 43q59 67 151.5 105t201.5 38q161 0 253.5 -83t92.5 -216q0 -131 -84 -225h176v-49h-211q-60 -59 -207 -146t-203 -137h621v-49h-668q-98 -105 -98 -236q0 -67 29 -120t78 -85t108 -48.5
t123 -16.5q102 0 194.5 46t147.5 132l35 -41q-58 -94 -161 -145t-226 -51q-104 0 -190 36.5t-140.5 111t-54.5 175.5q0 138 94 242h-172v49h211q60 57 206.5 144.5t202.5 138.5h-620z" />
    <glyph glyph-name="uni20B8" unicode="&#x20b8;" 
d="M14 1049v51h1170v-51h-555v-1049h-60v1049h-555zM1184 1382h-1170v52h1170v-52z" />
    <glyph glyph-name="uni20BA" unicode="&#x20ba;" 
d="M59 836v63l199 102v433h61v-400l402 209v-59l-402 -211v-281l402 209v-59l-402 -211v-574q86 -4 226 -4q129 0 226.5 35.5t158.5 95t99 148.5t52.5 186t14.5 217v6h63v-6q0 -131 -16 -236t-58.5 -201.5t-111 -161t-178.5 -102.5t-256 -38q-57 0 -134.5 2t-132.5 2h-14
v598l-199 -104v63l199 102v281z" />
    <glyph glyph-name="uni20BD" unicode="&#x20bd;" horiz-adv-x="1228" 
d="M59 664v51h240v719q41 0 166 2t162 2q493 0 493 -387q0 -83 -28.5 -151.5t-87 -122t-158 -83.5t-232.5 -30h-256v-283h385v-49h-385v-332h-59v332h-240v49h240v283h-240zM633 1380q-139 0 -275 -4v-661h254q222 0 333.5 88t111.5 248q0 329 -424 329z" />
    <glyph glyph-name="uni20BF" unicode="&#x20bf;" 
d="M205 0v1434q86 0 143 2v182h58v-182q55 2 161 2q59 0 109 -6v186h57v-195q281 -57 281 -338q0 -142 -88.5 -230t-218.5 -110v-4q176 -17 271 -106t95 -242q0 -162 -90.5 -257t-249.5 -126v-215h-57v205q-70 -4 -107 -4q-26 0 -86 1t-90 1v-203h-57v205h-131zM573 709
h-307v-652q29 0 139.5 -2t163.5 -2q210 0 326.5 86.5t116.5 257.5q0 149 -114 230.5t-325 81.5zM563 1380q-171 0 -297 -4v-612h320q156 0 261 85.5t105 227.5q0 151 -94.5 227t-294.5 76z" />
    <glyph glyph-name="uni20C0" unicode="&#x20c0;" 
d="M1190 0h-1100v57h1100v-57zM1083 430l27 -47q-74 -72 -194 -114t-246 -42q-122 0 -224 33.5t-172.5 91.5t-119 136.5t-71 167t-22.5 184.5q0 119 35 221t94 173t136.5 121t162 73.5t170.5 23.5q133 0 235 -33t189 -104l-30 -43q-153 121 -400 121q-94 0 -185 -33.5
t-169 -98.5t-126 -174.5t-48 -246.5q0 -112 32.5 -209.5t97.5 -175.5t172.5 -123t246.5 -45q121 0 226 38t183 105z" />
    <glyph glyph-name="uni2116" unicode="&#x2116;" horiz-adv-x="2369" 
d="M1358 0h-49l-1014 1323v-1323h-57v1434h49l1011 -1328v1328h60v-1434zM1546 1028q0 139 95 229.5t237 90.5t237 -90.5t95 -229.5q0 -140 -95 -230.5t-237 -90.5t-237 90.5t-95 230.5zM1602 1028q0 -119 83 -195.5t193 -76.5q114 0 195 76t81 196q0 118 -82 194t-194 76
t-194 -76t-82 -194zM1610 500v55h536v-55h-536z" />
    <glyph glyph-name="trademark" unicode="&#x2122;" horiz-adv-x="1679" 
d="M784 788v646h54l313 -381l303 381h49v-646h-55v572l-297 -377h-4l-307 377v-572h-56zM23 1380v54h636v-54h-290v-592h-56v592h-290z" />
    <glyph glyph-name="arrowleft" unicode="&#x2190;" horiz-adv-x="1316" 
d="M662 1137l40 -41l-507 -506h1040v-58h-1045l512 -512l-40 -40l-580 579z" />
    <glyph glyph-name="arrowup" unicode="&#x2191;" horiz-adv-x="1320" 
d="M123 532l-41 41l577 580l580 -580l-41 -41l-512 512v-1044h-57v1040z" />
    <glyph glyph-name="arrowright" unicode="&#x2192;" horiz-adv-x="1316" 
d="M614 1096l41 41l580 -578l-580 -579l-41 40l512 512h-1044v58h1040z" />
    <glyph glyph-name="arrowdown" unicode="&#x2193;" horiz-adv-x="1320" 
d="M82 539l41 41l506 -508v1040h57v-1044l512 512l41 -41l-580 -580z" />
    <glyph glyph-name="partialdiff" unicode="&#x2202;" horiz-adv-x="1183" 
d="M106 418q0 103 38 199t103.5 167t158 113.5t196.5 42.5q87 0 161.5 -24.5t124.5 -64.5t82 -84t48 -91q0 74 -9 143.5t-30.5 139.5t-53.5 130.5t-80.5 114t-109 93.5t-142 66.5t-177.5 33.5l10 55q310 -22 481.5 -228.5t171.5 -547.5q0 -128 -37.5 -250.5t-105 -222
t-173 -160.5t-231.5 -61q-183 0 -304.5 123.5t-121.5 312.5zM166 422q0 -161 104.5 -273t268.5 -112q103 0 192 51t147.5 133.5t94 181.5t43.5 201q-23 55 -55 101.5t-80.5 89t-119.5 66.5t-157 24q-120 0 -221.5 -64t-159 -170t-57.5 -229z" />
    <glyph glyph-name="product" unicode="&#x220f;" horiz-adv-x="1794" 
d="M1497 -410v1786h-1198v-1786h-61v1844h1318v-1844h-59z" />
    <glyph glyph-name="summation" unicode="&#x2211;" horiz-adv-x="1277" 
d="M745 512l-663 889v33h1114v-58h-1022l645 -864l-649 -864h1026v-58h-1114v33z" />
    <glyph glyph-name="minus" unicode="&#x2212;" 
d="M150 711v53h901v-53h-901z" />
    <glyph glyph-name="uni2215" unicode="&#x2215;" horiz-adv-x="616" 
d="M-61 -408l692 1860l47 -18l-690 -1860z" />
    <glyph glyph-name="radical" unicode="&#x221a;" horiz-adv-x="1173" 
d="M2 864v58h277l397 -824l291 1336h524v-58h-473l-309 -1390h-41l-428 878h-238z" />
    <glyph glyph-name="infinity" unicode="&#x221e;" horiz-adv-x="1497" 
d="M1106 420q-57 0 -108.5 19t-97 56t-79.5 73.5t-76 90.5q-31 -45 -53 -73t-55.5 -63t-64.5 -55t-73.5 -34t-88.5 -14q-69 0 -135 31.5t-112 97t-46 149.5q0 115 85 199t214 84q51 0 96.5 -18t88.5 -56t73.5 -72t73.5 -90q38 54 67.5 89.5t73.5 72.5t97.5 55.5t117.5 18.5
q127 0 201.5 -80.5t74.5 -210.5q0 -48 -17.5 -95t-50 -86.5t-86.5 -64t-120 -24.5zM1094 928q-53 0 -98.5 -17t-85 -52t-68 -68.5t-64.5 -85.5q35 -44 57.5 -71t57.5 -61t65 -53.5t69 -33t79 -13.5q104 0 161.5 67.5t57.5 149.5q0 102 -61 170t-170 68zM412 473q41 0 79 13
t66 31.5t58.5 52t50.5 60.5t49 70q-43 56 -69.5 87t-66.5 69t-80 55t-83 17q-106 0 -175 -68t-69 -162q0 -54 23 -98t59.5 -71t77.5 -41.5t80 -14.5z" />
    <glyph glyph-name="integral" unicode="&#x222b;" horiz-adv-x="692" 
d="M268 -59q0 -316 -209 -359q-43 -9 -94 -6q-94 0 -160 51l21 47q65 -45 143 -45q127 0 184.5 80t57.5 234v1128q0 324 231 371q39 8 95 8q129 -2 217 -74l-23 -45q-43 31 -86.5 47.5t-105.5 16.5q-89 0 -148 -33q-123 -72 -123 -309v-1112z" />
    <glyph glyph-name="approxequal" unicode="&#x2248;" 
d="M162 516l-33 39q123 117 248 117q56 0 122 -24t116.5 -52t115 -52t117.5 -24q97 0 194 94l29 -41q-112 -106 -225 -106q-55 0 -120.5 24t-116.5 53t-116 53t-118 24q-105 0 -213 -105zM162 856l-33 39q123 117 248 117q56 0 122 -24t116.5 -52t115 -52t117.5 -24
q97 0 194 94l29 -41q-112 -106 -225 -106q-55 0 -120.5 24t-116.5 53t-116 53t-118 24q-105 0 -213 -105z" />
    <glyph glyph-name="notequal" unicode="&#x2260;" 
d="M150 881v53h483l194 518l47 -18l-186 -500h363v-53h-381l-107 -287h488v-53h-508l-207 -559l-47 20l198 539h-337v53h358l106 287h-464z" />
    <glyph glyph-name="lessequal" unicode="&#x2264;" 
d="M143 559v59l826 -528v-59zM969 369l-826 530v25l826 524v-64l-744 -473l744 -477v-65z" />
    <glyph glyph-name="greaterequal" unicode="&#x2265;" 
d="M1057 618v-59l-826 -528v59zM1057 899l-826 -530v65l744 477l-744 473v64l826 -524v-25z" />
    <glyph glyph-name="angleleft" unicode="&#x2329;" horiz-adv-x="765" 
d="M614 1434l-434 -717l434 -717h-65l-434 713v8l434 713h65z" />
    <glyph glyph-name="angleright" unicode="&#x232a;" horiz-adv-x="765" 
d="M586 717l-434 717h65l434 -713v-8l-434 -713h-65z" />
    <glyph glyph-name="lozenge" unicode="&#x25ca;" horiz-adv-x="948" 
d="M455 -14l-342 524l344 551h37l342 -529l-344 -546h-37zM172 512l303 -463l301 483l-301 465z" />
    <glyph glyph-name="spade" unicode="&#x2660;" horiz-adv-x="1294" 
d="M647 1044q112 -70 230.5 -181.5t206 -239t87.5 -215.5q0 -87 -60.5 -150t-178.5 -63q-163 0 -268 147q28 -119 79 -203.5t140 -138.5h-471q150 107 215 336q-103 -141 -265 -141q-118 0 -178.5 63.5t-60.5 151.5q0 66 51.5 157t130 179t169.5 167.5t173 130.5z" />
    <glyph glyph-name="club" unicode="&#x2663;" horiz-adv-x="1253" 
d="M362 780q0 109 78 186.5t187 77.5t186.5 -77.5t77.5 -186.5q0 -15 -4 -39q102 -8 172.5 -83.5t70.5 -178.5q0 -109 -77.5 -186.5t-186.5 -77.5q-65 0 -121 29.5t-92 79.5q64 -236 209 -324h-471q130 92 205 319q-37 -46 -93 -75t-116 -29q-109 0 -186.5 77.5t-77.5 186.5
q0 103 70.5 178.5t171.5 83.5q-3 18 -3 39z" />
    <glyph glyph-name="heart" unicode="&#x2665;" horiz-adv-x="1329" 
d="M666 0q-86 65 -179 158.5t-175.5 197.5t-135.5 212.5t-53 189.5q0 51 14.5 97t43.5 84.5t78 61.5t112 23q182 0 295 -213q109 213 292 213q83 0 141 -40t82.5 -98t24.5 -126q0 -82 -53 -191t-135 -213t-174 -197.5t-178 -158.5z" />
    <glyph glyph-name="diamond" unicode="&#x2666;" horiz-adv-x="1193" 
d="M1071 510q-222 -222 -475 -549q-213 280 -473 549q221 231 473 551q256 -324 475 -551z" />
    <glyph glyph-name="uniF350" unicode="&#xf350;" horiz-adv-x="1146" 
d="M43 0l508 1085h45l508 -1085h-66l-180 387h-573l-181 -387h-61zM571 1006l-262 -564h522z" />
    <glyph glyph-name="uniF351" unicode="&#xf351;" horiz-adv-x="1013" 
d="M190 0v1075h635v-57h-575v-393q101 8 213 8q210 0 317 -80t107 -225q0 -165 -116 -248.5t-322 -83.5q-50 0 -139 2t-120 2zM461 578q-107 0 -211 -11v-510q26 0 94.5 -2t110.5 -2q183 0 277.5 69.5t94.5 203.5q0 121 -91.5 186.5t-274.5 65.5z" />
    <glyph glyph-name="uniF352" unicode="&#xf352;" horiz-adv-x="1028" 
d="M190 0v1075q28 0 140.5 2t163.5 2q360 0 360 -264q0 -107 -69.5 -174.5t-174.5 -81.5v-2q142 -14 216.5 -79.5t74.5 -180.5q0 -103 -54 -172t-143 -99t-210 -30q-50 0 -161.5 2t-142.5 2zM500 524h-250v-467q22 0 112.5 -2t131.5 -2q167 0 257.5 61.5t90.5 184.5
q0 107 -89 166t-253 59zM492 1022q-140 0 -242 -4v-440h258q120 0 203.5 62.5t83.5 162.5q0 110 -72.5 164.5t-230.5 54.5z" />
    <glyph glyph-name="uniF353" unicode="&#xf353;" horiz-adv-x="833" 
d="M190 0v1075h639v-57h-579v-1018h-60z" />
    <glyph glyph-name="uniF354" unicode="&#xf354;" horiz-adv-x="1222" 
d="M31 -209v266h125q22 27 48.5 81t59 148t59 245t35.5 329l13 215h633v-1018h157v-266h-57v209h-1016v-209h-57zM418 823q-12 -172 -37.5 -317.5t-56 -234.5t-56 -140.5t-45.5 -73.5h721v961h-514z" />
    <glyph glyph-name="uniF355" unicode="&#xf355;" horiz-adv-x="970" 
d="M190 0v1075h637v-57h-577v-443h528v-57h-528v-461h594v-57h-654z" />
    <glyph glyph-name="uniF356" unicode="&#xf356;" horiz-adv-x="1501" 
d="M1430 1075l-506 -512l522 -563h-80l-516 561l498 514h82zM721 0v1075h61v-1075h-61zM578 561l-504 514h80l499 -514l-518 -561h-80z" />
    <glyph glyph-name="uniF357" unicode="&#xf357;" horiz-adv-x="950" 
d="M438 -14q-106 0 -210 44.5t-150 108.5l35 39q58 -62 149.5 -98.5t173.5 -36.5q152 0 239 71t87 191q0 100 -69 158.5t-187 58.5h-158v56h146q86 0 154.5 68t68.5 165q0 105 -72.5 162t-189.5 57q-191 0 -310 -125l-36 39q60 69 149 106t193 37q151 0 239 -72.5t88 -203.5
q0 -79 -47 -151t-131 -103v-6q102 -9 162.5 -81.5t60.5 -168.5q0 -146 -107 -230.5t-278 -84.5z" />
    <glyph glyph-name="uniF358" unicode="&#xf358;" horiz-adv-x="1320" 
d="M246 0h-56v1075h60v-981l825 981h55v-1075h-59v981z" />
    <glyph glyph-name="uniF359" unicode="&#xf359;" horiz-adv-x="1320" 
d="M246 0h-56v1075h60v-981l825 981h55v-1075h-59v981zM389 1331h55q0 -81 56 -125.5t155 -44.5q94 0 148.5 44.5t54.5 125.5h55q0 -101 -71.5 -159t-186.5 -58q-125 0 -195.5 56.5t-70.5 160.5z" />
    <glyph glyph-name="uniF35A" unicode="&#xf35a;" horiz-adv-x="1040" 
d="M969 1075l-563 -510l581 -565h-88l-575 561l559 514h86zM190 0v1075h60v-1075h-60z" />
    <glyph glyph-name="uniF35B" unicode="&#xf35b;" horiz-adv-x="1193" 
d="M944 0v1018h-528l-19 -203q-13 -157 -33 -282.5t-42 -210.5t-50 -146.5t-54 -95.5t-58 -53.5t-57.5 -24t-55.5 -2.5v59q20 -1 37.5 2.5t43.5 21.5t48.5 49.5t48.5 91.5t46.5 142.5t39.5 209.5t31 284l16 215h646v-1075h-60z" />
    <glyph glyph-name="uniF35C" unicode="&#xf35c;" horiz-adv-x="1454" 
d="M190 0v1075h62l485 -608l467 608h60v-1075h-62v985l-465 -604h-8l-479 598v-979h-60z" />
    <glyph glyph-name="uniF35D" unicode="&#xf35d;" horiz-adv-x="1282" 
d="M1032 0v520h-782v-520h-60v1075h60v-497h782v497h60v-1075h-60z" />
    <glyph glyph-name="uniF35E" unicode="&#xf35e;" horiz-adv-x="1325" 
d="M94 539q0 153 74 279t204 197.5t290 71.5t290.5 -71t204.5 -196.5t74 -280.5q0 -236 -163 -394.5t-406 -158.5q-242 0 -405 157.5t-163 395.5zM158 539q0 -212 145 -354t359 -142q219 0 362 141.5t143 354.5q0 139 -66 252t-181.5 176t-257.5 63q-215 0 -359.5 -140
t-144.5 -351z" />
    <glyph glyph-name="uniF35F" unicode="&#xf35f;" horiz-adv-x="1280" 
d="M1030 0v1018h-780v-1018h-60v1075h900v-1075h-60z" />
    <glyph glyph-name="uniF360" unicode="&#xf360;" horiz-adv-x="954" 
d="M250 0h-60v1075q32 0 135.5 2t133.5 2q92 0 163.5 -18.5t116 -49t73 -73t39.5 -87t11 -95.5q0 -65 -23.5 -122.5t-70.5 -105t-128 -75t-187 -27.5q-59 0 -203 8v-434zM465 1022q-113 0 -215 -4v-526q157 -9 201 -9q171 0 259.5 75.5t88.5 197.5q0 121 -81 193.5
t-253 72.5z" />
    <glyph glyph-name="uniF361" unicode="&#xf361;" horiz-adv-x="1085" 
d="M997 150l25 -48q-60 -54 -156.5 -85t-197.5 -31q-258 0 -416 151t-158 402q0 153 67.5 277t195.5 197.5t294 73.5q213 0 350 -98l-32 -45q-118 86 -316 86q-221 0 -358 -139.5t-137 -351.5q0 -223 142 -359.5t372 -136.5q186 0 325 107z" />
    <glyph glyph-name="uniF362" unicode="&#xf362;" horiz-adv-x="976" 
d="M16 1018v57h945v-57h-443v-1018h-59v1018h-443z" />
    <glyph glyph-name="uniF363" unicode="&#xf363;" horiz-adv-x="1058" 
d="M1028 1075l-405 -833q-62 -127 -120 -184.5t-134 -57.5q-72 0 -119 33l22 51q50 -29 97 -29q56 0 96.5 41t77.5 113l24 45l-536 821h73l494 -762l367 762h63z" />
    <glyph glyph-name="uniF364" unicode="&#xf364;" horiz-adv-x="1368" 
d="M651 -12v135h-12q-254 0 -407.5 114t-153.5 316q0 203 154 316.5t415 113.5h4v104h62v-104h6q266 0 418.5 -113t152.5 -317q0 -201 -155 -315.5t-408 -114.5h-14v-135h-62zM721 928h-8v-750h14q224 0 362 98t138 277q0 178 -137 276.5t-369 98.5zM139 553
q0 -177 138.5 -276t361.5 -99h12v750h-6q-229 0 -367.5 -99.5t-138.5 -275.5z" />
    <glyph glyph-name="uniF365" unicode="&#xf365;" horiz-adv-x="1085" 
d="M1016 1075l-434 -528l450 -547h-76l-415 500l-412 -500h-76l451 547l-432 528h75l396 -481l399 481h74z" />
    <glyph glyph-name="uniF366" unicode="&#xf366;" horiz-adv-x="1298" 
d="M190 0v1075h60v-1018h768v1018h61v-1018h158v-266h-57v209h-990z" />
    <glyph glyph-name="uniF367" unicode="&#xf367;" horiz-adv-x="1040" 
d="M850 1075v-1075h-62v506q-63 -38 -154 -67t-188 -29q-155 0 -249.5 85.5t-94.5 258.5v321h60v-307q0 -147 79 -223t218 -76q173 0 329 94v512h62z" />
    <glyph glyph-name="uniF368" unicode="&#xf368;" horiz-adv-x="1640" 
d="M190 0v1075h60v-1018h538v1018h62v-1018h539v1018h61v-1075h-1260z" />
    <glyph glyph-name="uniF369" unicode="&#xf369;" horiz-adv-x="1667" 
d="M190 0v1075h60v-1018h538v1018h62v-1018h539v1018h61v-1018h156v-266h-58v209h-1358z" />
    <glyph glyph-name="uniF36A" unicode="&#xf36a;" horiz-adv-x="1097" 
d="M2 1018v57h365v-436q78 6 202 6q218 0 326.5 -81.5t108.5 -231.5q0 -163 -119 -249.5t-330 -86.5q-48 0 -132.5 2t-115.5 2v1018h-305zM567 588q-99 0 -200 -8v-523q25 0 91 -2t105 -2q183 0 280 71.5t97 209.5q0 123 -94.5 188.5t-278.5 65.5z" />
    <glyph glyph-name="uniF36B" unicode="&#xf36b;" horiz-adv-x="1355" 
d="M1104 0v1075h61v-1075h-61zM438 588q-74 0 -188 -6v-525q25 0 83.5 -2t96.5 -2q184 0 280.5 71.5t96.5 209.5q0 121 -94 187.5t-275 66.5zM250 1075v-436q76 6 188 6q215 0 323.5 -81.5t108.5 -231.5q0 -163 -119 -249.5t-327 -86.5q-46 0 -124.5 2t-109.5 2v1075h60z
" />
    <glyph glyph-name="uniF36C" unicode="&#xf36c;" horiz-adv-x="980" 
d="M451 588q-87 0 -201 -6v-525q25 0 89.5 -2t102.5 -2q185 0 283 71.5t98 209.5q0 123 -94 188.5t-278 65.5zM250 1075v-436q76 6 203 6q217 0 325.5 -81.5t108.5 -231.5q0 -163 -120 -249.5t-331 -86.5q-45 0 -129.5 2t-116.5 2v1075h60z" />
    <glyph glyph-name="uniF36D" unicode="&#xf36d;" horiz-adv-x="1128" 
d="M334 520v58h637q-10 210 -149.5 331t-368.5 121q-205 0 -328 -90l-27 43q64 52 159.5 79.5t197.5 27.5q263 0 421 -149t158 -400q0 -157 -70.5 -283t-203 -199t-303.5 -73q-218 0 -383 112l28 49q156 -102 359 -102q225 0 364.5 133.5t147.5 341.5h-639z" />
    <glyph glyph-name="uniF36E" unicode="&#xf36e;" horiz-adv-x="1765" 
d="M190 0v1075h60v-497h321q14 221 165.5 366.5t381.5 145.5q243 0 398 -156t155 -395q0 -156 -69.5 -282t-196.5 -198.5t-287 -72.5q-233 0 -387 150.5t-160 383.5h-321v-520h-60zM635 539q0 -214 136.5 -354t348.5 -140q215 0 351.5 140t136.5 354q0 213 -137 352
t-351 139q-213 0 -349 -139t-136 -352z" />
    <glyph glyph-name="uniF36F" unicode="&#xf36f;" horiz-adv-x="1017" 
d="M768 0v430h-291l-346 -430h-74l355 438q-107 28 -183.5 110.5t-76.5 192.5q0 150 107 244t310 94q48 0 137.5 -2t120.5 -2v-1075h-59zM467 487h301v531q-23 0 -93 2t-112 2q-172 0 -260 -79t-88 -200q0 -96 76 -169t176 -87z" />
    <glyph glyph-name="uniF371" unicode="&#xf371;" horiz-adv-x="970" 
d="M190 0v1075h637v-57h-577v-443h528v-57h-528v-461h594v-57h-654zM276 1366q0 17 13.5 29t32.5 12q15 0 27.5 -12t12.5 -29q0 -20 -12 -32.5t-28 -12.5q-19 0 -32.5 12.5t-13.5 32.5zM635 1366q0 17 13 29t32 12q16 0 28.5 -12t12.5 -29q0 -19 -12.5 -32t-28.5 -13
q-19 0 -32 12.5t-13 32.5z" />
    <glyph glyph-name="uniF372" unicode="&#xf372;" horiz-adv-x="1253" 
d="M1159 317q0 -173 -73.5 -252t-200.5 -79q-42 0 -84.5 16t-61.5 31l25 47q49 -35 117 -35q102 0 160.5 65t58.5 205q0 144 -74 211.5t-217 67.5q-41 0 -77.5 -5.5t-71 -18.5t-51.5 -20.5t-51.5 -27t-39.5 -22.5v-500h-59v1018h-443v57h945v-57h-443v-461q46 28 79 45
t94.5 33t127.5 16q158 0 249 -79.5t91 -254.5z" />
    <glyph glyph-name="uniF373" unicode="&#xf373;" horiz-adv-x="833" 
d="M190 0v1075h639v-57h-579v-1018h-60zM688 1497l-237 -280l-33 30l233 291z" />
    <glyph glyph-name="uniF374" unicode="&#xf374;" horiz-adv-x="1126" 
d="M795 578v-60h-641q6 -217 151.5 -345t378.5 -128q186 0 342 102l27 -49q-165 -112 -369 -112q-264 0 -427 152t-163 401q0 241 159.5 396t418.5 155q102 0 197 -27.5t159 -79.5l-29 -43q-123 90 -325 90q-229 0 -367.5 -124.5t-152.5 -327.5h641z" />
    <glyph glyph-name="uniF375" unicode="&#xf375;" horiz-adv-x="946" 
d="M788 266q0 66 -36.5 113.5t-95.5 76t-129.5 51.5t-141.5 47.5t-130 56t-95.5 85.5t-36.5 127q0 117 93.5 190.5t266.5 73.5q94 0 190 -31.5t142 -82.5l-31 -43q-50 49 -135 74.5t-172 25.5q-132 0 -211.5 -56.5t-79.5 -150.5q0 -63 36.5 -108.5t95.5 -72.5t130 -49
t142 -47t130 -58t95.5 -89.5t36.5 -134.5q0 -125 -104 -201.5t-254 -76.5q-132 0 -239 40t-165 107l39 41q134 -131 365 -131q116 0 205 59t89 164z" />
    <glyph glyph-name="uniF376" unicode="&#xf376;" horiz-adv-x="526" 
d="M233 0v1075h60v-1075h-60z" />
    <glyph glyph-name="uniF377" unicode="&#xf377;" horiz-adv-x="534" 
d="M104 1364q0 17 13 29t30 12q16 0 28.5 -12t12.5 -29q0 -18 -12.5 -30.5t-28.5 -12.5q-18 0 -30.5 12.5t-12.5 30.5zM352 1364q0 17 13 29t30 12q15 0 27 -12t12 -29q0 -18 -12 -30.5t-27 -12.5q-18 0 -30.5 12.5t-12.5 30.5zM238 0v1075h59v-1075h-59z" />
    <glyph glyph-name="uniF378" unicode="&#xf378;" horiz-adv-x="583" 
d="M393 1075v-842q0 -120 -49.5 -183.5t-167.5 -63.5q-92 0 -147 47l22 47q53 -35 117 -35q50 0 84 15t50.5 43.5t23 60.5t6.5 76v835h61z" />
    <glyph glyph-name="uniF379" unicode="&#xf379;" horiz-adv-x="1716" 
d="M944 0v1018h-526l-19 -203q-14 -157 -34 -282.5t-42.5 -210.5t-50.5 -146.5t-54.5 -95.5t-58 -53.5t-57 -24t-55.5 -2.5v59q20 -1 37.5 3t44 22t48.5 49t48 91.5t46.5 142.5t39.5 209t31 284l16 215h646v-436q76 6 188 6q215 0 322.5 -81.5t107.5 -231.5
q0 -163 -118.5 -249.5t-327.5 -86.5q-46 0 -124 2t-108 2zM1190 588q-85 0 -186 -8v-523q24 0 82.5 -2t95.5 -2q184 0 280.5 71.5t96.5 209.5q0 121 -94 187.5t-275 66.5z" />
    <glyph glyph-name="uniF37A" unicode="&#xf37a;" horiz-adv-x="1785" 
d="M190 0v1075h60v-459h766v459h59v-457q114 9 189 9q215 0 322.5 -78.5t107.5 -222.5q0 -162 -118.5 -246t-328.5 -84q-38 0 -101.5 2t-88.5 2h-41v559h-766v-559h-60zM1075 561v-504q24 0 82 -2t96 -2q184 0 280.5 69t96.5 202q0 120 -93.5 183.5t-274.5 63.5
q-94 0 -187 -10z" />
    <glyph glyph-name="uniF37B" unicode="&#xf37b;" horiz-adv-x="1253" 
d="M16 1018v57h945v-57h-443v-465q54 40 136 68t180 28q152 0 238.5 -83.5t86.5 -260.5v-305h-59v295q0 148 -72.5 222.5t-208.5 74.5q-66 0 -129.5 -18t-95.5 -34.5t-76 -43.5v-496h-59v1018h-443z" />
    <glyph glyph-name="uniF37C" unicode="&#xf37c;" horiz-adv-x="1040" 
d="M969 1075l-563 -510l581 -565h-88l-575 561l559 514h86zM190 0v1075h60v-1075h-60zM735 1497l-237 -280l-33 30l233 291z" />
    <glyph glyph-name="uniF37E" unicode="&#xf37e;" horiz-adv-x="1058" 
d="M1028 1075l-405 -833q-62 -127 -120 -184.5t-134 -57.5q-72 0 -119 33l22 51q50 -29 97 -29q56 0 96.5 41t77.5 113l24 45l-536 821h73l494 -762l367 762h63zM283 1331h55q0 -81 56 -125.5t155 -44.5q94 0 148.5 44.5t54.5 125.5h55q0 -101 -71.5 -159t-186.5 -58
q-125 0 -195.5 56.5t-70.5 160.5z" />
    <glyph glyph-name="uniF37F" unicode="&#xf37f;" horiz-adv-x="1263" 
d="M190 0v1075h60v-1018h764v1018h59v-1075h-411v-244h-60v244h-412z" />
    <glyph glyph-name="uniF381" unicode="&#xf381;" horiz-adv-x="1019" 
d="M2 827v54h227v194h60v-194h291v-54h-291v-200q101 8 200 8q219 0 328 -79.5t109 -227.5q0 -163 -119.5 -247.5t-331.5 -84.5q-46 0 -130.5 2t-115.5 2v827h-227zM489 580q-71 0 -200 -7v-518q25 0 89.5 -2t102.5 -2q184 0 282.5 70.5t98.5 206.5q0 121 -94.5 186.5
t-278.5 65.5z" />
    <glyph glyph-name="uniF389" unicode="&#xf389;" horiz-adv-x="1325" 
d="M94 539q0 153 74 279t204 197.5t290 71.5t290.5 -71t204.5 -196.5t74 -280.5q0 -236 -163 -394.5t-406 -158.5q-242 0 -405 157.5t-163 395.5zM403 610q-127 0 -245 -108q14 -198 157 -328.5t347 -130.5q213 0 354.5 134t150.5 339q-113 -96 -231 -96q-54 0 -112 19.5
t-108.5 47.5t-100.5 56t-105.5 47.5t-106.5 19.5zM940 475q55 0 116.5 27t108.5 71q-12 198 -154.5 327.5t-348.5 129.5q-136 0 -249 -60t-180.5 -166.5t-74.5 -238.5q125 101 248 101q68 0 143 -30t130.5 -65.5t127 -65.5t133.5 -30z" />
    <glyph glyph-name="uniF38A" unicode="&#xf38a;" horiz-adv-x="1085" 
d="M891 799l-322 -809h-41l-503 1085h67l459 -997l289 747q54 139 107 200.5t120 61.5q36 0 74 -14v-51q-78 34 -135 -22.5t-115 -200.5z" />
    <glyph glyph-name="uniF393" unicode="&#xf393;" horiz-adv-x="835" 
d="M190 0v1075h584v207h57v-264h-581v-1018h-60z" />
    <glyph glyph-name="uniF394" unicode="&#xf394;" horiz-adv-x="872" 
d="M229 0v489h-213v56h213v530h639v-57h-579v-473h379v-56h-379v-489h-60z" />
    <glyph glyph-name="uniF395" unicode="&#xf395;" horiz-adv-x="985" 
d="M190 0v1075h639v-57h-579v-461q46 28 79 45t94.5 33t127.5 16q158 0 249 -81t91 -257v-395q0 -174 -75 -259t-200 -85q-42 0 -84 16t-61 31l25 47q49 -35 116 -35q101 0 160 70t59 211v383q0 147 -74.5 222t-215.5 75q-41 0 -77.5 -5.5t-71 -18.5t-51.5 -20.5t-51.5 -27
t-39.5 -22.5v-500h-60z" />
    <glyph glyph-name="uniF396" unicode="&#xf396;" horiz-adv-x="1540" 
d="M1430 1075l-506 -512l469 -506h147v-266h-57v209h-117l-516 561l498 514h82zM578 561l-504 514h80l499 -514l-518 -561h-80zM721 0v1075h61v-1075h-61z" />
    <glyph glyph-name="uniF397" unicode="&#xf397;" horiz-adv-x="950" 
d="M487 -244h-59v230q-105 3 -205.5 46.5t-144.5 106.5l35 39q58 -62 149.5 -98.5t173.5 -36.5q152 0 239 71t87 191q0 100 -69 158.5t-187 58.5h-158v56h146q86 0 154.5 68t68.5 165q0 105 -72.5 162t-189.5 57q-191 0 -310 -125l-36 39q60 69 149 106t193 37
q151 0 239 -72.5t88 -203.5q0 -79 -47 -151t-131 -103v-6q102 -9 162.5 -81.5t60.5 -168.5q0 -135 -92.5 -218t-243.5 -95v-232z" />
    <glyph glyph-name="uniF398" unicode="&#xf398;" horiz-adv-x="1075" 
d="M969 1075l-563 -510l522 -508h147v-266h-57v209h-119l-575 561l559 514h86zM190 0v1075h60v-1075h-60z" />
    <glyph glyph-name="uniF399" unicode="&#xf399;" horiz-adv-x="1058" 
d="M987 1075l-567 -510l586 -565h-88l-508 492v-234h-58v584h58v-215l491 448h86zM190 0v1075h60v-1075h-60z" />
    <glyph glyph-name="uniF39B" unicode="&#xf39b;" horiz-adv-x="1218" 
d="M1147 1075l-563 -510l581 -565h-88l-575 561l559 514h86zM369 0v1018h-367v57h426v-1075h-59z" />
    <glyph glyph-name="uniF39C" unicode="&#xf39c;" horiz-adv-x="1310" 
d="M1032 0v520h-782v-520h-60v1075h60v-497h782v497h60v-1018h157v-266h-57v209h-160z" />
    <glyph glyph-name="uniF39D" unicode="&#xf39d;" horiz-adv-x="1644" 
d="M1012 0v520h-762v-520h-60v1075h60v-497h762v497h628v-57h-569v-1018h-59z" />
    <glyph glyph-name="uniF3A0" unicode="&#xf3a0;" horiz-adv-x="1085" 
d="M997 150l25 -48q-55 -51 -143 -81t-183 -35v-230h-59v230q-246 9 -394.5 159.5t-148.5 393.5q0 153 67.5 277t195.5 197.5t294 73.5q213 0 350 -98l-32 -45q-118 86 -316 86q-221 0 -358 -139.5t-137 -351.5q0 -223 142 -359.5t372 -136.5q186 0 325 107z" />
    <glyph glyph-name="uniF3A2" unicode="&#xf3a2;" horiz-adv-x="946" 
d="M918 1075l-416 -600v-475h-62v475l-411 600h73l371 -543l375 543h70z" />
    <glyph glyph-name="uniF3A3" unicode="&#xf3a3;" horiz-adv-x="946" 
d="M918 1075l-392 -565h283v-55h-307v-455h-62v455h-307v55h283l-387 565h73l371 -543l375 543h70z" />
    <glyph glyph-name="uniF3A4" unicode="&#xf3a4;" horiz-adv-x="1132" 
d="M1016 1075l-434 -528l403 -490h148v-266h-58v209h-119l-415 500l-412 -500h-76l451 547l-432 528h75l396 -481l399 481h74z" />
    <glyph glyph-name="uniF3A6" unicode="&#xf3a6;" horiz-adv-x="1069" 
d="M850 1075v-1018h158v-266h-58v209h-162v506q-63 -38 -154 -67t-188 -29q-155 0 -249.5 85.5t-94.5 258.5v321h60v-307q0 -147 79 -223t218 -76q173 0 329 94v512h62z" />
    <glyph glyph-name="uniF3A7" unicode="&#xf3a7;" horiz-adv-x="1040" 
d="M850 1075v-1075h-62v506q-110 -67 -270 -84v-225h-61v221h-11q-75 0 -136 19t-108.5 58t-73.5 105t-26 154v321h60v-307q0 -147 77.5 -219t217.5 -72v303h61v-301q150 13 270 84v512h62z" />
    <glyph glyph-name="uniF3A8" unicode="&#xf3a8;" horiz-adv-x="1030" 
d="M190 1075h60v-522q51 38 145.5 67t194.5 29q155 0 250.5 -84.5t95.5 -259.5v-305h-59v295q0 146 -82 221.5t-220 75.5q-170 0 -325 -96v-496h-60v1075z" />
    <glyph glyph-name="uniF3B0" unicode="&#xf3b0;" horiz-adv-x="1040" 
d="M850 1075v-1075h-162v-209h-57v266h157v449q-63 -38 -154 -67t-188 -29q-155 0 -249.5 85.5t-94.5 258.5v321h60v-307q0 -147 79 -223t218 -76q173 0 329 94v512h62z" />
    <glyph glyph-name="uniF3B2" unicode="&#xf3b2;" horiz-adv-x="1146" 
d="M43 0l508 1085h45l508 -1085h-66l-180 387h-573l-181 -387h-61zM571 1006l-262 -564h522zM311 1331h56q0 -81 56 -125.5t155 -44.5q93 0 147.5 44.5t54.5 125.5h56q0 -101 -71.5 -159t-186.5 -58q-125 0 -196 56.5t-71 160.5z" />
    </font>
</defs>
</svg>
