<?xml version="1.0" standalone="no"?>
<!DOCTYPE svg PUBLIC "-//W3C//DTD SVG 1.1//EN" "http://www.w3.org/Graphics/SVG/1.1/DTD/svg11.dtd" >
<svg xmlns="http://www.w3.org/2000/svg" xmlns:xlink="http://www.w3.org/1999/xlink" version="1.1">
<metadata>
Created by FontForge 20170731 at Wed Mar 15 10:29:04 2023
 By Aleksey,,,
Copyright (c) 2011 Paratype, Inc., ParaType Ltd. All rights reserved.
</metadata>
<defs>
<font id="Circe-ExtraBoldItalic" horiz-adv-x="1228" >
  <font-face 
    font-family="Circe Extra Bold"
    font-weight="800"
    font-style="italic"
    font-stretch="normal"
    units-per-em="2048"
    panose-1="2 11 8 2 2 2 3 9 2 3"
    ascent="1583"
    descent="-465"
    x-height="922"
    cap-height="1434"
    bbox="-866 -930 3269 2089"
    underline-thickness="102"
    underline-position="-307"
    slope="-10"
    unicode-range="U+0020-FEFF"
  />
<missing-glyph horiz-adv-x="409" 
 />
    <glyph glyph-name="uniF350.var.accented" unicode="&#xf350;`" horiz-adv-x="1306" 
d="M6 0l690 1075h295l309 -1075h-335l-41 154h-457l-94 -154h-367zM782 694l-125 -233h183zM1192 1374l-332 -225l-145 170l289 291z" />
    <glyph glyph-name="uniF355.var.accented" unicode="&#xf355;`" horiz-adv-x="1042" 
d="M147 0l191 1075h776l-55 -299h-447l-14 -88h397l-55 -299h-397l-17 -90h467l-53 -299h-793zM1026 1374l-332 -225l-145 170l289 291z" />
    <glyph glyph-name="uniF358.var.accented" unicode="&#xf358;`" horiz-adv-x="1382" 
d="M434 0h-287l191 1075h328l-93 -530l557 530h287l-190 -1075h-328l94 535zM1223 1374l-332 -225l-146 170l289 291z" />
    <glyph glyph-name="uniF35E.var.accented" unicode="&#xf35e;`" horiz-adv-x="1359" 
d="M147 481q0 131 47.5 242.5t134.5 193.5t218.5 128.5t292.5 46.5q246 0 403.5 -140t157.5 -364q0 -176 -81.5 -314.5t-239 -218.5t-367.5 -80q-162 0 -290 60.5t-202 176.5t-74 269zM502 500q0 -97 63.5 -157t179.5 -60q76 0 135.5 24.5t95 66t53.5 91t18 104.5
q0 98 -65 156.5t-173 58.5q-151 0 -229 -80.5t-78 -203.5zM1182 1374l-332 -225l-145 170l288 291z" />
    <glyph glyph-name="uniF363.var.accented" unicode="&#xf363;`" horiz-adv-x="1167" 
d="M1343 1075l-544 -805q-44 -67 -77 -107.5t-80.5 -82t-105 -61t-128.5 -19.5q-123 0 -197 74l151 258q24 -15 38 -20t38 -5q44 0 68 31l14 18l-356 719h358l189 -399l260 399h372zM1102 1374l-332 -225l-145 170l288 291z" />
    <glyph glyph-name="uniF36B.var.accented" unicode="&#xf36b;`" horiz-adv-x="1576" 
d="M1094 0l190 1075h328l-191 -1075h-327zM616 481q-32 0 -57 -2l-31 -172q25 -4 66 -4q63 0 98 28t35 79q0 71 -111 71zM666 1075l-52 -291q35 4 88 4q170 0 275.5 -98t105.5 -244q0 -204 -147 -327t-397 -123q-102 0 -235.5 2t-156.5 2l191 1075h328zM1317 1374l-332 -225
l-145 170l288 291z" />
    <glyph glyph-name="uniF36D.var.accented" unicode="&#xf36d;`" horiz-adv-x="1161" 
d="M377 399l55 299h375q-27 45 -87.5 70t-135.5 25q-141 0 -252 -58l-109 234q172 123 416 123q142 0 253 -43.5t177 -116t99.5 -160.5t33.5 -184q0 -188 -88 -326t-246 -210t-368 -72q-147 0 -261 34t-176 99l185 239q90 -73 282 -73q199 0 267 120h-420zM1053 1374
l-332 -225l-146 170l289 291z" />
    <glyph glyph-name="uniF36E.var.accented" unicode="&#xf36e;`" horiz-adv-x="1812" 
d="M147 0l191 1075h328l-68 -373h94q43 125 137.5 214t219.5 132.5t270 43.5q106 0 194.5 -26.5t150.5 -72.5t105 -108t63.5 -133.5t20.5 -149.5q0 -135 -44 -248.5t-128 -198.5t-214.5 -132.5t-295.5 -47.5q-218 0 -354 117t-160 303h-112l-70 -395h-328zM1008 494
q0 -101 50 -156t150 -55q76 0 134.5 26t91.5 69.5t49 92.5t16 102q0 105 -52 158t-151 53q-126 0 -207 -79t-81 -211zM1341 1374l-331 -225l-146 170l289 291z" />
    <glyph glyph-name="uniF36F.var.accented" unicode="&#xf36f;`" horiz-adv-x="1212" 
d="M729 0l51 287h-127l-231 -287h-406l330 379q-62 46 -91.5 112.5t-29.5 131.5q0 94 32 175t97 146t173.5 102t250.5 37q119 0 284.5 -4t184.5 -4l-190 -1075h-328zM662 594h172l30 174q-66 8 -145 8q-61 0 -99 -26t-38 -72q0 -69 80 -84zM1223 1374l-332 -225l-146 170
l289 291z" />
    <glyph glyph-name="uniF371.var.accented" unicode="&#xf371;`" horiz-adv-x="1042" 
d="M147 0l191 1075h776l-55 -299h-447l-14 -88h397l-55 -299h-397l-17 -90h467l-53 -299h-793zM379 1305q0 70 48.5 111.5t119.5 41.5q59 0 105 -42t46 -111q0 -74 -45.5 -118t-105.5 -44q-72 0 -120 43.5t-48 118.5zM838 1305q0 69 48 111t115 42q63 0 109.5 -42t46.5 -111
q0 -74 -46 -118t-110 -44q-68 0 -115.5 43.5t-47.5 118.5zM1098 1599l-332 -225l-145 170l288 291z" />
    <glyph glyph-name="uni0410.var.accented" unicode="&#x410;`" horiz-adv-x="1443" 
d="M0 0l827 1434h289l328 -1434h-330l-67 301h-525l-168 -301h-354zM899 1014l-205 -406h283zM1317 1651l-510 -160l-84 182l479 242z" />
    <glyph glyph-name="uni0415.var.accented" unicode="&#x415;`" horiz-adv-x="1177" 
d="M184 0l252 1434h871l-54 -308h-542l-45 -252h481l-53 -307h-482l-47 -260h563l-53 -307h-891zM1219 1651l-510 -160l-84 182l479 242z" />
    <glyph glyph-name="uni0418.var.accented" unicode="&#x418;`" horiz-adv-x="1626" 
d="M471 0h-287l252 1434h328l-150 -854l793 854h287l-252 -1434h-328l152 862zM1411 1651l-510 -160l-84 182l479 242z" />
    <glyph glyph-name="uni041E.var.accented" unicode="&#x41e;`" horiz-adv-x="1710" 
d="M205 645q0 173 60.5 323t169 258t266.5 170t346 62q207 0 368 -81t251.5 -233.5t90.5 -355.5q0 -130 -34.5 -250.5t-104.5 -222.5t-168.5 -178t-233.5 -119t-292 -43q-136 0 -252.5 34t-201.5 95.5t-145.5 145t-90 184t-29.5 211.5zM559 666q0 -168 102 -275.5
t275 -107.5q144 0 251.5 66t161.5 175t54 244q0 173 -102.5 278t-280.5 105q-92 0 -169.5 -28t-130.5 -75t-90 -109.5t-54 -131.5t-17 -141zM1450 1651l-510 -160l-84 182l479 242z" />
    <glyph glyph-name="uni0423.var.accented" unicode="&#x423;`" horiz-adv-x="1394" 
d="M1647 1434l-674 -1094q-28 -47 -44.5 -73t-46.5 -67t-53.5 -65t-59 -53t-70.5 -44.5t-80.5 -26.5t-96.5 -11q-65 0 -128 20.5t-99 55.5l151 258q56 -27 105 -27q47 0 72.5 18.5t50.5 59.5l14 23l-436 1026h352l273 -699l409 699h361zM1296 1651l-510 -160l-84 182
l480 242z" />
    <glyph glyph-name="uni042B.var.accented" unicode="&#x42b;`" horiz-adv-x="1812" 
d="M1300 0l252 1434h328l-252 -1434h-328zM731 686q-28 0 -100 -10l-64 -365q70 -8 95 -8q84 0 140.5 35t79.5 85.5t23 111.5q0 71 -47 111t-127 40zM764 1434l-78 -449q68 8 113 8q223 0 343 -110.5t120 -300.5q0 -96 -21.5 -180t-71.5 -159.5t-124.5 -129.5t-187 -85.5
t-253.5 -31.5q-103 0 -246.5 2t-173.5 2l252 1434h328zM1507 1651l-510 -160l-84 182l480 242z" />
    <glyph glyph-name="uni042D.var.accented" unicode="&#x42d;`" horiz-adv-x="1431" 
d="M520 578l53 307h564q-25 130 -115.5 198t-239.5 68q-105 0 -187.5 -27t-170.5 -84l-125 250q188 168 549 168q131 0 237.5 -35t179 -94.5t121.5 -141t71 -172t22 -190.5q0 -391 -224.5 -620.5t-613.5 -229.5q-331 0 -526 207l180 240q146 -139 356 -139q171 0 292.5 84.5
t160.5 210.5h-584zM1180 1651l-510 -160l-84 182l479 242z" />
    <glyph glyph-name="uni042E.var.accented" unicode="&#x42e;`" horiz-adv-x="2232" 
d="M184 0l252 1434h328l-96 -549h161q80 272 296.5 422.5t498.5 150.5q306 0 480.5 -168.5t174.5 -455.5q0 -245 -98 -438t-292 -307t-457 -114q-149 0 -270 46t-199.5 128t-122 191t-47.5 238h-179l-102 -578h-328zM1143 645q0 -73 17.5 -135.5t54.5 -114.5t103 -82
t155 -30q114 0 203 44.5t142 119.5t80 165.5t27 190.5q0 161 -86 254.5t-242 93.5q-109 0 -197.5 -43t-143 -115t-84 -161.5t-29.5 -186.5zM1698 1651l-510 -160l-84 182l479 242z" />
    <glyph glyph-name="uni042F.var.accented" unicode="&#x42f;`" horiz-adv-x="1376" 
d="M864 0l82 461h-158l-364 -461h-387l457 553q-177 114 -177 348q0 114 39 210.5t116.5 171t204 117t290.5 42.5q87 0 265.5 -4t211.5 -4l-252 -1434h-328zM795 768h204l64 358q-14 3 -71.5 6t-78.5 3q-114 0 -176.5 -67t-62.5 -153q0 -61 34 -98.5t87 -48.5zM1384 1651
l-510 -160l-83 182l479 242z" />
    <glyph glyph-name="uni0401.var.accented" unicode="&#x401;`" horiz-adv-x="1177" 
d="M1061 1700q0 68 50 110.5t120 42.5q75 0 122.5 -42t47.5 -109q0 -66 -45.5 -113t-124.5 -47q-76 0 -123 43.5t-47 114.5zM387 1700q0 68 50 110.5t120 42.5q75 0 122.5 -42t47.5 -109q0 -66 -45.5 -113t-124.5 -47q-76 0 -123 43.5t-47 114.5zM1098 1864l-219 -346
l-152 61l141 385zM184 0l252 1434h871l-54 -308h-542l-45 -252h481l-53 -307h-482l-47 -260h563l-53 -307h-891z" />
    <glyph glyph-name="uni0430.var.accented" unicode="&#x430;`" horiz-adv-x="1116" 
d="M987 0h-301l35 197q-57 -89 -146 -155.5t-194 -66.5q-130 0 -194 86t-64 228q0 189 81 338.5t228.5 234t335.5 84.5q102 0 209.5 -27t150.5 -57zM528 246q35 0 72.5 29.5t69.5 77t57 95t45 95.5l23 125q-39 8 -80 8q-121 0 -199 -87.5t-78 -215.5q0 -127 90 -127z
M1114 1378l-272 -307l-183 129l215 361z" />
    <glyph glyph-name="uni0435.var.accented" unicode="&#x435;`" horiz-adv-x="1013" 
d="M840 307l123 -164q-168 -168 -414 -168q-205 0 -315.5 100t-110.5 287q0 114 41.5 219.5t114.5 186.5t183 129.5t238 48.5q342 0 342 -256q0 -85 -50 -152t-137 -110t-196.5 -67.5t-236.5 -30.5q24 -109 182 -109q121 0 236 86zM676 700q-86 0 -151 -55t-85 -133
q56 2 107.5 10.5t97 23t73 38.5t27.5 53t-19.5 46t-49.5 17zM1081 1378l-272 -307l-182 129l215 361z" />
    <glyph glyph-name="uni0438.var.accented" unicode="&#x438;`" horiz-adv-x="1103" 
d="M1116 922l-164 -922h-307l33 176q-31 -41 -60.5 -71.5t-71 -62.5t-94 -49.5t-110.5 -17.5q-60 0 -102.5 20t-65.5 55.5t-33 76t-10 90.5q0 55 12 125l123 580h307l-106 -514q-1 -5 -3.5 -19t-4.5 -28.5t-2 -26.5q0 -72 51 -72q55 0 121 84.5t108 177.5l72 398h307z
M1081 1378l-272 -307l-182 129l215 361z" />
    <glyph glyph-name="uni043E.var.accented" unicode="&#x43e;`" horiz-adv-x="1112" 
d="M123 365q0 123 37 227.5t108 184t183.5 124.5t255.5 45q102 0 181.5 -32t127 -87.5t72 -124t24.5 -145.5q0 -125 -36.5 -230.5t-106.5 -184t-179.5 -123t-246.5 -44.5q-203 0 -311.5 110t-108.5 280zM438 426q0 -79 40 -129.5t116 -50.5q94 0 148.5 71.5t54.5 178.5
q0 75 -38 127.5t-116 52.5q-98 0 -151.5 -74.5t-53.5 -175.5zM1077 1378l-272 -307l-182 129l215 361z" />
    <glyph glyph-name="uni0443.var.accented" unicode="&#x443;`" horiz-adv-x="956" 
d="M696 922h322q-33 -196 -89 -386t-134 -361.5t-169 -301.5t-201 -206.5t-222 -76.5q-136 0 -232 86l140 232q46 -33 96 -33q97 0 147 88l21 37q-93 412 -297 922h354q98 -261 152 -537q29 85 50.5 180.5t32 161t29.5 195.5zM961 1378l-273 -307l-182 129l215 361z" />
    <glyph glyph-name="uni044B.var.accented" unicode="&#x44b;`" horiz-adv-x="1458" 
d="M772 725q104 0 158.5 -65t54.5 -166q0 -98 -45.5 -193t-122 -166.5t-183 -115.5t-220.5 -44q-138 0 -210.5 65t-72.5 183q0 77 16 139l148 560h307l-92 -334q74 65 137 101t125 36zM514 246q63 0 109.5 47.5t46.5 99.5q0 27 -14.5 44.5t-41.5 17.5q-40 0 -84 -40.5
t-77 -95.5v-8q0 -29 15.5 -47t45.5 -18zM1001 0l162 922h307l-161 -922h-308zM1276 1378l-272 -307l-183 129l215 361z" />
    <glyph glyph-name="uni044D.var.accented" unicode="&#x44d;`" horiz-adv-x="958" 
d="M330 362l37 205h270q-6 62 -55 92.5t-117 30.5q-118 0 -205 -51l-106 192q79 59 172 87t225 28q197 0 302 -105t105 -294q0 -115 -33.5 -216t-98.5 -181.5t-172 -127.5t-244 -47q-128 0 -208 27t-153 92l166 195q78 -58 205 -58q76 0 130.5 33t72.5 98h-293zM936 1378
l-272 -307l-183 129l215 361z" />
    <glyph glyph-name="uni044E.var.accented" unicode="&#x44e;`" horiz-adv-x="1515" 
d="M111 0l161 922h328l-51 -297h86q137 321 500 321q100 0 174.5 -30t119 -84.5t66 -123.5t21.5 -153q0 -114 -34 -217t-98.5 -184.5t-167 -130t-229.5 -48.5q-372 0 -399 342h-94l-56 -317h-327zM901 430q0 -184 127 -184q87 0 129.5 71t42.5 175q0 184 -129 184
q-84 0 -127 -71.5t-43 -174.5zM1325 1378l-272 -307l-183 129l215 361z" />
    <glyph glyph-name="uni044F.var.accented" unicode="&#x44f;`" horiz-adv-x="1026" 
d="M692 922h346l-161 -922h-308l41 236h-49l-184 -236h-365l271 311q-51 35 -80 92t-29 119q0 185 134 292.5t384 107.5zM489 551q0 -90 97 -90h65l33 194h-74q-55 0 -88 -29t-33 -75zM1049 1378l-273 -307l-182 129l215 361z" />
    <glyph glyph-name="uni0451.var.accented" unicode="&#x451;`" horiz-adv-x="1013" 
d="M840 307l123 -164q-168 -168 -414 -168q-205 0 -315.5 100t-110.5 287q0 114 41.5 219.5t114.5 186.5t183 129.5t238 48.5q342 0 342 -256q0 -85 -50 -152t-137 -110t-196.5 -67.5t-236.5 -30.5q24 -109 182 -109q121 0 236 86zM948 1403l-235 -334l-181 100l175 381z
M207 1174q0 55 39 97t100 42t100 -38t39 -97q0 -62 -38 -104t-101 -42q-65 0 -102 39.5t-37 102.5zM883 1174q0 55 39 97t100 42t100 -38t39 -97q0 -62 -38 -104t-101 -42q-65 0 -102 39.5t-37 102.5zM676 700q-86 0 -151 -55t-85 -133q56 2 107.5 10.5t97 23t73 38.5
t27.5 53t-19.5 46t-49.5 17z" />
    <glyph glyph-name="fi" unicode="fi" horiz-adv-x="1169" 
d="M109 -4l176 1003q41 234 163.5 346.5t354.5 112.5q162 0 265 -61t146 -170l-253 -172q-16 50 -61.5 83t-117.5 33q-85 0 -130.5 -41t-59.5 -126l-14 -82h587l-161 -922h-308l113 635h-281l-114 -658q-68 -387 -414 -387q-81 0 -153.5 28t-104.5 69l139 227
q40 -37 105 -37q104 0 123 119z" />
    <glyph glyph-name="fl" unicode="fl" 
d="M719 315l141 811q-57 45 -129 45q-62 0 -90.5 -30.5t-38.5 -87.5l-22 -131h120l-49 -287h-123l-114 -658q-68 -387 -414 -387q-81 0 -153.5 28t-104.5 69l139 227q40 -37 105 -37q51 0 82.5 32.5t40.5 90.5l188 1071q15 82 43 148t75 121.5t120 86.5t167 31
q155 0 234 -57h281l-181 -1020q-9 -55 9 -87t63 -32q41 0 84 19l33 -238q-36 -28 -105.5 -48t-136.5 -20q-150 0 -221.5 87t-42.5 253z" />
    <glyph glyph-name=".notdef" horiz-adv-x="409" 
 />
    <glyph glyph-name=".null" horiz-adv-x="0" 
 />
    <glyph glyph-name="nonmarkingreturn" horiz-adv-x="682" 
 />
    <glyph glyph-name="space" unicode=" " horiz-adv-x="409" 
 />
    <glyph glyph-name="exclam" unicode="!" horiz-adv-x="727" 
d="M289 537l157 897h328l-158 -897h-327zM205 176q0 66 53.5 119t140.5 53q77 0 132 -54t55 -118q0 -75 -55 -131.5t-136 -56.5q-86 0 -138 55.5t-52 132.5z" />
    <glyph glyph-name="quotedbl" unicode="&#x22;" horiz-adv-x="1017" 
d="M725 901l94 533h307l-94 -533h-307zM315 901l95 533h307l-94 -533h-308z" />
    <glyph glyph-name="numbersign" unicode="#" horiz-adv-x="1523" 
d="M760 59l102 279h-246l-135 -363l-237 82l104 281h-139v266h237l84 225h-321v267h420l135 362l237 -86l-102 -276h242l135 362l237 -82l-104 -280h160v-267h-258l-84 -225h342v-266h-441l-133 -363zM799 829l-84 -225h246l81 225h-243z" />
    <glyph glyph-name="dollar" unicode="$" horiz-adv-x="1200" 
d="M813 410q0 39 -27 72.5t-71 60.5t-96.5 56t-105 65.5t-96.5 81t-71 111.5t-27 149q0 163 103 283t293 157l30 172h308l-35 -182q149 -38 239 -156l-198 -225q-48 50 -93 73t-116 23q-90 0 -133 -33.5t-43 -91.5q0 -38 21 -70.5t56 -56.5t79 -51t90.5 -51t90.5 -58
t79 -71.5t56 -92.5t21 -120q0 -198 -111.5 -320t-293.5 -153l-31 -187h-307l35 199q-105 24 -180.5 79.5t-108.5 137.5l211 211q87 -143 270 -143q83 0 122.5 39t39.5 92z" />
    <glyph glyph-name="percent" unicode="%" horiz-adv-x="1976" 
d="M512 96l1018 1362l172 -129l-1014 -1354zM205 1071q0 157 116 272t297 115q197 0 309.5 -105t112.5 -268q0 -70 -28 -138.5t-79.5 -126t-133.5 -93t-181 -35.5q-191 0 -302 106t-111 273zM481 1075q0 -60 37.5 -96.5t104.5 -36.5q61 0 101 38.5t40 94.5q0 57 -36 95
t-105 38q-65 0 -103.5 -39.5t-38.5 -93.5zM1194 354q0 157 116.5 272t297.5 115q197 0 309.5 -104.5t112.5 -267.5q0 -70 -28 -138.5t-79.5 -126.5t-133.5 -93.5t-181 -35.5q-191 0 -302.5 106t-111.5 273zM1470 358q0 -60 37.5 -96.5t104.5 -36.5q61 0 101 38.5t40 94.5
q0 57 -36 95.5t-105 38.5q-64 0 -103 -40t-39 -94z" />
    <glyph glyph-name="ampersand" unicode="&#x26;" horiz-adv-x="1572" 
d="M1108 0l-59 109q-197 -134 -422 -134q-217 0 -334 100.5t-117 270.5q0 74 19.5 138.5t51.5 115t85 100.5t106.5 88t128.5 84q-56 67 -81 129t-25 140q0 147 109 232t288 85q155 0 251.5 -73.5t96.5 -202.5q0 -106 -55.5 -182t-159.5 -148l158 -277q105 166 137 347h297
q-28 -173 -103 -332.5t-182 -270.5l191 -319h-381zM686 283q113 0 209 75l-166 320q-4 -3 -29 -21.5t-30.5 -22.5t-27 -21t-27.5 -23.5t-22.5 -22.5t-22 -25.5t-16 -26t-14 -30t-7 -30.5t-3.5 -35q0 -137 156 -137zM754 1139q0 -46 63 -84q96 33 96 100q0 22 -19.5 39.5
t-47.5 17.5q-38 0 -65 -21.5t-27 -51.5z" />
    <glyph glyph-name="quotesingle" unicode="'" horiz-adv-x="608" 
d="M315 901l95 533h307l-94 -533h-308z" />
    <glyph glyph-name="parenleft" unicode="(" horiz-adv-x="710" 
d="M659 -250l-204 -172q-145 148 -218 335.5t-73 373.5q0 134 26.5 256t89.5 256t182.5 271.5t291.5 272.5l159 -188q-225 -200 -331.5 -396.5t-106.5 -451.5q0 -328 184 -557z" />
    <glyph glyph-name="parenright" unicode=")" horiz-adv-x="749" 
d="M213 1171l205 172q145 -148 218 -335t73 -373q0 -106 -15.5 -203t-56 -206t-105.5 -212t-169.5 -215.5t-243.5 -220.5l-160 189q225 200 331.5 396t106.5 451q0 328 -184 557z" />
    <glyph glyph-name="asterisk" unicode="*" horiz-adv-x="1056" 
d="M551 1307q0 62 43 105.5t104 43.5q62 0 106 -44t44 -105t-44 -104.5t-106 -43.5q-61 0 -104 43t-43 105zM547 625q0 62 43 105.5t104 43.5q62 0 106 -44t44 -105t-44 -104.5t-106 -43.5q-61 0 -104 43t-43 105zM848 1141q0 62 43 105.5t104 43.5q62 0 106 -44t44 -105
t-44 -104.5t-106 -43.5q-61 0 -104 43t-43 105zM848 801q0 62 43 105.5t104 43.5q62 0 106 -44t44 -105t-44 -104.5t-106 -43.5q-61 0 -104 43t-43 105zM252 801q0 62 43 105.5t104 43.5q62 0 106 -44t44 -105t-44 -104.5t-106 -43.5q-61 0 -104 43t-43 105zM252 1141
q0 62 43 105.5t104 43.5q62 0 106 -44t44 -105t-44 -104.5t-106 -43.5q-61 0 -104 43t-43 105z" />
    <glyph glyph-name="plus" unicode="+" 
d="M266 604v266h340v351h287v-351h344v-266h-344v-354h-287v354h-340z" />
    <glyph glyph-name="comma" unicode="," horiz-adv-x="559" 
d="M109 150q0 94 62 150t148 56q95 0 146 -60.5t51 -156.5q0 -158 -92.5 -269.5t-273.5 -164.5l-60 141q167 66 189 162q-12 -4 -37 -4q-58 0 -95.5 41.5t-37.5 104.5z" />
    <glyph glyph-name="hyphen" unicode="-" horiz-adv-x="843" 
d="M231 420l50 287h540l-49 -287h-541z" />
    <glyph glyph-name="period" unicode="." horiz-adv-x="559" 
d="M104 197q0 75 57.5 133.5t151.5 58.5q88 0 145.5 -58t57.5 -134q0 -86 -57.5 -147.5t-149.5 -61.5q-97 0 -151 60.5t-54 148.5z" />
    <glyph glyph-name="slash" unicode="/" horiz-adv-x="782" 
d="M0 -338l670 1796l235 -88l-667 -1796z" />
    <glyph glyph-name="zero" unicode="0" horiz-adv-x="1177" 
d="M197 514q0 82 7 163.5t26.5 176t49 177.5t78.5 161t112.5 134t153.5 90t197 34q97 0 171.5 -31t119.5 -80.5t74 -120t40 -141.5t11 -153q0 -93 -9 -183.5t-30 -184.5t-53 -176.5t-81 -156t-110.5 -126t-145.5 -83t-183 -30.5q-218 0 -323 139.5t-105 390.5zM520 532
q0 -143 29 -202.5t110 -59.5q64 0 112 48.5t74 119t42.5 166.5t21 172.5t4.5 155.5q0 51 -4.5 87.5t-18.5 71.5t-43 53.5t-73 18.5q-58 0 -103.5 -40.5t-73 -104t-45.5 -149t-25 -168t-7 -169.5z" />
    <glyph glyph-name="one" unicode="1" horiz-adv-x="792" 
d="M201 1151l428 283h231l-252 -1434h-307l176 997l-162 -100z" />
    <glyph glyph-name="two" unicode="2" horiz-adv-x="1067" 
d="M61 0l43 246q38 32 112.5 92.5t120.5 98.5t114.5 97.5t111.5 102.5t92.5 99.5t77.5 102.5t47 98t19 99q0 49 -31 83t-88 34q-37 0 -67 -14.5t-51 -40.5t-34.5 -48.5t-27.5 -51.5q-3 -6 -4 -9l-236 117q52 162 170 253t301 91q101 0 180 -27t126.5 -74.5t71.5 -107
t24 -127.5q0 -352 -582 -827h487l-51 -287h-926z" />
    <glyph glyph-name="three" unicode="3" horiz-adv-x="1064" 
d="M522 -25q-367 0 -473 275l270 145q38 -60 88 -91.5t125 -31.5q98 0 150.5 52.5t52.5 124.5q0 137 -213 137h-90l53 297h82q97 0 165.5 44.5t68.5 123.5q0 55 -32.5 82.5t-104.5 27.5q-102 0 -183 -98l-217 172q79 113 191 168t270 55q184 0 297 -90.5t113 -243.5
q0 -127 -72.5 -228t-216.5 -146l-2 -7q103 -26 164 -105.5t61 -180.5q0 -99 -38 -186.5t-107.5 -153.5t-173.5 -104t-228 -38z" />
    <glyph glyph-name="four" unicode="4" horiz-adv-x="1251" 
d="M717 0l53 307h-651l41 230l669 897h363l-619 -830h250l56 318h307l-56 -318h168l-53 -297h-168l-53 -307h-307z" />
    <glyph glyph-name="five" unicode="5" horiz-adv-x="1093" 
d="M266 631l240 803h735l-53 -297h-465l-55 -199h24q95 0 171.5 -34.5t124 -93t72.5 -131t25 -151.5q0 -117 -40.5 -218.5t-114.5 -175.5t-184.5 -116.5t-243.5 -42.5q-145 0 -264 56.5t-181 161.5l226 204q36 -59 99 -92t146 -33q114 0 169 62.5t55 157.5q0 85 -59.5 130.5
t-174.5 45.5q-66 0 -141 -10.5t-111 -26.5z" />
    <glyph glyph-name="six" unicode="6" horiz-adv-x="1177" 
d="M195 438q0 155 52 303.5t140 267t202 214.5t241.5 155.5t254.5 79.5l76 -248q-371 -119 -538 -395q99 78 227 78q164 0 264 -107.5t100 -279.5q0 -110 -35.5 -205.5t-102.5 -168.5t-172 -115t-236 -42q-225 0 -349 129t-124 334zM532 506q-19 -103 24 -168.5t138 -65.5
q87 0 137 60t50 133q0 64 -38.5 102.5t-111.5 38.5q-114 0 -199 -100z" />
    <glyph glyph-name="seven" unicode="7" horiz-adv-x="1050" 
d="M240 1137l53 297h942l-37 -209l-700 -1225h-363l658 1137h-553z" />
    <glyph glyph-name="eight" unicode="8" horiz-adv-x="1222" 
d="M784 885h27q71 0 115.5 40t44.5 107q0 60 -41.5 94.5t-104.5 34.5q-72 0 -119 -42t-47 -115q0 -51 34 -85t91 -34zM733 588h-24q-83 0 -145 -48t-62 -132q0 -56 45 -96t133 -40q96 0 150.5 51t54.5 134q0 59 -42.5 95t-109.5 36zM653 -25q-218 0 -351.5 97.5
t-133.5 273.5q0 151 84.5 257.5t232.5 148.5l2 6q-161 79 -161 264q0 191 144 313.5t396 122.5q189 0 314 -96.5t125 -259.5q0 -126 -74 -227t-197 -134l-2 -6q187 -86 187 -305q0 -208 -151 -331.5t-415 -123.5z" />
    <glyph glyph-name="nine" unicode="9" horiz-adv-x="1198" 
d="M1255 983q0 -145 -38.5 -283.5t-116.5 -261.5t-187.5 -219.5t-260 -161t-326.5 -82.5l-60 250q208 52 345 140t214 233q-99 -78 -237 -78q-88 0 -158.5 33.5t-114.5 90t-67 128t-23 150.5q0 113 37.5 211t107 170t174 113.5t232.5 41.5q219 0 349 -127.5t130 -347.5z
M918 907q18 106 -24.5 180t-135.5 74q-94 0 -146.5 -64t-52.5 -143q0 -66 40.5 -106.5t117.5 -40.5q112 0 201 100z" />
    <glyph glyph-name="colon" unicode=":" horiz-adv-x="669" 
d="M270 754q0 75 57.5 133.5t151.5 58.5q87 0 145 -59.5t58 -132.5q0 -85 -58 -147t-149 -62q-95 0 -150 61t-55 148zM174 197q0 75 57.5 133.5t151.5 58.5q87 0 145 -59.5t58 -132.5q0 -85 -58 -147t-149 -62q-95 0 -150 61t-55 148z" />
    <glyph glyph-name="semicolon" unicode=";" horiz-adv-x="669" 
d="M162 150q0 94 62.5 150t148.5 56q95 0 145.5 -60.5t50.5 -156.5q0 -158 -92.5 -269.5t-273.5 -164.5l-60 141q167 66 189 162q-12 -4 -37 -4q-58 0 -95.5 41.5t-37.5 104.5zM270 754q0 75 57.5 133.5t151.5 58.5q88 0 145.5 -58t57.5 -134q0 -86 -57.5 -147.5
t-149.5 -61.5q-97 0 -151 60.5t-54 148.5z" />
    <glyph glyph-name="less" unicode="&#x3c;" 
d="M1229 111l-1004 565v131l1004 561v-332l-582 -295l582 -299v-331z" />
    <glyph glyph-name="equal" unicode="=" 
d="M268 809v266h971v-266h-971zM268 399v267h971v-267h-971z" />
    <glyph glyph-name="greater" unicode="&#x3e;" 
d="M1249 676l-1003 -565v331l581 299l-581 295v332l1003 -561v-131z" />
    <glyph glyph-name="question" unicode="?" horiz-adv-x="1019" 
d="M797 1040q0 45 -35.5 78t-95.5 33q-71 0 -121.5 -27.5t-98.5 -83.5l-186 203q84 105 195.5 160t267.5 55q196 0 308 -97t112 -243q0 -86 -25 -156.5t-65 -117t-88.5 -85.5t-97 -70t-89.5 -61t-67.5 -68.5t-28.5 -84.5h-285q3 73 26.5 131t59 95.5t77.5 68.5t84 57.5
t76 54.5t55.5 68t21.5 90zM303 176q0 66 54 119t141 53q77 0 131.5 -54t54.5 -118q0 -76 -54.5 -132t-135.5 -56q-86 0 -138.5 55.5t-52.5 132.5z" />
    <glyph glyph-name="at" unicode="@" horiz-adv-x="2019" 
d="M1198 147l6 50q-57 -89 -146 -155.5t-194 -66.5q-130 0 -194 86t-64 228q0 189 81 338.5t228.5 234t335.5 84.5q67 0 138.5 -14.5t115 -29t107.5 -40.5l-92 -573h55q182 0 182 342q0 196 -162 323t-417 127q-143 0 -266 -41t-217.5 -120.5t-148.5 -207t-54 -290.5
q0 -146 43 -258t123 -182.5t189.5 -106t246.5 -35.5q161 0 270 25l10 -285q-120 -26 -299 -26q-141 0 -269 34.5t-238 105.5t-190.5 172t-126.5 242.5t-46 309.5q0 196 73 371t200.5 302.5t311 202t394.5 74.5q196 0 360 -57.5t272.5 -156.5t168 -231t59.5 -282
q0 -110 -20 -203t-66.5 -175t-118 -139.5t-179.5 -90.5t-245 -33q-114 0 -170.5 32t-46.5 115zM1012 246q35 0 72 29.5t69 77t57 94.5t45 96l23 125q-39 8 -80 8q-121 0 -198.5 -87.5t-77.5 -215.5q0 -127 90 -127z" />
    <glyph glyph-name="A" unicode="A" horiz-adv-x="1443" 
d="M0 0l827 1434h289l328 -1434h-330l-67 301h-525l-168 -301h-354zM899 1014l-205 -406h283z" />
    <glyph glyph-name="B" unicode="B" horiz-adv-x="1308" 
d="M184 4l252 1426q240 12 496 12q411 0 411 -322q0 -137 -75.5 -236.5t-216.5 -140.5l-2 -4q106 -25 165.5 -96t59.5 -172q0 -122 -48 -215.5t-132 -150t-191.5 -85t-234.5 -28.5q-361 0 -484 12zM762 590h-148l-49 -289q52 -12 148 -12q102 0 157.5 45.5t55.5 120.5
q0 135 -164 135zM848 1145q-63 0 -137 -8l-47 -281h129q92 0 147 44.5t55 127.5q0 53 -38.5 85t-108.5 32z" />
    <glyph glyph-name="C" unicode="C" horiz-adv-x="1372" 
d="M1276 387l127 -252q-77 -73 -203.5 -116.5t-265.5 -43.5q-154 0 -286 44t-231 127.5t-155.5 213t-56.5 291.5q0 118 30 231t98 218.5t166.5 184t246.5 126t327 47.5q140 0 264 -36.5t191 -100.5l-168 -250q-119 80 -316 80q-116 0 -210 -39t-153 -105t-90.5 -150.5
t-31.5 -178.5q0 -186 102 -290.5t289 -104.5q186 0 326 104z" />
    <glyph glyph-name="D" unicode="D" horiz-adv-x="1536" 
d="M184 0l252 1434h29q37 0 205 3t211 3q149 0 268 -30.5t199 -84.5t133.5 -130.5t77.5 -165.5t24 -193q0 -181 -61.5 -334t-178 -266t-295.5 -176.5t-403 -63.5q-45 0 -199 2t-227 2h-35zM846 1133q-85 0 -135 -7l-146 -819q43 -4 119 -4q245 0 395 134t150 360
q0 160 -94.5 248t-288.5 88z" />
    <glyph glyph-name="E" unicode="E" horiz-adv-x="1177" 
d="M184 0l252 1434h871l-54 -308h-542l-45 -252h481l-53 -307h-482l-47 -260h563l-53 -307h-891z" />
    <glyph glyph-name="F" unicode="F" horiz-adv-x="1122" 
d="M184 0l252 1434h867l-54 -308h-538l-54 -303h478l-56 -307h-477l-90 -516h-328z" />
    <glyph glyph-name="G" unicode="G" horiz-adv-x="1521" 
d="M893 510l53 307h613l-109 -639q-94 -97 -238 -150t-313 -53q-152 0 -278.5 45t-219.5 130t-144.5 214.5t-51.5 292.5q0 124 34.5 241t105.5 219t170.5 178t238 119.5t299.5 43.5q158 0 271.5 -42t205.5 -126l-187 -246q-135 107 -321 107q-110 0 -199 -39t-146 -106
t-87.5 -154.5t-30.5 -185.5q0 -172 91 -277.5t265 -105.5q77 0 145 19.5t109 51.5l29 156h-305z" />
    <glyph glyph-name="H" unicode="H" horiz-adv-x="1566" 
d="M1055 0l102 578h-543l-102 -578h-328l252 1434h328l-96 -549h542l97 549h327l-252 -1434h-327z" />
    <glyph glyph-name="I" unicode="I" horiz-adv-x="737" 
d="M205 0l252 1434h327l-252 -1434h-327z" />
    <glyph glyph-name="J" unicode="J" horiz-adv-x="835" 
d="M903 1434l-184 -1043q-35 -201 -145.5 -308.5t-313.5 -107.5q-87 0 -161.5 31.5t-98.5 69.5l152 250q20 -19 53.5 -31t64.5 -12q53 0 84 35.5t41 91.5l180 1024h328z" />
    <glyph glyph-name="K" unicode="K" horiz-adv-x="1402" 
d="M184 0l252 1434h328l-109 -625l566 625h397l-649 -707l417 -727h-368l-385 686l-121 -686h-328z" />
    <glyph glyph-name="L" unicode="L" horiz-adv-x="1146" 
d="M184 0l252 1434h328l-199 -1127h615l-54 -307h-942z" />
    <glyph glyph-name="M" unicode="M" horiz-adv-x="1826" 
d="M184 0l252 1434h312l311 -598l483 598h352l-252 -1434h-327l158 901l-476 -557h-47l-282 551l-156 -895h-328z" />
    <glyph glyph-name="N" unicode="N" horiz-adv-x="1628" 
d="M1444 0h-262l-535 887l-155 -887h-308l252 1434h262l535 -891l156 891h307z" />
    <glyph glyph-name="O" unicode="O" horiz-adv-x="1710" 
d="M205 645q0 173 60.5 323t169 258t266.5 170t346 62q207 0 368 -81t251.5 -233.5t90.5 -355.5q0 -130 -34.5 -250.5t-104.5 -222.5t-168.5 -178t-233.5 -119t-292 -43q-136 0 -252.5 34t-201.5 95.5t-145.5 145t-90 184t-29.5 211.5zM559 666q0 -168 102 -275.5
t275 -107.5q144 0 251.5 66t161.5 175t54 244q0 173 -102.5 278t-280.5 105q-92 0 -169.5 -28t-130.5 -75t-90 -109.5t-54 -131.5t-17 -141z" />
    <glyph glyph-name="P" unicode="P" horiz-adv-x="1288" 
d="M512 0h-328l252 1434q36 0 209 2t232 2q130 0 229.5 -34t157.5 -92t87 -129.5t29 -152.5q0 -118 -39 -217.5t-113 -173.5t-190 -116t-262 -42q-129 0 -178 6zM854 1130q-7 0 -143 -4l-58 -327q82 -11 148 -11q107 0 166 55.5t59 143.5q0 79 -44 111t-128 32z" />
    <glyph glyph-name="Q" unicode="Q" horiz-adv-x="1710" 
d="M205 645q0 173 60.5 323t169 258t266.5 170t346 62q207 0 368 -81t251.5 -233.5t90.5 -355.5q0 -159 -68.5 -313.5t-191.5 -271.5l135 -203h-381l-22 31q-147 -56 -305 -56q-136 0 -252.5 34t-201.5 95.5t-145.5 145t-90 184t-29.5 211.5zM559 666q0 -168 102 -275.5
t275 -107.5q60 0 115 12l-95 139l256 195l103 -154q88 127 88 293q0 173 -102.5 278t-280.5 105q-92 0 -169.5 -28t-130.5 -75t-90 -109.5t-54 -131.5t-17 -141z" />
    <glyph glyph-name="R" unicode="R" horiz-adv-x="1382" 
d="M512 0h-328l252 1434q45 0 236 2t207 2q130 0 231 -32.5t162 -89.5t92 -129.5t31 -156.5q0 -346 -334 -465l311 -565h-366l-261 502h-145zM864 1130q-17 0 -153 -4l-56 -317h156q104 0 166.5 47t62.5 131q0 68 -40 105.5t-136 37.5z" />
    <glyph glyph-name="S" unicode="S" horiz-adv-x="1101" 
d="M756 395q0 40 -26.5 76t-68.5 66t-92.5 61.5t-101.5 70.5t-93 84.5t-68.5 112.5t-26.5 146q0 90 36 171t101.5 142t166.5 97t224 36q140 0 244 -46t163 -122l-198 -225q-77 86 -219 86q-75 0 -119.5 -34t-44.5 -91q0 -41 26.5 -76.5t68.5 -64.5t93 -59t101.5 -67
t92.5 -81.5t68.5 -109.5t26.5 -144q0 -201 -141 -325t-381 -124q-166 0 -294.5 68t-170.5 184l211 207q91 -151 260 -151q71 0 116.5 28t45.5 84z" />
    <glyph glyph-name="T" unicode="T" 
d="M213 1126l53 308h1204l-53 -308h-438l-199 -1126h-327l198 1126h-438z" />
    <glyph glyph-name="U" unicode="U" horiz-adv-x="1531" 
d="M1622 1434l-147 -842q-13 -77 -31.5 -142t-47 -129.5t-66 -115.5t-89.5 -95t-115.5 -73t-147 -45.5t-181.5 -16.5q-141 0 -251 42.5t-181 126.5t-96 207.5t3 285.5l140 797h327l-133 -758q-69 -393 219 -393q51 0 94 11.5t74 30.5t56.5 49t42 59.5t30 71t21.5 75t16 77.5
l137 777h326z" />
    <glyph glyph-name="V" unicode="V" horiz-adv-x="1343" 
d="M1616 1434l-811 -1434h-252l-322 1434h334l191 -940l518 940h342z" />
    <glyph glyph-name="W" unicode="W" horiz-adv-x="2007" 
d="M2259 1434l-645 -1434h-314l-114 938l-449 -938h-313l-172 1434h323l95 -897l428 897h338l100 -897l389 897h334z" />
    <glyph glyph-name="X" unicode="X" horiz-adv-x="1398" 
d="M1624 1434l-596 -719l363 -715h-369l-229 475l-390 -475h-393l619 750l-344 684h366l215 -439l363 439h395z" />
    <glyph glyph-name="Y" unicode="Y" horiz-adv-x="1277" 
d="M1540 1434l-637 -850l-102 -584h-328l102 584l-333 850h344l192 -531l379 531h383z" />
    <glyph glyph-name="Z" unicode="Z" horiz-adv-x="1341" 
d="M322 1126l53 308h1116l-39 -230l-852 -897h713l-53 -307h-1178l41 229l848 897h-649z" />
    <glyph glyph-name="bracketleft" unicode="[" horiz-adv-x="798" 
d="M72 -410l307 1741h614l-51 -287h-307l-205 -1167h307l-51 -287h-614z" />
    <glyph glyph-name="backslash" unicode="\" horiz-adv-x="782" 
d="M317 1458l670 -1796l-237 -88l-668 1796z" />
    <glyph glyph-name="bracketright" unicode="]" horiz-adv-x="798" 
d="M891 1331l-307 -1741h-615l51 287h308l204 1167h-307l51 287h615z" />
    <glyph glyph-name="asciicircum" unicode="^" horiz-adv-x="1069" 
d="M197 922l389 528h213l385 -528h-332l-162 225l-162 -225h-331z" />
    <glyph glyph-name="underscore" unicode="_" horiz-adv-x="768" 
d="M0 -410v308h768v-308h-768z" />
    <glyph glyph-name="grave" unicode="`" horiz-adv-x="700" 
d="M395 1071l-272 295l244 182l211 -348z" />
    <glyph glyph-name="a" unicode="a" horiz-adv-x="1116" 
d="M987 0h-301l35 197q-57 -89 -146 -155.5t-194 -66.5q-130 0 -194 86t-64 228q0 189 81 338.5t228.5 234t335.5 84.5q102 0 209.5 -27t150.5 -57zM528 246q35 0 72.5 29.5t69.5 77t57 95t45 95.5l23 125q-39 8 -80 8q-121 0 -199 -87.5t-78 -215.5q0 -127 90 -127z" />
    <glyph glyph-name="b" unicode="b" horiz-adv-x="1136" 
d="M111 74l239 1360h307l-120 -689q148 201 337 201q62 0 110 -21t76 -53.5t46 -76t24.5 -83.5t6.5 -81q0 -143 -48.5 -266t-133 -208.5t-202 -133.5t-251.5 -48q-109 0 -218.5 30.5t-172.5 68.5zM723 676q-26 0 -53.5 -15t-53 -45t-45 -56t-42 -68.5t-31.5 -60.5t-25 -52
l-20 -107q44 -26 96 -26q123 0 197.5 91t74.5 212q0 53 -23.5 90t-74.5 37z" />
    <glyph glyph-name="c" unicode="c" horiz-adv-x="960" 
d="M805 330l129 -187q-65 -76 -171 -122t-237 -46q-191 0 -297 98.5t-106 284.5q0 89 24 173.5t73.5 160t119.5 132t168.5 89.5t212.5 33q181 0 276 -59l-100 -234q-70 23 -180 23q-132 0 -205.5 -81.5t-73.5 -201.5q0 -71 39.5 -109t112.5 -38q113 0 215 84z" />
    <glyph glyph-name="d" unicode="d" horiz-adv-x="1136" 
d="M698 0l33 197q-33 -46 -63.5 -79t-75.5 -69t-101.5 -55t-121.5 -19q-118 0 -182 83.5t-64 224.5q0 97 24.5 192.5t75 180t120.5 149.5t166.5 103t207.5 38q77 0 123 -14l88 502h307l-240 -1434h-297zM530 246q36 0 76 31.5t73.5 79t57.5 89.5t39 76l29 127
q-53 27 -113 27q-106 0 -180 -92t-74 -211q0 -127 92 -127z" />
    <glyph glyph-name="e" unicode="e" horiz-adv-x="1013" 
d="M840 307l123 -164q-168 -168 -414 -168q-205 0 -315.5 100t-110.5 287q0 114 41.5 219.5t114.5 186.5t183 129.5t238 48.5q342 0 342 -256q0 -85 -50 -152t-137 -110t-196.5 -67.5t-236.5 -30.5q24 -109 182 -109q121 0 236 86zM676 700q-86 0 -151 -55t-85 -133
q56 2 107.5 10.5t97 23t73 38.5t27.5 53t-19.5 46t-49.5 17z" />
    <glyph glyph-name="f" unicode="f" horiz-adv-x="735" 
d="M150 -4l188 1075q68 387 407 387q88 0 161.5 -28.5t103.5 -69.5l-140 -225q-36 36 -104 36q-103 0 -123 -118l-22 -131h192l-49 -287h-195l-114 -658q-68 -387 -414 -387q-81 0 -153.5 28t-104.5 69l139 227q40 -37 105 -37q104 0 123 119z" />
    <glyph glyph-name="g" unicode="g" horiz-adv-x="1050" 
d="M-49 -152q0 72 28.5 129t80 95t115 62.5t142.5 37.5q-4 20 -4 35q0 40 29 76q-87 37 -134.5 108t-47.5 164q0 167 121.5 279t328.5 112q172 0 267 -74l290 70l-32 -235l-144 -37q0 -4 1 -17.5t1 -17.5q0 -161 -123 -272t-333 -117q-9 -18 -9 -37q0 -15 2 -21
q192 -6 310 -77t118 -197q0 -90 -42.5 -157t-119 -106.5t-174 -58t-216.5 -18.5q-135 0 -234 26.5t-160 89.5t-61 158zM231 -123q0 -67 209 -67q109 0 173.5 18.5t64.5 56.5q0 34 -56.5 52t-158.5 18q-112 0 -172 -20.5t-60 -57.5zM440 578q0 -43 33.5 -70t89.5 -27
q64 0 107 34t43 95q0 45 -31 73t-90 28q-70 0 -111 -37.5t-41 -95.5z" />
    <glyph glyph-name="h" unicode="h" horiz-adv-x="1134" 
d="M111 0l251 1434h308l-123 -691q62 92 147.5 147.5t182.5 55.5q239 0 239 -264q0 -55 -14 -141l-96 -541h-308l88 502q7 40 7 63q0 94 -68 94q-34 0 -69 -26.5t-68.5 -76t-54.5 -87t-48 -90.5l-67 -379h-307z" />
    <glyph glyph-name="i" unicode="i" horiz-adv-x="602" 
d="M129 0l162 922h307l-162 -922h-307zM319 1280q0 79 52.5 126.5t130.5 47.5q71 0 126.5 -48t55.5 -126q0 -86 -55 -136t-127 -50q-79 0 -131 49.5t-52 136.5z" />
    <glyph glyph-name="j" unicode="j" horiz-adv-x="602" 
d="M598 922l-174 -990q-12 -71 -38.5 -131.5t-71 -113.5t-114.5 -83t-159 -30q-162 0 -252 74l123 239q41 -26 100 -26q91 0 109 100l170 961h307zM319 1280q0 79 52.5 126.5t130.5 47.5q71 0 126.5 -48t55.5 -126q0 -86 -55 -136t-127 -50q-79 0 -131 49.5t-52 136.5z" />
    <glyph glyph-name="k" unicode="k" horiz-adv-x="1091" 
d="M111 0l251 1434h308l-158 -902l313 390h371l-371 -445l262 -477h-346l-245 446l-78 -446h-307z" />
    <glyph glyph-name="l" unicode="l" horiz-adv-x="659" 
d="M150 315l196 1119h307l-186 -1053q-9 -55 9 -87t63 -32q41 0 84 19l32 -238q-36 -28 -105.5 -48t-135.5 -20q-150 0 -220.5 86.5t-43.5 253.5z" />
    <glyph glyph-name="m" unicode="m" horiz-adv-x="1609" 
d="M1581 602l-106 -602h-308l93 520q6 30 6 70q0 72 -45 72q-31 0 -59.5 -23t-53 -63.5t-44 -81t-41.5 -90.5q-3 -7 -4.5 -11t-4 -9.5t-4.5 -10.5l-64 -373h-307l92 522q4 24 4 64q0 76 -39 76q-16 0 -33 -10t-34 -30t-32 -41t-33 -51.5t-29.5 -52.5t-28 -53.5t-23.5 -44.5
l-65 -379h-307l161 922h308l-31 -174q49 80 132.5 140t186.5 60q92 0 134 -53t42 -129v-51q23 43 52 80t70.5 73.5t98 58t119.5 21.5q110 0 158.5 -55.5t48.5 -147.5q0 -85 -10 -143z" />
    <glyph glyph-name="n" unicode="n" horiz-adv-x="1130" 
d="M485 379l-67 -379h-307l161 922h308l-33 -179q158 203 356 203q105 0 157 -65t52 -160q0 -98 -14 -180l-97 -541h-307l88 502q6 38 6 80q0 77 -61 77q-34 0 -69.5 -27t-69 -75.5t-55.5 -87t-48 -90.5z" />
    <glyph glyph-name="o" unicode="o" horiz-adv-x="1112" 
d="M123 365q0 123 37 227.5t108 184t183.5 124.5t255.5 45q102 0 181.5 -32t127 -87.5t72 -124t24.5 -145.5q0 -125 -36.5 -230.5t-106.5 -184t-179.5 -123t-246.5 -44.5q-203 0 -311.5 110t-108.5 280zM438 426q0 -79 40 -129.5t116 -50.5q94 0 148.5 71.5t54.5 178.5
q0 75 -38 127.5t-116 52.5q-98 0 -151.5 -74.5t-53.5 -175.5z" />
    <glyph glyph-name="p" unicode="p" horiz-adv-x="1138" 
d="M414 -10l-72 -400h-307l235 1332h308l-35 -187q157 211 356 211q55 0 98.5 -21t69.5 -53.5t43 -76t23 -83.5t6 -81q0 -126 -41.5 -243.5t-117.5 -209.5t-193.5 -147.5t-258.5 -55.5q-56 0 -114 15zM733 676q-26 0 -53.5 -15t-53 -45t-45 -56t-42 -68.5t-31.5 -60.5
t-25 -52l-20 -107q44 -26 96 -26q116 0 190 89t74 214q0 53 -22 90t-68 37z" />
    <glyph glyph-name="q" unicode="q" horiz-adv-x="1134" 
d="M621 -410l110 607q-40 -49 -68 -79.5t-74 -68t-99.5 -56t-114.5 -18.5q-120 0 -186 87t-66 241q0 119 41.5 232t117 205.5t195.5 149t264 56.5q111 0 224 -33.5t182 -81.5l-219 -1241h-307zM537 246q47 0 102 56t89.5 113.5t55.5 106.5l27 127q-53 27 -119 27
q-73 0 -133 -49.5t-90.5 -118t-30.5 -135.5q0 -127 99 -127z" />
    <glyph glyph-name="r" unicode="r" horiz-adv-x="776" 
d="M111 0l161 922h308l-29 -148q31 39 51 61t54.5 52t72.5 44.5t80 14.5q56 0 111 -35l-152 -272q-29 20 -72 20q-97 0 -204 -243l-74 -416h-307z" />
    <glyph glyph-name="s" unicode="s" horiz-adv-x="817" 
d="M487 285q0 22 -23.5 44.5t-58.5 41t-76.5 45t-76.5 56t-58.5 76t-23.5 101.5q0 132 106.5 214.5t278.5 82.5q193 0 322 -72l-134 -221q-27 17 -70.5 27t-80.5 10q-44 0 -77.5 -12t-33.5 -37q0 -22 33 -46t79.5 -51t93 -61t79.5 -89.5t33 -123.5q0 -98 -57 -166
t-148 -98.5t-207 -30.5q-100 0 -192 28t-142 81l135 199q84 -52 185 -52q114 0 114 54z" />
    <glyph glyph-name="t" unicode="t" horiz-adv-x="751" 
d="M150 350l153 828h303l-45 -256h256l-49 -287h-256l-51 -270q-8 -45 6 -74t53 -29q58 0 121 47l76 -239q-49 -39 -130.5 -67t-166.5 -28q-167 0 -233 101.5t-37 273.5z" />
    <glyph glyph-name="u" unicode="u" horiz-adv-x="1103" 
d="M1116 922l-164 -922h-307l33 176q-31 -41 -60.5 -71.5t-71 -62.5t-94 -49.5t-110.5 -17.5q-60 0 -102.5 20t-65.5 55.5t-33 76t-10 90.5q0 55 12 125l123 580h307l-106 -514q-1 -5 -3.5 -19t-4.5 -28.5t-2 -26.5q0 -72 51 -72q55 0 121 84.5t108 177.5l72 398h307z" />
    <glyph glyph-name="v" unicode="v" horiz-adv-x="927" 
d="M686 922h324q-31 -268 -171 -530.5t-302 -399.5h-228q-80 514 -198 930h344q55 -206 69 -504q136 212 162 504z" />
    <glyph glyph-name="w" unicode="w" horiz-adv-x="1445" 
d="M1190 922h321q-25 -262 -135.5 -510t-281.5 -420h-248q-5 167 -37 399q-105 -241 -266 -399h-248q-70 508 -184 930h342q77 -324 90 -539q49 84 78 175t55 216l-41 148h342q66 -257 72 -541q122 215 141 541z" />
    <glyph glyph-name="x" unicode="x" horiz-adv-x="1013" 
d="M1143 922l-346 -447l204 -475h-344l-108 279l-191 -279h-374l362 475l-190 447h346l94 -252l172 252h375z" />
    <glyph glyph-name="y" unicode="y" horiz-adv-x="956" 
d="M696 922h322q-33 -196 -89 -386t-134 -361.5t-169 -301.5t-201 -206.5t-222 -76.5q-136 0 -232 86l140 232q46 -33 96 -33q97 0 147 88l21 37q-93 412 -297 922h354q98 -261 152 -537q29 85 50.5 180.5t32 161t29.5 195.5z" />
    <glyph glyph-name="z" unicode="z" horiz-adv-x="978" 
d="M184 635l49 287h820l-39 -226l-461 -409h379l-51 -287h-840l39 225l459 410h-355z" />
    <glyph glyph-name="braceleft" unicode="{" horiz-adv-x="811" 
d="M229 -43l31 170q16 94 -19 149t-130 52l47 266q180 0 223 225l31 174q31 175 134.5 256.5t309.5 81.5h150l-52 -287h-80q-83 0 -120 -32t-54 -127l-32 -189q-17 -97 -61.5 -157t-133.5 -76q42 -6 69.5 -30.5t37 -57.5t11.5 -71.5t-7 -74.5l-33 -188q-15 -91 10 -127.5
t107 -36.5h80l-50 -287h-172q-185 0 -258.5 88.5t-38.5 278.5z" />
    <glyph glyph-name="bar" unicode="|" horiz-adv-x="716" 
d="M342 0v1434h307v-1434h-307z" />
    <glyph glyph-name="braceright" unicode="}" horiz-adv-x="808" 
d="M596 119l-37 -207q-30 -167 -135.5 -244.5t-290.5 -77.5h-164l51 287h80q89 0 124.5 37t49.5 127l33 188q16 94 64.5 156t130.5 76q-51 7 -80.5 42t-34.5 85t2 108l33 189q14 82 -9 120.5t-96 38.5h-92l51 287h144q212 0 285.5 -86t37.5 -284l-24 -142
q-20 -109 11.5 -167t131.5 -58l-45 -266q-91 3 -148 -55.5t-73 -153.5z" />
    <glyph glyph-name="asciitilde" unicode="~" 
d="M328 551l-131 197q67 82 153 133t168 51q56 0 123 -21t119.5 -46.5t118 -46.5t118.5 -21q45 0 94.5 28t79.5 64l119 -211q-66 -63 -144.5 -105.5t-150.5 -42.5q-55 0 -121 21t-117 47t-112 47t-106 21q-96 0 -211 -115z" />
    <glyph glyph-name="uni00A0" unicode="&#xa0;" horiz-adv-x="409" 
 />
    <glyph glyph-name="exclamdown" unicode="&#xa1;" horiz-adv-x="634" 
d="M553 397l-158 -897h-327l157 897h328zM637 758q0 -66 -54 -119t-141 -53q-77 0 -131.5 54t-54.5 118q0 76 54.5 132t135.5 56q86 0 138.5 -55.5t52.5 -132.5z" />
    <glyph glyph-name="cent" unicode="&#xa2;" 
d="M1016 356l104 -225q-100 -109 -276 -141l-41 -236h-307l49 256q-119 37 -190.5 146t-71.5 237q0 210 116 359.5t303 183.5l39 223h308l-39 -227q124 -25 202 -123l-178 -236q-72 86 -188 86q-112 0 -171 -66.5t-59 -160.5q0 -78 48 -124t124 -46q73 0 123.5 22.5
t104.5 71.5z" />
    <glyph glyph-name="sterling" unicode="&#xa3;" 
d="M252 522l43 246h164q-2 5 -12.5 34.5t-14 39.5t-11.5 36t-11 42t-6 39.5t-3 44.5q0 200 144 323t375 123q277 0 413 -178l-200 -232q-54 55 -102.5 79t-117.5 24q-71 0 -118 -36t-47 -101q0 -45 32.5 -122.5t40.5 -115.5h281l-43 -246h-283q-49 -77 -129 -147
q25 -8 71 -24.5t74.5 -26t68.5 -17.5t75 -8q72 0 123.5 21.5t107.5 66.5l93 -240q-171 -155 -363 -155q-75 0 -158.5 26.5t-163.5 53t-145 26.5q-98 0 -227 -112l-78 245q109 115 240 154q79 82 102 137h-215z" />
    <glyph glyph-name="currency" unicode="&#xa4;" 
d="M250 696q0 128 59 234l-145 147l188 189l150 -152q96 47 227 47q123 0 225 -47l152 150l188 -189l-145 -145q59 -106 59 -234q0 -123 -57 -231l143 -141l-188 -189l-148 146q-106 -50 -229 -50q-127 0 -229 50l-148 -148l-188 189l143 143q-57 102 -57 231zM537 696
q0 -87 51.5 -142.5t140.5 -55.5q95 0 144 54.5t49 143.5q0 95 -51 147t-142 52q-88 0 -140 -53t-52 -146z" />
    <glyph glyph-name="yen" unicode="&#xa5;" 
d="M238 584l43 245h190l-207 605h348l150 -543l346 543h373l-424 -605h194l-43 -245h-323l-23 -123h324l-43 -246h-324l-39 -215h-327l39 215h-320l43 246h320l22 123h-319z" />
    <glyph glyph-name="brokenbar" unicode="&#xa6;" horiz-adv-x="716" 
d="M649 901h-307v533h307v-533zM342 532h307v-532h-307v532z" />
    <glyph glyph-name="section" unicode="&#xa7;" horiz-adv-x="1073" 
d="M201 469q0 144 79 254.5t232 153.5q-100 87 -100 219q0 144 104.5 241t292.5 97q212 0 305 -162l-190 -197q-59 72 -121 72q-44 0 -67 -26.5t-23 -65.5q0 -99 88 -166q136 -30 209 -123.5t73 -230.5q0 -138 -81.5 -246t-231.5 -146q96 -87 96 -217q0 -67 -25 -127
t-73 -107t-127 -74.5t-178 -27.5q-206 0 -299 162l190 197q51 -72 119 -72q46 0 69 26t23 72q0 91 -82 154q-132 27 -207 119.5t-75 220.5zM512 496q0 -45 28.5 -75t80.5 -30q66 0 107.5 40.5t41.5 98.5q0 47 -29 74t-86 27q-64 0 -103.5 -39.5t-39.5 -95.5z" />
    <glyph glyph-name="dieresis" unicode="&#xa8;" horiz-adv-x="964" 
d="M532 1229q0 60 44 106.5t112 46.5q67 0 110.5 -42t43.5 -107q0 -68 -43 -115t-113 -47q-71 0 -112.5 44t-41.5 114zM123 1229q0 60 44 106.5t112 46.5q67 0 110 -42t43 -107q0 -68 -43 -115t-113 -47q-71 0 -112 44t-41 114z" />
    <glyph glyph-name="copyright" unicode="&#xa9;" horiz-adv-x="2084" 
d="M225 453q0 187 70 353.5t189.5 286t286 189.5t353.5 70t353.5 -70t286 -189.5t189.5 -286t70 -353.5t-70 -353.5t-189.5 -286t-286 -189.5t-353.5 -70t-353.5 70t-286 189.5t-189.5 286t-70 353.5zM492 451q0 -172 81 -316t227 -229.5t326 -85.5q177 0 322.5 85.5
t227 230t81.5 315.5q0 173 -81.5 318.5t-227 230.5t-322.5 85q-135 0 -253.5 -50t-201.5 -135.5t-131 -202t-48 -246.5zM1372 365l144 -226q-58 -79 -157 -121.5t-220 -42.5q-230 0 -368 133.5t-138 352.5q0 205 136.5 345t350.5 140q252 0 377 -131l-141 -242
q-86 86 -197 86q-79 0 -138.5 -53t-59.5 -145q0 -89 62 -144t140 -55q113 0 209 103z" />
    <glyph glyph-name="ordfeminine" unicode="&#xaa;" horiz-adv-x="952" 
d="M455 1090l-78 188q137 70 325 70q91 0 158.5 -26t103 -70.5t48 -98.5t2.5 -113l-80 -446h-266l14 78q-96 -90 -233 -90q-96 0 -162 62.5t-66 154.5q0 125 86.5 197.5t249.5 72.5q103 0 184 -35l2 10q7 37 -26.5 57.5t-87.5 20.5q-108 0 -174 -32zM592 805q49 0 119 31
l4 30q-67 19 -111 19q-88 0 -88 -41q0 -39 76 -39z" />
    <glyph glyph-name="guillemotleft" unicode="&#xab;" horiz-adv-x="1232" 
d="M969 27l-326 481l2 8l504 481l174 -186l-342 -322l205 -303zM477 27l-325 481l2 8l503 481l174 -186l-342 -322l205 -303z" />
    <glyph glyph-name="logicalnot" unicode="&#xac;" 
d="M184 604v266h1053v-534h-266v268h-787z" />
    <glyph glyph-name="uni00AD" unicode="&#xad;" horiz-adv-x="843" 
d="M231 420l50 287h540l-49 -287h-541z" />
    <glyph glyph-name="registered" unicode="&#xae;" horiz-adv-x="1449" 
d="M256 1020q0 174 85.5 320.5t234.5 232.5t327 86q130 0 248 -50.5t204 -136.5t136.5 -204t50.5 -248q0 -178 -86 -327.5t-233 -235.5t-320 -86q-133 0 -253 51t-206.5 137.5t-137 206.5t-50.5 254zM502 1016q0 -164 116.5 -281t280.5 -117t280.5 117t116.5 281
t-116.5 280.5t-280.5 116.5t-280.5 -116.5t-116.5 -280.5zM852 737h-205v574h279q122 0 183.5 -53t61.5 -148q0 -60 -28 -105.5t-66 -64.5l88 -203h-233l-47 156h-33v-156zM895 1167h-43v-131h39q76 0 76 70q0 61 -72 61z" />
    <glyph glyph-name="macron" unicode="&#xaf;" horiz-adv-x="847" 
d="M100 1106l43 246h602l-43 -246h-602z" />
    <glyph glyph-name="degree" unicode="&#xb0;" horiz-adv-x="901" 
d="M231 1163q0 159 107 266t258 107q157 0 265 -100t108 -258q0 -157 -109.5 -268t-263.5 -111q-151 0 -258 104.5t-107 259.5zM498 1167q0 -41 30.5 -71.5t71.5 -30.5t71.5 30.5t30.5 71.5t-30.5 72t-71.5 31t-71.5 -31t-30.5 -72z" />
    <glyph glyph-name="plusminus" unicode="&#xb1;" 
d="M258 809v266h340v350h287v-350h344v-266h-344v-170h-287v170h-340zM258 297v266h971v-266h-971z" />
    <glyph glyph-name="twosuperior" unicode="&#xb2;" horiz-adv-x="770" 
d="M178 717l35 192q224 113 289 155q108 69 108 114q0 39 -45 39q-65 0 -94 -89l-219 86q80 228 358 228q130 0 212.5 -56.5t82.5 -154.5q0 -37 -13.5 -70.5t-33 -58.5t-51.5 -48.5t-59 -38.5t-66.5 -31t-63 -24t-57.5 -18h324l-39 -225h-668z" />
    <glyph glyph-name="threesuperior" unicode="&#xb3;" horiz-adv-x="761" 
d="M494 702q-227 0 -318 150l162 147q64 -81 158 -81q86 0 86 36q0 31 -86 31h-56l31 184h51q82 0 82 39q0 10 -14 17.5t-41 7.5q-97 0 -176 -66l-107 156q122 125 350 125q135 0 211 -46t76 -130q0 -71 -53 -116.5t-143 -57.5v-2q71 -5 116 -42t45 -100q0 -84 -53.5 -142.5
t-135.5 -84t-185 -25.5z" />
    <glyph glyph-name="acute" unicode="&#xb4;" horiz-adv-x="700" 
d="M578 1378l-273 -307l-182 129l215 361z" />
    <glyph glyph-name="mu" unicode="&#xb5;" horiz-adv-x="1105" 
d="M1157 922l-164 -922h-307l14 80q-87 -105 -215 -105q-37 0 -65 19l-72 -404h-307l235 1332h306l-90 -514q-10 -62 11 -104t83 -42q81 0 162 84l102 576h307z" />
    <glyph glyph-name="mu" unicode="&#x3bc;" horiz-adv-x="1105" 
d="M1157 922l-164 -922h-307l14 80q-87 -105 -215 -105q-37 0 -65 19l-72 -404h-307l235 1332h306l-90 -514q-10 -62 11 -104t83 -42q81 0 162 84l102 576h307z" />
    <glyph glyph-name="paragraph" unicode="&#xb6;" horiz-adv-x="1067" 
d="M221 985q0 136 63.5 239.5t169 156.5t236.5 53h496v-287h-193v-1090q0 -242 -111 -362.5t-317 -120.5q-87 0 -171.5 34.5t-129.5 82.5l121 221q67 -51 158 -51q143 0 143 209v469q-119 1 -223.5 52.5t-173 155t-68.5 238.5z" />
    <glyph glyph-name="periodcentered" unicode="&#xb7;" horiz-adv-x="409" 
d="M111 627q0 75 57 133.5t151 58.5q88 0 145.5 -58t57.5 -134q0 -86 -57.5 -147.5t-149.5 -61.5q-97 0 -150.5 60.5t-53.5 148.5z" />
    <glyph glyph-name="cedilla" unicode="&#xb8;" horiz-adv-x="827" 
d="M66 -330l114 142q62 -58 129 -58q51 0 51 33q0 29 -45 29h-12l31 184h153l-8 -53q89 -4 139 -45.5t50 -110.5q0 -99 -86.5 -160t-237.5 -61q-64 0 -113 9t-81.5 27t-48.5 31t-35 33z" />
    <glyph glyph-name="onesuperior" unicode="&#xb9;" horiz-adv-x="583" 
d="M244 1266l276 164h193l-125 -713h-266l71 409l-86 -41z" />
    <glyph glyph-name="ordmasculine" unicode="&#xba;" horiz-adv-x="1069" 
d="M283 961q0 157 116 272t297 115q197 0 309.5 -105t112.5 -268q0 -70 -28 -138.5t-79.5 -126t-133.5 -93t-181 -35.5q-191 0 -302 106t-111 273zM559 965q0 -60 37 -97t104 -37q61 0 101.5 39t40.5 95q0 57 -36 95t-106 38q-64 0 -102.5 -39.5t-38.5 -93.5z" />
    <glyph glyph-name="guillemotright" unicode="&#xbb;" horiz-adv-x="1232" 
d="M930 995l332 -477l-2 -8l-498 -487l-176 184l338 325l-209 302zM438 995l332 -477l-2 -8l-498 -487l-176 184l338 325l-209 302z" />
    <glyph glyph-name="onequarter" unicode="&#xbc;" horiz-adv-x="1480" 
d="M244 1266l276 164h193l-125 -713h-266l71 409l-86 -41zM209 96l1018 1362l172 -129l-1014 -1354zM1087 0l23 125h-391l31 178l362 414h252l-342 -387h125l22 131h246l-22 -131h106l-37 -205h-106l-23 -125h-246z" />
    <glyph glyph-name="onehalf" unicode="&#xbd;" horiz-adv-x="1523" 
d="M244 1266l276 164h193l-125 -713h-266l71 409l-86 -41zM207 96l1018 1362l172 -129l-1014 -1354zM805 0l35 193q221 112 283 150q114 72 114 118q0 39 -45 39q-65 0 -94 -88l-219 86q80 227 358 227q130 0 212.5 -56.5t82.5 -154.5q0 -37 -13.5 -70.5t-33 -58.5
t-51.5 -48.5t-59 -38.5t-66.5 -31t-63 -24t-57.5 -18h323l-38 -225h-668z" />
    <glyph glyph-name="threequarters" unicode="&#xbe;" horiz-adv-x="1624" 
d="M514 702q-226 0 -317 150l161 147q64 -81 158 -81q86 0 86 36q0 31 -86 31h-55l31 184h51q82 0 82 39q0 10 -14.5 17.5t-41.5 7.5q-97 0 -176 -66l-106 156q122 125 350 125q135 0 211 -46t76 -130q0 -70 -53.5 -116t-143.5 -58v-2q72 -5 117 -42t45 -100
q0 -64 -30.5 -113.5t-83.5 -79t-119 -44.5t-142 -15zM371 96l1018 1362l172 -129l-1014 -1354zM1231 0l22 125h-391l31 178l362 414h252l-342 -387h125l23 131h246l-23 -131h106l-36 -205h-107l-22 -125h-246z" />
    <glyph glyph-name="questiondown" unicode="&#xbf;" horiz-adv-x="985" 
d="M414 -106q0 -45 35.5 -78t95.5 -33q71 0 121 27.5t98 83.5l186 -203q-84 -105 -195.5 -160t-267.5 -55q-195 0 -307 97t-112 243q0 86 25 156.5t64.5 117t88 85.5t97.5 70t89.5 61t67 68.5t28.5 84.5h285q-3 -73 -26.5 -131t-59 -95.5t-77.5 -68.5t-83.5 -57.5
t-75.5 -54.5t-55.5 -68t-21.5 -90zM907 758q0 -66 -53.5 -119t-140.5 -53q-77 0 -132 54t-55 118q0 75 55 131.5t136 56.5q86 0 138 -55.5t52 -132.5z" />
    <glyph glyph-name="Agrave" unicode="&#xc0;" horiz-adv-x="1443" 
d="M0 0l827 1434h289l328 -1434h-330l-67 301h-525l-168 -301h-354zM899 1014l-205 -406h283zM1145 1491l-510 160l115 264l479 -242z" />
    <glyph glyph-name="Aacute" unicode="&#xc1;" horiz-adv-x="1443" 
d="M0 0l827 1434h289l328 -1434h-330l-67 301h-525l-168 -301h-354zM899 1014l-205 -406h283zM1317 1651l-510 -160l-84 182l479 242z" />
    <glyph glyph-name="Acircumflex" unicode="&#xc2;" horiz-adv-x="1443" 
d="M0 0l827 1434h289l328 -1434h-330l-67 301h-525l-168 -301h-354zM899 1014l-205 -406h283zM1042 1915l332 -244l-147 -170l-223 158l-302 -158l-84 182l416 232h8z" />
    <glyph glyph-name="Atilde" unicode="&#xc3;" horiz-adv-x="1443" 
d="M0 0l827 1434h289l328 -1434h-330l-67 301h-525l-168 -301h-354zM899 1014l-205 -406h283zM719 1528l-94 192q46 57 116.5 93t139.5 36q63 0 142.5 -30.5t133.5 -30.5q103 0 160 61l78 -192q-84 -135 -258 -135q-49 0 -136 30.5t-147 30.5q-69 0 -135 -55z" />
    <glyph glyph-name="Adieresis" unicode="&#xc4;" horiz-adv-x="1443" 
d="M0 0l827 1434h289l328 -1434h-330l-67 301h-525l-168 -301h-354zM899 1014l-205 -406h283zM1083 1700q0 68 53 110.5t126 42.5q78 0 128 -42t50 -109q0 -66 -46.5 -113t-131.5 -47q-82 0 -130.5 43.5t-48.5 114.5zM580 1700q0 68 52.5 110.5t125.5 42.5q78 0 128 -42
t50 -109q0 -66 -46.5 -113t-131.5 -47q-82 0 -130 43.5t-48 114.5z" />
    <glyph glyph-name="Aring" unicode="&#xc5;" horiz-adv-x="1443" 
d="M664 1657q0 121 88.5 181t228.5 60q146 0 237 -60t91 -181q0 -88 -51.5 -147t-139.5 -85l326 -1425h-330l-67 301h-525l-168 -301h-354l827 1434q-76 27 -119.5 84t-43.5 139zM899 1014l-205 -406h283zM889 1657q0 -41 26.5 -62.5t69.5 -21.5t70.5 21.5t27.5 62.5
q0 39 -27 58.5t-71 19.5t-70 -19.5t-26 -58.5z" />
    <glyph glyph-name="AE" unicode="&#xc6;" horiz-adv-x="2019" 
d="M2148 1434l-53 -308h-543l-45 -252h482l-54 -307h-481l-47 -260h563l-53 -307h-891l53 301h-401l-260 -301h-418l1282 1434h866zM1180 872l-224 -264h177z" />
    <glyph glyph-name="Ccedilla" unicode="&#xc7;" horiz-adv-x="1372" 
d="M586 -344l110 151q66 -53 146 -53q49 0 49 33q0 29 -45 29h-12l28 164q-141 9 -260 57.5t-208 131t-139 206.5t-50 276q0 118 30 231t98 218.5t166.5 184t246.5 126t327 47.5q140 0 264 -36.5t191 -100.5l-168 -250q-119 80 -316 80q-116 0 -210 -39t-153 -105
t-90.5 -150.5t-31.5 -178.5q0 -186 102 -290.5t289 -104.5q186 0 326 104l127 -252q-66 -61 -168 -102t-219 -53l-6 -33q100 -4 154.5 -45.5t54.5 -112.5q0 -100 -89 -159.5t-245 -59.5q-99 0 -168.5 19.5t-130.5 66.5z" />
    <glyph glyph-name="Egrave" unicode="&#xc8;" horiz-adv-x="1177" 
d="M184 0l252 1434h871l-54 -308h-542l-45 -252h481l-53 -307h-482l-47 -260h563l-53 -307h-891zM1128 1491l-510 160l115 264l479 -242z" />
    <glyph glyph-name="Eacute" unicode="&#xc9;" horiz-adv-x="1177" 
d="M184 0l252 1434h871l-54 -308h-542l-45 -252h481l-53 -307h-482l-47 -260h563l-53 -307h-891zM1219 1651l-510 -160l-84 182l479 242z" />
    <glyph glyph-name="Ecircumflex" unicode="&#xca;" horiz-adv-x="1177" 
d="M184 0l252 1434h871l-54 -308h-542l-45 -252h481l-53 -307h-482l-47 -260h563l-53 -307h-891zM944 1915l332 -244l-148 -170l-223 158l-301 -158l-84 182l416 232h8z" />
    <glyph glyph-name="Edieresis" unicode="&#xcb;" horiz-adv-x="1177" 
d="M184 0l252 1434h871l-54 -308h-542l-45 -252h481l-53 -307h-482l-47 -260h563l-53 -307h-891zM987 1700q0 68 52.5 110.5t125.5 42.5q78 0 128 -42t50 -109q0 -66 -46.5 -113t-131.5 -47q-82 0 -130 43.5t-48 114.5zM483 1700q0 68 53 110.5t126 42.5q78 0 128 -42
t50 -109q0 -66 -46.5 -113t-131.5 -47q-82 0 -130.5 43.5t-48.5 114.5z" />
    <glyph glyph-name="Igrave" unicode="&#xcc;" horiz-adv-x="737" 
d="M205 0l252 1434h327l-252 -1434h-327zM838 1491l-510 160l114 264l480 -242z" />
    <glyph glyph-name="Iacute" unicode="&#xcd;" horiz-adv-x="737" 
d="M205 0l252 1434h327l-252 -1434h-327zM961 1651l-510 -160l-84 182l479 242z" />
    <glyph glyph-name="Icircumflex" unicode="&#xce;" horiz-adv-x="737" 
d="M205 0l252 1434h327l-252 -1434h-327zM696 1915l332 -244l-147 -170l-224 158l-301 -158l-84 182l416 232h8z" />
    <glyph glyph-name="Idieresis" unicode="&#xcf;" horiz-adv-x="737" 
d="M205 0l252 1434h327l-252 -1434h-327zM285 1700q0 68 52.5 110.5t125.5 42.5q78 0 128 -42t50 -109q0 -66 -46.5 -113t-131.5 -47q-82 0 -130 43.5t-48 114.5zM686 1700q0 68 52.5 110.5t125.5 42.5q78 0 128 -42t50 -109q0 -66 -46.5 -113t-131.5 -47q-82 0 -130 43.5
t-48 114.5z" />
    <glyph glyph-name="Eth" unicode="&#xd0;" horiz-adv-x="1536" 
d="M121 569l51 287h164l100 578h29q36 0 206.5 3t219.5 3q145 0 262 -30.5t196.5 -84t132.5 -129.5t77 -164t24 -190q0 -118 -25 -224.5t-74.5 -201.5t-129 -171.5t-184 -132.5t-244.5 -86t-305 -30q-30 0 -178 2t-224 2h-35l101 569h-164zM831 1133q-72 0 -120 -7l-47 -270
h335l-51 -287h-336l-47 -262q43 -4 119 -4q244 0 394.5 132.5t150.5 352.5q0 171 -94.5 258t-303.5 87z" />
    <glyph glyph-name="Ntilde" unicode="&#xd1;" horiz-adv-x="1628" 
d="M1444 0h-262l-535 887l-155 -887h-308l252 1434h262l535 -891l156 891h307zM817 1528l-94 192q46 57 116.5 93t139.5 36q63 0 142.5 -30.5t133.5 -30.5q103 0 160 61l78 -192q-84 -135 -258 -135q-49 0 -136 30.5t-147 30.5q-69 0 -135 -55z" />
    <glyph glyph-name="Ograve" unicode="&#xd2;" horiz-adv-x="1710" 
d="M205 645q0 173 60.5 323t169 258t266.5 170t346 62q207 0 368 -81t251.5 -233.5t90.5 -355.5q0 -130 -34.5 -250.5t-104.5 -222.5t-168.5 -178t-233.5 -119t-292 -43q-136 0 -252.5 34t-201.5 95.5t-145.5 145t-90 184t-29.5 211.5zM559 666q0 -168 102 -275.5
t275 -107.5q144 0 251.5 66t161.5 175t54 244q0 173 -102.5 278t-280.5 105q-92 0 -169.5 -28t-130.5 -75t-90 -109.5t-54 -131.5t-17 -141zM1323 1491l-510 160l115 264l479 -242z" />
    <glyph glyph-name="Oacute" unicode="&#xd3;" horiz-adv-x="1710" 
d="M205 645q0 173 60.5 323t169 258t266.5 170t346 62q207 0 368 -81t251.5 -233.5t90.5 -355.5q0 -130 -34.5 -250.5t-104.5 -222.5t-168.5 -178t-233.5 -119t-292 -43q-136 0 -252.5 34t-201.5 95.5t-145.5 145t-90 184t-29.5 211.5zM559 666q0 -168 102 -275.5
t275 -107.5q144 0 251.5 66t161.5 175t54 244q0 173 -102.5 278t-280.5 105q-92 0 -169.5 -28t-130.5 -75t-90 -109.5t-54 -131.5t-17 -141zM1450 1651l-510 -160l-84 182l479 242z" />
    <glyph glyph-name="Ocircumflex" unicode="&#xd4;" horiz-adv-x="1710" 
d="M205 645q0 173 60.5 323t169 258t266.5 170t346 62q207 0 368 -81t251.5 -233.5t90.5 -355.5q0 -130 -34.5 -250.5t-104.5 -222.5t-168.5 -178t-233.5 -119t-292 -43q-136 0 -252.5 34t-201.5 95.5t-145.5 145t-90 184t-29.5 211.5zM559 666q0 -168 102 -275.5
t275 -107.5q144 0 251.5 66t161.5 175t54 244q0 173 -102.5 278t-280.5 105q-92 0 -169.5 -28t-130.5 -75t-90 -109.5t-54 -131.5t-17 -141zM1184 1915l332 -244l-148 -170l-223 158l-301 -158l-84 182l416 232h8z" />
    <glyph glyph-name="Otilde" unicode="&#xd5;" horiz-adv-x="1710" 
d="M205 645q0 173 60.5 323t169 258t266.5 170t346 62q207 0 368 -81t251.5 -233.5t90.5 -355.5q0 -130 -34.5 -250.5t-104.5 -222.5t-168.5 -178t-233.5 -119t-292 -43q-136 0 -252.5 34t-201.5 95.5t-145.5 145t-90 184t-29.5 211.5zM559 666q0 -168 102 -275.5
t275 -107.5q144 0 251.5 66t161.5 175t54 244q0 173 -102.5 278t-280.5 105q-92 0 -169.5 -28t-130.5 -75t-90 -109.5t-54 -131.5t-17 -141zM858 1528l-94 192q46 57 116.5 93t139.5 36q63 0 142.5 -30.5t133.5 -30.5q103 0 160 61l78 -192q-84 -135 -258 -135
q-49 0 -136 30.5t-147 30.5q-69 0 -135 -55z" />
    <glyph glyph-name="Odieresis" unicode="&#xd6;" horiz-adv-x="1710" 
d="M205 645q0 173 60.5 323t169 258t266.5 170t346 62q207 0 368 -81t251.5 -233.5t90.5 -355.5q0 -130 -34.5 -250.5t-104.5 -222.5t-168.5 -178t-233.5 -119t-292 -43q-136 0 -252.5 34t-201.5 95.5t-145.5 145t-90 184t-29.5 211.5zM559 666q0 -168 102 -275.5
t275 -107.5q144 0 251.5 66t161.5 175t54 244q0 173 -102.5 278t-280.5 105q-92 0 -169.5 -28t-130.5 -75t-90 -109.5t-54 -131.5t-17 -141zM1225 1700q0 68 52.5 110.5t125.5 42.5q78 0 128 -42t50 -109q0 -66 -46.5 -113t-131.5 -47q-82 0 -130 43.5t-48 114.5zM721 1700
q0 68 52.5 110.5t125.5 42.5q78 0 128 -42t50 -109q0 -66 -46.5 -113t-131.5 -47q-82 0 -130 43.5t-48 114.5z" />
    <glyph glyph-name="multiply" unicode="&#xd7;" 
d="M307 985l189 189l247 -248l248 248l189 -189l-248 -248l250 -250l-189 -188l-250 250l-249 -250l-189 188l250 250z" />
    <glyph glyph-name="Oslash" unicode="&#xd8;" horiz-adv-x="1710" 
d="M205 645q0 173 60.5 323t169 258t266.5 170t346 62q262 0 448 -131l107 90l145 -180l-92 -78q102 -158 102 -371q0 -130 -34.5 -250.5t-104.5 -222.5t-168.5 -178t-233.5 -119t-292 -43q-303 0 -496 162l-127 -106l-147 180l129 106q-78 150 -78 328zM1403 768
q0 82 -29 158l-680 -568q97 -75 242 -75q144 0 251.5 66t161.5 175t54 244zM559 666q0 -65 10 -109l656 545q-90 49 -205 49q-92 0 -169.5 -28t-130.5 -75t-90 -109.5t-54 -131.5t-17 -141z" />
    <glyph glyph-name="Ugrave" unicode="&#xd9;" horiz-adv-x="1531" 
d="M1622 1434l-147 -842q-13 -77 -31.5 -142t-47 -129.5t-66 -115.5t-89.5 -95t-115.5 -73t-147 -45.5t-181.5 -16.5q-141 0 -251 42.5t-181 126.5t-96 207.5t3 285.5l140 797h327l-133 -758q-69 -393 219 -393q51 0 94 11.5t74 30.5t56.5 49t42 59.5t30 71t21.5 75t16 77.5
l137 777h326zM1276 1491l-510 160l115 264l479 -242z" />
    <glyph glyph-name="Uacute" unicode="&#xda;" horiz-adv-x="1531" 
d="M1622 1434l-147 -842q-13 -77 -31.5 -142t-47 -129.5t-66 -115.5t-89.5 -95t-115.5 -73t-147 -45.5t-181.5 -16.5q-141 0 -251 42.5t-181 126.5t-96 207.5t3 285.5l140 797h327l-133 -758q-69 -393 219 -393q51 0 94 11.5t74 30.5t56.5 49t42 59.5t30 71t21.5 75t16 77.5
l137 777h326zM1470 1651l-509 -160l-84 182l479 242z" />
    <glyph glyph-name="Ucircumflex" unicode="&#xdb;" horiz-adv-x="1531" 
d="M1622 1434l-147 -842q-13 -77 -31.5 -142t-47 -129.5t-66 -115.5t-89.5 -95t-115.5 -73t-147 -45.5t-181.5 -16.5q-141 0 -251 42.5t-181 126.5t-96 207.5t3 285.5l140 797h327l-133 -758q-69 -393 219 -393q51 0 94 11.5t74 30.5t56.5 49t42 59.5t30 71t21.5 75t16 77.5
l137 777h326zM1096 1915l331 -244l-147 -170l-223 158l-301 -158l-84 182l415 232h9z" />
    <glyph glyph-name="Udieresis" unicode="&#xdc;" horiz-adv-x="1531" 
d="M1622 1434l-147 -842q-13 -77 -31.5 -142t-47 -129.5t-66 -115.5t-89.5 -95t-115.5 -73t-147 -45.5t-181.5 -16.5q-141 0 -251 42.5t-181 126.5t-96 207.5t3 285.5l140 797h327l-133 -758q-69 -393 219 -393q51 0 94 11.5t74 30.5t56.5 49t42 59.5t30 71t21.5 75t16 77.5
l137 777h326zM1139 1700q0 68 52.5 110.5t125.5 42.5q78 0 128 -42t50 -109q0 -66 -46.5 -113t-131.5 -47q-82 0 -130 43.5t-48 114.5zM635 1700q0 68 52.5 110.5t125.5 42.5q78 0 128 -42t50 -109q0 -66 -46.5 -113t-131.5 -47q-82 0 -130 43.5t-48 114.5z" />
    <glyph glyph-name="Yacute" unicode="&#xdd;" horiz-adv-x="1277" 
d="M1540 1434l-637 -850l-102 -584h-328l102 584l-333 850h344l192 -531l379 531h383zM1341 1651l-510 -160l-83 182l479 242z" />
    <glyph glyph-name="Thorn" unicode="&#xde;" horiz-adv-x="1288" 
d="M512 0h-328l252 1434h328l-35 -205q7 0 53 2t58 2q129 0 227 -31.5t158.5 -88.5t90.5 -132t30 -166q0 -110 -37.5 -206t-110.5 -171t-190.5 -118.5t-266.5 -43.5q-119 0 -178 7zM819 926q-87 0 -145 -8l-56 -324q78 -10 146 -10q111 0 169 56t58 151q0 135 -172 135z" />
    <glyph glyph-name="germandbls" unicode="&#xdf;" horiz-adv-x="1138" 
d="M848 340q0 34 -22.5 70t-55 69t-64.5 67.5t-54.5 78t-22.5 88.5q0 64 21.5 117t52.5 88.5t61.5 66t52 62.5t21.5 65q0 36 -27 56t-68 20q-70 0 -104.5 -43t-52.5 -141l-176 -1004h-308l179 1010q18 106 52.5 184.5t92 140t147 92.5t209.5 31q162 0 266.5 -81t104.5 -206
q0 -58 -21.5 -106t-52.5 -81t-61.5 -64.5t-52 -71.5t-21.5 -86q0 -32 22.5 -61t55 -57t64.5 -61.5t54.5 -87.5t22.5 -122q0 -105 -48.5 -195.5t-142.5 -146.5t-214 -56q-195 0 -287 109l137 219q50 -57 131 -57q109 0 109 94z" />
    <glyph glyph-name="agrave" unicode="&#xe0;" horiz-adv-x="1116" 
d="M987 0h-301l35 197q-57 -89 -146 -155.5t-194 -66.5q-130 0 -194 86t-64 228q0 189 81 338.5t228.5 234t335.5 84.5q102 0 209.5 -27t150.5 -57zM528 246q35 0 72.5 29.5t69.5 77t57 95t45 95.5l23 125q-39 8 -80 8q-121 0 -199 -87.5t-78 -215.5q0 -127 90 -127z
M791 1071l-273 295l244 182l211 -348z" />
    <glyph glyph-name="aacute" unicode="&#xe1;" horiz-adv-x="1116" 
d="M987 0h-301l35 197q-57 -89 -146 -155.5t-194 -66.5q-130 0 -194 86t-64 228q0 189 81 338.5t228.5 234t335.5 84.5q102 0 209.5 -27t150.5 -57zM528 246q35 0 72.5 29.5t69.5 77t57 95t45 95.5l23 125q-39 8 -80 8q-121 0 -199 -87.5t-78 -215.5q0 -127 90 -127z
M1153 1378l-272 -307l-183 129l215 361z" />
    <glyph glyph-name="acircumflex" unicode="&#xe2;" horiz-adv-x="1116" 
d="M987 0h-301l35 197q-57 -89 -146 -155.5t-194 -66.5q-130 0 -194 86t-64 228q0 189 81 338.5t228.5 234t335.5 84.5q102 0 209.5 -27t150.5 -57zM528 246q35 0 72.5 29.5t69.5 77t57 95t45 95.5l23 125q-39 8 -80 8q-121 0 -199 -87.5t-78 -215.5q0 -127 90 -127z
M850 1499l299 -289l-160 -170l-172 168l-233 -168l-131 183l389 276h8z" />
    <glyph glyph-name="atilde" unicode="&#xe3;" horiz-adv-x="1116" 
d="M987 0h-301l35 197q-57 -89 -146 -155.5t-194 -66.5q-130 0 -194 86t-64 228q0 189 81 338.5t228.5 234t335.5 84.5q102 0 209.5 -27t150.5 -57zM528 246q35 0 72.5 29.5t69.5 77t57 95t45 95.5l23 125q-39 8 -80 8q-121 0 -199 -87.5t-78 -215.5q0 -127 90 -127z
M571 1104l-122 137q56 80 127.5 120t142.5 40q49 0 125 -40t117 -40q20 0 34.5 2t29.5 8.5t21 10t24.5 17t25.5 17.5l100 -153q-57 -68 -125.5 -108t-134.5 -40q-45 0 -121.5 40t-122.5 40q-14 0 -32.5 -6t-30 -12t-33 -18.5t-25.5 -14.5z" />
    <glyph glyph-name="adieresis" unicode="&#xe4;" horiz-adv-x="1116" 
d="M987 0h-301l35 197q-57 -89 -146 -155.5t-194 -66.5q-130 0 -194 86t-64 228q0 189 81 338.5t228.5 234t335.5 84.5q102 0 209.5 -27t150.5 -57zM528 246q35 0 72.5 29.5t69.5 77t57 95t45 95.5l23 125q-39 8 -80 8q-121 0 -199 -87.5t-78 -215.5q0 -127 90 -127z
M870 1229q0 60 44 106.5t112 46.5q67 0 110.5 -42t43.5 -107q0 -68 -43 -115t-113 -47q-71 0 -112.5 44t-41.5 114zM461 1229q0 60 43.5 106.5t111.5 46.5q67 0 110.5 -42t43.5 -107q0 -68 -43 -115t-113 -47q-71 0 -112 44t-41 114z" />
    <glyph glyph-name="aring" unicode="&#xe5;" horiz-adv-x="1116" 
d="M987 0h-301l35 197q-57 -89 -146 -155.5t-194 -66.5q-130 0 -194 86t-64 228q0 189 81 338.5t228.5 234t335.5 84.5q102 0 209.5 -27t150.5 -57zM528 246q35 0 72.5 29.5t69.5 77t57 95t45 95.5l23 125q-39 8 -80 8q-121 0 -199 -87.5t-78 -215.5q0 -127 90 -127z
M549 1292q0 110 79.5 187t200.5 77q123 0 204 -77t81 -187q0 -109 -81 -184.5t-204 -75.5q-121 0 -200.5 75.5t-79.5 184.5zM743 1296q0 -42 25.5 -71t65.5 -29q39 0 62.5 29t23.5 71q0 41 -23.5 69t-62.5 28q-40 0 -65.5 -28t-25.5 -69z" />
    <glyph glyph-name="ae" unicode="&#xe6;" horiz-adv-x="1636" 
d="M1051 883q129 63 272 63q342 0 342 -256q0 -85 -50 -152t-137.5 -110t-197 -67.5t-236.5 -30.5q24 -109 183 -109q120 0 235 86l123 -164q-168 -168 -414 -168q-169 0 -270.5 70t-132.5 203q-179 -273 -387 -273q-130 0 -194 86t-64 228q0 189 81 338.5t228.5 234
t335.5 84.5q160 0 283 -63zM528 246q35 0 72.5 29.5t69.5 77t57 95t45 95.5l23 125q-39 8 -80 8q-121 0 -199 -87.5t-78 -215.5q0 -127 90 -127zM1298 700q-86 0 -150.5 -55t-84.5 -133q56 2 107.5 10.5t97 23t73 38.5t27.5 53t-20 46t-50 17z" />
    <glyph glyph-name="ccedilla" unicode="&#xe7;" horiz-adv-x="993" 
d="M184 -330l117 142q18 -23 54.5 -40.5t74.5 -17.5q49 0 49 33q0 29 -45 29h-12l31 170q-151 26 -235.5 130.5t-84.5 260.5q0 153 77 283.5t211 208t294 77.5q253 0 354 -131l-184 -242q-69 86 -180 86q-90 0 -164 -62t-74 -165q0 -76 51 -123t119 -47q112 0 227 103
l105 -226q-67 -73 -162 -114.5t-203 -47.5l-6 -30q91 -8 139.5 -47.5t48.5 -108.5q0 -100 -90 -160.5t-256 -60.5q-55 0 -99 9.5t-75 27t-47 30.5t-35 33z" />
    <glyph glyph-name="egrave" unicode="&#xe8;" horiz-adv-x="1013" 
d="M840 307l123 -164q-168 -168 -414 -168q-205 0 -315.5 100t-110.5 287q0 114 41.5 219.5t114.5 186.5t183 129.5t238 48.5q342 0 342 -256q0 -85 -50 -152t-137 -110t-196.5 -67.5t-236.5 -30.5q24 -109 182 -109q121 0 236 86zM676 700q-86 0 -151 -55t-85 -133
q56 2 107.5 10.5t97 23t73 38.5t27.5 53t-19.5 46t-49.5 17zM811 1071l-272 295l243 182l211 -348z" />
    <glyph glyph-name="eacute" unicode="&#xe9;" horiz-adv-x="1013" 
d="M840 307l123 -164q-168 -168 -414 -168q-205 0 -315.5 100t-110.5 287q0 114 41.5 219.5t114.5 186.5t183 129.5t238 48.5q342 0 342 -256q0 -85 -50 -152t-137 -110t-196.5 -67.5t-236.5 -30.5q24 -109 182 -109q121 0 236 86zM676 700q-86 0 -151 -55t-85 -133
q56 2 107.5 10.5t97 23t73 38.5t27.5 53t-19.5 46t-49.5 17zM1081 1378l-272 -307l-182 129l215 361z" />
    <glyph glyph-name="ecircumflex" unicode="&#xea;" horiz-adv-x="1013" 
d="M840 307l123 -164q-168 -168 -414 -168q-205 0 -315.5 100t-110.5 287q0 114 41.5 219.5t114.5 186.5t183 129.5t238 48.5q342 0 342 -256q0 -85 -50 -152t-137 -110t-196.5 -67.5t-236.5 -30.5q24 -109 182 -109q121 0 236 86zM676 700q-86 0 -151 -55t-85 -133
q56 2 107.5 10.5t97 23t73 38.5t27.5 53t-19.5 46t-49.5 17zM780 1499l299 -289l-159 -170l-172 168l-234 -168l-131 183l389 276h8z" />
    <glyph glyph-name="edieresis" unicode="&#xeb;" horiz-adv-x="1013" 
d="M840 307l123 -164q-168 -168 -414 -168q-205 0 -315.5 100t-110.5 287q0 114 41.5 219.5t114.5 186.5t183 129.5t238 48.5q342 0 342 -256q0 -85 -50 -152t-137 -110t-196.5 -67.5t-236.5 -30.5q24 -109 182 -109q121 0 236 86zM676 700q-86 0 -151 -55t-85 -133
q56 2 107.5 10.5t97 23t73 38.5t27.5 53t-19.5 46t-49.5 17zM803 1229q0 60 43.5 106.5t111.5 46.5q67 0 110.5 -42t43.5 -107q0 -68 -43 -115t-113 -47q-71 0 -112 44t-41 114zM393 1229q0 60 44 106.5t112 46.5q67 0 110 -42t43 -107q0 -68 -42.5 -115t-112.5 -47
q-71 0 -112.5 44t-41.5 114z" />
    <glyph glyph-name="igrave" unicode="&#xec;" horiz-adv-x="602" 
d="M129 0l162 922h307l-162 -922h-307zM483 1071l-272 295l244 182l211 -348z" />
    <glyph glyph-name="iacute" unicode="&#xed;" horiz-adv-x="602" 
d="M129 0l162 922h307l-162 -922h-307zM848 1378l-273 -307l-182 129l215 361z" />
    <glyph glyph-name="icircumflex" unicode="&#xee;" horiz-adv-x="602" 
d="M129 0l162 922h307l-162 -922h-307zM543 1499l299 -289l-160 -170l-172 168l-234 -168l-131 183l390 276h8z" />
    <glyph glyph-name="idieresis" unicode="&#xef;" horiz-adv-x="602" 
d="M129 0l162 922h307l-162 -922h-307zM530 1229q0 60 44 106.5t112 46.5q67 0 110.5 -42t43.5 -107q0 -68 -43 -115t-113 -47q-71 0 -112.5 44t-41.5 114zM166 1229q0 60 44 106.5t112 46.5q67 0 110 -42t43 -107q0 -68 -43 -115t-113 -47q-71 0 -112 44t-41 114z" />
    <glyph glyph-name="eth" unicode="&#xf0;" horiz-adv-x="1146" 
d="M500 985l-35 246l149 43q-73 94 -118 139l358 43q34 -25 80 -88l205 57l30 -245l-104 -29q84 -204 84 -465q0 -332 -160.5 -521.5t-447.5 -189.5q-199 0 -308.5 110.5t-109.5 279.5q0 124 38 230t109.5 184t181 122.5t244.5 44.5q73 0 123 -24q-11 49 -53 139zM438 426
q0 -73 39 -126.5t115 -53.5q100 0 163 85.5t74 227.5q-14 53 -61 85t-117 32q-56 0 -98.5 -21t-67 -57.5t-36 -79.5t-11.5 -92z" />
    <glyph glyph-name="ntilde" unicode="&#xf1;" horiz-adv-x="1130" 
d="M485 379l-67 -379h-307l161 922h308l-33 -179q158 203 356 203q105 0 157 -65t52 -160q0 -98 -14 -180l-97 -541h-307l88 502q6 38 6 80q0 77 -61 77q-34 0 -69.5 -27t-69 -75.5t-55.5 -87t-48 -90.5zM532 1104l-122 137q56 80 127.5 120t142.5 40q50 0 126 -40t116 -40
q20 0 34.5 2t29.5 8.5t21 10t24.5 17t25.5 17.5l100 -153q-57 -68 -125.5 -108t-134.5 -40q-45 0 -121.5 40t-122.5 40q-14 0 -32.5 -6t-30 -12t-33 -18.5t-25.5 -14.5z" />
    <glyph glyph-name="ograve" unicode="&#xf2;" horiz-adv-x="1112" 
d="M123 365q0 123 37 227.5t108 184t183.5 124.5t255.5 45q102 0 181.5 -32t127 -87.5t72 -124t24.5 -145.5q0 -125 -36.5 -230.5t-106.5 -184t-179.5 -123t-246.5 -44.5q-203 0 -311.5 110t-108.5 280zM438 426q0 -79 40 -129.5t116 -50.5q94 0 148.5 71.5t54.5 178.5
q0 75 -38 127.5t-116 52.5q-98 0 -151.5 -74.5t-53.5 -175.5zM719 1071l-273 295l244 182l211 -348z" />
    <glyph glyph-name="oacute" unicode="&#xf3;" horiz-adv-x="1112" 
d="M123 365q0 123 37 227.5t108 184t183.5 124.5t255.5 45q102 0 181.5 -32t127 -87.5t72 -124t24.5 -145.5q0 -125 -36.5 -230.5t-106.5 -184t-179.5 -123t-246.5 -44.5q-203 0 -311.5 110t-108.5 280zM438 426q0 -79 40 -129.5t116 -50.5q94 0 148.5 71.5t54.5 178.5
q0 75 -38 127.5t-116 52.5q-98 0 -151.5 -74.5t-53.5 -175.5zM1077 1378l-272 -307l-182 129l215 361z" />
    <glyph glyph-name="ocircumflex" unicode="&#xf4;" horiz-adv-x="1112" 
d="M123 365q0 123 37 227.5t108 184t183.5 124.5t255.5 45q102 0 181.5 -32t127 -87.5t72 -124t24.5 -145.5q0 -125 -36.5 -230.5t-106.5 -184t-179.5 -123t-246.5 -44.5q-203 0 -311.5 110t-108.5 280zM438 426q0 -79 40 -129.5t116 -50.5q94 0 148.5 71.5t54.5 178.5
q0 75 -38 127.5t-116 52.5q-98 0 -151.5 -74.5t-53.5 -175.5zM776 1499l299 -289l-160 -170l-172 168l-233 -168l-131 183l389 276h8z" />
    <glyph glyph-name="otilde" unicode="&#xf5;" horiz-adv-x="1112" 
d="M123 365q0 123 37 227.5t108 184t183.5 124.5t255.5 45q102 0 181.5 -32t127 -87.5t72 -124t24.5 -145.5q0 -125 -36.5 -230.5t-106.5 -184t-179.5 -123t-246.5 -44.5q-203 0 -311.5 110t-108.5 280zM438 426q0 -79 40 -129.5t116 -50.5q94 0 148.5 71.5t54.5 178.5
q0 75 -38 127.5t-116 52.5q-98 0 -151.5 -74.5t-53.5 -175.5zM498 1104l-123 137q56 80 127.5 120t142.5 40q49 0 125 -40t117 -40q20 0 34.5 2t29.5 8.5t21 10t24.5 17t25.5 17.5l100 -153q-57 -68 -125.5 -108t-134.5 -40q-45 0 -121.5 40t-122.5 40q-14 0 -32.5 -6
t-29.5 -12t-32 -18t-26 -15z" />
    <glyph glyph-name="odieresis" unicode="&#xf6;" horiz-adv-x="1112" 
d="M123 365q0 123 37 227.5t108 184t183.5 124.5t255.5 45q102 0 181.5 -32t127 -87.5t72 -124t24.5 -145.5q0 -125 -36.5 -230.5t-106.5 -184t-179.5 -123t-246.5 -44.5q-203 0 -311.5 110t-108.5 280zM438 426q0 -79 40 -129.5t116 -50.5q94 0 148.5 71.5t54.5 178.5
q0 75 -38 127.5t-116 52.5q-98 0 -151.5 -74.5t-53.5 -175.5zM797 1229q0 60 43.5 106.5t111.5 46.5q67 0 110.5 -42t43.5 -107q0 -68 -43 -115t-113 -47q-71 0 -112 44t-41 114zM387 1229q0 60 44 106.5t112 46.5q67 0 110 -42t43 -107q0 -68 -42.5 -115t-112.5 -47
q-71 0 -112.5 44t-41.5 114z" />
    <glyph glyph-name="divide" unicode="&#xf7;" 
d="M565 1126q0 67 47.5 118.5t130.5 51.5q79 0 127 -52t48 -118q0 -73 -48 -127.5t-127 -54.5q-83 0 -130.5 54t-47.5 128zM565 352q0 66 48 118t130 52q76 0 125.5 -53t49.5 -117q0 -74 -47.5 -128t-127.5 -54q-84 0 -131 53.5t-47 128.5zM258 604v266h971v-266h-971z" />
    <glyph glyph-name="oslash" unicode="&#xf8;" horiz-adv-x="1112" 
d="M123 365q0 123 37 227.5t108 184t183.5 124.5t255.5 45q152 0 256 -74l69 62l94 -121l-63 -55q49 -91 49 -201q0 -125 -36.5 -230.5t-106.5 -184t-179.5 -123t-246.5 -44.5q-172 0 -279 80l-80 -69l-96 123l76 67q-41 84 -41 189zM797 496q0 16 -2 26l-289 -254
q36 -22 88 -22q94 0 148.5 71.5t54.5 178.5zM438 426v-12l279 243q-32 19 -74 19q-98 0 -151.5 -74.5t-53.5 -175.5z" />
    <glyph glyph-name="ugrave" unicode="&#xf9;" horiz-adv-x="1103" 
d="M1116 922l-164 -922h-307l33 176q-31 -41 -60.5 -71.5t-71 -62.5t-94 -49.5t-110.5 -17.5q-60 0 -102.5 20t-65.5 55.5t-33 76t-10 90.5q0 55 12 125l123 580h307l-106 -514q-1 -5 -3.5 -19t-4.5 -28.5t-2 -26.5q0 -72 51 -72q55 0 121 84.5t108 177.5l72 398h307z
M723 1071l-272 295l243 182l211 -348z" />
    <glyph glyph-name="uacute" unicode="&#xfa;" horiz-adv-x="1103" 
d="M1116 922l-164 -922h-307l33 176q-31 -41 -60.5 -71.5t-71 -62.5t-94 -49.5t-110.5 -17.5q-60 0 -102.5 20t-65.5 55.5t-33 76t-10 90.5q0 55 12 125l123 580h307l-106 -514q-1 -5 -3.5 -19t-4.5 -28.5t-2 -26.5q0 -72 51 -72q55 0 121 84.5t108 177.5l72 398h307z
M1081 1378l-272 -307l-182 129l215 361z" />
    <glyph glyph-name="ucircumflex" unicode="&#xfb;" horiz-adv-x="1103" 
d="M1116 922l-164 -922h-307l33 176q-31 -41 -60.5 -71.5t-71 -62.5t-94 -49.5t-110.5 -17.5q-60 0 -102.5 20t-65.5 55.5t-33 76t-10 90.5q0 55 12 125l123 580h307l-106 -514q-1 -5 -3.5 -19t-4.5 -28.5t-2 -26.5q0 -72 51 -72q55 0 121 84.5t108 177.5l72 398h307z
M778 1499l299 -289l-159 -170l-173 168l-233 -168l-131 183l389 276h8z" />
    <glyph glyph-name="udieresis" unicode="&#xfc;" horiz-adv-x="1103" 
d="M1116 922l-164 -922h-307l33 176q-31 -41 -60.5 -71.5t-71 -62.5t-94 -49.5t-110.5 -17.5q-60 0 -102.5 20t-65.5 55.5t-33 76t-10 90.5q0 55 12 125l123 580h307l-106 -514q-1 -5 -3.5 -19t-4.5 -28.5t-2 -26.5q0 -72 51 -72q55 0 121 84.5t108 177.5l72 398h307z
M801 1229q0 60 43.5 106.5t111.5 46.5q67 0 110.5 -42t43.5 -107q0 -68 -43 -115t-113 -47q-71 0 -112 44t-41 114zM391 1229q0 60 44 106.5t112 46.5q67 0 110 -42t43 -107q0 -68 -42.5 -115t-112.5 -47q-71 0 -112.5 44t-41.5 114z" />
    <glyph glyph-name="yacute" unicode="&#xfd;" horiz-adv-x="956" 
d="M696 922h322q-33 -196 -89 -386t-134 -361.5t-169 -301.5t-201 -206.5t-222 -76.5q-136 0 -232 86l140 232q46 -33 96 -33q97 0 147 88l21 37q-93 412 -297 922h354q98 -261 152 -537q29 85 50.5 180.5t32 161t29.5 195.5zM944 1378l-272 -307l-183 129l216 361z" />
    <glyph glyph-name="thorn" unicode="&#xfe;" horiz-adv-x="1138" 
d="M414 -10l-72 -400h-307l327 1844h308l-127 -699q157 211 356 211q55 0 98.5 -21t69.5 -53.5t43 -76t23 -83.5t6 -81q0 -126 -41.5 -243.5t-117.5 -209.5t-193.5 -147.5t-258.5 -55.5q-56 0 -114 15zM733 676q-26 0 -53.5 -15t-53 -45t-45 -56t-42 -68.5t-31.5 -60.5
t-25 -52l-20 -107q44 -26 96 -26q116 0 190 89t74 214q0 53 -22 90t-68 37z" />
    <glyph glyph-name="ydieresis" unicode="&#xff;" horiz-adv-x="956" 
d="M696 922h322q-33 -196 -89 -386t-134 -361.5t-169 -301.5t-201 -206.5t-222 -76.5q-136 0 -232 86l140 232q46 -33 96 -33q97 0 147 88l21 37q-93 412 -297 922h354q98 -261 152 -537q29 85 50.5 180.5t32 161t29.5 195.5zM657 1229q0 60 44 106.5t112 46.5
q67 0 110.5 -42t43.5 -107q0 -68 -43 -115t-113 -47q-71 0 -112.5 44t-41.5 114zM248 1229q0 60 43.5 106.5t111.5 46.5q67 0 110.5 -42t43.5 -107q0 -68 -43 -115t-113 -47q-71 0 -112 44t-41 114z" />
    <glyph glyph-name="Amacron" unicode="&#x100;" horiz-adv-x="1443" 
d="M0 0l827 1434h289l328 -1434h-330l-67 301h-525l-168 -301h-354zM899 1014l-205 -406h283zM670 1536l43 246h643l-43 -246h-643z" />
    <glyph glyph-name="amacron" unicode="&#x101;" horiz-adv-x="1116" 
d="M987 0h-301l35 197q-57 -89 -146 -155.5t-194 -66.5q-130 0 -194 86t-64 228q0 189 81 338.5t228.5 234t335.5 84.5q102 0 209.5 -27t150.5 -57zM528 246q35 0 72.5 29.5t69.5 77t57 95t45 95.5l23 125q-39 8 -80 8q-121 0 -199 -87.5t-78 -215.5q0 -127 90 -127z
M498 1106l43 246h602l-43 -246h-602z" />
    <glyph glyph-name="Abreve" unicode="&#x102;" horiz-adv-x="1443" 
d="M0 0l827 1434h289l328 -1434h-330l-67 301h-525l-168 -301h-354zM899 1014l-205 -406h283zM596 1722l172 162q42 -54 104 -88.5t166 -34.5q186 0 312 119l100 -174q-73 -94 -194.5 -152.5t-258.5 -58.5q-147 0 -250 60t-151 167z" />
    <glyph glyph-name="abreve" unicode="&#x103;" horiz-adv-x="1116" 
d="M987 0h-301l35 197q-57 -89 -146 -155.5t-194 -66.5q-130 0 -194 86t-64 228q0 189 81 338.5t228.5 234t335.5 84.5q102 0 209.5 -27t150.5 -57zM528 246q35 0 72.5 29.5t69.5 77t57 95t45 95.5l23 125q-39 8 -80 8q-121 0 -199 -87.5t-78 -215.5q0 -127 90 -127z
M475 1284l162 154q22 -30 42.5 -50t62 -38.5t92.5 -18.5q70 0 135.5 30.5t107.5 72.5l97 -164q-64 -77 -161 -131t-216 -54q-59 0 -110 14.5t-85 35.5t-61.5 49.5t-42 52t-23.5 47.5z" />
    <glyph glyph-name="Aogonek" unicode="&#x104;" horiz-adv-x="1443" 
d="M1321 -154l70 -188q-84 -78 -271 -78q-116 0 -191 49.5t-75 141.5q0 88 67.5 142.5t190.5 86.5l-65 301h-525l-168 -301h-354l827 1434h289l328 -1434h-39q-87 0 -155 -36.5t-68 -82.5q0 -25 16 -40t45 -15q38 0 78 20zM899 1014l-205 -406h283z" />
    <glyph glyph-name="aogonek" unicode="&#x105;" horiz-adv-x="1116" 
d="M897 -154l70 -188q-84 -78 -271 -78q-116 0 -191 49.5t-75 141.5q0 85 69.5 144.5t188.5 90.5l33 191q-57 -89 -146 -155.5t-194 -66.5q-130 0 -194 86t-64 228q0 189 81 338.5t228.5 234t335.5 84.5q102 0 209.5 -27t150.5 -57l-141 -862h-24q-87 -3 -146 -38t-59 -81
q0 -25 16 -40t45 -15q38 0 78 20zM528 246q35 0 72.5 29.5t69.5 77t57 95t45 95.5l23 125q-39 8 -80 8q-121 0 -199 -87.5t-78 -215.5q0 -127 90 -127z" />
    <glyph glyph-name="Cacute" unicode="&#x106;" horiz-adv-x="1372" 
d="M1276 387l127 -252q-77 -73 -203.5 -116.5t-265.5 -43.5q-154 0 -286 44t-231 127.5t-155.5 213t-56.5 291.5q0 118 30 231t98 218.5t166.5 184t246.5 126t327 47.5q140 0 264 -36.5t191 -100.5l-168 -250q-119 80 -316 80q-116 0 -210 -39t-153 -105t-90.5 -150.5
t-31.5 -178.5q0 -186 102 -290.5t289 -104.5q186 0 326 104zM1403 1651l-510 -160l-84 182l479 242z" />
    <glyph glyph-name="cacute" unicode="&#x107;" horiz-adv-x="960" 
d="M805 330l129 -187q-65 -76 -171 -122t-237 -46q-191 0 -297 98.5t-106 284.5q0 89 24 173.5t73.5 160t119.5 132t168.5 89.5t212.5 33q181 0 276 -59l-100 -234q-70 23 -180 23q-132 0 -205.5 -81.5t-73.5 -201.5q0 -71 39.5 -109t112.5 -38q113 0 215 84zM1077 1378
l-272 -307l-182 129l215 361z" />
    <glyph glyph-name="Ccircumflex" unicode="&#x108;" horiz-adv-x="1372" 
d="M1276 387l127 -252q-77 -73 -203.5 -116.5t-265.5 -43.5q-154 0 -286 44t-231 127.5t-155.5 213t-56.5 291.5q0 118 30 231t98 218.5t166.5 184t246.5 126t327 47.5q140 0 264 -36.5t191 -100.5l-168 -250q-119 80 -316 80q-116 0 -210 -39t-153 -105t-90.5 -150.5
t-31.5 -178.5q0 -186 102 -290.5t289 -104.5q186 0 326 104zM1143 1915l332 -244l-148 -170l-223 158l-301 -158l-84 182l416 232h8z" />
    <glyph glyph-name="ccircumflex" unicode="&#x109;" horiz-adv-x="960" 
d="M805 330l129 -187q-65 -76 -171 -122t-237 -46q-191 0 -297 98.5t-106 284.5q0 89 24 173.5t73.5 160t119.5 132t168.5 89.5t212.5 33q181 0 276 -59l-100 -234q-70 23 -180 23q-132 0 -205.5 -81.5t-73.5 -201.5q0 -71 39.5 -109t112.5 -38q113 0 215 84zM811 1499
l299 -289l-160 -170l-172 168l-233 -168l-131 183l389 276h8z" />
    <glyph glyph-name="Cdotaccent" unicode="&#x10a;" horiz-adv-x="1372" 
d="M1276 387l127 -252q-77 -73 -203.5 -116.5t-265.5 -43.5q-154 0 -286 44t-231 127.5t-155.5 213t-56.5 291.5q0 118 30 231t98 218.5t166.5 184t246.5 126t327 47.5q140 0 264 -36.5t191 -100.5l-168 -250q-119 80 -316 80q-116 0 -210 -39t-153 -105t-90.5 -150.5
t-31.5 -178.5q0 -186 102 -290.5t289 -104.5q186 0 326 104zM879 1731q0 84 58 134t144 50q80 0 141.5 -51t61.5 -133q0 -90 -61 -143.5t-142 -53.5q-87 0 -144.5 52.5t-57.5 144.5z" />
    <glyph glyph-name="cdotaccent" unicode="&#x10b;" horiz-adv-x="960" 
d="M805 330l129 -187q-65 -76 -171 -122t-237 -46q-191 0 -297 98.5t-106 284.5q0 89 24 173.5t73.5 160t119.5 132t168.5 89.5t212.5 33q181 0 276 -59l-100 -234q-70 23 -180 23q-132 0 -205.5 -81.5t-73.5 -201.5q0 -71 39.5 -109t112.5 -38q113 0 215 84zM602 1280
q0 79 52 126.5t130 47.5q71 0 127 -48t56 -126q0 -86 -55.5 -136t-127.5 -50q-78 0 -130 49t-52 137z" />
    <glyph glyph-name="Ccaron" unicode="&#x10c;" horiz-adv-x="1372" 
d="M1276 387l127 -252q-77 -73 -203.5 -116.5t-265.5 -43.5q-154 0 -286 44t-231 127.5t-155.5 213t-56.5 291.5q0 118 30 231t98 218.5t166.5 184t246.5 126t327 47.5q140 0 264 -36.5t191 -100.5l-168 -250q-119 80 -316 80q-116 0 -210 -39t-153 -105t-90.5 -150.5
t-31.5 -178.5q0 -186 102 -290.5t289 -104.5q186 0 326 104zM1063 1501l-334 240l150 174l223 -158l301 158l84 -182l-416 -232h-8z" />
    <glyph glyph-name="ccaron" unicode="&#x10d;" horiz-adv-x="960" 
d="M805 330l129 -187q-65 -76 -171 -122t-237 -46q-191 0 -297 98.5t-106 284.5q0 89 24 173.5t73.5 160t119.5 132t168.5 89.5t212.5 33q181 0 276 -59l-100 -234q-70 23 -180 23q-132 0 -205.5 -81.5t-73.5 -201.5q0 -71 39.5 -109t112.5 -38q113 0 215 84zM700 1040
l-299 289l160 170l172 -168l234 168l131 -182l-389 -277h-9z" />
    <glyph glyph-name="Dcaron" unicode="&#x10e;" horiz-adv-x="1536" 
d="M184 0l252 1434h29q37 0 205 3t211 3q149 0 268 -30.5t199 -84.5t133.5 -130.5t77.5 -165.5t24 -193q0 -181 -61.5 -334t-178 -266t-295.5 -176.5t-403 -63.5q-45 0 -199 2t-227 2h-35zM846 1133q-85 0 -135 -7l-146 -819q43 -4 119 -4q245 0 395 134t150 360
q0 160 -94.5 248t-288.5 88zM950 1501l-334 240l150 174l223 -158l301 158l84 -182l-416 -232h-8z" />
    <glyph glyph-name="dcaron" unicode="&#x10f;" horiz-adv-x="1136" 
d="M698 0l33 197q-33 -46 -63.5 -79t-75.5 -69t-101.5 -55t-121.5 -19q-118 0 -182 83.5t-64 224.5q0 97 24.5 192.5t75 180t120.5 149.5t166.5 103t207.5 38q77 0 123 -14l88 502h307l-240 -1434h-297zM530 246q36 0 76 31.5t73.5 79t57.5 89.5t39 76l29 127
q-53 27 -113 27q-106 0 -180 -92t-74 -211q0 -127 92 -127zM1382 1434h299q2 -8 2 -33q0 -78 -28 -148.5t-75 -123.5t-96.5 -91t-105.5 -67l-121 129q63 60 98.5 129t35.5 137q0 23 -9 68z" />
    <glyph glyph-name="Dcroat" unicode="&#x110;" horiz-adv-x="1536" 
d="M121 569l51 287h164l100 578h29q36 0 206.5 3t219.5 3q145 0 262 -30.5t196.5 -84t132.5 -129.5t77 -164t24 -190q0 -118 -25 -224.5t-74.5 -201.5t-129 -171.5t-184 -132.5t-244.5 -86t-305 -30q-30 0 -178 2t-224 2h-35l101 569h-164zM831 1133q-72 0 -120 -7l-47 -270
h335l-51 -287h-336l-47 -262q43 -4 119 -4q244 0 394.5 132.5t150.5 352.5q0 171 -94.5 258t-303.5 87z" />
    <glyph glyph-name="dcroat" unicode="&#x111;" horiz-adv-x="1136" 
d="M698 0l33 197q-33 -46 -63.5 -79t-75.5 -69t-101.5 -55t-121.5 -19q-118 0 -182 83.5t-64 224.5q0 97 24.5 192.5t75 180t120.5 149.5t166.5 103t207.5 38q77 0 123 -14l18 106h-211l43 246h211l27 150h307l-27 -150h135l-43 -246h-133l-172 -1038h-297zM530 246
q36 0 76 31.5t73.5 79t57.5 89.5t39 76l29 127q-53 27 -113 27q-106 0 -180 -92t-74 -211q0 -127 92 -127z" />
    <glyph glyph-name="Emacron" unicode="&#x112;" horiz-adv-x="1177" 
d="M184 0l252 1434h871l-54 -308h-542l-45 -252h481l-53 -307h-482l-47 -260h563l-53 -307h-891zM569 1536l43 246h643l-43 -246h-643z" />
    <glyph glyph-name="emacron" unicode="&#x113;" horiz-adv-x="1013" 
d="M840 307l123 -164q-168 -168 -414 -168q-205 0 -315.5 100t-110.5 287q0 114 41.5 219.5t114.5 186.5t183 129.5t238 48.5q342 0 342 -256q0 -85 -50 -152t-137 -110t-196.5 -67.5t-236.5 -30.5q24 -109 182 -109q121 0 236 86zM676 700q-86 0 -151 -55t-85 -133
q56 2 107.5 10.5t97 23t73 38.5t27.5 53t-19.5 46t-49.5 17zM430 1106l43 246h602l-43 -246h-602z" />
    <glyph glyph-name="Edotaccent" unicode="&#x116;" horiz-adv-x="1177" 
d="M184 0l252 1434h871l-54 -308h-542l-45 -252h481l-53 -307h-482l-47 -260h563l-53 -307h-891zM723 1731q0 84 58.5 134t144.5 50q80 0 141 -51t61 -133q0 -90 -60.5 -143.5t-141.5 -53.5q-87 0 -145 52.5t-58 144.5z" />
    <glyph glyph-name="edotaccent" unicode="&#x117;" horiz-adv-x="1013" 
d="M840 307l123 -164q-168 -168 -414 -168q-205 0 -315.5 100t-110.5 287q0 114 41.5 219.5t114.5 186.5t183 129.5t238 48.5q342 0 342 -256q0 -85 -50 -152t-137 -110t-196.5 -67.5t-236.5 -30.5q24 -109 182 -109q121 0 236 86zM676 700q-86 0 -151 -55t-85 -133
q56 2 107.5 10.5t97 23t73 38.5t27.5 53t-19.5 46t-49.5 17zM580 1280q0 79 52 126.5t130 47.5q71 0 126.5 -48t55.5 -126q0 -86 -55 -136t-127 -50q-78 0 -130 49t-52 137z" />
    <glyph glyph-name="Eogonek" unicode="&#x118;" horiz-adv-x="1177" 
d="M184 0l252 1434h871l-54 -308h-542l-45 -252h481l-53 -307h-482l-47 -260h563l-53 -307h-2q-93 0 -158 -35.5t-65 -83.5q0 -25 16 -40t45 -15q38 0 78 20l70 -188q-84 -78 -271 -78q-116 0 -191 49.5t-75 141.5q0 79 66.5 136t171.5 93h-576z" />
    <glyph glyph-name="eogonek" unicode="&#x119;" horiz-adv-x="1013" 
d="M778 -154l70 -188q-84 -78 -270 -78q-115 0 -191 47.5t-76 130.5q0 122 195 219q-185 11 -284 109t-99 276q0 114 41.5 219.5t114.5 186.5t183 129.5t238 48.5q342 0 342 -256q0 -85 -50 -152t-137 -110t-196.5 -67.5t-236.5 -30.5q24 -109 182 -109q121 0 236 86
l123 -164q-96 -96 -218 -137q-106 -59 -106 -125q0 -25 16 -40t45 -15q38 0 78 20zM676 700q-86 0 -151 -55t-85 -133q56 2 107.5 10.5t97 23t73 38.5t27.5 53t-19.5 46t-49.5 17z" />
    <glyph glyph-name="Ecaron" unicode="&#x11a;" horiz-adv-x="1177" 
d="M184 0l252 1434h871l-54 -308h-542l-45 -252h481l-53 -307h-482l-47 -260h563l-53 -307h-891zM887 1501l-334 240l149 174l224 -158l301 158l84 -182l-416 -232h-8z" />
    <glyph glyph-name="ecaron" unicode="&#x11b;" horiz-adv-x="1013" 
d="M840 307l123 -164q-168 -168 -414 -168q-205 0 -315.5 100t-110.5 287q0 114 41.5 219.5t114.5 186.5t183 129.5t238 48.5q342 0 342 -256q0 -85 -50 -152t-137 -110t-196.5 -67.5t-236.5 -30.5q24 -109 182 -109q121 0 236 86zM676 700q-86 0 -151 -55t-85 -133
q56 2 107.5 10.5t97 23t73 38.5t27.5 53t-19.5 46t-49.5 17zM713 1040l-299 289l159 170l172 -168l234 168l131 -182l-389 -277h-8z" />
    <glyph glyph-name="Gcircumflex" unicode="&#x11c;" horiz-adv-x="1521" 
d="M893 510l53 307h613l-109 -639q-94 -97 -238 -150t-313 -53q-152 0 -278.5 45t-219.5 130t-144.5 214.5t-51.5 292.5q0 124 34.5 241t105.5 219t170.5 178t238 119.5t299.5 43.5q158 0 271.5 -42t205.5 -126l-187 -246q-135 107 -321 107q-110 0 -199 -39t-146 -106
t-87.5 -154.5t-30.5 -185.5q0 -172 91 -277.5t265 -105.5q77 0 145 19.5t109 51.5l29 156h-305zM1126 1915l332 -244l-147 -170l-224 158l-301 -158l-84 182l416 232h8z" />
    <glyph glyph-name="gcircumflex" unicode="&#x11d;" horiz-adv-x="1050" 
d="M-49 -152q0 72 28.5 129t80 95t115 62.5t142.5 37.5q-4 20 -4 35q0 40 29 76q-87 37 -134.5 108t-47.5 164q0 167 121.5 279t328.5 112q172 0 267 -74l290 70l-32 -235l-144 -37q0 -4 1 -17.5t1 -17.5q0 -161 -123 -272t-333 -117q-9 -18 -9 -37q0 -15 2 -21
q192 -6 310 -77t118 -197q0 -90 -42.5 -157t-119 -106.5t-174 -58t-216.5 -18.5q-135 0 -234 26.5t-160 89.5t-61 158zM231 -123q0 -67 209 -67q109 0 173.5 18.5t64.5 56.5q0 34 -56.5 52t-158.5 18q-112 0 -172 -20.5t-60 -57.5zM440 578q0 -43 33.5 -70t89.5 -27
q64 0 107 34t43 95q0 45 -31 73t-90 28q-70 0 -111 -37.5t-41 -95.5zM698 1499l299 -289l-159 -170l-172 168l-234 -168l-131 183l389 276h8z" />
    <glyph glyph-name="Gbreve" unicode="&#x11e;" horiz-adv-x="1521" 
d="M893 510l53 307h613l-109 -639q-94 -97 -238 -150t-313 -53q-152 0 -278.5 45t-219.5 130t-144.5 214.5t-51.5 292.5q0 124 34.5 241t105.5 219t170.5 178t238 119.5t299.5 43.5q158 0 271.5 -42t205.5 -126l-187 -246q-135 107 -321 107q-110 0 -199 -39t-146 -106
t-87.5 -154.5t-30.5 -185.5q0 -172 91 -277.5t265 -105.5q77 0 145 19.5t109 51.5l29 156h-305zM657 1722l172 162q96 -123 271 -123q185 0 311 119l100 -174q-73 -94 -194 -152.5t-258 -58.5q-148 0 -251 60t-151 167z" />
    <glyph glyph-name="gbreve" unicode="&#x11f;" horiz-adv-x="1050" 
d="M-49 -152q0 72 28.5 129t80 95t115 62.5t142.5 37.5q-4 20 -4 35q0 40 29 76q-87 37 -134.5 108t-47.5 164q0 167 121.5 279t328.5 112q172 0 267 -74l290 70l-32 -235l-144 -37q0 -4 1 -17.5t1 -17.5q0 -161 -123 -272t-333 -117q-9 -18 -9 -37q0 -15 2 -21
q192 -6 310 -77t118 -197q0 -90 -42.5 -157t-119 -106.5t-174 -58t-216.5 -18.5q-135 0 -234 26.5t-160 89.5t-61 158zM231 -123q0 -67 209 -67q109 0 173.5 18.5t64.5 56.5q0 34 -56.5 52t-158.5 18q-112 0 -172 -20.5t-60 -57.5zM440 578q0 -43 33.5 -70t89.5 -27
q64 0 107 34t43 95q0 45 -31 73t-90 28q-70 0 -111 -37.5t-41 -95.5zM317 1284l162 154q22 -30 42.5 -50t62 -38.5t92.5 -18.5q70 0 136.5 31t107.5 72l96 -164q-64 -77 -161 -131t-216 -54q-59 0 -110 14.5t-85 35.5t-61.5 49.5t-42 52t-23.5 47.5z" />
    <glyph glyph-name="Gdotaccent" unicode="&#x120;" horiz-adv-x="1521" 
d="M893 510l53 307h613l-109 -639q-94 -97 -238 -150t-313 -53q-152 0 -278.5 45t-219.5 130t-144.5 214.5t-51.5 292.5q0 124 34.5 241t105.5 219t170.5 178t238 119.5t299.5 43.5q158 0 271.5 -42t205.5 -126l-187 -246q-135 107 -321 107q-110 0 -199 -39t-146 -106
t-87.5 -154.5t-30.5 -185.5q0 -172 91 -277.5t265 -105.5q77 0 145 19.5t109 51.5l29 156h-305zM862 1731q0 84 58.5 134t144.5 50q80 0 141.5 -51t61.5 -133q0 -90 -61 -143.5t-142 -53.5q-87 0 -145 52.5t-58 144.5z" />
    <glyph glyph-name="gdotaccent" unicode="&#x121;" horiz-adv-x="1050" 
d="M-49 -152q0 72 28.5 129t80 95t115 62.5t142.5 37.5q-4 20 -4 35q0 40 29 76q-87 37 -134.5 108t-47.5 164q0 167 121.5 279t328.5 112q172 0 267 -74l290 70l-32 -235l-144 -37q0 -4 1 -17.5t1 -17.5q0 -161 -123 -272t-333 -117q-9 -18 -9 -37q0 -15 2 -21
q192 -6 310 -77t118 -197q0 -90 -42.5 -157t-119 -106.5t-174 -58t-216.5 -18.5q-135 0 -234 26.5t-160 89.5t-61 158zM231 -123q0 -67 209 -67q109 0 173.5 18.5t64.5 56.5q0 34 -56.5 52t-158.5 18q-112 0 -172 -20.5t-60 -57.5zM440 578q0 -43 33.5 -70t89.5 -27
q64 0 107 34t43 95q0 45 -31 73t-90 28q-70 0 -111 -37.5t-41 -95.5zM492 1280q0 79 52 126.5t130 47.5q71 0 126.5 -48t55.5 -126q0 -86 -55 -136t-127 -50q-78 0 -130 49t-52 137z" />
    <glyph glyph-name="uni0122" unicode="&#x122;" horiz-adv-x="1521" 
d="M893 510l53 307h613l-109 -639q-94 -97 -238 -150t-313 -53q-152 0 -278.5 45t-219.5 130t-144.5 214.5t-51.5 292.5q0 124 34.5 241t105.5 219t170.5 178t238 119.5t299.5 43.5q158 0 271.5 -42t205.5 -126l-187 -246q-135 107 -321 107q-110 0 -199 -39t-146 -106
t-87.5 -154.5t-30.5 -185.5q0 -172 91 -277.5t265 -105.5q77 0 145 19.5t109 51.5l29 156h-305zM702 -102l316 59q12 -30 12 -66q0 -128 -109 -216.5t-255 -104.5l-60 141q58 24 83.5 53.5t25.5 77.5q0 33 -13 56z" />
    <glyph glyph-name="uni0123" unicode="&#x123;" horiz-adv-x="1050" 
d="M-49 -152q0 72 28.5 129t80 95t115 62.5t142.5 37.5q-4 20 -4 35q0 40 29 76q-87 37 -134.5 108t-47.5 164q0 167 121.5 279t328.5 112q172 0 267 -74l290 70l-32 -235l-144 -37q0 -4 1 -17.5t1 -17.5q0 -161 -123 -272t-333 -117q-9 -18 -9 -37q0 -15 2 -21
q192 -6 310 -77t118 -197q0 -90 -42.5 -157t-119 -106.5t-174 -58t-216.5 -18.5q-135 0 -234 26.5t-160 89.5t-61 158zM231 -123q0 -67 209 -67q109 0 173.5 18.5t64.5 56.5q0 34 -56.5 52t-158.5 18q-112 0 -172 -20.5t-60 -57.5zM440 578q0 -43 33.5 -70t89.5 -27
q64 0 107 34t43 95q0 45 -31 73t-90 28q-70 0 -111 -37.5t-41 -95.5zM805 1120l-316 -59q-12 30 -12 65q0 128 109.5 217t255.5 105l59 -141q-58 -24 -83 -53t-25 -78q0 -35 12 -56z" />
    <glyph glyph-name="Hcircumflex" unicode="&#x124;" horiz-adv-x="1566" 
d="M1055 0l102 578h-543l-102 -578h-328l252 1434h328l-96 -549h542l97 549h327l-252 -1434h-327zM1122 1915l332 -244l-147 -170l-224 158l-301 -158l-84 182l416 232h8z" />
    <glyph glyph-name="hcircumflex" unicode="&#x125;" horiz-adv-x="1134" 
d="M111 0l251 1434h308l-123 -691q62 92 147.5 147.5t182.5 55.5q239 0 239 -264q0 -55 -14 -141l-96 -541h-308l88 502q7 40 7 63q0 94 -68 94q-34 0 -69 -26.5t-68.5 -76t-54.5 -87t-48 -90.5l-67 -379h-307zM602 1915l332 -244l-148 -170l-223 158l-301 -158l-84 182
l416 232h8z" />
    <glyph glyph-name="Hbar" unicode="&#x126;" horiz-adv-x="1566" 
d="M221 1018l49 287h154l22 129h328l-22 -129h522l22 129h328l-22 -129h153l-49 -287h-154l-180 -1018h-328l103 578h-522l-103 -578h-327l180 1018h-154zM678 885h522l25 133h-523z" />
    <glyph glyph-name="hbar" unicode="&#x127;" horiz-adv-x="1134" 
d="M111 0l176 1004h-195l51 286h193l26 144h308l-27 -144h277l-52 -286h-276l-45 -261q62 92 147.5 147.5t182.5 55.5q239 0 239 -264q0 -55 -14 -141l-96 -541h-308l88 502q7 40 7 63q0 94 -68 94q-34 0 -69 -26.5t-68.5 -76t-54.5 -87t-48 -90.5l-67 -379h-307z" />
    <glyph glyph-name="Imacron" unicode="&#x12a;" horiz-adv-x="737" 
d="M205 0l252 1434h327l-252 -1434h-327zM315 1536l43 246h643l-43 -246h-643z" />
    <glyph glyph-name="imacron" unicode="&#x12b;" horiz-adv-x="602" 
d="M129 0l162 922h307l-162 -922h-307zM182 1106l43 246h602l-43 -246h-602z" />
    <glyph glyph-name="Iogonek" unicode="&#x12e;" horiz-adv-x="737" 
d="M449 -154l69 -188q-84 -78 -270 -78q-116 0 -191 49.5t-75 141.5q0 161 223 231l252 1432h327l-243 -1387l-9 -47q-93 0 -158 -35.5t-65 -83.5q0 -25 16.5 -40t45.5 -15q38 0 78 20z" />
    <glyph glyph-name="iogonek" unicode="&#x12f;" horiz-adv-x="602" 
d="M348 -154l70 -188q-84 -78 -271 -78q-116 0 -191 49.5t-75 141.5q0 88 67.5 148t182.5 91l160 912h307l-162 -922h-4q-93 0 -158 -35.5t-65 -83.5q0 -25 16 -40t45 -15q38 0 78 20zM315 1239q0 79 54.5 126.5t132.5 47.5q70 0 122 -48t52 -126q0 -86 -51.5 -136
t-122.5 -50q-79 0 -133 49.5t-54 136.5z" />
    <glyph glyph-name="Idotaccent" unicode="&#x130;" horiz-adv-x="737" 
d="M205 0l252 1434h327l-252 -1434h-327zM471 1731q0 84 58.5 134t144.5 50q80 0 141.5 -51t61.5 -133q0 -90 -61 -143.5t-142 -53.5q-87 0 -145 52.5t-58 144.5z" />
    <glyph glyph-name="dotlessi" unicode="&#x131;" horiz-adv-x="602" 
d="M129 0l162 922h307l-162 -922h-307z" />
    <glyph glyph-name="Jcircumflex" unicode="&#x134;" horiz-adv-x="835" 
d="M903 1434l-184 -1043q-35 -201 -145.5 -308.5t-313.5 -107.5q-87 0 -161.5 31.5t-98.5 69.5l152 250q20 -19 53.5 -31t64.5 -12q53 0 84 35.5t41 91.5l180 1024h328zM821 1915l332 -244l-147 -170l-224 158l-301 -158l-84 182l416 232h8z" />
    <glyph glyph-name="jcircumflex" unicode="&#x135;" horiz-adv-x="602" 
d="M598 922l-174 -990q-12 -71 -38.5 -131.5t-71 -113.5t-114.5 -83t-159 -30q-162 0 -252 74l123 239q41 -26 100 -26q91 0 109 100l170 961h307zM528 1499l299 -289l-159 -170l-172 168l-234 -168l-131 183l389 276h8z" />
    <glyph glyph-name="uni0136" unicode="&#x136;" horiz-adv-x="1402" 
d="M184 0l252 1434h328l-109 -625l566 625h397l-649 -707l417 -727h-368l-385 686l-121 -686h-328zM555 -102l315 59q13 -33 13 -66q0 -128 -109.5 -216.5t-255.5 -104.5l-59 141q58 24 83 53t25 78q0 35 -12 56z" />
    <glyph glyph-name="uni0137" unicode="&#x137;" horiz-adv-x="1091" 
d="M111 0l251 1434h308l-158 -902l313 390h371l-371 -445l262 -477h-346l-245 446l-78 -446h-307zM379 -102l315 59q13 -33 13 -66q0 -128 -109.5 -216.5t-255.5 -104.5l-59 141q58 24 83 53t25 78q0 35 -12 56z" />
    <glyph glyph-name="Lacute" unicode="&#x139;" horiz-adv-x="1146" 
d="M184 0l252 1434h328l-199 -1127h615l-54 -307h-942zM1249 1651l-510 -160l-84 182l480 242z" />
    <glyph glyph-name="lacute" unicode="&#x13a;" horiz-adv-x="659" 
d="M150 315l196 1119h307l-186 -1053q-9 -55 9 -87t63 -32q41 0 84 19l32 -238q-36 -28 -105.5 -48t-135.5 -20q-150 0 -220.5 86.5t-43.5 253.5zM1022 1651l-510 -160l-84 182l479 242z" />
    <glyph glyph-name="uni013B" unicode="&#x13b;" horiz-adv-x="1146" 
d="M184 0l252 1434h328l-199 -1127h615l-54 -307h-942zM498 -102l315 59q12 -30 12 -66q0 -128 -109 -216.5t-255 -104.5l-60 141q58 24 83.5 53.5t25.5 77.5q0 35 -12 56z" />
    <glyph glyph-name="uni013C" unicode="&#x13c;" horiz-adv-x="659" 
d="M150 315l196 1119h307l-186 -1053q-9 -55 9 -87t63 -32q41 0 84 19l32 -238q-36 -28 -105.5 -48t-135.5 -20q-150 0 -220.5 86.5t-43.5 253.5zM223 -102l316 59q12 -30 12 -66q0 -128 -109.5 -216.5t-255.5 -104.5l-59 141q58 24 83.5 53.5t25.5 77.5q0 33 -13 56z" />
    <glyph glyph-name="Lcaron" unicode="&#x13d;" horiz-adv-x="1146" 
d="M184 0l252 1434h328l-199 -1127h615l-54 -307h-942zM1024 1434h299q2 -8 2 -33q0 -78 -28 -148.5t-75 -123.5t-96.5 -91t-105.5 -67l-121 129q133 127 133 266q0 28 -8 68z" />
    <glyph glyph-name="lcaron" unicode="&#x13e;" horiz-adv-x="659" 
d="M150 315l196 1119h307l-186 -1053q-9 -55 9 -87t63 -32q41 0 84 19l32 -238q-36 -28 -105.5 -48t-135.5 -20q-150 0 -220.5 86.5t-43.5 253.5zM786 1434h299q2 -8 2 -33q0 -78 -28 -148.5t-75 -123.5t-96.5 -91t-105.5 -67l-120 129q133 127 133 266q0 23 -9 68z" />
    <glyph glyph-name="Ldot" unicode="&#x13f;" horiz-adv-x="1146" 
d="M184 0l252 1434h328l-199 -1127h615l-54 -307h-942zM862 770q0 75 57.5 134t151.5 59q88 0 145.5 -58t57.5 -135q0 -86 -57.5 -147.5t-149.5 -61.5q-97 0 -151 60.5t-54 148.5z" />
    <glyph glyph-name="ldot" unicode="&#x140;" horiz-adv-x="784" 
d="M150 315l196 1119h307l-186 -1053q-9 -55 9 -87t63 -32q41 0 84 19l32 -238q-36 -28 -105.5 -48t-135.5 -20q-150 0 -220.5 86.5t-43.5 253.5zM586 758q0 79 52 126.5t130 47.5q71 0 126.5 -48t55.5 -126q0 -86 -55 -136.5t-127 -50.5q-78 0 -130 49.5t-52 137.5z" />
    <glyph glyph-name="Lslash" unicode="&#x141;" horiz-adv-x="1146" 
d="M88 387l55 315l176 72l117 660h328l-90 -514l327 135l-53 -314l-330 -137l-53 -297h613l-54 -307h-940l80 459z" />
    <glyph glyph-name="lslash" unicode="&#x142;" horiz-adv-x="718" 
d="M86 373l55 315l144 57l121 689h307l-99 -553l187 75l-56 -313l-186 -76l-33 -186q-10 -60 10 -89.5t62 -29.5q31 0 84 17l33 -236q-47 -34 -114.5 -51t-129.5 -17q-151 0 -220.5 91t-41.5 247l20 117z" />
    <glyph glyph-name="Nacute" unicode="&#x143;" horiz-adv-x="1628" 
d="M1444 0h-262l-535 887l-155 -887h-308l252 1434h262l535 -891l156 891h307zM1516 1651l-510 -160l-84 182l479 242z" />
    <glyph glyph-name="nacute" unicode="&#x144;" horiz-adv-x="1130" 
d="M485 379l-67 -379h-307l161 922h308l-33 -179q158 203 356 203q105 0 157 -65t52 -160q0 -98 -14 -180l-97 -541h-307l88 502q6 38 6 80q0 77 -61 77q-34 0 -69.5 -27t-69 -75.5t-55.5 -87t-48 -90.5zM1116 1378l-272 -307l-182 129l215 361z" />
    <glyph glyph-name="uni0145" unicode="&#x145;" horiz-adv-x="1628" 
d="M1444 0h-262l-535 887l-155 -887h-308l252 1434h262l535 -891l156 891h307zM631 -102l315 59q12 -30 12 -66q0 -128 -109 -216.5t-255 -104.5l-59 141q58 24 83 53t25 78q0 35 -12 56z" />
    <glyph glyph-name="uni0146" unicode="&#x146;" horiz-adv-x="1130" 
d="M485 379l-67 -379h-307l161 922h308l-33 -179q158 203 356 203q105 0 157 -65t52 -160q0 -98 -14 -180l-97 -541h-307l88 502q6 38 6 80q0 77 -61 77q-34 0 -69.5 -27t-69 -75.5t-55.5 -87t-48 -90.5zM373 -102l315 59q12 -30 12 -66q0 -128 -109 -216.5t-255 -104.5
l-60 141q58 24 83.5 53.5t25.5 77.5q0 35 -12 56z" />
    <glyph glyph-name="Ncaron" unicode="&#x147;" horiz-adv-x="1628" 
d="M1444 0h-262l-535 887l-155 -887h-308l252 1434h262l535 -891l156 891h307zM1077 1501l-334 240l150 174l223 -158l301 158l84 -182l-416 -232h-8z" />
    <glyph glyph-name="ncaron" unicode="&#x148;" horiz-adv-x="1130" 
d="M485 379l-67 -379h-307l161 922h308l-33 -179q158 203 356 203q105 0 157 -65t52 -160q0 -98 -14 -180l-97 -541h-307l88 502q6 38 6 80q0 77 -61 77q-34 0 -69.5 -27t-69 -75.5t-55.5 -87t-48 -90.5zM745 1040l-299 289l160 170l172 -168l234 168l131 -182l-389 -277h-9
z" />
    <glyph glyph-name="Eng" unicode="&#x14a;" horiz-adv-x="1628" 
d="M1696 1434l-256 -1452q-18 -100 -48 -172.5t-80 -127t-126.5 -81.5t-179.5 -27q-86 0 -162.5 32t-102.5 68l152 250q20 -19 54 -31t65 -12q104 0 125 119l-490 887l-155 -887h-308l252 1434h262l523 -949l168 949h307z" />
    <glyph glyph-name="eng" unicode="&#x14b;" horiz-adv-x="1130" 
d="M580 -139q50 0 75 26.5t33 73.5l94 541q6 38 6 80q0 77 -61 77q-34 0 -69.5 -27t-69 -75.5t-55.5 -87t-48 -90.5l-67 -379h-307l161 922h308l-33 -179q158 203 356 203q105 0 157 -65t52 -160q0 -98 -14 -180l-107 -609q-12 -71 -38.5 -131.5t-71 -113.5t-114.5 -83
t-159 -30q-162 0 -252 74l123 239q41 -26 101 -26z" />
    <glyph glyph-name="Omacron" unicode="&#x14c;" horiz-adv-x="1710" 
d="M205 645q0 173 60.5 323t169 258t266.5 170t346 62q207 0 368 -81t251.5 -233.5t90.5 -355.5q0 -130 -34.5 -250.5t-104.5 -222.5t-168.5 -178t-233.5 -119t-292 -43q-136 0 -252.5 34t-201.5 95.5t-145.5 145t-90 184t-29.5 211.5zM559 666q0 -168 102 -275.5
t275 -107.5q144 0 251.5 66t161.5 175t54 244q0 173 -102.5 278t-280.5 105q-92 0 -169.5 -28t-130.5 -75t-90 -109.5t-54 -131.5t-17 -141zM803 1536l43 246h643l-43 -246h-643z" />
    <glyph glyph-name="omacron" unicode="&#x14d;" horiz-adv-x="1112" 
d="M123 365q0 123 37 227.5t108 184t183.5 124.5t255.5 45q102 0 181.5 -32t127 -87.5t72 -124t24.5 -145.5q0 -125 -36.5 -230.5t-106.5 -184t-179.5 -123t-246.5 -44.5q-203 0 -311.5 110t-108.5 280zM438 426q0 -79 40 -129.5t116 -50.5q94 0 148.5 71.5t54.5 178.5
q0 75 -38 127.5t-116 52.5q-98 0 -151.5 -74.5t-53.5 -175.5zM436 1106l43 246h602l-43 -246h-602z" />
    <glyph glyph-name="Ohungarumlaut" unicode="&#x150;" horiz-adv-x="1710" 
d="M205 645q0 173 60.5 323t169 258t266.5 170t346 62q207 0 368 -81t251.5 -233.5t90.5 -355.5q0 -130 -34.5 -250.5t-104.5 -222.5t-168.5 -178t-233.5 -119t-292 -43q-136 0 -252.5 34t-201.5 95.5t-145.5 145t-90 184t-29.5 211.5zM559 666q0 -168 102 -275.5
t275 -107.5q144 0 251.5 66t161.5 175t54 244q0 173 -102.5 278t-280.5 105q-92 0 -169.5 -28t-130.5 -75t-90 -109.5t-54 -131.5t-17 -141zM1718 1722l-418 -231l-124 129l325 295zM1268 1782l-342 -291l-131 119l206 305z" />
    <glyph glyph-name="ohungarumlaut" unicode="&#x151;" horiz-adv-x="1112" 
d="M123 365q0 123 37 227.5t108 184t183.5 124.5t255.5 45q102 0 181.5 -32t127 -87.5t72 -124t24.5 -145.5q0 -125 -36.5 -230.5t-106.5 -184t-179.5 -123t-246.5 -44.5q-203 0 -311.5 110t-108.5 280zM438 426q0 -79 40 -129.5t116 -50.5q94 0 148.5 71.5t54.5 178.5
q0 75 -38 127.5t-116 52.5q-98 0 -151.5 -74.5t-53.5 -175.5zM1217 1356l-287 -285l-182 129l241 328zM827 1399l-245 -328l-189 123l205 362z" />
    <glyph glyph-name="OE" unicode="&#x152;" horiz-adv-x="2121" 
d="M1124 0l6 29q-132 -54 -270 -54q-121 0 -226 35.5t-183 98t-134 146.5t-84 183.5t-28 206.5q0 125 32.5 241.5t102 221t169 182t242.5 123t314 45.5q175 0 307 -61l6 37h873l-56 -308h-544l-45 -252h483l-53 -307h-484l-45 -260h566l-56 -307h-893zM936 283
q76 0 132 15.5t120 49.5l125 715q-65 43 -129 65.5t-170 22.5q-89 0 -169.5 -31.5t-145 -90t-102.5 -152t-38 -209.5q0 -166 99 -275.5t278 -109.5z" />
    <glyph glyph-name="oe" unicode="&#x153;" horiz-adv-x="1679" 
d="M1505 307l123 -164q-168 -168 -414 -168q-210 0 -319 115q-140 -115 -352 -115q-203 0 -311.5 110t-108.5 280q0 123 37 227.5t108 184t183.5 124.5t255.5 45q206 0 305 -129q148 129 354 129q342 0 342 -256q0 -85 -50 -152t-137.5 -110t-197 -67.5t-236.5 -30.5
q24 -109 183 -109q120 0 235 86zM438 426q0 -79 40 -129.5t116 -50.5q94 0 148.5 71.5t54.5 178.5q0 75 -38 127.5t-116 52.5q-98 0 -151.5 -74.5t-53.5 -175.5zM1341 700q-80 0 -142.5 -47t-86.5 -118q0 -4 -1 -12t-1 -11q56 2 107 10.5t96 23t71.5 38.5t26.5 53t-20 46
t-50 17z" />
    <glyph glyph-name="Racute" unicode="&#x154;" horiz-adv-x="1382" 
d="M512 0h-328l252 1434q45 0 236 2t207 2q130 0 231 -32.5t162 -89.5t92 -129.5t31 -156.5q0 -346 -334 -465l311 -565h-366l-261 502h-145zM864 1130q-17 0 -153 -4l-56 -317h156q104 0 166.5 47t62.5 131q0 68 -40 105.5t-136 37.5zM1231 1651l-510 -160l-84 182l479 242
z" />
    <glyph glyph-name="racute" unicode="&#x155;" horiz-adv-x="776" 
d="M111 0l161 922h308l-29 -148q31 39 51 61t54.5 52t72.5 44.5t80 14.5q56 0 111 -35l-152 -272q-29 20 -72 20q-97 0 -204 -243l-74 -416h-307zM997 1378l-272 -307l-182 129l215 361z" />
    <glyph glyph-name="uni0156" unicode="&#x156;" horiz-adv-x="1382" 
d="M512 0h-328l252 1434q45 0 236 2t207 2q130 0 231 -32.5t162 -89.5t92 -129.5t31 -156.5q0 -346 -334 -465l311 -565h-366l-261 502h-145zM864 1130q-17 0 -153 -4l-56 -317h156q104 0 166.5 47t62.5 131q0 68 -40 105.5t-136 37.5zM571 -102l316 59q12 -30 12 -66
q0 -128 -109 -216.5t-255 -104.5l-60 141q58 24 83.5 53.5t25.5 77.5q0 33 -13 56z" />
    <glyph glyph-name="uni0157" unicode="&#x157;" horiz-adv-x="776" 
d="M111 0l161 922h308l-29 -148q31 39 51 61t54.5 52t72.5 44.5t80 14.5q56 0 111 -35l-152 -272q-29 20 -72 20q-97 0 -204 -243l-74 -416h-307zM78 -102l315 59q13 -32 13 -66q0 -128 -109.5 -216.5t-255.5 -104.5l-59 141q58 24 83 53t25 78q0 35 -12 56z" />
    <glyph glyph-name="Rcaron" unicode="&#x158;" horiz-adv-x="1382" 
d="M512 0h-328l252 1434q45 0 236 2t207 2q130 0 231 -32.5t162 -89.5t92 -129.5t31 -156.5q0 -346 -334 -465l311 -565h-366l-261 502h-145zM864 1130q-17 0 -153 -4l-56 -317h156q104 0 166.5 47t62.5 131q0 68 -40 105.5t-136 37.5zM891 1501l-334 240l150 174l223 -158
l301 158l84 -182l-416 -232h-8z" />
    <glyph glyph-name="rcaron" unicode="&#x159;" horiz-adv-x="776" 
d="M111 0l161 922h308l-29 -148q31 39 51 61t54.5 52t72.5 44.5t80 14.5q56 0 111 -35l-152 -272q-29 20 -72 20q-97 0 -204 -243l-74 -416h-307zM612 1040l-299 289l160 170l172 -168l234 168l131 -182l-389 -277h-9z" />
    <glyph glyph-name="Sacute" unicode="&#x15a;" horiz-adv-x="1101" 
d="M756 395q0 40 -26.5 76t-68.5 66t-92.5 61.5t-101.5 70.5t-93 84.5t-68.5 112.5t-26.5 146q0 90 36 171t101.5 142t166.5 97t224 36q140 0 244 -46t163 -122l-198 -225q-77 86 -219 86q-75 0 -119.5 -34t-44.5 -91q0 -41 26.5 -76.5t68.5 -64.5t93 -59t101.5 -67
t92.5 -81.5t68.5 -109.5t26.5 -144q0 -201 -141 -325t-381 -124q-166 0 -294.5 68t-170.5 184l211 207q91 -151 260 -151q71 0 116.5 28t45.5 84zM1251 1651l-510 -160l-84 182l480 242z" />
    <glyph glyph-name="sacute" unicode="&#x15b;" horiz-adv-x="817" 
d="M487 285q0 22 -23.5 44.5t-58.5 41t-76.5 45t-76.5 56t-58.5 76t-23.5 101.5q0 132 106.5 214.5t278.5 82.5q193 0 322 -72l-134 -221q-27 17 -70.5 27t-80.5 10q-44 0 -77.5 -12t-33.5 -37q0 -22 33 -46t79.5 -51t93 -61t79.5 -89.5t33 -123.5q0 -98 -57 -166
t-148 -98.5t-207 -30.5q-100 0 -192 28t-142 81l135 199q84 -52 185 -52q114 0 114 54zM954 1378l-272 -307l-182 129l215 361z" />
    <glyph glyph-name="Scircumflex" unicode="&#x15c;" horiz-adv-x="1101" 
d="M756 395q0 40 -26.5 76t-68.5 66t-92.5 61.5t-101.5 70.5t-93 84.5t-68.5 112.5t-26.5 146q0 90 36 171t101.5 142t166.5 97t224 36q140 0 244 -46t163 -122l-198 -225q-77 86 -219 86q-75 0 -119.5 -34t-44.5 -91q0 -41 26.5 -76.5t68.5 -64.5t93 -59t101.5 -67
t92.5 -81.5t68.5 -109.5t26.5 -144q0 -201 -141 -325t-381 -124q-166 0 -294.5 68t-170.5 184l211 207q91 -151 260 -151q71 0 116.5 28t45.5 84zM883 1915l331 -244l-147 -170l-223 158l-301 -158l-84 182l415 232h9z" />
    <glyph glyph-name="scircumflex" unicode="&#x15d;" horiz-adv-x="817" 
d="M487 285q0 22 -23.5 44.5t-58.5 41t-76.5 45t-76.5 56t-58.5 76t-23.5 101.5q0 132 106.5 214.5t278.5 82.5q193 0 322 -72l-134 -221q-27 17 -70.5 27t-80.5 10q-44 0 -77.5 -12t-33.5 -37q0 -22 33 -46t79.5 -51t93 -61t79.5 -89.5t33 -123.5q0 -98 -57 -166
t-148 -98.5t-207 -30.5q-100 0 -192 28t-142 81l135 199q84 -52 185 -52q114 0 114 54zM645 1499l299 -289l-160 -170l-172 168l-233 -168l-131 183l389 276h8z" />
    <glyph glyph-name="Scedilla" unicode="&#x15e;" horiz-adv-x="1101" 
d="M231 -344l111 151q66 -53 145 -53q50 0 50 33q0 29 -45 29h-13l29 164q-141 15 -245 80.5t-140 166.5l211 207q91 -151 260 -151q71 0 116.5 28t45.5 84q0 40 -26.5 76t-68.5 66t-92.5 61.5t-101.5 70.5t-93 84.5t-68.5 112.5t-26.5 146q0 90 36 171t101.5 142t166.5 97
t224 36q140 0 244 -46t163 -122l-198 -225q-77 86 -219 86q-75 0 -119.5 -34t-44.5 -91q0 -41 26.5 -76.5t68.5 -64.5t93 -59t101.5 -67t92.5 -81.5t68.5 -109.5t26.5 -144q0 -184 -120 -304.5t-328 -139.5l-7 -33q100 -4 154.5 -45.5t54.5 -112.5q0 -100 -89 -159.5
t-245 -59.5q-99 0 -168.5 19.5t-130.5 66.5z" />
    <glyph glyph-name="scedilla" unicode="&#x15f;" horiz-adv-x="817" 
d="M43 -330l115 142q62 -58 129 -58q51 0 51 33q0 29 -45 29h-12l26 164q-177 21 -254 104l135 199q84 -52 185 -52q114 0 114 54q0 22 -23.5 44.5t-58.5 41t-76.5 45t-76.5 56t-58.5 76t-23.5 101.5q0 132 106.5 214.5t278.5 82.5q193 0 322 -72l-134 -221q-27 17 -70.5 27
t-80.5 10q-44 0 -77.5 -12t-33.5 -37q0 -22 33 -46t79.5 -51t93 -61t79.5 -89.5t33 -123.5q0 -129 -93.5 -202.5t-244.5 -87.5l-4 -33q89 -4 138.5 -45.5t49.5 -110.5q0 -99 -86 -160t-237 -61q-64 0 -113 9t-81.5 27t-49 31t-35.5 33z" />
    <glyph glyph-name="Scaron" unicode="&#x160;" horiz-adv-x="1101" 
d="M756 395q0 40 -26.5 76t-68.5 66t-92.5 61.5t-101.5 70.5t-93 84.5t-68.5 112.5t-26.5 146q0 90 36 171t101.5 142t166.5 97t224 36q140 0 244 -46t163 -122l-198 -225q-77 86 -219 86q-75 0 -119.5 -34t-44.5 -91q0 -41 26.5 -76.5t68.5 -64.5t93 -59t101.5 -67
t92.5 -81.5t68.5 -109.5t26.5 -144q0 -201 -141 -325t-381 -124q-166 0 -294.5 68t-170.5 184l211 207q91 -151 260 -151q71 0 116.5 28t45.5 84zM811 1501l-334 240l150 174l223 -158l301 158l84 -182l-416 -232h-8z" />
    <glyph glyph-name="scaron" unicode="&#x161;" horiz-adv-x="817" 
d="M487 285q0 22 -23.5 44.5t-58.5 41t-76.5 45t-76.5 56t-58.5 76t-23.5 101.5q0 132 106.5 214.5t278.5 82.5q193 0 322 -72l-134 -221q-27 17 -70.5 27t-80.5 10q-44 0 -77.5 -12t-33.5 -37q0 -22 33 -46t79.5 -51t93 -61t79.5 -89.5t33 -123.5q0 -98 -57 -166
t-148 -98.5t-207 -30.5q-100 0 -192 28t-142 81l135 199q84 -52 185 -52q114 0 114 54zM569 1040l-299 289l160 170l172 -168l234 168l131 -182l-389 -277h-9z" />
    <glyph glyph-name="uni0162" unicode="&#x162;" 
d="M258 -344l111 151q66 -53 145 -53q49 0 49 33q0 29 -45 29h-12l33 184h-86l198 1126h-438l53 308h1204l-53 -308h-438l-199 -1126h-88l-10 -53q100 -4 154.5 -45.5t54.5 -112.5q0 -100 -89 -159.5t-245 -59.5q-99 0 -168.5 19.5t-130.5 66.5z" />
    <glyph glyph-name="uni0163" unicode="&#x163;" horiz-adv-x="751" 
d="M76 -330l114 142q62 -58 129 -58q22 0 37 8.5t15 24.5q0 29 -45 29h-13l27 168q-123 23 -169.5 119.5t-20.5 246.5l153 828h303l-45 -256h256l-49 -287h-256l-51 -270q-8 -45 6 -74t53 -29q58 0 121 47l76 -239q-84 -67 -223 -88l-5 -35q89 -4 139 -45.5t50 -110.5
q0 -99 -86.5 -160t-237.5 -61q-64 0 -113 9t-81.5 27t-48.5 31t-35 33z" />
    <glyph glyph-name="Tcaron" unicode="&#x164;" 
d="M213 1126l53 308h1204l-53 -308h-438l-199 -1126h-327l198 1126h-438zM868 1501l-333 240l149 174l223 -158l301 158l84 -182l-415 -232h-9z" />
    <glyph glyph-name="tcaron" unicode="&#x165;" horiz-adv-x="751" 
d="M150 350l153 828h303l-45 -256h256l-49 -287h-256l-51 -270q-8 -45 6 -74t53 -29q58 0 121 47l76 -239q-49 -39 -130.5 -67t-166.5 -28q-167 0 -233 101.5t-37 273.5zM764 1434h299q2 -8 2 -33q0 -78 -28 -148.5t-75 -123.5t-96.5 -91t-105.5 -67l-121 129
q133 127 133 266q0 28 -8 68z" />
    <glyph glyph-name="Umacron" unicode="&#x16a;" horiz-adv-x="1531" 
d="M1622 1434l-147 -842q-13 -77 -31.5 -142t-47 -129.5t-66 -115.5t-89.5 -95t-115.5 -73t-147 -45.5t-181.5 -16.5q-141 0 -251 42.5t-181 126.5t-96 207.5t3 285.5l140 797h327l-133 -758q-69 -393 219 -393q51 0 94 11.5t74 30.5t56.5 49t42 59.5t30 71t21.5 75t16 77.5
l137 777h326zM723 1536l43 246h643l-43 -246h-643z" />
    <glyph glyph-name="umacron" unicode="&#x16b;" horiz-adv-x="1103" 
d="M1116 922l-164 -922h-307l33 176q-31 -41 -60.5 -71.5t-71 -62.5t-94 -49.5t-110.5 -17.5q-60 0 -102.5 20t-65.5 55.5t-33 76t-10 90.5q0 55 12 125l123 580h307l-106 -514q-1 -5 -3.5 -19t-4.5 -28.5t-2 -26.5q0 -72 51 -72q55 0 121 84.5t108 177.5l72 398h307z
M424 1106l43 246h602l-43 -246h-602z" />
    <glyph glyph-name="Ubreve" unicode="&#x16c;" horiz-adv-x="1531" 
d="M1622 1434l-147 -842q-13 -77 -31.5 -142t-47 -129.5t-66 -115.5t-89.5 -95t-115.5 -73t-147 -45.5t-181.5 -16.5q-141 0 -251 42.5t-181 126.5t-96 207.5t3 285.5l140 797h327l-133 -758q-69 -393 219 -393q51 0 94 11.5t74 30.5t56.5 49t42 59.5t30 71t21.5 75t16 77.5
l137 777h326zM637 1722l172 162q42 -54 104 -88.5t166 -34.5q186 0 312 119l100 -174q-73 -94 -194.5 -152.5t-258.5 -58.5q-147 0 -250 60t-151 167z" />
    <glyph glyph-name="ubreve" unicode="&#x16d;" horiz-adv-x="1103" 
d="M1116 922l-164 -922h-307l33 176q-31 -41 -60.5 -71.5t-71 -62.5t-94 -49.5t-110.5 -17.5q-60 0 -102.5 20t-65.5 55.5t-33 76t-10 90.5q0 55 12 125l123 580h307l-106 -514q-1 -5 -3.5 -19t-4.5 -28.5t-2 -26.5q0 -72 51 -72q55 0 121 84.5t108 177.5l72 398h307z
M397 1284l162 154q22 -30 42.5 -50t62 -38.5t92.5 -18.5q70 0 135.5 30.5t107.5 72.5l97 -164q-64 -77 -161 -131t-216 -54q-59 0 -110 14.5t-85 35.5t-61.5 49.5t-42 52t-23.5 47.5z" />
    <glyph glyph-name="Uring" unicode="&#x16e;" horiz-adv-x="1531" 
d="M1622 1434l-147 -842q-13 -77 -31.5 -142t-47 -129.5t-66 -115.5t-89.5 -95t-115.5 -73t-147 -45.5t-181.5 -16.5q-141 0 -251 42.5t-181 126.5t-96 207.5t3 285.5l140 797h327l-133 -758q-69 -393 219 -393q51 0 94 11.5t74 30.5t56.5 49t42 59.5t30 71t21.5 75t16 77.5
l137 777h326zM719 1657q0 121 88.5 181t228.5 60q146 0 237 -60t91 -181q0 -120 -92 -184t-236 -64q-138 0 -227.5 64.5t-89.5 183.5zM944 1657q0 -41 26.5 -62.5t69.5 -21.5q44 0 71.5 21.5t27.5 62.5q0 39 -27.5 58.5t-71.5 19.5t-70 -19.5t-26 -58.5z" />
    <glyph glyph-name="uring" unicode="&#x16f;" horiz-adv-x="1103" 
d="M1116 922l-164 -922h-307l33 176q-31 -41 -60.5 -71.5t-71 -62.5t-94 -49.5t-110.5 -17.5q-60 0 -102.5 20t-65.5 55.5t-33 76t-10 90.5q0 55 12 125l123 580h307l-106 -514q-1 -5 -3.5 -19t-4.5 -28.5t-2 -26.5q0 -72 51 -72q55 0 121 84.5t108 177.5l72 398h307z
M451 1292q0 110 79.5 187t200.5 77q123 0 204 -77t81 -187q0 -109 -81 -184.5t-204 -75.5q-121 0 -200.5 75.5t-79.5 184.5zM645 1296q0 -42 25 -71t65 -29q39 0 62.5 29t23.5 71q0 41 -23.5 69t-62.5 28q-40 0 -65 -28t-25 -69z" />
    <glyph glyph-name="Uhungarumlaut" unicode="&#x170;" horiz-adv-x="1531" 
d="M1622 1434l-147 -842q-13 -77 -31.5 -142t-47 -129.5t-66 -115.5t-89.5 -95t-115.5 -73t-147 -45.5t-181.5 -16.5q-141 0 -251 42.5t-181 126.5t-96 207.5t3 285.5l140 797h327l-133 -758q-69 -393 219 -393q51 0 94 11.5t74 30.5t56.5 49t42 59.5t30 71t21.5 75t16 77.5
l137 777h326zM1612 1722l-418 -231l-125 129l326 295zM1161 1782l-342 -291l-131 119l207 305z" />
    <glyph glyph-name="uhungarumlaut" unicode="&#x171;" horiz-adv-x="1103" 
d="M1116 922l-164 -922h-307l33 176q-31 -41 -60.5 -71.5t-71 -62.5t-94 -49.5t-110.5 -17.5q-60 0 -102.5 20t-65.5 55.5t-33 76t-10 90.5q0 55 12 125l123 580h307l-106 -514q-1 -5 -3.5 -19t-4.5 -28.5t-2 -26.5q0 -72 51 -72q55 0 121 84.5t108 177.5l72 398h307z
M1206 1356l-286 -285l-183 129l242 328zM817 1399l-246 -328l-188 123l205 362z" />
    <glyph glyph-name="Uogonek" unicode="&#x172;" horiz-adv-x="1531" 
d="M987 -154l70 -188q-84 -78 -271 -78q-116 0 -191 49.5t-75 141.5q0 121 195 209q-123 12 -217 59.5t-154 130.5t-79 200t7 267l140 797h327l-133 -758q-69 -393 219 -393q51 0 94 11.5t74 30.5t56.5 49t42 59.5t30 71t21.5 75t16 77.5l137 777h326l-147 -842
q-16 -91 -39 -166t-61.5 -147t-89.5 -126t-124 -95.5t-164 -61.5q-149 -51 -149 -115q0 -25 16 -40t45 -15q38 0 78 20z" />
    <glyph glyph-name="uogonek" unicode="&#x173;" horiz-adv-x="1103" 
d="M868 -154l70 -188q-84 -78 -270 -78q-116 0 -191.5 50t-75.5 141q0 88 66 147t180 90l31 168q-31 -41 -60.5 -71.5t-71 -62.5t-94 -49.5t-110.5 -17.5q-60 0 -102.5 20t-65.5 55.5t-33 76t-10 90.5q0 55 12 125l123 580h307l-106 -514q-1 -5 -3.5 -19t-4.5 -28.5
t-2 -26.5q0 -72 51 -72q55 0 121 84.5t108 177.5l72 398h307l-164 -922h-18q-87 -3 -146 -38t-59 -81q0 -25 16.5 -40t45.5 -15q37 0 77 20z" />
    <glyph glyph-name="Ydieresis" unicode="&#x178;" horiz-adv-x="1277" 
d="M1540 1434l-637 -850l-102 -584h-328l102 584l-333 850h344l192 -531l379 531h383zM997 1700q0 68 53 110.5t126 42.5q78 0 128 -42t50 -109q0 -66 -46.5 -113t-131.5 -47q-82 0 -130.5 43.5t-48.5 114.5zM494 1700q0 68 52.5 110.5t125.5 42.5q78 0 128 -42t50 -109
q0 -66 -46.5 -113t-131.5 -47q-82 0 -130 43.5t-48 114.5z" />
    <glyph glyph-name="Zacute" unicode="&#x179;" horiz-adv-x="1341" 
d="M322 1126l53 308h1116l-39 -230l-852 -897h713l-53 -307h-1178l41 229l848 897h-649zM1352 1651l-510 -160l-84 182l479 242z" />
    <glyph glyph-name="zacute" unicode="&#x17a;" horiz-adv-x="978" 
d="M184 635l49 287h820l-39 -226l-461 -409h379l-51 -287h-840l39 225l459 410h-355zM1020 1378l-272 -307l-183 129l215 361z" />
    <glyph glyph-name="Zdotaccent" unicode="&#x17b;" horiz-adv-x="1341" 
d="M322 1126l53 308h1116l-39 -230l-852 -897h713l-53 -307h-1178l41 229l848 897h-649zM768 1731q0 84 58.5 134t144.5 50q80 0 141.5 -51t61.5 -133q0 -90 -61 -143.5t-142 -53.5q-87 0 -145 52.5t-58 144.5z" />
    <glyph glyph-name="zdotaccent" unicode="&#x17c;" horiz-adv-x="978" 
d="M184 635l49 287h820l-39 -226l-461 -409h379l-51 -287h-840l39 225l459 410h-355zM496 1280q0 79 52 126.5t130 47.5q71 0 126.5 -48t55.5 -126q0 -86 -55 -136t-127 -50q-78 0 -130 49t-52 137z" />
    <glyph glyph-name="Zcaron" unicode="&#x17d;" horiz-adv-x="1341" 
d="M322 1126l53 308h1116l-39 -230l-852 -897h713l-53 -307h-1178l41 229l848 897h-649zM922 1501l-334 240l149 174l224 -158l301 158l84 -182l-416 -232h-8z" />
    <glyph glyph-name="zcaron" unicode="&#x17e;" horiz-adv-x="978" 
d="M184 635l49 287h820l-39 -226l-461 -409h379l-51 -287h-840l39 225l459 410h-355zM647 1040l-299 289l160 170l172 -168l233 168l131 -182l-389 -277h-8z" />
    <glyph glyph-name="longs" unicode="&#x17f;" horiz-adv-x="581" 
d="M111 0l188 1071q34 191 128 289t271 98q82 0 152.5 -25.5t105.5 -64.5l-143 -233q-40 36 -96 36q-93 0 -111 -108l-188 -1063h-307z" />
    <glyph glyph-name="uni018F" unicode="&#x18f;" horiz-adv-x="1626" 
d="M262 885h1047q-34 129 -130 197.5t-245 68.5q-173 0 -330 -104l-117 258q202 153 500 153q193 0 347.5 -77t246.5 -229t92 -355q0 -132 -32 -251.5t-100 -224.5t-166.5 -181.5t-239.5 -120.5t-310 -44q-242 0 -399 107.5t-204 309.5t40 493zM854 283q169 0 278 77
t158 218h-731q-5 -134 66.5 -214.5t228.5 -80.5z" />
    <glyph glyph-name="florin" unicode="&#x192;" 
d="M942 1053l-22 -131h182v-287h-232l-120 -703q-14 -81 -36.5 -141t-61.5 -111.5t-102.5 -78.5t-150.5 -27q-138 0 -211 70l80 243q43 -26 80 -26q38 0 62 28t32 72l117 674h-194v287h243l29 170q11 65 27 116.5t44 99.5t66 80t94.5 51t128.5 19q77 0 144 -25t104 -65
l-102 -233q-41 36 -88 36q-48 0 -75.5 -28.5t-37.5 -89.5z" />
    <glyph glyph-name="uni01DD" unicode="&#x1dd;" horiz-adv-x="1079" 
d="M336 625l-51 231q67 44 161.5 67t192.5 23q215 0 327.5 -107t112.5 -290q0 -88 -20 -170t-63.5 -156t-107 -128.5t-156.5 -87t-206 -32.5q-189 0 -304.5 101t-115.5 268q0 120 54 219h608q-30 127 -178 127q-139 0 -254 -65zM551 231q74 0 124 34.5t73 92.5h-324
q-8 -51 25 -89t102 -38z" />
    <glyph glyph-name="uni0218" unicode="&#x218;" horiz-adv-x="1101" 
d="M756 395q0 40 -26.5 76t-68.5 66t-92.5 61.5t-101.5 70.5t-93 84.5t-68.5 112.5t-26.5 146q0 90 36 171t101.5 142t166.5 97t224 36q140 0 244 -46t163 -122l-198 -225q-77 86 -219 86q-75 0 -119.5 -34t-44.5 -91q0 -41 26.5 -76.5t68.5 -64.5t93 -59t101.5 -67
t92.5 -81.5t68.5 -109.5t26.5 -144q0 -201 -141 -325t-381 -124q-166 0 -294.5 68t-170.5 184l211 207q91 -151 260 -151q71 0 116.5 28t45.5 84zM408 -102l315 59q12 -30 12 -66q0 -128 -109 -216.5t-255 -104.5l-60 141q58 24 83.5 53.5t25.5 77.5q0 35 -12 56z" />
    <glyph glyph-name="uni0219" unicode="&#x219;" horiz-adv-x="817" 
d="M487 285q0 22 -23.5 44.5t-58.5 41t-76.5 45t-76.5 56t-58.5 76t-23.5 101.5q0 132 106.5 214.5t278.5 82.5q193 0 322 -72l-134 -221q-27 17 -70.5 27t-80.5 10q-44 0 -77.5 -12t-33.5 -37q0 -22 33 -46t79.5 -51t93 -61t79.5 -89.5t33 -123.5q0 -98 -57 -166
t-148 -98.5t-207 -30.5q-100 0 -192 28t-142 81l135 199q84 -52 185 -52q114 0 114 54zM219 -102l316 59q12 -30 12 -66q0 -128 -109.5 -216.5t-255.5 -104.5l-59 141q58 24 83 53t25 78q0 35 -12 56z" />
    <glyph glyph-name="uni021A" unicode="&#x21a;" 
d="M213 1126l53 308h1204l-53 -308h-438l-199 -1126h-327l198 1126h-438zM446 -102l316 59q12 -30 12 -66q0 -128 -109 -216.5t-255 -104.5l-60 141q58 24 83.5 53.5t25.5 77.5q0 33 -13 56z" />
    <glyph glyph-name="uni021B" unicode="&#x21b;" horiz-adv-x="751" 
d="M150 350l153 828h303l-45 -256h256l-49 -287h-256l-51 -270q-8 -45 6 -74t53 -29q58 0 121 47l76 -239q-49 -39 -130.5 -67t-166.5 -28q-167 0 -233 101.5t-37 273.5zM248 -102l315 59q12 -30 12 -66q0 -128 -109 -216.5t-255 -104.5l-59 141q58 24 83 53t25 78
q0 35 -12 56z" />
    <glyph glyph-name="uni0237" unicode="&#x237;" horiz-adv-x="602" 
d="M598 922l-174 -990q-12 -71 -38.5 -131.5t-71 -113.5t-114.5 -83t-159 -30q-162 0 -252 74l123 239q41 -26 100 -26q91 0 109 100l170 961h307z" />
    <glyph glyph-name="uni0259" unicode="&#x259;" horiz-adv-x="1079" 
d="M336 625l-51 231q67 44 161.5 67t192.5 23q215 0 327.5 -107t112.5 -290q0 -88 -20 -170t-63.5 -156t-107 -128.5t-156.5 -87t-206 -32.5q-189 0 -304.5 101t-115.5 268q0 120 54 219h608q-30 127 -178 127q-139 0 -254 -65zM551 231q74 0 124 34.5t73 92.5h-324
q-8 -51 25 -89t102 -38z" />
    <glyph glyph-name="uni02BC" unicode="&#x2bc;" horiz-adv-x="620" 
d="M389 1284l285 150q45 -57 45 -168q0 -155 -82.5 -271t-239.5 -174l-112 135q63 42 98 101t35 125q0 62 -29 102z" />
    <glyph glyph-name="circumflex" unicode="&#x2c6;" horiz-adv-x="931" 
d="M727 1499l299 -289l-160 -170l-172 168l-233 -168l-131 183l389 276h8z" />
    <glyph glyph-name="caron" unicode="&#x2c7;" horiz-adv-x="931" 
d="M637 1040l-299 289l160 170l172 -168l233 168l131 -182l-389 -277h-8z" />
    <glyph glyph-name="breve" unicode="&#x2d8;" horiz-adv-x="925" 
d="M342 1284l162 154q23 -30 43 -50t61 -38.5t92 -18.5q70 0 136.5 31t107.5 72l96 -164q-64 -77 -160.5 -131t-215.5 -54q-59 0 -110 14.5t-85 35.5t-61.5 49.5t-42 52t-23.5 47.5z" />
    <glyph glyph-name="dotaccent" unicode="&#x2d9;" horiz-adv-x="606" 
d="M123 1280q0 79 52 126.5t130 47.5q71 0 126.5 -48t55.5 -126q0 -86 -55 -136t-127 -50q-78 0 -130 49t-52 137z" />
    <glyph glyph-name="ring" unicode="&#x2da;" horiz-adv-x="811" 
d="M123 1292q0 110 79.5 187t200.5 77q123 0 204 -77t81 -187q0 -109 -81 -184.5t-204 -75.5q-121 0 -200.5 75.5t-79.5 184.5zM317 1296q0 -42 25.5 -71t65.5 -29q39 0 62.5 29t23.5 71q0 41 -23.5 69t-62.5 28q-40 0 -65.5 -28t-25.5 -69z" />
    <glyph glyph-name="ogonek" unicode="&#x2db;" horiz-adv-x="788" 
d="M549 -154l69 -188q-84 -78 -270 -78q-116 0 -191 49.5t-75 141.5q0 73 47 128t127 86.5t177.5 47t207.5 14.5l-8 -47q-93 0 -158 -35.5t-65 -83.5q0 -25 16 -40t45 -15q38 0 78 20z" />
    <glyph glyph-name="tilde" unicode="&#x2dc;" horiz-adv-x="993" 
d="M246 1104l-123 137q56 80 127.5 120t142.5 40q49 0 125 -40t117 -40q20 0 34.5 2t29.5 8.5t21 10t24.5 17t25.5 17.5l100 -153q-57 -68 -125.5 -108t-134.5 -40q-45 0 -121 40t-122 40q-14 0 -32.5 -6t-30 -12t-33 -18.5t-25.5 -14.5z" />
    <glyph glyph-name="hungarumlaut" unicode="&#x2dd;" horiz-adv-x="1062" 
d="M940 1356l-287 -285l-182 129l242 328zM551 1399l-246 -328l-188 123l205 362z" />
    <glyph glyph-name="gravecomb" unicode="&#x300;" horiz-adv-x="0" 
d="M-422 1071l-272 295l243 182l211 -348z" />
    <glyph glyph-name="acutecomb" unicode="&#x301;" horiz-adv-x="0" 
d="M-27 1370l-268 -299l-182 129l211 352z" />
    <glyph glyph-name="Delta" unicode="&#x394;" horiz-adv-x="1548" 
d="M74 0l876 1450h211l379 -1450h-1466zM952 901l-350 -594h504z" />
    <glyph glyph-name="Delta" unicode="&#x2206;" horiz-adv-x="1548" 
d="M74 0l876 1450h211l379 -1450h-1466zM952 901l-350 -594h504z" />
    <glyph glyph-name="uni03A9" unicode="&#x3a9;" horiz-adv-x="1697" 
d="M82 0l53 307h295q-69 24 -129.5 138.5t-60.5 263.5q0 168 71 310.5t191 237.5t277 148t329 53q287 0 462 -148t175 -405q0 -101 -27.5 -193.5t-69 -158.5t-93 -119t-97 -83.5t-84.5 -43.5h295l-53 -307h-698l53 307q120 35 215 116t144.5 182.5t49.5 203.5q0 68 -20 128
t-58.5 108.5t-103 77t-145.5 28.5q-92 0 -171 -28.5t-133 -75.5t-92.5 -107.5t-56.5 -124.5t-18 -127q0 -54 15 -111.5t44 -112.5t79 -97.5t114 -59.5l-54 -307h-698z" />
    <glyph glyph-name="uni03A9" unicode="&#x2126;" horiz-adv-x="1697" 
d="M82 0l53 307h295q-69 24 -129.5 138.5t-60.5 263.5q0 168 71 310.5t191 237.5t277 148t329 53q287 0 462 -148t175 -405q0 -101 -27.5 -193.5t-69 -158.5t-93 -119t-97 -83.5t-84.5 -43.5h295l-53 -307h-698l53 307q120 35 215 116t144.5 182.5t49.5 203.5q0 68 -20 128
t-58.5 108.5t-103 77t-145.5 28.5q-92 0 -171 -28.5t-133 -75.5t-92.5 -107.5t-56.5 -124.5t-18 -127q0 -54 15 -111.5t44 -112.5t79 -97.5t114 -59.5l-54 -307h-698z" />
    <glyph glyph-name="pi" unicode="&#x3c0;" horiz-adv-x="1267" 
d="M217 635l49 287h1092l-49 -287h-133l-46 -254q-22 -119 48 -119q32 0 69 25l19 -242q-45 -31 -109.5 -50.5t-130.5 -19.5q-133 0 -188 84t-31 220l61 356h-198l-11 -62q-13 -79 -26.5 -137.5t-36 -124.5t-50.5 -112.5t-70.5 -91.5t-95.5 -72t-126 -43.5t-162 -16.5
l27 299q45 -5 80 7.5t57 34t40 60t27.5 72t20.5 84.5l23 103h-150z" />
    <glyph glyph-name="uni0401" unicode="&#x401;" horiz-adv-x="1177" 
d="M184 0l252 1434h871l-54 -308h-542l-45 -252h481l-53 -307h-482l-47 -260h563l-53 -307h-891zM989 1700q0 68 52.5 110.5t125.5 42.5q78 0 128.5 -42t50.5 -109q0 -66 -47 -113t-132 -47q-82 0 -130 43.5t-48 114.5zM485 1700q0 68 53 110.5t126 42.5q78 0 128 -42
t50 -109q0 -66 -46.5 -113t-131.5 -47q-82 0 -130.5 43.5t-48.5 114.5z" />
    <glyph glyph-name="uni0402" unicode="&#x402;" horiz-adv-x="1572" 
d="M1585 475q0 -139 -52.5 -251t-161 -180.5t-257.5 -68.5q-83 0 -156 32t-102 81l141 238q50 -43 111 -43q59 0 91 42t32 109q0 125 -146 125q-128 0 -223 -53l-90 -506h-328l199 1126h-430l53 308h1188l-53 -308h-430l-58 -321q119 61 267 61q182 0 293.5 -107t111.5 -284
z" />
    <glyph glyph-name="uni0403" unicode="&#x403;" horiz-adv-x="1083" 
d="M184 0l252 1434h860l-53 -308h-532l-199 -1126h-328zM1206 1651l-510 -160l-84 182l480 242z" />
    <glyph glyph-name="uni0404" unicode="&#x404;" horiz-adv-x="1402" 
d="M1167 885l-55 -307h-551q22 -131 116 -213t257 -82q204 0 358 118l82 -280q-79 -65 -198.5 -105.5t-262.5 -40.5q-162 0 -295.5 50t-224 139t-139.5 212.5t-49 268.5q0 172 58.5 320t166.5 258t273 172.5t368 62.5q171 0 293.5 -46.5t194.5 -119.5l-181 -237
q-121 96 -325 96q-339 0 -459 -266h573z" />
    <glyph glyph-name="uni0405" unicode="&#x405;" horiz-adv-x="1101" 
d="M756 395q0 40 -26.5 76t-68.5 66t-92.5 61.5t-101.5 70.5t-93 84.5t-68.5 112.5t-26.5 146q0 90 36 171t101.5 142t166.5 97t224 36q140 0 244 -46t163 -122l-198 -225q-77 86 -219 86q-75 0 -119.5 -34t-44.5 -91q0 -41 26.5 -76.5t68.5 -64.5t93 -59t101.5 -67
t92.5 -81.5t68.5 -109.5t26.5 -144q0 -201 -141 -325t-381 -124q-166 0 -294.5 68t-170.5 184l211 207q91 -151 260 -151q71 0 116.5 28t45.5 84z" />
    <glyph glyph-name="uni0406" unicode="&#x406;" horiz-adv-x="737" 
d="M205 0l252 1434h327l-252 -1434h-327z" />
    <glyph glyph-name="uni0407" unicode="&#x407;" horiz-adv-x="737" 
d="M205 0l252 1434h327l-252 -1434h-327zM686 1700q0 68 52.5 110.5t125.5 42.5q78 0 128 -42t50 -109q0 -66 -46.5 -113t-131.5 -47q-82 0 -130 43.5t-48 114.5zM285 1700q0 68 52.5 110.5t125.5 42.5q78 0 128 -42t50 -109q0 -66 -46.5 -113t-131.5 -47q-82 0 -130 43.5
t-48 114.5z" />
    <glyph glyph-name="uni0408" unicode="&#x408;" horiz-adv-x="835" 
d="M903 1434l-184 -1043q-35 -201 -145.5 -308.5t-313.5 -107.5q-87 0 -161.5 31.5t-98.5 69.5l152 250q20 -19 53.5 -31t64.5 -12q53 0 84 35.5t41 91.5l180 1024h328z" />
    <glyph glyph-name="uni0409" unicode="&#x409;" horiz-adv-x="2072" 
d="M1010 0l198 1126h-315l-72 -270q-31 -106 -59.5 -193.5t-59 -166.5t-61 -142t-64 -117t-68 -93.5t-73.5 -70t-81 -49t-90 -27.5t-100.5 -8t-111.5 11l64 328q19 -3 35 -3t36.5 4t39 16.5t40.5 33t43.5 53.5t45.5 77.5t48.5 106.5t51 138.5t55 176t57.5 216.5l72 287h948
l-78 -449q65 8 115 8q117 0 207 -32t144 -89t81 -130.5t27 -161.5q0 -268 -171.5 -426t-488.5 -158q-102 0 -244 2t-171 2zM1544 686q-36 0 -88 -10l-63 -365q58 -8 84 -8q69 0 120.5 19.5t79.5 54t41 74t13 86.5q0 73 -51.5 111t-135.5 38z" />
    <glyph glyph-name="uni040A" unicode="&#x40a;" horiz-adv-x="2074" 
d="M184 0l252 1434h328l-88 -504h502l88 504h327l-86 -490q71 8 115 8q226 0 345.5 -107t119.5 -296q0 -255 -169 -404t-482 -149q-87 0 -208 2t-155 2h-59l110 623h-501l-111 -623h-328zM1454 635l-57 -324q46 -8 94 -8q113 0 177.5 53.5t64.5 141.5q0 72 -48.5 109.5
t-130.5 37.5q-32 0 -100 -10z" />
    <glyph glyph-name="uni040B" unicode="&#x40b;" horiz-adv-x="1572" 
d="M213 1126l53 308h1188l-53 -308h-430l-58 -321q119 61 281 61q200 0 299.5 -125.5t62.5 -330.5l-71 -410h-328l55 311q24 130 -7 189t-150 59q-99 0 -195 -55l-88 -504h-328l199 1126h-430z" />
    <glyph glyph-name="uni040C" unicode="&#x40c;" horiz-adv-x="1402" 
d="M184 0l252 1434h328l-109 -625l566 625h397l-649 -707l417 -727h-368l-385 686l-121 -686h-328zM1423 1651l-510 -160l-84 182l480 242z" />
    <glyph glyph-name="uni040E" unicode="&#x40e;" horiz-adv-x="1394" 
d="M1647 1434l-674 -1094q-28 -47 -44.5 -73t-46.5 -67t-53.5 -65t-59 -53t-70.5 -44.5t-80.5 -26.5t-96.5 -11q-65 0 -128 20.5t-99 55.5l151 258q56 -27 105 -27q47 0 72.5 18.5t50.5 59.5l14 23l-436 1026h352l273 -699l409 699h361zM573 1802h308q-5 -50 22 -76t86 -26
q114 0 137 102h308q-27 -146 -155.5 -236.5t-301.5 -90.5q-215 0 -315.5 87t-88.5 240z" />
    <glyph glyph-name="uni040F" unicode="&#x40f;" horiz-adv-x="1546" 
d="M184 0l252 1434h328l-199 -1127h522l199 1127h328l-252 -1434h-436l-54 -307h-307l53 307h-434z" />
    <glyph glyph-name="uni0410" unicode="&#x410;" horiz-adv-x="1443" 
d="M0 0l827 1434h289l328 -1434h-330l-67 301h-525l-168 -301h-354zM899 1014l-205 -406h283z" />
    <glyph glyph-name="uni0411" unicode="&#x411;" horiz-adv-x="1273" 
d="M184 0l252 1434h916l-54 -308h-587l-41 -227q62 12 170 12q124 0 220.5 -46t154 -139t57.5 -220q0 -240 -156 -378t-442 -138q-140 0 -304 5t-186 5zM778 610q-86 0 -162 -12l-51 -297q88 -10 146 -10q110 0 161.5 50t51.5 134q0 60 -36 97.5t-110 37.5z" />
    <glyph glyph-name="uni0412" unicode="&#x412;" horiz-adv-x="1308" 
d="M184 4l252 1426q240 12 496 12q411 0 411 -322q0 -137 -75.5 -236.5t-216.5 -140.5l-2 -4q106 -25 165.5 -96t59.5 -172q0 -122 -48 -215.5t-132 -150t-191.5 -85t-234.5 -28.5q-361 0 -484 12zM762 590h-148l-49 -289q52 -12 148 -12q102 0 157.5 45.5t55.5 120.5
q0 135 -164 135zM848 1145q-63 0 -137 -8l-47 -281h129q92 0 147 44.5t55 127.5q0 53 -38.5 85t-108.5 32z" />
    <glyph glyph-name="uni0413" unicode="&#x413;" horiz-adv-x="1083" 
d="M184 0l252 1434h860l-53 -308h-532l-199 -1126h-328z" />
    <glyph glyph-name="uni0414" unicode="&#x414;" horiz-adv-x="1585" 
d="M-8 -246l98 553h154q76 81 152 243t124 312.5t78 284.5l64 287h935l-198 -1127h194l-98 -553h-307l43 246h-889l-43 -246h-307zM858 885q-38 -144 -107 -319t-135 -259h455l143 819h-290z" />
    <glyph glyph-name="uni0415" unicode="&#x415;" horiz-adv-x="1177" 
d="M184 0l252 1434h871l-54 -308h-542l-45 -252h481l-53 -307h-482l-47 -260h563l-53 -307h-891z" />
    <glyph glyph-name="uni0416" unicode="&#x416;" horiz-adv-x="2015" 
d="M659 750l-374 684h372l328 -627l111 627h327l-110 -627l549 627h391l-627 -686l379 -748h-365l-348 686l-121 -686h-327l121 686l-576 -686h-379z" />
    <glyph glyph-name="uni0417" unicode="&#x417;" horiz-adv-x="1185" 
d="M582 -25q-343 0 -498 230l211 209q62 -69 131 -100t164 -31q104 0 162.5 46t58.5 126q0 56 -40.5 90.5t-117.5 34.5h-159l53 307h139q90 0 138 43t48 110q0 111 -155 111q-76 0 -137 -22t-127 -66l-150 227q204 168 479 168q219 0 329 -90.5t110 -243.5
q0 -135 -75.5 -237t-209.5 -144v-6q78 -19 130 -68t72.5 -108t20.5 -129q0 -96 -36.5 -178.5t-107 -145t-181.5 -98t-252 -35.5z" />
    <glyph glyph-name="uni0418" unicode="&#x418;" horiz-adv-x="1626" 
d="M471 0h-287l252 1434h328l-150 -854l793 854h287l-252 -1434h-328l152 862z" />
    <glyph glyph-name="uni0419" unicode="&#x419;" horiz-adv-x="1626" 
d="M471 0h-287l252 1434h328l-150 -854l793 854h287l-252 -1434h-328l152 862zM727 1802h307q-5 -50 22.5 -76t86.5 -26q114 0 137 102h307q-27 -146 -155.5 -236.5t-301.5 -90.5q-215 0 -315 87t-88 240z" />
    <glyph glyph-name="uni041A" unicode="&#x41a;" horiz-adv-x="1402" 
d="M184 0l252 1434h328l-109 -625l566 625h397l-649 -707l417 -727h-368l-385 686l-121 -686h-328z" />
    <glyph glyph-name="uni041B" unicode="&#x41b;" horiz-adv-x="1521" 
d="M1010 0l198 1126h-315l-72 -270q-29 -101 -56 -185t-56.5 -162t-59 -140t-62.5 -117t-67.5 -96t-74 -73.5t-82.5 -52.5t-91.5 -30.5t-103 -10.5t-115.5 11l64 328q19 -3 35 -3t36.5 4t39 16.5t40.5 33t43.5 53.5t45.5 77.5t48.5 106.5t51 138.5t55 176t57.5 216.5l72 287
h948l-252 -1434h-327z" />
    <glyph glyph-name="uni041C" unicode="&#x41c;" horiz-adv-x="1826" 
d="M184 0l252 1434h312l311 -598l483 598h352l-252 -1434h-327l158 901l-476 -557h-47l-282 551l-156 -895h-328z" />
    <glyph glyph-name="uni041D" unicode="&#x41d;" horiz-adv-x="1566" 
d="M1055 0l102 578h-543l-102 -578h-328l252 1434h328l-96 -549h542l97 549h327l-252 -1434h-327z" />
    <glyph glyph-name="uni041E" unicode="&#x41e;" horiz-adv-x="1710" 
d="M205 645q0 173 60.5 323t169 258t266.5 170t346 62q207 0 368 -81t251.5 -233.5t90.5 -355.5q0 -130 -34.5 -250.5t-104.5 -222.5t-168.5 -178t-233.5 -119t-292 -43q-136 0 -252.5 34t-201.5 95.5t-145.5 145t-90 184t-29.5 211.5zM559 666q0 -168 102 -275.5
t275 -107.5q144 0 251.5 66t161.5 175t54 244q0 173 -102.5 278t-280.5 105q-92 0 -169.5 -28t-130.5 -75t-90 -109.5t-54 -131.5t-17 -141z" />
    <glyph glyph-name="uni041F" unicode="&#x41f;" horiz-adv-x="1554" 
d="M1042 0l199 1126h-530l-199 -1126h-328l252 1434h1186l-252 -1434h-328z" />
    <glyph glyph-name="uni0420" unicode="&#x420;" horiz-adv-x="1288" 
d="M512 0h-328l252 1434q36 0 209 2t232 2q130 0 229.5 -34t157.5 -92t87 -129.5t29 -152.5q0 -118 -39 -217.5t-113 -173.5t-190 -116t-262 -42q-129 0 -178 6zM854 1130q-7 0 -143 -4l-58 -327q82 -11 148 -11q107 0 166 55.5t59 143.5q0 79 -44 111t-128 32z" />
    <glyph glyph-name="uni0421" unicode="&#x421;" horiz-adv-x="1372" 
d="M1276 387l127 -252q-77 -73 -203.5 -116.5t-265.5 -43.5q-154 0 -286 44t-231 127.5t-155.5 213t-56.5 291.5q0 118 30 231t98 218.5t166.5 184t246.5 126t327 47.5q140 0 264 -36.5t191 -100.5l-168 -250q-119 80 -316 80q-116 0 -210 -39t-153 -105t-90.5 -150.5
t-31.5 -178.5q0 -186 102 -290.5t289 -104.5q186 0 326 104z" />
    <glyph glyph-name="uni0422" unicode="&#x422;" 
d="M213 1126l53 308h1204l-53 -308h-438l-199 -1126h-327l198 1126h-438z" />
    <glyph glyph-name="uni0423" unicode="&#x423;" horiz-adv-x="1394" 
d="M1647 1434l-674 -1094q-28 -47 -44.5 -73t-46.5 -67t-53.5 -65t-59 -53t-70.5 -44.5t-80.5 -26.5t-96.5 -11q-65 0 -128 20.5t-99 55.5l151 258q56 -27 105 -27q47 0 72.5 18.5t50.5 59.5l14 23l-436 1026h352l273 -699l409 699h361z" />
    <glyph glyph-name="uni0424" unicode="&#x424;" horiz-adv-x="1755" 
d="M705 -16l34 192q-254 3 -401.5 134t-147.5 362q0 201 94 342.5t260.5 211.5t393.5 72l27 152h327l-26 -152q266 -6 408.5 -142.5t142.5 -352.5q0 -299 -200.5 -461.5t-549.5 -165.5l-35 -192h-327zM1475 784q0 98 -61.5 159t-201.5 65l-94 -541q163 3 260 87t97 230z
M532 694q0 -221 259 -227l94 541q-176 -6 -264.5 -93t-88.5 -221z" />
    <glyph glyph-name="uni0425" unicode="&#x425;" horiz-adv-x="1398" 
d="M1624 1434l-596 -719l363 -715h-369l-229 475l-390 -475h-393l619 750l-344 684h366l215 -439l363 439h395z" />
    <glyph glyph-name="uni0426" unicode="&#x426;" horiz-adv-x="1591" 
d="M184 0l252 1434h328l-199 -1127h520l199 1127h328l-199 -1127h195l-97 -553h-307l43 246h-1063z" />
    <glyph glyph-name="uni0427" unicode="&#x427;" horiz-adv-x="1417" 
d="M1485 1434l-252 -1434h-328l96 549q-52 -36 -137 -60t-168 -24q-201 0 -305 100t-104 277q0 55 8 104l86 488h328l-74 -414q-8 -41 -8 -84q-3 -164 180 -164q128 0 248 76l102 586h328z" />
    <glyph glyph-name="uni0428" unicode="&#x428;" horiz-adv-x="2048" 
d="M184 0l252 1434h328l-199 -1127h348l199 1127h328l-199 -1127h348l199 1127h328l-252 -1434h-1680z" />
    <glyph glyph-name="uni0429" unicode="&#x429;" horiz-adv-x="2095" 
d="M184 0l252 1434h328l-199 -1127h348l199 1127h328l-199 -1127h348l199 1127h328l-199 -1127h194l-96 -553h-307l43 246h-1567z" />
    <glyph glyph-name="uni042A" unicode="&#x42a;" horiz-adv-x="1404" 
d="M205 1126l53 308h635l-78 -449q90 8 125 8q228 0 352.5 -107t124.5 -296q0 -282 -171 -438t-494 -156q-111 0 -261 2t-178 2l199 1126h-307zM866 686q-34 0 -106 -10l-64 -365q70 -8 121 -8q120 0 183 66.5t63 165.5q0 80 -54 115.5t-143 35.5z" />
    <glyph glyph-name="uni042B" unicode="&#x42b;" horiz-adv-x="1812" 
d="M1300 0l252 1434h328l-252 -1434h-328zM731 686q-28 0 -100 -10l-64 -365q70 -8 95 -8q84 0 140.5 35t79.5 85.5t23 111.5q0 71 -47 111t-127 40zM764 1434l-78 -449q68 8 113 8q223 0 343 -110.5t120 -300.5q0 -96 -21.5 -180t-71.5 -159.5t-124.5 -129.5t-187 -85.5
t-253.5 -31.5q-103 0 -246.5 2t-173.5 2l252 1434h328z" />
    <glyph glyph-name="uni042C" unicode="&#x42c;" horiz-adv-x="1275" 
d="M737 686q-34 0 -106 -10l-64 -365q70 -8 111 -8q126 0 191 64t65 168q0 80 -54 115.5t-143 35.5zM764 1434l-78 -449q68 8 121 8q238 0 359.5 -107.5t121.5 -305.5q0 -271 -170.5 -427.5t-501.5 -156.5q-107 0 -255 2t-177 2l252 1434h328z" />
    <glyph glyph-name="uni042D" unicode="&#x42d;" horiz-adv-x="1431" 
d="M520 578l53 307h564q-25 130 -115.5 198t-239.5 68q-105 0 -187.5 -27t-170.5 -84l-125 250q188 168 549 168q131 0 237.5 -35t179 -94.5t121.5 -141t71 -172t22 -190.5q0 -391 -224.5 -620.5t-613.5 -229.5q-331 0 -526 207l180 240q146 -139 356 -139q171 0 292.5 84.5
t160.5 210.5h-584z" />
    <glyph glyph-name="uni042E" unicode="&#x42e;" horiz-adv-x="2232" 
d="M184 0l252 1434h328l-96 -549h161q80 272 296.5 422.5t498.5 150.5q306 0 480.5 -168.5t174.5 -455.5q0 -245 -98 -438t-292 -307t-457 -114q-149 0 -270 46t-199.5 128t-122 191t-47.5 238h-179l-102 -578h-328zM1143 645q0 -73 17.5 -135.5t54.5 -114.5t103 -82
t155 -30q114 0 203 44.5t142 119.5t80 165.5t27 190.5q0 161 -86 254.5t-242 93.5q-109 0 -197.5 -43t-143 -115t-84 -161.5t-29.5 -186.5z" />
    <glyph glyph-name="uni042F" unicode="&#x42f;" horiz-adv-x="1376" 
d="M864 0l82 461h-158l-364 -461h-387l457 553q-177 114 -177 348q0 114 39 210.5t116.5 171t204 117t290.5 42.5q87 0 265.5 -4t211.5 -4l-252 -1434h-328zM795 768h204l64 358q-14 3 -71.5 6t-78.5 3q-114 0 -176.5 -67t-62.5 -153q0 -61 34 -98.5t87 -48.5z" />
    <glyph glyph-name="uni0430" unicode="&#x430;" horiz-adv-x="1116" 
d="M987 0h-301l35 197q-57 -89 -146 -155.5t-194 -66.5q-130 0 -194 86t-64 228q0 189 81 338.5t228.5 234t335.5 84.5q102 0 209.5 -27t150.5 -57zM528 246q35 0 72.5 29.5t69.5 77t57 95t45 95.5l23 125q-39 8 -80 8q-121 0 -199 -87.5t-78 -215.5q0 -127 90 -127z" />
    <glyph glyph-name="uni0431" unicode="&#x431;" horiz-adv-x="1144" 
d="M1151 1458l61 -258q-59 -54 -147 -81t-192.5 -48.5t-170.5 -54.5q-102 -51 -164.5 -139t-76.5 -187h4q57 85 159.5 148t217.5 63q303 0 303 -360q0 -152 -71 -280.5t-205 -207t-304 -78.5q-202 0 -316 119.5t-114 345.5q0 186 49 349.5t157 296t265 196.5q80 33 192.5 60
t203 52.5t149.5 63.5zM446 420q4 -85 50.5 -129.5t115.5 -44.5q101 0 159 69t58 158q0 65 -35.5 111.5t-105.5 46.5q-75 0 -138.5 -63t-103.5 -148z" />
    <glyph glyph-name="uni0432" unicode="&#x432;" horiz-adv-x="1046" 
d="M1028 334q0 -107 -69 -190.5t-176 -126t-230 -42.5q-208 0 -319 101.5t-111 294.5q0 111 41.5 214.5t114.5 183.5t183 128.5t238 48.5q81 0 143 -11t112 -37.5t76 -74.5t26 -116q0 -134 -154 -226q125 -37 125 -147zM410 354q22 -133 170 -133q72 0 122 32t50 81
q0 47 -41 72q-139 -39 -301 -52zM760 637q0 28 -28 45.5t-66 17.5q-89 0 -152 -56.5t-90 -141.5q336 33 336 135z" />
    <glyph glyph-name="uni0433" unicode="&#x433;" horiz-adv-x="886" 
d="M70 229q0 60 24 110.5t63 84.5t88.5 63t102 47.5t102 36.5t88.5 31.5t63 31.5t24 38q0 45 -90 45q-103 0 -232 -66l-88 187q159 108 381 108q163 0 251 -58.5t89 -172.5q1 -70 -29.5 -127.5t-79 -94t-108 -65t-119 -48.5t-108.5 -37t-80 -36t-31 -41q0 -61 121 -61
t241 90l125 -158q-159 -162 -422 -162q-184 0 -280 67.5t-96 186.5z" />
    <glyph glyph-name="uni0434" unicode="&#x434;" horiz-adv-x="1122" 
d="M430 1200l43 258q343 0 505.5 -157t162.5 -467q0 -124 -19.5 -241.5t-66 -231t-115.5 -198t-177.5 -136.5t-242.5 -52q-190 0 -293.5 101t-103.5 286q0 108 36 209t100.5 180.5t163 127t214.5 47.5q102 0 188 -60q-1 177 -92 253t-303 81zM637 655q-94 0 -146.5 -81
t-52.5 -185q0 -64 28.5 -103.5t88.5 -39.5q52 0 94 28.5t71.5 79.5t49.5 110t33 130q-82 61 -166 61z" />
    <glyph glyph-name="uni0435" unicode="&#x435;" horiz-adv-x="1013" 
d="M840 307l123 -164q-168 -168 -414 -168q-205 0 -315.5 100t-110.5 287q0 114 41.5 219.5t114.5 186.5t183 129.5t238 48.5q342 0 342 -256q0 -85 -50 -152t-137 -110t-196.5 -67.5t-236.5 -30.5q24 -109 182 -109q121 0 236 86zM676 700q-86 0 -151 -55t-85 -133
q56 2 107.5 10.5t97 23t73 38.5t27.5 53t-19.5 46t-49.5 17z" />
    <glyph glyph-name="uni0436" unicode="&#x436;" horiz-adv-x="1515" 
d="M362 475l-202 447h334l184 -410l72 410h307l-72 -410l297 410h356l-350 -449l213 -473h-332l-196 436l-78 -436h-307l76 434l-314 -434h-362z" />
    <glyph glyph-name="uni0437" unicode="&#x437;" horiz-adv-x="935" 
d="M432 -25q-273 0 -397 136l155 184q92 -74 234 -74q162 0 162 76q0 29 -28 44t-75 15h-143l35 205h133q53 0 83 21.5t30 56.5q0 61 -119 61q-142 0 -236 -51l-98 189q161 108 403 108q187 0 281 -62t94 -175q0 -88 -55 -150.5t-152 -85.5v-4q162 -39 162 -178
q0 -96 -64 -168.5t-170 -110t-235 -37.5z" />
    <glyph glyph-name="uni0438" unicode="&#x438;" horiz-adv-x="1103" 
d="M1116 922l-164 -922h-307l33 176q-31 -41 -60.5 -71.5t-71 -62.5t-94 -49.5t-110.5 -17.5q-60 0 -102.5 20t-65.5 55.5t-33 76t-10 90.5q0 55 12 125l123 580h307l-106 -514q-1 -5 -3.5 -19t-4.5 -28.5t-2 -26.5q0 -72 51 -72q55 0 121 84.5t108 177.5l72 398h307z" />
    <glyph glyph-name="uni0439" unicode="&#x439;" horiz-adv-x="1103" 
d="M1116 922l-164 -922h-307l33 176q-31 -41 -60.5 -71.5t-71 -62.5t-94 -49.5t-110.5 -17.5q-60 0 -102.5 20t-65.5 55.5t-33 76t-10 90.5q0 55 12 125l123 580h307l-106 -514q-1 -5 -3.5 -19t-4.5 -28.5t-2 -26.5q0 -72 51 -72q55 0 121 84.5t108 177.5l72 398h307z
M416 1413h266q-20 -119 63 -119q87 0 101 119h266q-8 -64 -33.5 -122.5t-70.5 -110.5t-117.5 -83.5t-163.5 -31.5q-176 0 -257 97t-54 251z" />
    <glyph glyph-name="uni043A" unicode="&#x43a;" horiz-adv-x="1089" 
d="M111 0l161 922h308l-74 -426l325 426h365l-371 -455l254 -467h-342l-243 430l-76 -430h-307z" />
    <glyph glyph-name="uni043B" unicode="&#x43b;" horiz-adv-x="1120" 
d="M664 0l108 614h-156l-12 -41q-53 -184 -103.5 -295.5t-117.5 -181.5t-147 -95.5t-199 -25.5l26 299q74 -8 142 77t114 284l66 287h748l-162 -922h-307z" />
    <glyph glyph-name="uni043C" unicode="&#x43c;" horiz-adv-x="1308" 
d="M111 0l161 922h244l205 -330l307 330h293l-162 -922h-307l76 436l-250 -246h-6l-176 256l-78 -446h-307z" />
    <glyph glyph-name="uni043D" unicode="&#x43d;" horiz-adv-x="1138" 
d="M690 0l51 317h-272l-51 -317h-307l157 922h305l-53 -318h273l55 318h303l-154 -922h-307z" />
    <glyph glyph-name="uni043E" unicode="&#x43e;" horiz-adv-x="1112" 
d="M123 365q0 123 37 227.5t108 184t183.5 124.5t255.5 45q102 0 181.5 -32t127 -87.5t72 -124t24.5 -145.5q0 -125 -36.5 -230.5t-106.5 -184t-179.5 -123t-246.5 -44.5q-203 0 -311.5 110t-108.5 280zM438 426q0 -79 40 -129.5t116 -50.5q94 0 148.5 71.5t54.5 178.5
q0 75 -38 127.5t-116 52.5q-98 0 -151.5 -74.5t-53.5 -175.5z" />
    <glyph glyph-name="uni043F" unicode="&#x43f;" horiz-adv-x="1130" 
d="M485 379l-67 -379h-307l161 922h308l-33 -179q158 203 356 203q105 0 157 -65t52 -160q0 -98 -14 -180l-97 -541h-307l88 502q6 38 6 80q0 77 -61 77q-34 0 -69.5 -27t-69 -75.5t-55.5 -87t-48 -90.5z" />
    <glyph glyph-name="uni0440" unicode="&#x440;" horiz-adv-x="1138" 
d="M414 -10l-72 -400h-307l235 1332h308l-35 -187q157 211 356 211q55 0 98.5 -21t69.5 -53.5t43 -76t23 -83.5t6 -81q0 -126 -41.5 -243.5t-117.5 -209.5t-193.5 -147.5t-258.5 -55.5q-56 0 -114 15zM733 676q-26 0 -53.5 -15t-53 -45t-45 -56t-42 -68.5t-31.5 -60.5
t-25 -52l-20 -107q44 -26 96 -26q116 0 190 89t74 214q0 53 -22 90t-68 37z" />
    <glyph glyph-name="uni0441" unicode="&#x441;" horiz-adv-x="960" 
d="M805 330l129 -187q-65 -76 -171 -122t-237 -46q-191 0 -297 98.5t-106 284.5q0 89 24 173.5t73.5 160t119.5 132t168.5 89.5t212.5 33q181 0 276 -59l-100 -234q-70 23 -180 23q-132 0 -205.5 -81.5t-73.5 -201.5q0 -71 39.5 -109t112.5 -38q113 0 215 84z" />
    <glyph glyph-name="uni0442" unicode="&#x442;" horiz-adv-x="1609" 
d="M1581 602l-106 -602h-308l93 520q6 30 6 70q0 72 -45 72q-31 0 -59.5 -23t-53 -63.5t-44 -81t-41.5 -90.5q-3 -7 -4.5 -11t-4 -9.5t-4.5 -10.5l-64 -373h-307l92 522q4 24 4 64q0 76 -39 76q-16 0 -33 -10t-34 -30t-32 -41t-33 -51.5t-29.5 -52.5t-28 -53.5t-23.5 -44.5
l-65 -379h-307l161 922h308l-31 -174q49 80 132.5 140t186.5 60q92 0 134 -53t42 -129v-51q23 43 52 80t70.5 73.5t98 58t119.5 21.5q110 0 158.5 -55.5t48.5 -147.5q0 -85 -10 -143z" />
    <glyph glyph-name="uni0443" unicode="&#x443;" horiz-adv-x="956" 
d="M696 922h322q-33 -196 -89 -386t-134 -361.5t-169 -301.5t-201 -206.5t-222 -76.5q-136 0 -232 86l140 232q46 -33 96 -33q97 0 147 88l21 37q-93 412 -297 922h354q98 -261 152 -537q29 85 50.5 180.5t32 161t29.5 195.5z" />
    <glyph glyph-name="uni0444" unicode="&#x444;" horiz-adv-x="1452" 
d="M481 -410l68 385h-2q-110 0 -193 30t-132.5 84.5t-74 125t-24.5 156.5q0 90 23 174t70.5 157t115 127t164 85.5t209.5 31.5h14l86 488h307l-86 -488h16q92 0 163.5 -22t117 -58.5t75.5 -89t42 -108.5t12 -121q0 -91 -23 -174.5t-71.5 -156t-117.5 -126t-166 -84.5
t-212 -31h-6l-68 -385h-307zM455 420q0 -78 34 -117.5t111 -40.5l70 397h-17q-99 0 -148.5 -63.5t-49.5 -175.5zM989 659h-12l-70 -397q64 0 107.5 18.5t65.5 53.5t31 76t9 96q0 153 -131 153z" />
    <glyph glyph-name="uni0445" unicode="&#x445;" horiz-adv-x="1013" 
d="M1143 922l-346 -447l204 -475h-344l-108 279l-191 -279h-374l362 475l-190 447h346l94 -252l172 252h375z" />
    <glyph glyph-name="uni0446" unicode="&#x446;" horiz-adv-x="1153" 
d="M1116 922l-112 -635h153l-106 -512h-273l51 223q-29 0 -49 2t-42 8.5t-33.5 18.5t-22.5 32t-9.5 48.5t5.5 68.5q-153 -201 -340 -201q-60 0 -102 21t-64 57.5t-31.5 78t-9.5 91.5q0 61 10 119l125 580h307l-112 -514q-4 -32 -4 -68q0 -78 47 -78q38 0 86.5 46t85 103
t61.5 113l72 398h307z" />
    <glyph glyph-name="uni0447" unicode="&#x447;" horiz-adv-x="1034" 
d="M1047 922l-164 -922h-308l70 393q-118 -153 -278 -153q-220 0 -220 235q0 47 15 135l67 312h326l-59 -271q-7 -49 -7 -57q0 -68 50 -68q48 0 84.5 38t68.5 98l47 260h308z" />
    <glyph glyph-name="uni0448" unicode="&#x448;" horiz-adv-x="1579" 
d="M141 319l127 603h307l-112 -521q-8 -40 -8 -75q0 -29 10 -47.5t31 -18.5q35 0 67.5 32t59 89.5t42 101.5t33.5 103l78 336h307l-112 -523q-6 -43 -6 -71q0 -68 39 -68q31 0 66 35t65 88.5t52.5 103t37.5 93.5l59 342h307l-161 -922h-308l37 211q-70 -114 -147.5 -176
t-182.5 -62q-85 0 -128.5 58t-43.5 149l7 64q-67 -125 -147.5 -198t-188.5 -73q-102 0 -149.5 68t-47.5 174q0 46 10 104z" />
    <glyph glyph-name="uni0449" unicode="&#x449;" horiz-adv-x="1630" 
d="M141 319l127 603h307l-112 -521q-8 -40 -8 -75q0 -29 10 -47.5t31 -18.5q35 0 67.5 32t59 89.5t42 101.5t33.5 103l78 336h307l-112 -523q-6 -43 -6 -71q0 -68 39 -68q31 0 66 35t65 88.5t52.5 103t37.5 93.5l59 342h307l-112 -635h155l-106 -512h-273l54 225h-187
l37 211q-70 -114 -147.5 -176t-182.5 -62q-85 0 -128.5 58t-43.5 149l7 64q-67 -125 -147.5 -198t-188.5 -73q-102 0 -149.5 68t-47.5 174q0 46 10 104z" />
    <glyph glyph-name="uni044A" unicode="&#x44a;" horiz-adv-x="1107" 
d="M774 922l-24 -136l-43 -63q-109 -167 -109 -168q161 150 303 150q105 0 164 -67t59 -167q0 -138 -86 -253.5t-225 -179t-297 -63.5q-328 0 -328 248q0 94 42.5 193t117.5 219h-221l51 287h596zM608 246q83 0 142 40.5t59 92.5q0 27 -18 41t-48 14q-69 0 -132.5 -44.5
t-100.5 -110.5q33 -33 98 -33z" />
    <glyph glyph-name="uni044B" unicode="&#x44b;" horiz-adv-x="1458" 
d="M772 725q104 0 158.5 -65t54.5 -166q0 -98 -45.5 -193t-122 -166.5t-183 -115.5t-220.5 -44q-138 0 -210.5 65t-72.5 183q0 77 16 139l148 560h307l-92 -334q74 65 137 101t125 36zM514 246q63 0 109.5 47.5t46.5 99.5q0 27 -14.5 44.5t-41.5 17.5q-40 0 -84 -40.5
t-77 -95.5v-8q0 -29 15.5 -47t45.5 -18zM1001 0l162 922h307l-161 -922h-308z" />
    <glyph glyph-name="uni044C" unicode="&#x44c;" horiz-adv-x="1011" 
d="M813 725q104 0 158.5 -65t54.5 -166q0 -136 -78.5 -255.5t-215.5 -191.5t-298 -72q-152 0 -227.5 64t-75.5 184q0 75 10 119l154 580h307l-92 -334q155 137 303 137zM530 246q66 0 123.5 47t57.5 102q0 25 -15 42.5t-41 17.5q-47 0 -106 -41t-96 -95v-8q0 -65 77 -65z
" />
    <glyph glyph-name="uni044D" unicode="&#x44d;" horiz-adv-x="958" 
d="M330 362l37 205h270q-6 62 -55 92.5t-117 30.5q-118 0 -205 -51l-106 192q79 59 172 87t225 28q197 0 302 -105t105 -294q0 -115 -33.5 -216t-98.5 -181.5t-172 -127.5t-244 -47q-128 0 -208 27t-153 92l166 195q78 -58 205 -58q76 0 130.5 33t72.5 98h-293z" />
    <glyph glyph-name="uni044E" unicode="&#x44e;" horiz-adv-x="1515" 
d="M111 0l161 922h328l-51 -297h86q137 321 500 321q100 0 174.5 -30t119 -84.5t66 -123.5t21.5 -153q0 -114 -34 -217t-98.5 -184.5t-167 -130t-229.5 -48.5q-372 0 -399 342h-94l-56 -317h-327zM901 430q0 -184 127 -184q87 0 129.5 71t42.5 175q0 184 -129 184
q-84 0 -127 -71.5t-43 -174.5z" />
    <glyph glyph-name="uni044F" unicode="&#x44f;" horiz-adv-x="1026" 
d="M692 922h346l-161 -922h-308l41 236h-49l-184 -236h-365l271 311q-51 35 -80 92t-29 119q0 185 134 292.5t384 107.5zM489 551q0 -90 97 -90h65l33 194h-74q-55 0 -88 -29t-33 -75z" />
    <glyph glyph-name="uni0451" unicode="&#x451;" horiz-adv-x="1013" 
d="M840 307l123 -164q-168 -168 -414 -168q-205 0 -315.5 100t-110.5 287q0 114 41.5 219.5t114.5 186.5t183 129.5t238 48.5q342 0 342 -256q0 -85 -50 -152t-137 -110t-196.5 -67.5t-236.5 -30.5q24 -109 182 -109q121 0 236 86zM676 700q-86 0 -151 -55t-85 -133
q56 2 107.5 10.5t97 23t73 38.5t27.5 53t-19.5 46t-49.5 17zM805 1229q0 60 44 106.5t112 46.5q67 0 110 -42t43 -107q0 -68 -43 -115t-113 -47q-71 0 -112 44t-41 114zM395 1229q0 60 44 106.5t112 46.5q67 0 110.5 -42t43.5 -107q0 -68 -43 -115t-113 -47q-71 0 -112.5 44
t-41.5 114z" />
    <glyph glyph-name="uni0452" unicode="&#x452;" horiz-adv-x="1218" 
d="M127 829l43 246h215l64 359h307l-64 -359h279l-43 -246h-283l-53 -299q67 91 146.5 147t187.5 56q250 0 250 -315q0 -239 -130.5 -466.5t-332.5 -361.5h-324q212 160 335.5 354t123.5 369q0 28 -2.5 47.5t-9.5 41t-23.5 33t-42.5 11.5q-31 0 -63.5 -23.5t-61.5 -63.5
t-53 -80t-49 -86q-7 -14 -11 -21l-28 -172h-307l145 829h-215z" />
    <glyph glyph-name="uni0453" unicode="&#x453;" horiz-adv-x="886" 
d="M70 229q0 60 24 110.5t63 84.5t88.5 63t102 47.5t102 36.5t88.5 31.5t63 31.5t24 38q0 45 -90 45q-103 0 -232 -66l-88 187q159 108 381 108q163 0 251 -58.5t89 -172.5q1 -70 -29.5 -127.5t-79 -94t-108 -65t-119 -48.5t-108.5 -37t-80 -36t-31 -41q0 -61 121 -61
t241 90l125 -158q-159 -162 -422 -162q-184 0 -280 67.5t-96 186.5zM954 1378l-272 -307l-182 129l215 361z" />
    <glyph glyph-name="uni0454" unicode="&#x454;" horiz-adv-x="1050" 
d="M848 567l-35 -205h-381q6 -61 53.5 -93.5t132.5 -32.5q139 0 256 83l78 -229q-85 -59 -175 -87t-220 -28q-217 0 -325.5 103t-108.5 287q0 79 21 158t68.5 156t115.5 136t171 95t226 36q129 0 214.5 -30.5t147.5 -98.5l-147 -209q-105 78 -231 78q-166 0 -230 -119h369z
" />
    <glyph glyph-name="uni0455" unicode="&#x455;" horiz-adv-x="817" 
d="M487 285q0 22 -23.5 44.5t-58.5 41t-76.5 45t-76.5 56t-58.5 76t-23.5 101.5q0 132 106.5 214.5t278.5 82.5q193 0 322 -72l-134 -221q-27 17 -70.5 27t-80.5 10q-44 0 -77.5 -12t-33.5 -37q0 -22 33 -46t79.5 -51t93 -61t79.5 -89.5t33 -123.5q0 -98 -57 -166
t-148 -98.5t-207 -30.5q-100 0 -192 28t-142 81l135 199q84 -52 185 -52q114 0 114 54z" />
    <glyph glyph-name="uni0456" unicode="&#x456;" horiz-adv-x="602" 
d="M129 0l162 922h307l-162 -922h-307zM319 1280q0 79 52.5 126.5t130.5 47.5q71 0 126.5 -48t55.5 -126q0 -86 -55 -136t-127 -50q-79 0 -131 49.5t-52 136.5z" />
    <glyph glyph-name="uni0457" unicode="&#x457;" horiz-adv-x="602" 
d="M129 0l162 922h307l-162 -922h-307zM530 1229q0 60 44 106.5t112 46.5q67 0 110.5 -42t43.5 -107q0 -68 -43 -115t-113 -47q-71 0 -112.5 44t-41.5 114zM166 1229q0 60 44 106.5t112 46.5q67 0 110 -42t43 -107q0 -68 -43 -115t-113 -47q-71 0 -112 44t-41 114z" />
    <glyph glyph-name="uni0458" unicode="&#x458;" horiz-adv-x="602" 
d="M598 922l-174 -990q-12 -71 -38.5 -131.5t-71 -113.5t-114.5 -83t-159 -30q-162 0 -252 74l123 239q41 -26 100 -26q91 0 109 100l170 961h307zM319 1280q0 79 52.5 126.5t130.5 47.5q71 0 126.5 -48t55.5 -126q0 -86 -55 -136t-127 -50q-79 0 -131 49.5t-52 136.5z" />
    <glyph glyph-name="uni0459" unicode="&#x459;" horiz-adv-x="1593" 
d="M1133 922l-62 -344q71 62 158.5 104.5t165.5 42.5q104 0 158.5 -65t54.5 -166q0 -136 -78.5 -255.5t-215.5 -191.5t-298 -72q-152 0 -227.5 64t-75.5 184q0 61 10 119l49 272h-156l-12 -41q-53 -184 -103.5 -295.5t-117.5 -181.5t-147 -95.5t-199 -25.5l26 299
q74 -8 142 77t114 284l66 287h748zM1112 246q66 0 123 47t57 102q0 25 -14.5 42.5t-40.5 17.5q-48 0 -107 -41t-96 -95v-8q0 -65 78 -65z" />
    <glyph glyph-name="uni045A" unicode="&#x45a;" horiz-adv-x="1615" 
d="M1151 922l-59 -361q160 164 325 164q104 0 158.5 -65t54.5 -166q0 -136 -78.5 -255.5t-215.5 -191.5t-298 -72q-152 0 -227.5 64t-75.5 184q0 59 6 94h-272l-51 -317h-305l155 922h307l-55 -318h273l55 318h303zM1135 246q66 0 123 47t57 102q0 25 -14.5 42.5t-40.5 17.5
q-48 0 -107 -41t-96 -95v-8q0 -65 78 -65z" />
    <glyph glyph-name="uni045B" unicode="&#x45b;" horiz-adv-x="1218" 
d="M125 829l43 246h215l63 359h308l-64 -359h279l-43 -246h-281l-53 -299q33 45 63.5 77t72 63t94 47t114.5 16q64 0 110.5 -24t71 -61.5t35.5 -88.5t10 -100.5t-10 -102.5l-63 -356h-310l54 297q12 64 -1 106.5t-57 42.5q-34 0 -66 -21t-64 -64.5t-51.5 -76t-49.5 -88.5
q-9 -16 -13 -24l-30 -172h-307l145 829h-215z" />
    <glyph glyph-name="uni045C" unicode="&#x45c;" horiz-adv-x="1089" 
d="M111 0l161 922h308l-74 -426l325 426h365l-371 -455l254 -467h-342l-243 430l-76 -430h-307zM1073 1378l-272 -307l-183 129l216 361z" />
    <glyph glyph-name="uni045E" unicode="&#x45e;" horiz-adv-x="956" 
d="M696 922h322q-33 -196 -89 -386t-134 -361.5t-169 -301.5t-201 -206.5t-222 -76.5q-136 0 -232 86l140 232q46 -33 96 -33q97 0 147 88l21 37q-93 412 -297 922h354q98 -261 152 -537q29 85 50.5 180.5t32 161t29.5 195.5zM274 1413h267q-20 -119 63 -119q87 0 101 119
h266q-8 -64 -33.5 -122.5t-70.5 -110.5t-117.5 -83.5t-163.5 -31.5q-176 0 -257.5 97t-54.5 251z" />
    <glyph glyph-name="uni045F" unicode="&#x45f;" horiz-adv-x="1140" 
d="M111 0l161 922h308l-111 -635h266l111 635h307l-162 -922h-297l-39 -225h-286l39 225h-297z" />
    <glyph glyph-name="uni0462" unicode="&#x462;" horiz-adv-x="1357" 
d="M846 1434l-23 -123h281l-53 -307h-281l-18 -101q71 8 155 8q212 0 337.5 -95t125.5 -281q0 -254 -171 -396.5t-474 -142.5q-129 0 -281.5 2t-177.5 2l176 1004h-225l53 307h226l22 123h328zM831 604q-65 0 -133 -10l-51 -283q74 -8 137 -8q101 0 165.5 47t64.5 131
q0 61 -51 92t-132 31z" />
    <glyph glyph-name="uni0463" unicode="&#x463;" horiz-adv-x="1087" 
d="M139 676l43 246h215l90 512h308l-90 -512h253l-43 -246h-253l-29 -152q49 35 75.5 51t77 33t105.5 17q101 0 156 -63t55 -150q0 -113 -68.5 -213t-191 -162t-267.5 -62q-164 0 -237.5 68t-73.5 203q0 102 90 430h-215zM733 375q-31 0 -78 -26.5t-69 -55.5v-12
q0 -60 63 -60q49 0 93 29.5t44 66.5q0 25 -14 41.5t-39 16.5z" />
    <glyph glyph-name="uni0472" unicode="&#x472;" horiz-adv-x="1710" 
d="M205 645q0 173 60.5 323t169 258t266.5 170t346 62q207 0 368 -81t251.5 -233.5t90.5 -355.5q0 -130 -34.5 -250.5t-104.5 -222.5t-168.5 -178t-233.5 -119t-292 -43q-136 0 -252.5 34t-201.5 95.5t-145.5 145t-90 184t-29.5 211.5zM770 655q-90 0 -203 -80
q25 -132 122.5 -212t246.5 -80q162 0 275.5 81t160.5 216q-110 -60 -205 -60q-52 0 -99.5 14t-83 34t-69 39.5t-71 33.5t-74.5 14zM1214 807q77 0 177 65q-28 128 -125.5 203.5t-245.5 75.5q-158 0 -264.5 -75t-155.5 -197q104 63 205 63q62 0 119 -21t94.5 -46.5t90 -46.5
t105.5 -21z" />
    <glyph glyph-name="uni0473" unicode="&#x473;" horiz-adv-x="1112" 
d="M123 365q0 123 37 227.5t108 184t183.5 124.5t255.5 45q102 0 181.5 -32t127 -87.5t72 -124t24.5 -145.5q0 -125 -36.5 -230.5t-106.5 -184t-179.5 -123t-246.5 -44.5q-203 0 -311.5 110t-108.5 280zM508 418q-32 0 -68 -27q8 -66 47 -105.5t107 -39.5q63 0 108.5 33
t69.5 90q-42 -23 -86 -23q-35 0 -64.5 18t-56.5 36t-57 18zM737 516q31 0 56 19q-8 62 -45.5 101.5t-104.5 39.5q-60 0 -104.5 -30.5t-69.5 -80.5q38 23 82 23q37 0 71 -18t62 -36t53 -18z" />
    <glyph glyph-name="uni0474" unicode="&#x474;" horiz-adv-x="1411" 
d="M1376 1014l-571 -1014h-252l-322 1434h334l191 -947l368 676q102 198 230.5 259.5t312.5 4.5l-94 -280q-25 9 -45 10.5t-37.5 -5.5t-31 -17t-28.5 -31t-26.5 -39.5t-28.5 -50.5z" />
    <glyph glyph-name="uni0475" unicode="&#x475;" horiz-adv-x="1064" 
d="M905 508l-295 -508h-243l-256 922h344l67 -291q21 -93 21 -213q32 91 100 215l33 61q31 58 62.5 100t76.5 78t97 52t123.5 15t156.5 -26l-92 -282q-58 26 -101 -4.5t-94 -118.5z" />
    <glyph glyph-name="uni0490" unicode="&#x490;" horiz-adv-x="1083" 
d="M184 0l252 1434h512l41 225h307l-94 -533h-491l-199 -1126h-328z" />
    <glyph glyph-name="uni0491" unicode="&#x491;" horiz-adv-x="833" 
d="M111 0l161 922h369l33 184h287l-82 -471h-349l-112 -635h-307z" />
    <glyph glyph-name="uni0492" unicode="&#x492;" horiz-adv-x="1083" 
d="M115 537l49 286h164l108 611h819l-55 -308h-491l-54 -303h338l-49 -286h-340l-92 -537h-328l95 537h-164z" />
    <glyph glyph-name="uni0493" unicode="&#x493;" horiz-adv-x="858" 
d="M133 0l45 256h-123l45 266h123l72 400h655l-51 -287h-348l-21 -113h215l-45 -266h-215l-45 -256h-307z" />
    <glyph glyph-name="uni0494" unicode="&#x494;" horiz-adv-x="1298" 
d="M184 0l252 1434h860l-53 -308h-532l-56 -315q113 55 275 55q59 0 114.5 -15t108 -48.5t86 -87.5t48.5 -132t-5 -182l-68 -381q-78 -444 -456 -444q-87 0 -157.5 30.5t-94.5 69.5l149 250q50 -43 111 -43q100 0 121 133l57 338q18 101 -20 153t-119 52q-68 0 -112.5 -10.5
t-90.5 -36.5l-90 -512h-328z" />
    <glyph glyph-name="uni0495" unicode="&#x495;" horiz-adv-x="1050" 
d="M111 0l161 922h666l-51 -287h-359l-30 -178q33 28 95 49.5t128 21.5q127 0 206 -74t79 -206q0 -191 -103 -363t-272 -295h-324q89 71 170.5 161.5t144 205t62.5 207.5q0 52 -28.5 78t-75.5 26q-62 0 -123 -49l-39 -219h-307z" />
    <glyph glyph-name="uni0496" unicode="&#x496;" horiz-adv-x="2027" 
d="M659 750l-374 684h372l328 -627l111 627h327l-110 -627l549 627h391l-631 -686l225 -441h209l-96 -553h-307l43 246h-56l-348 686l-121 -686h-327l121 686l-576 -686h-379z" />
    <glyph glyph-name="uni0497" unicode="&#x497;" horiz-adv-x="1525" 
d="M362 475l-202 447h334l184 -410l72 410h307l-72 -410l297 410h356l-350 -449l84 -186h189l-107 -512h-272l51 225q-21 -2 -39 5t-31 19t-28 38t-25.5 49t-28.5 65l-108 260l-78 -436h-307l76 434l-314 -434h-362z" />
    <glyph glyph-name="uni0498" unicode="&#x498;" horiz-adv-x="1185" 
d="M688 -307h-307l51 295q-232 43 -348 217l211 209q62 -69 131 -100t164 -31q104 0 162.5 46t58.5 126q0 56 -40.5 90.5t-117.5 34.5h-159l53 307h139q90 0 138 43t48 110q0 111 -155 111q-76 0 -137 -22t-127 -66l-150 227q204 168 479 168q219 0 329 -90.5t110 -243.5
q0 -135 -75.5 -237t-209.5 -144v-6q78 -19 130 -68t72.5 -108t20.5 -129q0 -169 -108 -288.5t-312 -153.5z" />
    <glyph glyph-name="uni0499" unicode="&#x499;" horiz-adv-x="935" 
d="M535 -225h-287l37 211q-159 23 -250 125l155 184q92 -74 234 -74q162 0 162 76q0 29 -28 44t-75 15h-143l35 205h133q53 0 83 21.5t30 56.5q0 61 -119 61q-142 0 -236 -51l-98 189q161 108 403 108q187 0 281 -62t94 -175q0 -88 -55 -150.5t-152 -85.5v-4
q162 -39 162 -178q0 -116 -91.5 -196t-238.5 -107z" />
    <glyph glyph-name="uni049A" unicode="&#x49a;" horiz-adv-x="1402" 
d="M184 0l252 1434h328l-109 -625l566 625h397l-649 -707l248 -420h217l-48 -307l-49 -246h-307l43 246h-55l-385 686l-121 -686h-328z" />
    <glyph glyph-name="uni049B" unicode="&#x49b;" horiz-adv-x="1089" 
d="M111 0l161 922h308l-74 -426l325 426h365l-371 -455l97 -178h186l-107 -512h-272l51 223q-24 0 -43.5 8.5t-33 19t-30.5 38t-27.5 47t-33.5 65.5l-118 252l-76 -430h-307z" />
    <glyph glyph-name="uni049C" unicode="&#x49c;" horiz-adv-x="1581" 
d="M657 301l150 840h246l-37 -209l414 502h366l-604 -711l395 -723h-356l-285 549l-43 -248h-246zM184 0l252 1434h328l-252 -1434h-328z" />
    <glyph glyph-name="uni049D" unicode="&#x49d;" horiz-adv-x="1251" 
d="M516 143l113 645h196l-26 -157l211 291h348l-357 -455l240 -467h-330l-163 342l-35 -199h-197zM111 0l161 922h308l-162 -922h-307z" />
    <glyph glyph-name="uni04A0" unicode="&#x4a0;" horiz-adv-x="1574" 
d="M356 0l199 1126h-340l53 308h668l-109 -625l566 625h397l-649 -707l418 -727h-369l-385 686l-121 -686h-328z" />
    <glyph glyph-name="uni04A1" unicode="&#x4a1;" horiz-adv-x="1241" 
d="M262 0l111 635h-246l51 287h553l-74 -426l326 426h365l-371 -455l254 -467h-342l-244 430l-76 -430h-307z" />
    <glyph glyph-name="uni04A2" unicode="&#x4a2;" horiz-adv-x="1613" 
d="M1055 0l102 578h-543l-102 -578h-328l252 1434h328l-96 -549h542l97 549h327l-198 -1127h194l-96 -553h-307l43 246h-215z" />
    <glyph glyph-name="uni04A3" unicode="&#x4a3;" horiz-adv-x="1193" 
d="M719 176l22 141h-272l-51 -317h-307l157 922h305l-53 -318h273l55 318h303l-107 -635h154l-106 -512h-273l51 223q-29 0 -49 2t-42 8.5t-33.5 18.5t-22.5 32t-9.5 48.5t5.5 68.5z" />
    <glyph glyph-name="uni04A4" unicode="&#x4a4;" horiz-adv-x="1912" 
d="M1034 0l101 578h-521l-102 -578h-328l252 1434h328l-96 -549h522l96 549h840l-53 -308h-512l-199 -1126h-328z" />
    <glyph glyph-name="uni04A5" unicode="&#x4a5;" horiz-adv-x="1359" 
d="M670 0l53 317h-254l-51 -317h-307l157 922h305l-53 -318h252l55 318h625l-51 -287h-318l-106 -635h-307z" />
    <glyph glyph-name="uni04AA" unicode="&#x4aa;" horiz-adv-x="1372" 
d="M1276 387l127 -252q-63 -60 -160 -99.5t-211 -53.5l-49 -289h-307l51 305q-238 51 -380 219.5t-142 433.5q0 118 30 231t98 218.5t166.5 184t246.5 126t327 47.5q140 0 264 -36.5t191 -100.5l-168 -250q-119 80 -316 80q-116 0 -210 -39t-153 -105t-90.5 -150.5
t-31.5 -178.5q0 -186 102 -290.5t289 -104.5q186 0 326 104z" />
    <glyph glyph-name="uni04AB" unicode="&#x4ab;" horiz-adv-x="960" 
d="M805 330l129 -187q-89 -107 -252 -147l-37 -221h-287l37 215q-131 30 -201.5 123.5t-70.5 244.5q0 89 24 173.5t73.5 160t119.5 132t168.5 89.5t212.5 33q181 0 276 -59l-100 -234q-70 23 -180 23q-132 0 -205.5 -81.5t-73.5 -201.5q0 -71 39.5 -109t112.5 -38
q113 0 215 84z" />
    <glyph glyph-name="uni04AE" unicode="&#x4ae;" horiz-adv-x="1277" 
d="M1540 1434l-637 -850l-102 -584h-328l102 584l-333 850h344l192 -531l379 531h383z" />
    <glyph glyph-name="uni04AF" unicode="&#x4af;" horiz-adv-x="927" 
d="M526 -410h-307l74 410q-22 195 -73 453.5t-109 468.5h344q39 -147 59 -566q67 105 113 264t59 302h324q-50 -310 -161.5 -542.5t-250.5 -379.5z" />
    <glyph glyph-name="uni04B0" unicode="&#x4b0;" horiz-adv-x="1277" 
d="M1540 1434l-557 -734h248l-51 -286h-308l-71 -414h-328l72 414h-307l51 286h246l-293 734h344l192 -531l379 531h383z" />
    <glyph glyph-name="uni04B1" unicode="&#x4b1;" horiz-adv-x="927" 
d="M526 -410h-307l74 410h-221l45 256h143q-55 322 -149 666h344q39 -147 59 -566q67 105 113 264t59 302h324q-67 -408 -238 -666h143l-45 -256h-272z" />
    <glyph glyph-name="uni04B2" unicode="&#x4b2;" horiz-adv-x="1411" 
d="M1624 1434l-596 -719l209 -408h205l-96 -553h-308l43 246h-59l-229 475l-390 -475h-393l619 750l-344 684h366l215 -439l363 439h395z" />
    <glyph glyph-name="uni04B3" unicode="&#x4b3;" horiz-adv-x="1030" 
d="M1143 922l-346 -447l80 -188h184l-107 -512h-272l51 223q-32 0 -55.5 12.5t-41 41t-26 50t-22.5 62.5q-3 8 -4 12l-35 103l-191 -279h-374l362 475l-190 447h346l94 -252l172 252h375z" />
    <glyph glyph-name="uni04B6" unicode="&#x4b6;" horiz-adv-x="1464" 
d="M1485 1434l-197 -1127h195l-97 -553h-307l43 246h-217l96 549q-52 -36 -137 -60t-168 -24q-201 0 -305 100t-104 277q0 55 8 104l86 488h328l-74 -414q-8 -41 -8 -84q-3 -164 180 -164q128 0 248 76l102 586h328z" />
    <glyph glyph-name="uni04B7" unicode="&#x4b7;" horiz-adv-x="1083" 
d="M1047 922l-113 -635h153l-106 -512h-272l51 223q-25 0 -43 1.5t-37.5 6t-31.5 12.5t-24.5 21t-15.5 32t-5.5 45t5.5 60l37 217q-118 -153 -278 -153q-220 0 -220 235q0 47 15 135l67 312h326l-59 -271q-7 -49 -7 -57q0 -68 50 -68q48 0 84.5 38t68.5 98l47 260h308z" />
    <glyph glyph-name="uni04B8" unicode="&#x4b8;" horiz-adv-x="1417" 
d="M1485 1434l-252 -1434h-328l96 549q-42 -28 -94 -45l-43 -244h-266l39 219q-165 17 -257.5 115.5t-92.5 257.5q0 44 22 180l72 402h324l-70 -381q-12 -71 -12 -117q-3 -101 69 -141l51 295h267l-52 -289q39 13 97 47l102 586h328z" />
    <glyph glyph-name="uni04B9" unicode="&#x4b9;" horiz-adv-x="1112" 
d="M1124 922l-163 -922h-308l70 393q-34 -34 -61 -53l-35 -197h-201l23 129h-33q-121 0 -195 64t-74 176q0 55 25 164l53 246h297l-49 -226q-14 -58 -14 -92q0 -46 35 -69l34 192h201l-27 -149q35 25 66 73l49 271h307z" />
    <glyph glyph-name="uni04BA" unicode="&#x4ba;" horiz-adv-x="1382" 
d="M438 1434h328l-104 -609q120 62 319 62q202 0 311.5 -127t73.5 -330l-78 -430h-327l61 332q23 125 -17.5 186.5t-162.5 61.5q-136 0 -234 -56l-94 -524h-328z" />
    <glyph glyph-name="uni04BB" unicode="&#x4bb;" horiz-adv-x="1134" 
d="M111 0l251 1434h308l-123 -691q62 92 147.5 147.5t182.5 55.5q239 0 239 -264q0 -55 -14 -141l-96 -541h-308l88 502q7 40 7 63q0 94 -68 94q-34 0 -69 -26.5t-68.5 -76t-54.5 -87t-48 -90.5l-67 -379h-307z" />
    <glyph glyph-name="uni04C0" unicode="&#x4c0;" horiz-adv-x="561" 
d="M659 1434l-241 -1434h-307l243 1434h305z" />
    <glyph glyph-name="uni04CB" unicode="&#x4cb;" horiz-adv-x="1417" 
d="M1485 1434l-252 -1434h-217l-43 -246h-307l98 553h194l43 242q-52 -36 -137 -60t-168 -24q-201 0 -305 100t-104 277q0 55 8 104l86 488h328l-74 -414q-8 -41 -8 -84q-3 -164 180 -164q128 0 248 76l102 586h328z" />
    <glyph glyph-name="uni04CC" unicode="&#x4cc;" horiz-adv-x="1034" 
d="M1028 922l-131 -746q-10 -58 -30.5 -95t-51 -54.5t-60.5 -23t-75 -5.5l-27 -223h-272l74 512h151l29 153q-92 -118 -275 -118q-111 0 -166 62t-55 165q0 48 27 166l45 207h326l-48 -213q-12 -54 -12 -74q0 -68 49 -68q84 0 152 125l43 230h307z" />
    <glyph glyph-name="uni04CF" unicode="&#x4cf;" horiz-adv-x="737" 
d="M205 0l252 1434h327l-252 -1434h-327z" />
    <glyph glyph-name="uni04D0" unicode="&#x4d0;" horiz-adv-x="1443" 
d="M0 0l827 1434h289l328 -1434h-330l-67 301h-525l-168 -301h-354zM899 1014l-205 -406h283zM598 1802h307q-5 -50 22.5 -76t86.5 -26q114 0 137 102h307q-27 -146 -155.5 -236.5t-301.5 -90.5q-215 0 -315 87t-88 240z" />
    <glyph glyph-name="uni04D1" unicode="&#x4d1;" horiz-adv-x="1116" 
d="M987 0h-301l35 197q-57 -89 -146 -155.5t-194 -66.5q-130 0 -194 86t-64 228q0 189 81 338.5t228.5 234t335.5 84.5q102 0 209.5 -27t150.5 -57zM528 246q35 0 72.5 29.5t69.5 77t57 95t45 95.5l23 125q-39 8 -80 8q-121 0 -199 -87.5t-78 -215.5q0 -127 90 -127z
M510 1413h266q-20 -119 64 -119q86 0 100 119h266q-8 -64 -33.5 -122.5t-70.5 -110.5t-117.5 -83.5t-163.5 -31.5q-176 0 -257 97t-54 251z" />
    <glyph glyph-name="uni04D2" unicode="&#x4d2;" horiz-adv-x="1443" 
d="M0 0l827 1434h289l328 -1434h-330l-67 301h-525l-168 -301h-354zM899 1014l-205 -406h283zM1069 1700q0 68 52.5 110.5t125.5 42.5q78 0 128 -42t50 -109q0 -66 -46.5 -113t-131.5 -47q-82 0 -130 43.5t-48 114.5zM565 1700q0 68 52.5 110.5t125.5 42.5q78 0 128.5 -42
t50.5 -109q0 -66 -47 -113t-132 -47q-82 0 -130 43.5t-48 114.5z" />
    <glyph glyph-name="uni04D3" unicode="&#x4d3;" horiz-adv-x="1116" 
d="M987 0h-301l35 197q-57 -89 -146 -155.5t-194 -66.5q-130 0 -194 86t-64 228q0 189 81 338.5t228.5 234t335.5 84.5q102 0 209.5 -27t150.5 -57zM528 246q35 0 72.5 29.5t69.5 77t57 95t45 95.5l23 125q-39 8 -80 8q-121 0 -199 -87.5t-78 -215.5q0 -127 90 -127z
M842 1188q0 60 43.5 106.5t111.5 46.5q67 0 110.5 -42t43.5 -107q0 -68 -43 -115t-113 -47q-71 0 -112 44t-41 114zM432 1188q0 60 44 106.5t112 46.5q67 0 110 -42t43 -107q0 -68 -42.5 -115t-112.5 -47q-71 0 -112.5 44t-41.5 114z" />
    <glyph glyph-name="uni04D4" unicode="&#x4d4;" horiz-adv-x="2019" 
d="M2148 1434l-53 -308h-543l-45 -252h482l-54 -307h-481l-47 -260h563l-53 -307h-891l53 301h-401l-260 -301h-418l1282 1434h866zM1180 872l-224 -264h177z" />
    <glyph glyph-name="uni04D5" unicode="&#x4d5;" horiz-adv-x="1636" 
d="M1051 883q129 63 272 63q342 0 342 -256q0 -85 -50 -152t-137.5 -110t-197 -67.5t-236.5 -30.5q24 -109 183 -109q120 0 235 86l123 -164q-168 -168 -414 -168q-169 0 -270.5 70t-132.5 203q-179 -273 -387 -273q-130 0 -194 86t-64 228q0 189 81 338.5t228.5 234
t335.5 84.5q160 0 283 -63zM528 246q35 0 72.5 29.5t69.5 77t57 95t45 95.5l23 125q-39 8 -80 8q-121 0 -199 -87.5t-78 -215.5q0 -127 90 -127zM1298 700q-86 0 -150.5 -55t-84.5 -133q56 2 107.5 10.5t97 23t73 38.5t27.5 53t-20 46t-50 17z" />
    <glyph glyph-name="uni04D6" unicode="&#x4d6;" horiz-adv-x="1177" 
d="M184 0l252 1434h871l-54 -308h-542l-45 -252h481l-53 -307h-482l-47 -260h563l-53 -307h-891zM512 1802h307q-5 -50 22.5 -76t86.5 -26q114 0 137 102h307q-27 -146 -155.5 -236.5t-301.5 -90.5q-215 0 -315 87t-88 240z" />
    <glyph glyph-name="uni04D7" unicode="&#x4d7;" horiz-adv-x="1013" 
d="M840 307l123 -164q-168 -168 -414 -168q-205 0 -315.5 100t-110.5 287q0 114 41.5 219.5t114.5 186.5t183 129.5t238 48.5q342 0 342 -256q0 -85 -50 -152t-137 -110t-196.5 -67.5t-236.5 -30.5q24 -109 182 -109q121 0 236 86zM676 700q-86 0 -151 -55t-85 -133
q56 2 107.5 10.5t97 23t73 38.5t27.5 53t-19.5 46t-49.5 17zM418 1413h266q-20 -119 64 -119q86 0 100 119h266q-8 -64 -33.5 -122.5t-70.5 -110.5t-117.5 -83.5t-163.5 -31.5q-176 0 -257 97t-54 251z" />
    <glyph glyph-name="uni04D8" unicode="&#x4d8;" horiz-adv-x="1626" 
d="M262 885h1047q-34 129 -130 197.5t-245 68.5q-173 0 -330 -104l-117 258q202 153 500 153q193 0 347.5 -77t246.5 -229t92 -355q0 -132 -32 -251.5t-100 -224.5t-166.5 -181.5t-239.5 -120.5t-310 -44q-242 0 -399 107.5t-204 309.5t40 493zM854 283q169 0 278 77
t158 218h-731q-5 -134 66.5 -214.5t228.5 -80.5z" />
    <glyph glyph-name="uni04D9" unicode="&#x4d9;" horiz-adv-x="1079" 
d="M336 625l-51 231q67 44 161.5 67t192.5 23q215 0 327.5 -107t112.5 -290q0 -88 -20 -170t-63.5 -156t-107 -128.5t-156.5 -87t-206 -32.5q-189 0 -304.5 101t-115.5 268q0 120 54 219h608q-30 127 -178 127q-139 0 -254 -65zM551 231q74 0 124 34.5t73 92.5h-324
q-8 -51 25 -89t102 -38z" />
    <glyph glyph-name="uni04DC" unicode="&#x4dc;" horiz-adv-x="2015" 
d="M659 750l-374 684h372l328 -627l111 627h327l-110 -627l549 627h391l-627 -686l379 -748h-365l-348 686l-121 -686h-327l121 686l-576 -686h-379zM1352 1700q0 68 52.5 110.5t125.5 42.5q78 0 128 -42t50 -109q0 -66 -46.5 -113t-131.5 -47q-82 0 -130 43.5t-48 114.5z
M848 1700q0 68 52.5 110.5t125.5 42.5q78 0 128 -42t50 -109q0 -66 -46.5 -113t-131.5 -47q-82 0 -130 43.5t-48 114.5z" />
    <glyph glyph-name="uni04DD" unicode="&#x4dd;" horiz-adv-x="1515" 
d="M362 475l-202 447h334l184 -410l72 410h307l-72 -410l297 410h356l-350 -449l213 -473h-332l-196 436l-78 -436h-307l76 434l-314 -434h-362zM981 1188q0 60 44 106.5t112 46.5q67 0 110 -42t43 -107q0 -68 -42.5 -115t-112.5 -47q-71 0 -112.5 44t-41.5 114zM571 1188
q0 60 44 106.5t112 46.5q67 0 110.5 -42t43.5 -107q0 -68 -43 -115t-113 -47q-71 0 -112.5 44t-41.5 114z" />
    <glyph glyph-name="uni04DE" unicode="&#x4de;" horiz-adv-x="1185" 
d="M582 -25q-343 0 -498 230l211 209q62 -69 131 -100t164 -31q104 0 162.5 46t58.5 126q0 56 -40.5 90.5t-117.5 34.5h-159l53 307h139q90 0 138 43t48 110q0 111 -155 111q-76 0 -137 -22t-127 -66l-150 227q204 168 479 168q219 0 329 -90.5t110 -243.5
q0 -135 -75.5 -237t-209.5 -144v-6q78 -19 130 -68t72.5 -108t20.5 -129q0 -96 -36.5 -178.5t-107 -145t-181.5 -98t-252 -35.5zM909 1700q0 68 52.5 110.5t125.5 42.5q78 0 128.5 -42t50.5 -109q0 -66 -47 -113t-132 -47q-82 0 -130 43.5t-48 114.5zM406 1700
q0 68 52.5 110.5t125.5 42.5q78 0 128 -42t50 -109q0 -66 -46.5 -113t-131.5 -47q-82 0 -130 43.5t-48 114.5z" />
    <glyph glyph-name="uni04DF" unicode="&#x4df;" horiz-adv-x="935" 
d="M432 -25q-273 0 -397 136l155 184q92 -74 234 -74q162 0 162 76q0 29 -28 44t-75 15h-143l35 205h133q53 0 83 21.5t30 56.5q0 61 -119 61q-142 0 -236 -51l-98 189q161 108 403 108q187 0 281 -62t94 -175q0 -88 -55 -150.5t-152 -85.5v-4q162 -39 162 -178
q0 -96 -64 -168.5t-170 -110t-235 -37.5zM670 1188q0 60 43.5 106.5t111.5 46.5q67 0 110.5 -42t43.5 -107q0 -68 -43 -115t-113 -47q-71 0 -112 44t-41 114zM260 1188q0 60 44 106.5t112 46.5q67 0 110 -42t43 -107q0 -68 -42.5 -115t-112.5 -47q-71 0 -112.5 44t-41.5 114
z" />
    <glyph glyph-name="uni04E2" unicode="&#x4e2;" horiz-adv-x="1626" 
d="M471 0h-287l252 1434h328l-150 -854l793 854h287l-252 -1434h-328l152 862zM760 1536l43 246h643l-43 -246h-643z" />
    <glyph glyph-name="uni04E3" unicode="&#x4e3;" horiz-adv-x="1103" 
d="M1116 922l-164 -922h-307l33 176q-31 -41 -60.5 -71.5t-71 -62.5t-94 -49.5t-110.5 -17.5q-60 0 -102.5 20t-65.5 55.5t-33 76t-10 90.5q0 55 12 125l123 580h307l-106 -514q-1 -5 -3.5 -19t-4.5 -28.5t-2 -26.5q0 -72 51 -72q55 0 121 84.5t108 177.5l72 398h307z
M422 1106l43 246h602l-43 -246h-602z" />
    <glyph glyph-name="uni04E4" unicode="&#x4e4;" horiz-adv-x="1626" 
d="M471 0h-287l252 1434h328l-150 -854l793 854h287l-252 -1434h-328l152 862zM1192 1700q0 68 52.5 110.5t125.5 42.5q78 0 128 -42t50 -109q0 -66 -46.5 -113t-131.5 -47q-82 0 -130 43.5t-48 114.5zM688 1700q0 68 52.5 110.5t125.5 42.5q78 0 128 -42t50 -109
q0 -66 -46.5 -113t-131.5 -47q-82 0 -130 43.5t-48 114.5z" />
    <glyph glyph-name="uni04E5" unicode="&#x4e5;" horiz-adv-x="1103" 
d="M1116 922l-164 -922h-307l33 176q-31 -41 -60.5 -71.5t-71 -62.5t-94 -49.5t-110.5 -17.5q-60 0 -102.5 20t-65.5 55.5t-33 76t-10 90.5q0 55 12 125l123 580h307l-106 -514q-1 -5 -3.5 -19t-4.5 -28.5t-2 -26.5q0 -72 51 -72q55 0 121 84.5t108 177.5l72 398h307z
M784 1188q0 60 44 106.5t112 46.5q67 0 110.5 -42t43.5 -107q0 -68 -43 -115t-113 -47q-71 0 -112.5 44t-41.5 114zM375 1188q0 60 43.5 106.5t111.5 46.5q67 0 110.5 -42t43.5 -107q0 -68 -43 -115t-113 -47q-71 0 -112 44t-41 114z" />
    <glyph glyph-name="uni04E6" unicode="&#x4e6;" horiz-adv-x="1710" 
d="M205 645q0 173 60.5 323t169 258t266.5 170t346 62q207 0 368 -81t251.5 -233.5t90.5 -355.5q0 -130 -34.5 -250.5t-104.5 -222.5t-168.5 -178t-233.5 -119t-292 -43q-136 0 -252.5 34t-201.5 95.5t-145.5 145t-90 184t-29.5 211.5zM559 666q0 -168 102 -275.5
t275 -107.5q144 0 251.5 66t161.5 175t54 244q0 173 -102.5 278t-280.5 105q-92 0 -169.5 -28t-130.5 -75t-90 -109.5t-54 -131.5t-17 -141zM1223 1700q0 68 52.5 110.5t125.5 42.5q78 0 128 -42t50 -109q0 -66 -46.5 -113t-131.5 -47q-82 0 -130 43.5t-48 114.5zM719 1700
q0 68 52.5 110.5t125.5 42.5q78 0 128 -42t50 -109q0 -66 -46.5 -113t-131.5 -47q-82 0 -130 43.5t-48 114.5z" />
    <glyph glyph-name="uni04E7" unicode="&#x4e7;" horiz-adv-x="1112" 
d="M123 365q0 123 37 227.5t108 184t183.5 124.5t255.5 45q102 0 181.5 -32t127 -87.5t72 -124t24.5 -145.5q0 -125 -36.5 -230.5t-106.5 -184t-179.5 -123t-246.5 -44.5q-203 0 -311.5 110t-108.5 280zM438 426q0 -79 40 -129.5t116 -50.5q94 0 148.5 71.5t54.5 178.5
q0 75 -38 127.5t-116 52.5q-98 0 -151.5 -74.5t-53.5 -175.5zM778 1188q0 60 44 106.5t112 46.5q67 0 110 -42t43 -107q0 -68 -42.5 -115t-112.5 -47q-71 0 -112.5 44t-41.5 114zM369 1188q0 60 43.5 106.5t111.5 46.5q67 0 110.5 -42t43.5 -107q0 -68 -43 -115t-113 -47
q-71 0 -112 44t-41 114z" />
    <glyph glyph-name="uni04E8" unicode="&#x4e8;" horiz-adv-x="1710" 
d="M205 645q0 173 60.5 323t169 258t266.5 170t346 62q207 0 368 -81t251.5 -233.5t90.5 -355.5q0 -130 -34.5 -250.5t-104.5 -222.5t-168.5 -178t-233.5 -119t-292 -43q-136 0 -252.5 34t-201.5 95.5t-145.5 145t-90 184t-29.5 211.5zM936 283q164 0 277 81.5t159 219.5
h-807q24 -136 122 -218.5t249 -82.5zM1020 1151q-158 0 -264.5 -75t-155.5 -197h791q-31 127 -127.5 199.5t-243.5 72.5z" />
    <glyph glyph-name="uni04E9" unicode="&#x4e9;" horiz-adv-x="1112" 
d="M123 365q0 123 37 227.5t108 184t183.5 124.5t255.5 45q102 0 181.5 -32t127 -87.5t72 -124t24.5 -145.5q0 -125 -36.5 -230.5t-106.5 -184t-179.5 -123t-246.5 -44.5q-203 0 -311.5 110t-108.5 280zM594 221q67 0 119.5 33t79.5 96h-371q33 -129 172 -129zM643 700
q-140 0 -199 -129h369q-31 129 -170 129z" />
    <glyph glyph-name="uni04EE" unicode="&#x4ee;" horiz-adv-x="1394" 
d="M1647 1434l-674 -1094q-28 -47 -44.5 -73t-46.5 -67t-53.5 -65t-59 -53t-70.5 -44.5t-80.5 -26.5t-96.5 -11q-65 0 -128 20.5t-99 55.5l151 258q56 -27 105 -27q47 0 72.5 18.5t50.5 59.5l14 23l-436 1026h352l273 -699l409 699h361zM653 1536l43 246h643l-43 -246h-643z
" />
    <glyph glyph-name="uni04EF" unicode="&#x4ef;" horiz-adv-x="956" 
d="M696 922h322q-33 -196 -89 -386t-134 -361.5t-169 -301.5t-201 -206.5t-222 -76.5q-136 0 -232 86l140 232q46 -33 96 -33q97 0 147 88l21 37q-93 412 -297 922h354q98 -261 152 -537q29 85 50.5 180.5t32 161t29.5 195.5zM285 1106l43 246h602l-43 -246h-602z" />
    <glyph glyph-name="uni04F0" unicode="&#x4f0;" horiz-adv-x="1394" 
d="M1647 1434l-674 -1094q-28 -47 -44.5 -73t-46.5 -67t-53.5 -65t-59 -53t-70.5 -44.5t-80.5 -26.5t-96.5 -11q-65 0 -128 20.5t-99 55.5l151 258q56 -27 105 -27q47 0 72.5 18.5t50.5 59.5l14 23l-436 1026h352l273 -699l409 699h361zM1044 1700q0 68 53 110.5t126 42.5
q78 0 128 -42t50 -109q0 -66 -46.5 -113t-131.5 -47q-82 0 -130.5 43.5t-48.5 114.5zM541 1700q0 68 52.5 110.5t125.5 42.5q78 0 128 -42t50 -109q0 -66 -46.5 -113t-131.5 -47q-82 0 -130 43.5t-48 114.5z" />
    <glyph glyph-name="uni04F1" unicode="&#x4f1;" horiz-adv-x="956" 
d="M696 922h322q-33 -196 -89 -386t-134 -361.5t-169 -301.5t-201 -206.5t-222 -76.5q-136 0 -232 86l140 232q46 -33 96 -33q97 0 147 88l21 37q-93 412 -297 922h354q98 -261 152 -537q29 85 50.5 180.5t32 161t29.5 195.5zM610 1188q0 60 44 106.5t112 46.5
q67 0 110.5 -42t43.5 -107q0 -68 -43 -115t-113 -47q-71 0 -112.5 44t-41.5 114zM201 1188q0 60 43.5 106.5t111.5 46.5q67 0 110.5 -42t43.5 -107q0 -68 -43 -115t-113 -47q-71 0 -112 44t-41 114z" />
    <glyph glyph-name="uni04F2" unicode="&#x4f2;" horiz-adv-x="1394" 
d="M1647 1434l-674 -1094q-28 -47 -44.5 -73t-46.5 -67t-53.5 -65t-59 -53t-70.5 -44.5t-80.5 -26.5t-96.5 -11q-65 0 -128 20.5t-99 55.5l151 258q56 -27 105 -27q47 0 72.5 18.5t50.5 59.5l14 23l-436 1026h352l273 -699l409 699h361zM1516 1722l-418 -231l-125 129
l325 295zM1065 1782l-342 -291l-131 119l207 305z" />
    <glyph glyph-name="uni04F3" unicode="&#x4f3;" horiz-adv-x="956" 
d="M696 922h322q-33 -196 -89 -386t-134 -361.5t-169 -301.5t-201 -206.5t-222 -76.5q-136 0 -232 86l140 232q46 -33 96 -33q97 0 147 88l21 37q-93 412 -297 922h354q98 -261 152 -537q29 85 50.5 180.5t32 161t29.5 195.5zM1083 1356l-286 -285l-183 129l242 328z
M694 1399l-245 -328l-189 123l205 362z" />
    <glyph glyph-name="uni04F4" unicode="&#x4f4;" horiz-adv-x="1417" 
d="M1485 1434l-252 -1434h-328l96 549q-52 -36 -137 -60t-168 -24q-201 0 -305 100t-104 277q0 55 8 104l86 488h328l-74 -414q-8 -41 -8 -84q-3 -164 180 -164q128 0 248 76l102 586h328zM1036 1700q0 68 52.5 110.5t125.5 42.5q78 0 128.5 -42t50.5 -109q0 -66 -47 -113
t-132 -47q-82 0 -130 43.5t-48 114.5zM532 1700q0 68 53 110.5t126 42.5q78 0 128 -42t50 -109q0 -66 -46.5 -113t-131.5 -47q-82 0 -130.5 43.5t-48.5 114.5z" />
    <glyph glyph-name="uni04F5" unicode="&#x4f5;" horiz-adv-x="1034" 
d="M1047 922l-164 -922h-308l70 393q-118 -153 -278 -153q-220 0 -220 235q0 47 15 135l67 312h326l-59 -271q-7 -49 -7 -57q0 -68 50 -68q48 0 84.5 38t68.5 98l47 260h308zM723 1188q0 60 44 106.5t112 46.5q67 0 110 -42t43 -107q0 -68 -42.5 -115t-112.5 -47
q-71 0 -112.5 44t-41.5 114zM313 1188q0 60 44 106.5t112 46.5q67 0 110.5 -42t43.5 -107q0 -68 -43 -115t-113 -47q-71 0 -112.5 44t-41.5 114z" />
    <glyph glyph-name="uni04F6" unicode="&#x4f6;" horiz-adv-x="1083" 
d="M184 0l252 1434h860l-53 -308h-532l-144 -819h195l-96 -553h-308l43 246h-217z" />
    <glyph glyph-name="uni04F7" unicode="&#x4f7;" horiz-adv-x="833" 
d="M141 176l127 746h658l-52 -287h-348l-59 -348h154l-107 -512h-272l51 223q-25 0 -43 1.5t-37.5 6t-31.5 12.5t-24.5 21t-15.5 32t-5.5 45t5.5 60z" />
    <glyph glyph-name="uni04F8" unicode="&#x4f8;" horiz-adv-x="1812" 
d="M1300 0l252 1434h328l-252 -1434h-328zM731 686q-28 0 -100 -10l-64 -365q70 -8 95 -8q84 0 140.5 35t79.5 85.5t23 111.5q0 71 -47 111t-127 40zM764 1434l-78 -449q68 8 113 8q223 0 343 -110.5t120 -300.5q0 -96 -21.5 -180t-71.5 -159.5t-124.5 -129.5t-187 -85.5
t-253.5 -31.5q-103 0 -246.5 2t-173.5 2l252 1434h328zM1274 1700q0 68 52.5 110.5t125.5 42.5q78 0 128 -42t50 -109q0 -66 -46.5 -113t-131.5 -47q-82 0 -130 43.5t-48 114.5zM770 1700q0 68 52.5 110.5t125.5 42.5q78 0 128 -42t50 -109q0 -66 -46.5 -113t-131.5 -47
q-82 0 -130 43.5t-48 114.5z" />
    <glyph glyph-name="uni04F9" unicode="&#x4f9;" horiz-adv-x="1458" 
d="M772 725q104 0 158.5 -65t54.5 -166q0 -98 -45.5 -193t-122 -166.5t-183 -115.5t-220.5 -44q-138 0 -210.5 65t-72.5 183q0 77 16 139l148 560h307l-92 -334q74 65 137 101t125 36zM514 246q63 0 109.5 47.5t46.5 99.5q0 27 -14.5 44.5t-41.5 17.5q-40 0 -84 -40.5
t-77 -95.5v-8q0 -29 15.5 -47t45.5 -18zM1001 0l162 922h307l-161 -922h-308zM993 1188q0 60 44 106.5t112 46.5q67 0 110.5 -42t43.5 -107q0 -68 -43 -115t-113 -47q-71 0 -112.5 44t-41.5 114zM584 1188q0 60 43.5 106.5t111.5 46.5q67 0 110.5 -42t43.5 -107
q0 -68 -43 -115t-113 -47q-71 0 -112 44t-41 114z" />
    <glyph glyph-name="uni1E9E" unicode="&#x1e9e;" horiz-adv-x="1437" 
d="M1063 416q0 51 -55 107.5t-104 87.5t-166 97q-19 11 -29 17l323 356q-50 70 -141 70q-92 0 -146 -65.5t-71 -163.5l-162 -922h-328l162 920q46 264 185 401t397 137q100 0 185 -27t145.5 -73.5t103 -102t68.5 -120.5l-314 -310q130 -78 210.5 -183.5t80.5 -233.5
q0 -197 -139 -315t-346 -118q-117 0 -192.5 35t-133.5 101l176 247q69 -75 158 -75q60 0 96.5 37t36.5 96z" />
    <glyph glyph-name="uni2010" unicode="&#x2010;" horiz-adv-x="843" 
d="M231 420l50 287h540l-49 -287h-541z" />
    <glyph glyph-name="uni2011" unicode="&#x2011;" horiz-adv-x="843" 
d="M231 420l50 287h540l-49 -287h-541z" />
    <glyph glyph-name="figuredash" unicode="&#x2012;" horiz-adv-x="1089" 
d="M248 592l47 266h803l-47 -266h-803z" />
    <glyph glyph-name="endash" unicode="&#x2013;" horiz-adv-x="1259" 
d="M258 420l47 266h909l-47 -266h-909z" />
    <glyph glyph-name="emdash" unicode="&#x2014;" horiz-adv-x="1710" 
d="M258 420l47 266h1360l-47 -266h-1360z" />
    <glyph glyph-name="uni2015" unicode="&#x2015;" horiz-adv-x="1687" 
d="M238 420l47 266h1360l-48 -266h-1359z" />
    <glyph glyph-name="quoteleft" unicode="&#x2018;" horiz-adv-x="497" 
d="M596 1124l-285 -149q-45 57 -45 168q0 155 82.5 270.5t239.5 173.5l112 -135q-63 -42 -98 -100.5t-35 -124.5q0 -63 29 -103z" />
    <glyph glyph-name="quoteright" unicode="&#x2019;" horiz-adv-x="497" 
d="M352 1427l285 150q45 -57 45 -168q0 -155 -82.5 -270.5t-239.5 -173.5l-112 135q63 42 98 100.5t35 124.5q0 62 -29 102z" />
    <glyph glyph-name="quotesinglbase" unicode="&#x201a;" horiz-adv-x="497" 
d="M113 66l284 149q45 -57 45 -168q0 -155 -82 -270.5t-239 -173.5l-113 135q63 42 98 100.5t35 124.5q0 64 -28 103z" />
    <glyph glyph-name="quotedblleft" unicode="&#x201c;" horiz-adv-x="907" 
d="M1006 1124l-285 -149q-45 57 -45 168q0 155 82 270.5t239 173.5l113 -135q-63 -42 -98 -100.5t-35 -124.5q0 -63 29 -103zM596 1124l-285 -149q-45 57 -45 168q0 155 82.5 270.5t239.5 173.5l112 -135q-63 -42 -98 -100.5t-35 -124.5q0 -63 29 -103z" />
    <glyph glyph-name="quotedblright" unicode="&#x201d;" horiz-adv-x="907" 
d="M762 1427l285 150q45 -57 45 -168q0 -155 -82.5 -270.5t-239.5 -173.5l-113 135q63 42 98.5 100.5t35.5 124.5q0 62 -29 102zM352 1427l285 150q45 -57 45 -168q0 -155 -82.5 -270.5t-239.5 -173.5l-112 135q63 42 98 100.5t35 124.5q0 62 -29 102z" />
    <glyph glyph-name="quotedblbase" unicode="&#x201e;" horiz-adv-x="907" 
d="M522 66l285 149q45 -57 45 -168q0 -155 -82.5 -270.5t-239.5 -173.5l-112 135q63 42 98 100.5t35 124.5q0 63 -29 103zM113 66l284 149q45 -57 45 -168q0 -155 -82 -270.5t-239 -173.5l-113 135q63 42 98 100.5t35 124.5q0 64 -28 103z" />
    <glyph glyph-name="dagger" unicode="&#x2020;" horiz-adv-x="1073" 
d="M225 778v266h312v390h286v-390h312v-266h-312v-983h-286v983h-312z" />
    <glyph glyph-name="daggerdbl" unicode="&#x2021;" horiz-adv-x="1114" 
d="M225 778v266h312v390h286v-390h312v-266h-312v-266h312v-266h-312v-451h-286v451h-312v266h312v266h-312z" />
    <glyph glyph-name="bullet" unicode="&#x2022;" horiz-adv-x="696" 
d="M141 545q0 126 90 216.5t215 90.5q126 0 218 -90.5t92 -216.5q0 -125 -92 -216t-218 -91q-124 0 -214.5 91t-90.5 216z" />
    <glyph glyph-name="ellipsis" unicode="&#x2026;" horiz-adv-x="1787" 
d="M1333 197q0 75 57.5 133.5t151.5 58.5q88 0 145.5 -58t57.5 -134q0 -86 -57.5 -147.5t-149.5 -61.5q-97 0 -151 60.5t-54 148.5zM719 197q0 75 57.5 133.5t151.5 58.5q88 0 145 -57.5t57 -134.5q0 -86 -57 -147.5t-149 -61.5q-97 0 -151 60.5t-54 148.5zM104 197
q0 75 57.5 133.5t151.5 58.5q88 0 145.5 -58t57.5 -134q0 -86 -57.5 -147.5t-149.5 -61.5q-97 0 -151 60.5t-54 148.5z" />
    <glyph glyph-name="perthousand" unicode="&#x2030;" horiz-adv-x="2899" 
d="M2118 354q0 157 116 272t297 115q197 0 309.5 -104.5t112.5 -267.5q0 -70 -28 -138.5t-79.5 -126.5t-133.5 -93.5t-181 -35.5q-191 0 -302 106t-111 273zM2394 358q0 -60 37 -96.5t104 -36.5q61 0 101.5 38.5t40.5 94.5q0 57 -36.5 95.5t-105.5 38.5q-64 0 -102.5 -40
t-38.5 -94zM510 96l1018 1362l172 -129l-1014 -1354zM205 1071q0 157 116 272t297 115q197 0 309.5 -105t112.5 -268q0 -70 -28 -138.5t-79.5 -126t-133.5 -93t-181 -35.5q-191 0 -302 106t-111 273zM481 1075q0 -60 37.5 -96.5t104.5 -36.5q61 0 101 38.5t40 94.5
q0 57 -36 95t-105 38q-65 0 -103.5 -39.5t-38.5 -93.5zM1194 354q0 157 116.5 272t297.5 115q197 0 309.5 -104.5t112.5 -267.5q0 -70 -28 -138.5t-79.5 -126.5t-133.5 -93.5t-181 -35.5q-191 0 -302.5 106t-111.5 273zM1470 358q0 -60 37.5 -96.5t104.5 -36.5
q61 0 101 38.5t40 94.5q0 57 -36 95.5t-105 38.5q-64 0 -103 -40t-39 -94z" />
    <glyph glyph-name="guilsinglleft" unicode="&#x2039;" horiz-adv-x="741" 
d="M477 27l-325 481l2 8l503 481l174 -186l-342 -322l205 -303z" />
    <glyph glyph-name="guilsinglright" unicode="&#x203a;" horiz-adv-x="741" 
d="M438 995l332 -477l-2 -8l-498 -487l-176 184l338 325l-209 302z" />
    <glyph glyph-name="fraction" unicode="&#x2044;" horiz-adv-x="452" 
d="M-369 96l1018 1362l172 -129l-1014 -1354z" />
    <glyph glyph-name="zerosuperior" unicode="&#x2070;" horiz-adv-x="843" 
d="M244 1020q0 84 23.5 158t71 134t127.5 95t185 35q166 0 249 -86t83 -226q0 -88 -25 -163.5t-74.5 -133.5t-130 -91t-184.5 -33q-157 0 -241 83.5t-84 227.5zM532 1055q0 -61 15.5 -91t56.5 -30q47 0 68.5 45.5t21.5 116.5q0 121 -65 121q-97 0 -97 -162z" />
    <glyph glyph-name="foursuperior" unicode="&#x2074;" horiz-adv-x="817" 
d="M537 717l22 125h-391l31 178l362 414h252l-342 -387h125l22 131h246l-22 -131h106l-37 -205h-106l-23 -125h-245z" />
    <glyph glyph-name="fivesuperior" unicode="&#x2075;" horiz-adv-x="731" 
d="M281 991l116 443h498l-37 -205h-313l-15 -55q32 16 99 16q99 0 158 -53.5t59 -147.5q0 -132 -106.5 -209.5t-276.5 -77.5q-201 0 -295 119l156 142q53 -56 141 -56q90 0 90 51q0 48 -115 48q-108 0 -159 -15z" />
    <glyph glyph-name="sixsuperior" unicode="&#x2076;" horiz-adv-x="839" 
d="M221 965q0 131 83.5 241t233.5 175.5t334 66.5l19 -180q-227 -18 -356 -140q87 41 186 41q110 0 173.5 -51t63.5 -141q0 -127 -108.5 -201t-274.5 -74q-354 0 -354 263zM506 958q0 -22 23 -36.5t65 -14.5q38 0 56 13t18 30q0 16 -16 25.5t-46 9.5q-48 0 -100 -27z" />
    <glyph glyph-name="sevensuperior" unicode="&#x2077;" horiz-adv-x="708" 
d="M233 1208l41 226h668l-29 -162l-401 -555h-291l373 491h-361z" />
    <glyph glyph-name="eightsuperior" unicode="&#x2078;" horiz-adv-x="880" 
d="M647 1178h8q72 0 72 36q0 29 -70 29q-75 0 -75 -37q0 -28 65 -28zM623 993h-9q-98 0 -98 -49q0 -19 18 -28t68 -9q100 0 100 47q0 39 -79 39zM565 702q-151 0 -238 48t-87 153q0 66 41.5 112.5t109.5 67.5v4q-72 43 -72 130q0 111 103.5 171t273.5 60q133 0 220.5 -46.5
t87.5 -131.5q0 -125 -148 -183v-2q49 -11 79 -46t30 -89q0 -118 -106.5 -183t-293.5 -65z" />
    <glyph glyph-name="ninesuperior" unicode="&#x2079;" horiz-adv-x="839" 
d="M993 1171q0 -149 -85 -256.5t-229.5 -159.5t-332.5 -53l-8 181q121 9 222 43t122 96q-76 -61 -188 -61q-106 0 -171 55t-65 145q0 134 103 210.5t288 76.5q344 0 344 -277zM709 1171q3 72 -80 72q-78 0 -78 -55q0 -19 15.5 -31t41.5 -12q57 0 101 26z" />
    <glyph glyph-name="uni207A" unicode="&#x207a;" horiz-adv-x="737" 
d="M276 983v205h183v174h205v-174h186v-205h-186v-176h-205v176h-183z" />
    <glyph glyph-name="uni207B" unicode="&#x207b;" horiz-adv-x="737" 
d="M276 983v205h574v-205h-574z" />
    <glyph glyph-name="uni207C" unicode="&#x207c;" horiz-adv-x="737" 
d="M276 819v205h574v-205h-574zM276 1147v205h574v-205h-574z" />
    <glyph glyph-name="uni207D" unicode="&#x207d;" horiz-adv-x="526" 
d="M631 774l-170 -145q-106 61 -162.5 157t-56.5 213q0 333 376 512l115 -161q-117 -66 -170 -143t-53 -193q0 -134 121 -240z" />
    <glyph glyph-name="uni207E" unicode="&#x207e;" horiz-adv-x="526" 
d="M279 1352l163 157q106 -62 163 -157.5t57 -212.5q0 -332 -377 -512l-111 147q112 68 165.5 151t53.5 199q0 73 -28 125t-86 103z" />
    <glyph glyph-name="zeroinferior" unicode="&#x2080;" horiz-adv-x="843" 
d="M117 303q0 84 23.5 158t71 134t127.5 95t185 35q166 0 249 -85.5t83 -225.5q0 -88 -25 -163.5t-74.5 -134t-130 -91.5t-184.5 -33q-157 0 -241 83.5t-84 227.5zM406 338q0 -61 15.5 -91t55.5 -30q47 0 68.5 45.5t21.5 116.5q0 121 -65 121q-96 0 -96 -162z" />
    <glyph glyph-name="oneinferior" unicode="&#x2081;" horiz-adv-x="583" 
d="M117 549l276 164h193l-125 -713h-266l71 410l-86 -41z" />
    <glyph glyph-name="twoinferior" unicode="&#x2082;" horiz-adv-x="770" 
d="M51 0l35 193q221 112 283 150q114 72 114 118q0 39 -45 39q-65 0 -94 -88l-219 86q80 227 358 227q130 0 212.5 -56.5t82.5 -154.5q0 -37 -13.5 -70.5t-33 -58.5t-51.5 -48.5t-59 -38.5t-66.5 -31t-63 -24t-57.5 -18h324l-39 -225h-668z" />
    <glyph glyph-name="threeinferior" unicode="&#x2083;" horiz-adv-x="761" 
d="M369 -14q-228 0 -318 149l162 148q65 -82 158 -82q86 0 86 37q0 30 -86 30h-56l31 185h51q82 0 82 39q0 24 -55 24q-98 0 -176 -65l-107 155q122 125 351 125q135 0 210.5 -46t75.5 -130q0 -71 -53 -116.5t-143 -57.5v-2q72 -5 116.5 -42t44.5 -99q0 -84 -53.5 -142.5
t-135.5 -84t-185 -25.5z" />
    <glyph glyph-name="fourinferior" unicode="&#x2084;" horiz-adv-x="804" 
d="M412 0l22 125h-391l31 178l362 414h252l-342 -387h125l23 131h245l-22 -131h106l-37 -205h-106l-23 -125h-245z" />
    <glyph glyph-name="fiveinferior" unicode="&#x2085;" horiz-adv-x="731" 
d="M154 274l116 443h498l-37 -205h-313l-15 -55q32 16 99 16q99 0 158 -53.5t59 -147.5q0 -131 -106.5 -208.5t-276.5 -77.5q-202 0 -295 118l156 142q53 -56 141 -56q90 0 90 52q0 47 -115 47q-108 0 -159 -15z" />
    <glyph glyph-name="sixinferior" unicode="&#x2086;" horiz-adv-x="839" 
d="M96 248q0 131 84 241t234 175.5t334 66.5l18 -180q-228 -18 -356 -139q87 41 186 41q110 0 174 -51.5t64 -141.5q0 -127 -108.5 -200.5t-274.5 -73.5q-355 0 -355 262zM381 242q0 -22 23 -37t65 -15q38 0 56 13t18 30q0 16 -16 25.5t-46 9.5q-50 0 -100 -26z" />
    <glyph glyph-name="seveninferior" unicode="&#x2087;" horiz-adv-x="708" 
d="M106 492l41 225h668l-29 -162l-401 -555h-291l373 492h-361z" />
    <glyph glyph-name="eightinferior" unicode="&#x2088;" horiz-adv-x="880" 
d="M520 461h8q72 0 72 37q0 28 -70 28q-75 0 -75 -37q0 -28 65 -28zM496 276h-9q-98 0 -98 -49q0 -19 18.5 -28t67.5 -9q100 0 100 48q0 38 -79 38zM438 -14q-325 0 -325 200q0 66 41.5 113t109.5 68v4q-71 42 -71 129q0 111 103 171t273 60q133 0 220.5 -46.5t87.5 -131.5
q0 -67 -37 -110t-111 -72v-2q49 -11 79 -46.5t30 -89.5q0 -118 -106.5 -182.5t-293.5 -64.5z" />
    <glyph glyph-name="nineinferior" unicode="&#x2089;" horiz-adv-x="839" 
d="M866 455q0 -149 -85 -256.5t-229.5 -159.5t-332.5 -53l-8 180q121 9 222 43t122 96q-76 -61 -188 -61q-106 0 -171 55t-65 145q0 134 103 210.5t288 76.5q344 0 344 -276zM582 455q3 71 -80 71q-78 0 -78 -55q0 -19 15.5 -31t41.5 -12q55 0 101 27z" />
    <glyph glyph-name="uni208A" unicode="&#x208a;" horiz-adv-x="737" 
d="M150 266v205h182v174h205v-174h186v-205h-186v-176h-205v176h-182z" />
    <glyph glyph-name="uni208B" unicode="&#x208b;" horiz-adv-x="737" 
d="M150 266v205h573v-205h-573z" />
    <glyph glyph-name="uni208C" unicode="&#x208c;" horiz-adv-x="737" 
d="M150 102v205h573v-205h-573zM150 430v205h573v-205h-573z" />
    <glyph glyph-name="uni208D" unicode="&#x208d;" horiz-adv-x="526" 
d="M506 57l-170 -145q-106 61 -162.5 157.5t-56.5 213.5q0 332 377 512l114 -162q-117 -66 -170 -143t-53 -193q0 -134 121 -240z" />
    <glyph glyph-name="uni208E" unicode="&#x208e;" horiz-adv-x="526" 
d="M152 635l163 158q106 -62 163 -158t57 -213q0 -332 -377 -512l-111 147q111 68 165 151.5t54 199.5q0 73 -28 124.5t-86 102.5z" />
    <glyph glyph-name="Euro" unicode="&#x20ac;" 
d="M174 788l137 246h105q120 214 307.5 319t474.5 105q71 0 141 -17.5t113 -43.5l-164 -277q-64 31 -147 31q-191 0 -314 -117h424l-135 -246h-422q-9 -53 -10 -63q-2 -18 -2 -59h373l-125 -246h-172q43 -61 116.5 -99t161.5 -38q93 0 150 24v-311q-86 -21 -187 -21
q-231 0 -403.5 126t-233.5 319h-249l135 246h80q0 33 2 51q3 42 8 71h-164z" />
    <glyph glyph-name="uni20AE" unicode="&#x20ae;" 
d="M240 1126l55 308h1147l-56 -308h-409l-29 -155l254 104l-45 -256l-254 -104l-20 -123l252 104l-45 -256l-252 -104l-60 -336h-327l32 190l-254 -104l45 258l254 105l23 120l-254 -104l45 258l254 104l53 299h-409z" />
    <glyph glyph-name="uni20B4" unicode="&#x20b4;" 
d="M270 799l43 245h572q4 16 4 31q-2 33 -28.5 54.5t-78.5 21.5q-91 0 -194 -76l-117 232q73 79 165.5 115t215.5 36q168 0 264 -80.5t96 -201.5q0 -38 -7.5 -80t-14.5 -52h94l-43 -245h-252q-20 -18 -47.5 -44.5t-46.5 -44t-39 -34.5h363l-43 -246h-580q-14 -25 -14 -57
q0 -42 31.5 -66t93.5 -24q123 0 254 94l131 -223q-77 -80 -192 -129.5t-251 -49.5q-184 0 -287.5 79t-103.5 227q0 69 39 149h-92l43 246h262q12 11 39.5 37.5t50 46t49.5 39.5h-379z" />
    <glyph glyph-name="uni20B8" unicode="&#x20b8;" 
d="M201 778l49 287h1106l-49 -287h-389l-138 -778h-327l137 778h-389zM272 1188l43 246h1106l-43 -246h-1106z" />
    <glyph glyph-name="uni20BA" unicode="&#x20ba;" 
d="M154 772l45 258l178 74l59 330h328l-33 -187l307 127l-45 -256l-307 -127l-22 -123l307 127l-45 -256l-308 -127l-53 -305q43 -4 86 -4q50 0 92.5 14t72 35.5t54 55.5t40 65t28 73.5t18.5 72.5t13 69l2 12h348l-2 -12q-15 -91 -33.5 -163.5t-48.5 -146.5t-69 -129.5
t-96 -104.5t-128 -80.5t-166.5 -49.5t-210.5 -18q-30 0 -150 2t-196 2h-35l82 467l-180 -74l47 258l178 74l21 121z" />
    <glyph glyph-name="uni20BD" unicode="&#x20bd;" 
d="M119 588l43 246h184l107 600q36 0 207.5 2t230.5 2q238 0 375 -104t137 -285q0 -223 -154 -342t-458 -119h-160l-23 -123h316l-43 -246h-316l-39 -219h-327l39 219h-185l43 246h185l22 123h-184zM868 1130q-7 0 -143 -4l-51 -292h149q221 0 221 174q0 69 -45 95.5
t-131 26.5z" />
    <glyph glyph-name="uni20BF" unicode="&#x20bf;" 
d="M145 4l252 1426q15 0 105 4l33 184h245l-32 -178q43 2 124 2l31 176h246l-37 -209q193 -70 193 -289q0 -137 -76 -236.5t-217 -140.5l-2 -4q106 -25 165.5 -96t59.5 -172q0 -180 -99.5 -293t-269.5 -158l-39 -225h-245l34 197h-122l-35 -197h-246l35 203zM723 590h-148
l-49 -289q52 -12 148 -12q102 0 157.5 45.5t55.5 120.5q0 135 -164 135zM809 1145q-63 0 -137 -8l-47 -281h129q92 0 147 44.5t55 127.5q0 53 -38.5 85t-108.5 32z" />
    <glyph glyph-name="uni20C0" unicode="&#x20c0;" 
d="M125 246h1100l-43 -246h-1100zM1110 707l84 -254q-144 -125 -428 -125q-93 0 -184 33.5t-166 94.5t-121.5 159t-46.5 216q0 181 89.5 324.5t248.5 223t358 79.5q138 0 241 -37.5t161 -95.5l-189 -246q-37 24 -61 36.5t-72.5 24t-108.5 11.5q-132 0 -222.5 -78t-90.5 -215
q0 -58 22.5 -103t58.5 -70t76 -37.5t81 -12.5q47 0 79.5 3t87 20t103.5 49z" />
    <glyph glyph-name="uni2116" unicode="&#x2116;" horiz-adv-x="2461" 
d="M1393 0h-263l-487 864l-151 -864h-308l252 1434h262l486 -871l153 871h308zM1645 932q0 85 31 159.5t89 132t150 91t207 33.5q183 0 285 -98t102 -263q0 -179 -133 -292t-344 -113q-178 0 -282.5 96t-104.5 254zM1929 942q0 -53 33.5 -84t89.5 -31q80 0 126 46.5
t46 113.5q0 48 -31 81.5t-92 33.5q-82 0 -127 -47t-45 -113zM1595 217l50 287h700l-49 -287h-701z" />
    <glyph glyph-name="trademark" unicode="&#x2122;" horiz-adv-x="1810" 
d="M977 788v646h258l217 -158l201 158h250v-646h-289v285l-168 -127h-4l-176 127v-285h-289zM246 1157v277h672v-277h-193v-369h-287v369h-192z" />
    <glyph glyph-name="arrowleft" unicode="&#x2190;" horiz-adv-x="1316" 
d="M662 1139l217 -217l-209 -209h565v-307h-565l209 -209l-217 -217l-580 579z" />
    <glyph glyph-name="arrowup" unicode="&#x2191;" horiz-adv-x="1323" 
d="M299 356l-217 217l580 580l579 -580l-217 -217l-209 209v-565h-307v565z" />
    <glyph glyph-name="arrowright" unicode="&#x2192;" horiz-adv-x="1316" 
d="M438 922l217 217l580 -580l-580 -579l-217 217l209 209h-565v307h565z" />
    <glyph glyph-name="arrowdown" unicode="&#x2193;" horiz-adv-x="1323" 
d="M82 539l217 217l209 -209v565h307v-565l209 209l217 -217l-579 -580z" />
    <glyph glyph-name="partialdiff" unicode="&#x2202;" horiz-adv-x="1230" 
d="M164 410q0 145 61.5 266t182.5 195.5t280 74.5q171 0 256 -82q0 87 -30.5 149t-89.5 98.5t-136.5 53.5t-181.5 19l45 274q344 0 532.5 -155.5t188.5 -456.5q0 -148 -24 -277.5t-75 -239t-125 -188t-179 -122.5t-232 -44q-218 0 -345.5 125.5t-127.5 309.5zM492 436
q0 -73 48 -123.5t132 -50.5q99 0 163 88.5t85 235.5q-90 73 -218 73q-92 0 -151 -64t-59 -159z" />
    <glyph glyph-name="product" unicode="&#x220f;" horiz-adv-x="1812" 
d="M1425 -410v1536h-788v-1536h-328v1844h1444v-1844h-328z" />
    <glyph glyph-name="summation" unicode="&#x2211;" horiz-adv-x="1331" 
d="M778 512l-547 692v230h1168v-308h-711l467 -614l-487 -614h731v-308h-1168v230z" />
    <glyph glyph-name="minus" unicode="&#x2212;" 
d="M258 604v266h971v-266h-971z" />
    <glyph glyph-name="uni2215" unicode="&#x2215;" horiz-adv-x="782" 
d="M0 -338l670 1796l235 -88l-667 -1796z" />
    <glyph glyph-name="radical" unicode="&#x221a;" horiz-adv-x="1316" 
d="M82 614v308h401l277 -404l233 916h631v-308h-362l-295 -1126h-273l-422 614h-190z" />
    <glyph glyph-name="infinity" unicode="&#x221e;" horiz-adv-x="1568" 
d="M1264 313q-207 0 -359 170q-141 -170 -338 -170q-94 0 -176 46t-134 135.5t-52 203.5q0 159 102 274t266 115q105 0 184 -48.5t150 -133.5q64 85 147.5 133.5t207.5 48.5q156 0 252 -111t96 -286q0 -156 -97.5 -266.5t-248.5 -110.5zM602 580q87 0 160 100
q-46 70 -82.5 105.5t-77.5 35.5q-53 0 -81.5 -33.5t-28.5 -89.5t28.5 -87t81.5 -31zM1208 821q-43 0 -79 -31t-76 -90q45 -59 85 -89.5t87 -30.5q41 0 69.5 33.5t28.5 88.5q0 48 -30.5 83.5t-84.5 35.5z" />
    <glyph glyph-name="integral" unicode="&#x222b;" horiz-adv-x="655" 
d="M592 0q0 -106 -12.5 -179t-43.5 -131.5t-89.5 -87t-145.5 -28.5q-47 0 -102 10q-100 19 -144 60l80 243q48 -26 90 -26q11 0 20.5 2.5t15.5 8.5t10.5 12.5t7 17.5t4.5 19.5t2 23t0.5 23.5t0 26t-0.5 26v1051q0 188 89.5 287.5t246.5 99.5q55 0 108 -12q107 -22 160 -78
l-103 -233q-19 19 -49 28q-27 8 -61 8t-59 -30.5t-25 -87.5v-1053z" />
    <glyph glyph-name="approxequal" unicode="&#x2248;" 
d="M322 346l-132 197q67 81 153.5 132.5t168.5 51.5q56 0 123 -21t119.5 -46.5t118 -46.5t118.5 -21q45 0 94.5 28t79.5 64l119 -211q-66 -62 -144.5 -104.5t-150.5 -42.5q-55 0 -121.5 21t-117.5 46.5t-112 46.5t-106 21q-95 0 -210 -115zM322 756l-132 196
q68 82 154 133.5t168 51.5q56 0 123 -21.5t119.5 -46.5t118 -46.5t118.5 -21.5q45 0 94.5 28t79.5 65l119 -211q-66 -63 -144.5 -105.5t-150.5 -42.5q-55 0 -121.5 21t-117.5 46.5t-112 46.5t-106 21q-96 0 -210 -114z" />
    <glyph glyph-name="notequal" unicode="&#x2260;" 
d="M258 809v266h479l144 383l235 -88l-110 -295h223v-266h-324l-53 -143h377v-267h-477l-158 -424l-238 88l125 336h-223v267h324l55 143h-379z" />
    <glyph glyph-name="lessequal" unicode="&#x2264;" 
d="M229 471v277l1004 -551v-291zM1233 315l-1004 566v131l1004 561v-332l-582 -295l582 -299v-332z" />
    <glyph glyph-name="greaterequal" unicode="&#x2265;" 
d="M1249 748v-277l-1003 -565v291zM1249 881l-1003 -566v332l581 299l-581 295v332l1003 -561v-131z" />
    <glyph glyph-name="angleleft" unicode="&#x2329;" horiz-adv-x="966" 
d="M1110 1434l-588 -744l312 -690h-338l-310 713l2 8l560 713h362z" />
    <glyph glyph-name="angleright" unicode="&#x232a;" horiz-adv-x="966" 
d="M84 0l588 743l-312 691h338l310 -713l-2 -8l-560 -713h-362z" />
    <glyph glyph-name="lozenge" unicode="&#x25ca;" horiz-adv-x="1019" 
d="M500 0l-342 510l344 545h252l342 -523l-344 -532h-252zM467 512l160 -236l159 256l-159 228z" />
    <glyph glyph-name="spade" unicode="&#x2660;" horiz-adv-x="1294" 
d="M647 1044q112 -70 230.5 -181.5t206 -239t87.5 -215.5q0 -87 -60.5 -150t-178.5 -63q-163 0 -268 147q28 -119 79 -203.5t140 -138.5h-471q150 107 215 336q-103 -141 -265 -141q-118 0 -178.5 63.5t-60.5 151.5q0 66 51.5 157t130 179t169.5 167.5t173 130.5z" />
    <glyph glyph-name="club" unicode="&#x2663;" horiz-adv-x="1253" 
d="M362 780q0 109 78 186.5t187 77.5t186.5 -77.5t77.5 -186.5q0 -15 -4 -39q102 -8 172.5 -83.5t70.5 -178.5q0 -109 -77.5 -186.5t-186.5 -77.5q-65 0 -121 29.5t-92 79.5q64 -236 209 -324h-471q130 92 205 319q-37 -46 -93 -75t-116 -29q-109 0 -186.5 77.5t-77.5 186.5
q0 103 70.5 178.5t171.5 83.5q-3 18 -3 39z" />
    <glyph glyph-name="heart" unicode="&#x2665;" horiz-adv-x="1329" 
d="M666 0q-86 65 -179 158.5t-175.5 197.5t-135.5 212.5t-53 189.5q0 51 14.5 97t43.5 84.5t78 61.5t112 23q182 0 295 -213q109 213 292 213q83 0 141 -40t82.5 -98t24.5 -126q0 -82 -53 -191t-135 -213t-174 -197.5t-178 -158.5z" />
    <glyph glyph-name="diamond" unicode="&#x2666;" horiz-adv-x="1193" 
d="M1071 510q-222 -222 -475 -549q-213 280 -473 549q221 231 473 551q256 -324 475 -551z" />
    <glyph glyph-name="uniF350" unicode="&#xf350;" horiz-adv-x="1306" 
d="M6 0l690 1075h295l309 -1075h-335l-41 154h-457l-94 -154h-367zM782 694l-125 -233h183z" />
    <glyph glyph-name="uniF351" unicode="&#xf351;" horiz-adv-x="1140" 
d="M147 0l191 1075h813l-55 -299h-486l-12 -80q83 9 139 9q375 0 375 -316q0 -190 -130 -294.5t-398 -104.5q-113 0 -264.5 5t-172.5 5zM674 406q-90 0 -129 -7l-17 -104q64 -6 134 -6q49 0 75.5 18t26.5 47q0 22 -27.5 37t-62.5 15z" />
    <glyph glyph-name="uniF352" unicode="&#xf352;" horiz-adv-x="1142" 
d="M147 4l189 1067q204 12 446 12q189 0 282 -68t93 -184q0 -212 -250 -268v-2q90 -12 144.5 -75.5t54.5 -153.5q0 -86 -37 -152.5t-102 -106.5t-147 -60.5t-177 -20.5q-391 0 -496 12zM680 399h-135l-17 -100q20 -12 119 -12q111 0 111 65q0 47 -78 47zM723 788
q-59 0 -113 -8l-16 -106h115q100 0 100 67q0 47 -86 47z" />
    <glyph glyph-name="uniF353" unicode="&#xf353;" horiz-adv-x="931" 
d="M147 0l191 1075h743l-55 -307h-416l-135 -768h-328z" />
    <glyph glyph-name="uniF354" unicode="&#xf354;" horiz-adv-x="1341" 
d="M-16 -174l84 481h131q58 54 140 209.5t124 343.5l49 215h825l-137 -768h166l-84 -481h-307l31 174h-684l-31 -174h-307zM727 631q-34 -101 -83.5 -196.5t-84.5 -127.5h313l82 461h-180z" />
    <glyph glyph-name="uniF355" unicode="&#xf355;" horiz-adv-x="1042" 
d="M147 0l191 1075h776l-55 -299h-447l-14 -88h397l-55 -299h-397l-17 -90h467l-53 -299h-793z" />
    <glyph glyph-name="uniF356" unicode="&#xf356;" horiz-adv-x="1812" 
d="M524 578l-286 497h370l246 -428l76 428h327l-75 -428l360 428h406l-471 -540l299 -535h-371l-254 471l-84 -471h-328l84 471l-397 -471h-397z" />
    <glyph glyph-name="uniF357" unicode="&#xf357;" horiz-adv-x="1099" 
d="M573 -25q-376 0 -485 193l207 205q51 -55 110 -77t158 -22q166 0 166 62q0 33 -39.5 46t-116.5 13h-153l53 299h148q137 0 137 49q0 21 -38.5 35.5t-86.5 14.5q-154 0 -246 -72l-143 209q87 89 198 125.5t263 36.5q179 0 285 -71t106 -200q0 -57 -17.5 -105.5t-64 -92
t-117.5 -64.5v-6q76 -25 118 -82t42 -137q0 -168 -127 -263.5t-357 -95.5z" />
    <glyph glyph-name="uniF358" unicode="&#xf358;" horiz-adv-x="1382" 
d="M434 0h-287l191 1075h328l-93 -530l557 530h287l-190 -1075h-328l94 535z" />
    <glyph glyph-name="uniF359" unicode="&#xf359;" horiz-adv-x="1382" 
d="M434 0h-287l191 1075h328l-93 -530l557 530h287l-190 -1075h-328l94 535zM580 1475h286q-9 -44 10 -63t62 -19q76 0 92 82h287q-57 -308 -408 -308q-188 0 -271.5 83.5t-57.5 224.5z" />
    <glyph glyph-name="uniF35A" unicode="&#xf35a;" horiz-adv-x="1263" 
d="M147 0l191 1075h328l-74 -413l399 413h424l-512 -520l361 -555h-390l-313 494l-86 -494h-328z" />
    <glyph glyph-name="uniF35B" unicode="&#xf35b;" horiz-adv-x="1280" 
d="M805 0l135 768h-209l-61 -203q-73 -241 -163 -374t-203.5 -176t-272.5 -15l61 315q25 -8 51 -3t51 19t53 53t56.5 98t60.5 155t66 223l57 215h836l-190 -1075h-328z" />
    <glyph glyph-name="uniF35C" unicode="&#xf35c;" horiz-adv-x="1609" 
d="M147 0l191 1075h321l252 -387l424 387h310l-191 -1075h-328l101 563l-363 -325h-45l-239 346l-105 -584h-328z" />
    <glyph glyph-name="uniF35D" unicode="&#xf35d;" horiz-adv-x="1357" 
d="M874 0l70 395h-399l-70 -395h-328l191 1075h328l-68 -373h399l68 373h328l-191 -1075h-328z" />
    <glyph glyph-name="uniF35E" unicode="&#xf35e;" horiz-adv-x="1359" 
d="M147 481q0 131 47.5 242.5t134.5 193.5t218.5 128.5t292.5 46.5q246 0 403.5 -140t157.5 -364q0 -176 -81.5 -314.5t-239 -218.5t-367.5 -80q-162 0 -290 60.5t-202 176.5t-74 269zM502 500q0 -97 63.5 -157t179.5 -60q76 0 135.5 24.5t95 66t53.5 91t18 104.5
q0 98 -65 156.5t-173 58.5q-151 0 -229 -80.5t-78 -203.5z" />
    <glyph glyph-name="uniF35F" unicode="&#xf35f;" horiz-adv-x="1357" 
d="M874 0l136 768h-400l-135 -768h-328l191 1075h1055l-191 -1075h-328z" />
    <glyph glyph-name="uniF360" unicode="&#xf360;" horiz-adv-x="1114" 
d="M475 0h-328l191 1075q32 0 183 2t196 2q221 0 340 -94.5t119 -251.5q0 -216 -144 -341.5t-391 -125.5q-82 0 -119 4zM709 772q-25 0 -99 -4l-32 -186q74 -9 106 -9q137 0 137 109q0 90 -112 90z" />
    <glyph glyph-name="uniF361" unicode="&#xf361;" horiz-adv-x="1140" 
d="M1028 348l94 -264q-66 -50 -180.5 -79.5t-224.5 -29.5q-268 0 -419 139t-151 361q0 105 28 198t86 170t141 132.5t198.5 86t253.5 30.5q136 0 234.5 -33.5t148.5 -83.5l-188 -246q-47 28 -98.5 41.5t-141.5 13.5q-132 0 -219.5 -72t-87.5 -214q0 -96 69.5 -155.5
t194.5 -59.5q145 0 262 65z" />
    <glyph glyph-name="uniF362" unicode="&#xf362;" horiz-adv-x="1050" 
d="M154 768l53 307h1014l-54 -307h-344l-135 -768h-328l136 768h-342z" />
    <glyph glyph-name="uniF363" unicode="&#xf363;" horiz-adv-x="1167" 
d="M1343 1075l-544 -805q-44 -67 -77 -107.5t-80.5 -82t-105 -61t-128.5 -19.5q-123 0 -197 74l151 258q24 -15 38 -20t38 -5q44 0 68 31l14 18l-356 719h358l189 -399l260 399h372z" />
    <glyph glyph-name="uniF364" unicode="&#xf364;" horiz-adv-x="1474" 
d="M567 -12l21 106q-208 4 -331.5 118.5t-123.5 293.5q0 229 163 367.5t454 138.5l12 75h328l-13 -75q112 -4 199 -36.5t142 -88t83.5 -128.5t28.5 -159q0 -228 -162 -365t-453 -141l-20 -106h-328zM1176 571q0 65 -41.5 102t-110.5 40l-57 -320q96 4 152.5 54t56.5 124z
M487 541q0 -140 152 -148l57 320q-87 0 -148 -49t-61 -123z" />
    <glyph glyph-name="uniF365" unicode="&#xf365;" horiz-adv-x="1181" 
d="M1368 1075l-471 -522l297 -553h-371l-155 299l-267 -299h-413l487 545l-278 530h372l138 -280l245 280h416z" />
    <glyph glyph-name="uniF366" unicode="&#xf366;" horiz-adv-x="1368" 
d="M147 0l191 1075h328l-138 -768h371l137 768h328l-137 -768h166l-84 -481h-308l31 174h-885z" />
    <glyph glyph-name="uniF367" unicode="&#xf367;" horiz-adv-x="1245" 
d="M1280 1075l-190 -1075h-328l67 391q-58 -35 -119 -52t-163 -17q-148 0 -232.5 70.5t-81.5 197.5q0 13 9 74l71 411h330l-51 -289q-6 -27 -6 -61q0 -56 30 -76t86 -20q101 0 179 41l71 405h328z" />
    <glyph glyph-name="uniF368" unicode="&#xf368;" horiz-adv-x="1753" 
d="M147 0l191 1075h328l-138 -768h234l137 768h328l-137 -768h233l137 768h328l-191 -1075h-1450z" />
    <glyph glyph-name="uniF369" unicode="&#xf369;" horiz-adv-x="1792" 
d="M147 0l191 1075h328l-138 -768h234l137 768h328l-137 -768h233l137 768h328l-137 -768h166l-84 -481h-308l31 174h-1309z" />
    </font>
</defs>
</svg>
