<?xml version="1.0" standalone="no"?>
<!DOCTYPE svg PUBLIC "-//W3C//DTD SVG 1.1//EN" "http://www.w3.org/Graphics/SVG/1.1/DTD/svg11.dtd" >
<svg xmlns="http://www.w3.org/2000/svg" xmlns:xlink="http://www.w3.org/1999/xlink" version="1.1">
<metadata>
Created by FontForge 20170731 at Wed Mar 15 10:29:07 2023
 By Aleksey,,,
Copyright (c) 2011 Paratype, Inc., ParaType Ltd. All rights reserved.
</metadata>
<defs>
<font id="Circe-BoldItalic" horiz-adv-x="1220" >
  <font-face 
    font-family="Circe Bold"
    font-weight="700"
    font-style="italic"
    font-stretch="normal"
    units-per-em="2048"
    panose-1="2 11 6 2 2 2 3 9 2 3"
    ascent="1583"
    descent="-465"
    x-height="922"
    cap-height="1434"
    bbox="-899 -866 3262 2073"
    underline-thickness="102"
    underline-position="-307"
    slope="-10"
    unicode-range="U+0020-FEFF"
  />
<missing-glyph horiz-adv-x="434" 
 />
    <glyph glyph-name="uniF350.var.accented" unicode="&#xf350;`" horiz-adv-x="1257" 
d="M14 0l693 1077h223l311 -1077h-256l-59 219h-496l-137 -219h-279zM772 782l-197 -327h285zM1145 1409l-305 -242l-113 131l272 291z" />
    <glyph glyph-name="uniF355.var.accented" unicode="&#xf355;`" horiz-adv-x="1019" 
d="M160 0l190 1075h735l-43 -231h-481l-33 -189h433l-41 -231h-433l-34 -193h499l-41 -231h-751zM1001 1409l-305 -242l-112 131l272 291z" />
    <glyph glyph-name="uniF358.var.accented" unicode="&#xf358;`" horiz-adv-x="1361" 
d="M379 0h-219l190 1075h252l-115 -651l682 651h220l-191 -1075h-252l117 655zM1171 1409l-305 -242l-112 131l272 291z" />
    <glyph glyph-name="uniF35E.var.accented" unicode="&#xf35e;`" horiz-adv-x="1349" 
d="M156 481q0 127 45 237.5t128 193.5t210.5 130.5t283.5 47.5q244 0 401.5 -137t157.5 -359q0 -178 -80.5 -318t-231.5 -219.5t-349 -79.5q-254 0 -409.5 138.5t-155.5 365.5zM428 494q0 -125 81.5 -203t229.5 -78q90 0 162 30t117 81.5t68.5 116.5t23.5 139q0 122 -83 198
t-222 76q-176 0 -276.5 -100.5t-100.5 -259.5zM1161 1409l-305 -242l-113 131l273 291z" />
    <glyph glyph-name="uniF363.var.accented" unicode="&#xf363;`" horiz-adv-x="1142" 
d="M1315 1075l-543 -813q-34 -51 -57 -83t-58.5 -70t-69 -59t-79.5 -35.5t-98 -14.5q-106 0 -179 59l117 199q38 -25 80 -25q59 0 107 66l20 29l-367 747h279l238 -504l329 504h281zM1069 1409l-305 -242l-113 131l273 291z" />
    <glyph glyph-name="uniF36B.var.accented" unicode="&#xf36b;`" horiz-adv-x="1511" 
d="M1094 0l190 1075h254l-190 -1075h-254zM594 512q-14 0 -92 -4l-49 -272q41 -5 94 -5q106 0 162.5 43t56.5 123q0 57 -45 86t-127 29zM602 1075l-59 -334q82 7 110 7q171 0 278 -89.5t107 -232.5q0 -205 -144.5 -317.5t-377.5 -112.5q-94 0 -213.5 2t-142.5 2l190 1075
h252zM1229 1409l-305 -242l-113 131l272 291z" />
    <glyph glyph-name="uniF36D.var.accented" unicode="&#xf36d;`" horiz-adv-x="1150" 
d="M385 432l41 232h467q-22 95 -95 145.5t-194 50.5q-170 0 -289 -69l-84 180q81 58 188 89.5t220 31.5q130 0 235.5 -39t172 -106.5t102 -154t35.5 -184.5q0 -288 -183 -457t-497 -169q-286 0 -432 137l145 188q121 -94 305 -94q280 0 357 219h-494zM993 1409l-305 -242
l-113 131l273 291z" />
    <glyph glyph-name="uniF36E.var.accented" unicode="&#xf36e;`" horiz-adv-x="1798" 
d="M160 0l190 1075h252l-74 -409h154q36 133 129 231t218.5 146.5t268.5 48.5q128 0 232 -42t168 -112t98.5 -157t34.5 -181q0 -133 -43.5 -246t-125 -196.5t-206 -130.5t-278.5 -47q-118 0 -215.5 36.5t-162 99.5t-102 143.5t-43.5 170.5h-168l-75 -430h-252zM924 487
q0 -122 73 -197t205 -75q87 0 157 31t112.5 83.5t65 117t22.5 135.5q0 126 -76.5 200t-200.5 74q-157 0 -257.5 -102.5t-100.5 -266.5zM1333 1409l-305 -242l-113 131l273 291z" />
    <glyph glyph-name="uniF36F.var.accented" unicode="&#xf36f;`" horiz-adv-x="1153" 
d="M737 0l58 328h-168l-273 -328h-313l342 393q-68 41 -106.5 107t-38.5 141q0 94 32.5 173t96.5 139t166 94t233 34q101 0 246 -3t168 -3l-191 -1075h-252zM627 563h209l49 277q-99 6 -156 6q-101 0 -160 -45t-59 -115q0 -103 117 -123zM1130 1409l-305 -242l-112 131
l272 291z" />
    <glyph glyph-name="uniF371.var.accented" unicode="&#xf371;`" horiz-adv-x="1019" 
d="M160 0l190 1075h735l-43 -231h-483l-33 -189h435l-41 -231h-435l-34 -193h501l-41 -231h-751zM389 1321q0 55 38 88t95 33q46 0 82.5 -33.5t36.5 -87.5q0 -58 -36.5 -92.5t-82.5 -34.5q-58 0 -95.5 33.5t-37.5 93.5zM883 1321q0 55 38 88t91 33q50 0 86.5 -33t36.5 -88
q0 -59 -36.5 -93t-86.5 -34q-54 0 -91.5 34t-37.5 93zM1063 1591l-305 -241l-113 131l273 291z" />
    <glyph glyph-name="uni0410.var.accented" unicode="&#x410;`" horiz-adv-x="1443" 
d="M14 0l850 1438h219l344 -1438h-251l-89 367h-589l-213 -367h-271zM920 1112l-287 -510h399zM1313 1663l-461 -166l-66 141l439 228z" />
    <glyph glyph-name="uni0415.var.accented" unicode="&#x415;`" horiz-adv-x="1177" 
d="M199 0l252 1434h839l-41 -236h-587l-64 -358h526l-41 -236h-526l-65 -368h608l-41 -236h-860zM1217 1663l-461 -166l-66 141l438 228z" />
    <glyph glyph-name="uni0418.var.accented" unicode="&#x418;`" horiz-adv-x="1626" 
d="M420 0h-221l252 1434h251l-174 -994l930 994h221l-252 -1434h-251l176 995zM1405 1663l-461 -166l-65 141l438 228z" />
    <glyph glyph-name="uni041E.var.accented" unicode="&#x41e;`" horiz-adv-x="1687" 
d="M209 645q0 169 59.5 317.5t165.5 258t263 172.5t343 63q201 0 357.5 -79.5t245 -229.5t88.5 -348q0 -172 -57.5 -322t-161 -261t-257.5 -175t-337 -64q-169 0 -305 52t-223.5 143t-134 212t-46.5 261zM481 659q0 -203 124.5 -324.5t322.5 -121.5q236 0 383 157t147 408
q0 199 -119.5 321t-320.5 122q-156 0 -279.5 -74t-190.5 -202t-67 -286zM1434 1663l-461 -166l-66 141l439 228z" />
    <glyph glyph-name="uni0423.var.accented" unicode="&#x423;`" horiz-adv-x="1378" 
d="M1616 1434l-682 -1100q-54 -87 -95 -141t-93.5 -102t-111.5 -69.5t-132 -21.5q-58 0 -112.5 17t-84.5 46l117 199q50 -29 106 -29q52 0 90 30t74 85l25 39l-451 1047h271l325 -799l481 799h273zM1300 1663l-460 -166l-66 141l438 228z" />
    <glyph glyph-name="uni042B.var.accented" unicode="&#x42b;`" horiz-adv-x="1771" 
d="M1321 0l252 1434h250l-252 -1434h-250zM715 717q-53 0 -142 -12l-81 -467q12 -1 59 -4t74 -3q159 0 246 81t87 212q0 92 -63 142.5t-180 50.5zM702 1434l-86 -492q110 10 152 10q226 0 344.5 -104t118.5 -283q0 -123 -38.5 -224t-116.5 -179.5t-206.5 -122t-298.5 -43.5
q-85 0 -212 2t-160 2l252 1434h251zM1475 1663l-461 -166l-66 141l438 228z" />
    <glyph glyph-name="uni042D.var.accented" unicode="&#x42d;`" horiz-adv-x="1409" 
d="M514 612l41 236h637q-6 177 -117 275t-295 98q-203 0 -385 -115l-96 192q94 77 233.5 117.5t301.5 40.5q151 0 270 -48t194.5 -134t114.5 -202t39 -255q0 -256 -103.5 -447t-291 -292t-434.5 -101q-165 0 -297.5 51.5t-221.5 143.5l142 186q71 -66 169.5 -106t215.5 -39
q207 0 353.5 110t180.5 289h-651zM1165 1663l-460 -166l-66 141l438 228z" />
    <glyph glyph-name="uni042E.var.accented" unicode="&#x42e;`" horiz-adv-x="2201" 
d="M199 0l252 1434h251l-102 -586h215q66 277 276.5 442.5t503.5 165.5q294 0 471 -172.5t177 -460.5q0 -243 -97 -434.5t-281 -301.5t-425 -110q-156 0 -280 49t-203.5 135.5t-121.5 201t-44 249.5h-232l-108 -612h-252zM1055 649q0 -197 109 -316.5t300 -119.5
q154 0 270.5 77.5t177 209.5t60.5 297q0 193 -107 308.5t-292 115.5q-226 0 -372 -162.5t-146 -409.5zM1683 1663l-460 -166l-66 141l438 228z" />
    <glyph glyph-name="uni042F.var.accented" unicode="&#x42f;`" horiz-adv-x="1325" 
d="M874 0l89 496h-213l-408 -496h-299l481 567q-200 108 -200 344q0 84 23 160.5t73.5 144t125 117t184 78.5t243.5 29q68 0 218 -3t187 -3l-252 -1434h-252zM758 731h246l81 467q-99 6 -170 6q-155 0 -237 -81.5t-82 -196.5q0 -73 43 -125.5t119 -69.5zM1356 1663
l-461 -166l-66 141l439 228z" />
    <glyph glyph-name="uni0401.var.accented" unicode="&#x401;`" horiz-adv-x="1177" 
d="M1083 1681q0 55 38.5 89t92.5 34q55 0 91 -33t36 -88q0 -56 -35.5 -93.5t-91.5 -37.5q-58 0 -94.5 35t-36.5 94zM461 1681q0 55 37.5 89t91.5 34q55 0 91 -33t36 -88q0 -57 -35 -94t-92 -37q-58 0 -93.5 35t-35.5 94zM1102 1819l-252 -301l-105 45l175 327zM199 0
l252 1434h839l-41 -236h-587l-64 -358h526l-41 -236h-526l-65 -368h608l-41 -236h-860z" />
    <glyph glyph-name="uni0430.var.accented" unicode="&#x430;`" horiz-adv-x="1077" 
d="M942 0h-231l45 260q-177 -283 -383 -283q-122 0 -184 87t-62 231q0 183 81 331.5t225 233t321 84.5q99 0 190.5 -23t138.5 -51zM485 188q55 0 124 68t121 156t75 161l29 146q-47 12 -103 12q-160 0 -261 -110t-101 -271q0 -77 29.5 -119.5t86.5 -42.5zM1063 1378
l-260 -299l-139 99l215 342z" />
    <glyph glyph-name="uni0435.var.accented" unicode="&#x435;`" horiz-adv-x="983" 
d="M825 276l99 -131q-74 -74 -176.5 -121t-223.5 -47q-191 0 -294 103.5t-103 267.5q0 116 40 223t111.5 190t180 133t237.5 50q154 0 233 -62.5t77 -179.5q0 -159 -169 -249.5t-475 -104.5q6 -86 59.5 -129t145.5 -43q118 0 258 100zM674 743q-109 0 -189.5 -70
t-107.5 -175q192 12 292.5 54.5t100.5 111.5q1 37 -25.5 58t-70.5 21zM1032 1378l-260 -299l-139 99l215 342z" />
    <glyph glyph-name="uni0438.var.accented" unicode="&#x438;`" horiz-adv-x="1056" 
d="M1065 922l-162 -922h-231l43 248q-179 -271 -387 -271q-104 0 -150.5 62.5t-46.5 159.5q0 73 19 166l116 557h234l-109 -508q-18 -93 -16 -129q0 -88 63 -88q56 0 128 65t127 149.5t77 153.5l61 357h234zM1001 1378l-260 -299l-139 99l215 342z" />
    <glyph glyph-name="uni043E.var.accented" unicode="&#x43e;`" horiz-adv-x="1071" 
d="M127 362q0 118 37 222.5t106 185t176.5 127.5t239.5 47q181 0 281 -105.5t100 -275.5q0 -169 -63.5 -301t-188 -208.5t-291.5 -76.5q-185 0 -291 107t-106 278zM369 406q0 -100 52 -159t142 -59q121 0 191.5 93t70.5 237q0 98 -46 155.5t-136 57.5q-123 0 -198.5 -91
t-75.5 -234zM1040 1378l-260 -299l-139 99l215 342z" />
    <glyph glyph-name="uni0443.var.accented" unicode="&#x443;`" horiz-adv-x="907" 
d="M727 922h248q-66 -277 -152 -515t-188 -422t-221 -289.5t-238 -105.5q-117 0 -199 72l107 178q52 -33 94 -33q111 0 209 189q-32 182 -113.5 432.5t-183.5 493.5h264q51 -120 109.5 -309t87.5 -328q56 137 105 310.5t71 326.5zM899 1378l-260 -299l-139 99l215 342z" />
    <glyph glyph-name="uni044B.var.accented" unicode="&#x44b;`" horiz-adv-x="1366" 
d="M160 389l139 533h236l-103 -377q164 164 307 164q87 0 148 -61t61 -171q0 -99 -50 -193t-129 -160.5t-179 -106.5t-197 -40q-130 0 -194 63t-64 169q0 80 25 180zM1141 922h231l-158 -922h-233zM375 289q-2 -8 -2 -23q0 -35 21.5 -56.5t66.5 -21.5q85 0 167.5 67
t82.5 153q0 41 -24.5 64.5t-61.5 23.5q-62 0 -144.5 -68.5t-105.5 -138.5zM1167 1378l-260 -299l-139 99l215 342z" />
    <glyph glyph-name="uni044D.var.accented" unicode="&#x44d;`" horiz-adv-x="919" 
d="M334 379l31 170h309q1 96 -56.5 143t-148.5 47q-124 0 -229 -65l-86 151q156 119 370 119q193 0 292 -104t99 -287q0 -258 -144 -417t-382 -159q-207 0 -332 125l129 154q80 -74 209 -74q99 0 169.5 49.5t94.5 147.5h-325zM891 1378l-260 -299l-139 99l215 342z" />
    <glyph glyph-name="uni044E.var.accented" unicode="&#x44e;`" horiz-adv-x="1456" 
d="M117 0l155 922h240l-57 -338h147q51 160 174.5 260t313.5 100q177 0 269.5 -103.5t92.5 -279.5q0 -161 -59.5 -292.5t-176 -211.5t-270.5 -80q-177 0 -274 99.5t-105 275.5h-151l-60 -352h-239zM801 408q0 -99 45 -159.5t127 -60.5q115 0 178 93t63 235q0 99 -40 157
t-125 58q-114 0 -181 -90t-67 -233zM1202 1378l-260 -299l-139 99l215 342z" />
    <glyph glyph-name="uni044F.var.accented" unicode="&#x44f;`" horiz-adv-x="968" 
d="M666 922h311l-160 -922h-231l45 270h-109l-227 -270h-277l295 334q-59 30 -95 87t-36 128q0 77 28.5 143t86 118.5t152 82t217.5 29.5zM422 573q0 -112 137 -112h107l43 250h-109q-87 0 -132.5 -40t-45.5 -98zM997 1378l-260 -299l-139 99l215 342z" />
    <glyph glyph-name="uni0451.var.accented" unicode="&#x451;`" horiz-adv-x="983" 
d="M825 276l99 -131q-75 -76 -179 -122t-219 -46q-102 0 -180.5 30t-125 82.5t-70 118t-23.5 140.5q0 117 40 224.5t112 190t181 132t238 49.5q157 0 233.5 -65t74.5 -179q-2 -150 -161 -242.5t-483 -109.5q5 -81 57 -126.5t150 -45.5q116 0 256 100zM674 743
q-112 0 -191 -71.5t-106 -173.5q390 25 393 166q2 36 -24.5 57.5t-71.5 21.5zM946 1391l-241 -314l-130 78l197 352zM305 1204q0 48 33 78.5t80 30.5q42 0 73 -30.5t31 -78.5q0 -53 -31.5 -83.5t-76.5 -30.5q-48 0 -78.5 30t-30.5 84zM913 1204q0 48 33.5 78.5t79.5 30.5
q42 0 73 -30.5t31 -78.5q0 -53 -31 -83.5t-75 -30.5q-49 0 -80 30t-31 84z" />
    <glyph glyph-name="fi" unicode="fi" horiz-adv-x="1081" 
d="M115 -31l184 1065q18 100 51 174t88 131.5t140 87t198 29.5q128 0 217.5 -43.5t130.5 -118.5l-166 -149q-27 40 -76 65t-116 25q-109 0 -163.5 -51.5t-72.5 -155.5l-16 -106h551l-160 -922h-231l121 700h-320l-129 -745q-63 -373 -377 -373q-70 0 -132 22.5t-89 55.5
l102 178q50 -37 107 -37q132 0 158 168z" />
    <glyph glyph-name="fl" unicode="fl" horiz-adv-x="1150" 
d="M709 297l155 883q-58 55 -153 55q-146 0 -174 -182l-23 -131h176l-37 -222h-178l-121 -694q-39 -215 -126 -319.5t-259 -104.5q-72 0 -133 22.5t-88 55.5l102 178q50 -37 107 -37q129 0 158 170l190 1100q30 163 112 263t224 114q41 7 100 4q118 -6 187 -57h209
l-193 -1071q-2 -10 -2 -29q-9 -96 70 -96q50 0 108 30l27 -186q-40 -26 -102.5 -44.5t-122.5 -18.5q-179 0 -209 155q-21 76 -4 162z" />
    <glyph glyph-name=".notdef" horiz-adv-x="434" 
 />
    <glyph glyph-name=".null" horiz-adv-x="0" 
 />
    <glyph glyph-name="nonmarkingreturn" horiz-adv-x="682" 
 />
    <glyph glyph-name="space" unicode=" " horiz-adv-x="434" 
 />
    <glyph glyph-name="exclam" unicode="!" horiz-adv-x="679" 
d="M293 487l166 947h250l-166 -947h-250zM209 143q0 54 43.5 97t112.5 43q62 0 104.5 -43.5t42.5 -96.5q0 -62 -43 -107.5t-107 -45.5q-68 0 -110.5 45t-42.5 108z" />
    <glyph glyph-name="quotedbl" unicode="&#x22;" horiz-adv-x="933" 
d="M705 938l88 496h235l-88 -496h-235zM330 938l88 496h235l-88 -496h-235z" />
    <glyph glyph-name="numbersign" unicode="#" horiz-adv-x="1482" 
d="M766 41l119 328h-312l-145 -392l-182 64l121 328h-160v204h235l107 287h-342v205h418l145 391l184 -67l-120 -324h309l145 391l182 -63l-120 -328h176v-205h-252l-107 -287h359v-204h-434l-146 -392zM756 860l-107 -287h312l106 287h-311z" />
    <glyph glyph-name="dollar" unicode="$" horiz-adv-x="1206" 
d="M881 403q0 49 -29.5 89t-77.5 69.5t-105 58.5t-114.5 64t-105.5 77t-77.5 106.5t-29.5 144.5q0 163 110.5 282.5t301.5 151.5l30 172h236l-33 -176q177 -33 266 -150l-159 -178q-47 54 -102.5 80.5t-137.5 26.5q-116 0 -179 -51t-63 -136q0 -40 18.5 -74t49.5 -59
t71.5 -47.5t85.5 -44.5t89.5 -46t85 -54.5t71.5 -67t49.5 -87.5t18.5 -112q0 -187 -117.5 -308t-304.5 -150l-31 -189h-235l33 193q-113 20 -199 76t-117 139l166 164q43 -73 121.5 -114.5t175.5 -41.5q107 0 172.5 53.5t65.5 138.5z" />
    <glyph glyph-name="percent" unicode="%" horiz-adv-x="1886" 
d="M479 72l1037 1384l133 -100l-1033 -1379zM215 1077q0 157 109.5 265t273.5 108q176 0 283.5 -101t107.5 -262q0 -99 -47.5 -185t-138.5 -139.5t-205 -53.5q-170 0 -276.5 103t-106.5 265zM424 1079q0 -77 49.5 -126.5t128.5 -49.5q78 0 127 49.5t49 128.5q0 75 -49 125.5
t-127 50.5q-81 0 -129.5 -51t-48.5 -127zM1153 352q0 157 109.5 265t273.5 108q176 0 283.5 -101t107.5 -262q0 -99 -47.5 -185t-138.5 -139.5t-205 -53.5q-170 0 -276.5 103t-106.5 265zM1362 354q0 -77 49.5 -126.5t128.5 -49.5q78 0 128 49.5t50 128.5q0 75 -50 125.5
t-128 50.5q-81 0 -129.5 -51t-48.5 -127z" />
    <glyph glyph-name="ampersand" unicode="&#x26;" horiz-adv-x="1548" 
d="M1167 0l-90 152q-207 -175 -448 -175q-209 0 -324 99.5t-115 265.5q0 74 23.5 142t59.5 120t94.5 104.5t113 90.5t129.5 84q-32 34 -50 56t-42 58t-35.5 74t-11.5 80q0 139 103 222t270 83q147 0 238.5 -71.5t91.5 -194.5q0 -108 -57 -182.5t-181 -149.5l207 -352
q126 179 170 416h229q-28 -171 -103.5 -332t-183.5 -279l189 -311h-277zM666 213q157 0 297 129l-226 395q-56 -37 -90 -62t-74 -61t-62 -67.5t-37 -73.5t-15 -88q0 -91 58.5 -131.5t148.5 -40.5zM700 1155q0 -32 18 -61t37 -45.5t48 -36.5q62 24 102.5 62.5t40.5 86.5
q0 45 -31 75t-84 30q-55 0 -93 -32.5t-38 -78.5z" />
    <glyph glyph-name="quotesingle" unicode="'" horiz-adv-x="559" 
d="M330 938l88 496h235l-88 -496h-235z" />
    <glyph glyph-name="parenleft" unicode="(" horiz-adv-x="655" 
d="M600 -291l-156 -131q-145 147 -217.5 334.5t-72.5 374.5q0 106 15.5 202.5t55.5 206t105 212t169.5 215t243.5 220.5l123 -147q-253 -215 -364 -423.5t-111 -465.5q0 -172 54.5 -328t154.5 -270z" />
    <glyph glyph-name="parenright" unicode=")" horiz-adv-x="694" 
d="M219 1212l158 131q146 -151 216.5 -336.5t70.5 -373.5q0 -133 -27 -256.5t-91 -259t-183 -272.5t-289 -267l-125 150q235 193 355 410.5t120 482.5q0 346 -205 591z" />
    <glyph glyph-name="asterisk" unicode="*" horiz-adv-x="1017" 
d="M541 1325q0 53 37.5 91t89.5 38q54 0 91.5 -38t37.5 -91q0 -52 -37.5 -88.5t-91.5 -36.5q-53 0 -90 36.5t-37 88.5zM537 696q0 54 37.5 91.5t89.5 37.5q53 0 91 -37.5t38 -91.5q0 -52 -38 -89.5t-91 -37.5q-51 0 -89 37.5t-38 89.5zM809 1167q0 54 36.5 91.5t88.5 37.5
q53 0 91 -37.5t38 -91.5q0 -52 -38 -89.5t-91 -37.5q-52 0 -88.5 37t-36.5 90zM809 862q0 53 36.5 90t88.5 37q53 0 91 -37.5t38 -89.5q0 -54 -38 -91.5t-91 -37.5q-52 0 -88.5 37.5t-36.5 91.5zM270 862q0 52 37 89.5t90 37.5t90 -37.5t37 -89.5q0 -54 -37 -91.5t-90 -37.5
t-90 37.5t-37 91.5zM270 1167q0 54 37 91.5t90 37.5t90 -37.5t37 -91.5q0 -53 -37 -90t-90 -37t-90 37t-37 90z" />
    <glyph glyph-name="plus" unicode="+" 
d="M264 635v205h363v370h221v-370h366v-205h-366v-375h-221v375h-363z" />
    <glyph glyph-name="comma" unicode="," horiz-adv-x="507" 
d="M117 121q0 71 48 114.5t118 43.5q80 0 123 -53t43 -138q0 -138 -86.5 -240t-239.5 -145l-45 109q65 23 119 76t61 118q-8 -4 -31 -4q-51 0 -80.5 33.5t-29.5 85.5z" />
    <glyph glyph-name="hyphen" unicode="-" horiz-adv-x="819" 
d="M231 451l25 219h516l-27 -219h-514z" />
    <glyph glyph-name="period" unicode="." horiz-adv-x="493" 
d="M119 154q0 58 44.5 103.5t117.5 45.5q67 0 112 -45t45 -104q0 -67 -44 -115.5t-115 -48.5q-75 0 -117.5 48t-42.5 116z" />
    <glyph glyph-name="slash" unicode="/" horiz-adv-x="733" 
d="M-31 -358l676 1814l180 -67l-673 -1815z" />
    <glyph glyph-name="zero" unicode="0" horiz-adv-x="1165" 
d="M205 508q0 112 13.5 220t41.5 215.5t76.5 197.5t113 160t157 109.5t202.5 39.5q91 0 161.5 -28t115.5 -75t74.5 -115t41.5 -142.5t12 -161.5q0 -114 -13.5 -223t-41 -217t-74.5 -197.5t-109 -159t-150 -108.5t-193 -39q-113 0 -196.5 37.5t-133.5 108t-74 164.5t-24 214z
M453 518q0 -162 45 -238.5t155 -76.5q95 0 167 98t109.5 263t37.5 370q0 68 -9 119.5t-30 92t-58.5 62t-91.5 21.5q-57 0 -104.5 -26.5t-80 -70.5t-58 -105t-41 -124.5t-25 -135.5t-13 -131.5t-3.5 -117.5z" />
    <glyph glyph-name="one" unicode="1" horiz-adv-x="784" 
d="M240 1163l409 275h172l-252 -1438h-235l192 1096l-192 -121z" />
    <glyph glyph-name="two" unicode="2" horiz-adv-x="1073" 
d="M76 0l33 188q266 217 351 292q306 274 376 464q24 63 24 121q0 72 -43 113t-121 41q-75 0 -137 -55.5t-96 -141.5l-184 92q51 158 171 247t285 89q187 0 285 -93t98 -237q0 -365 -672 -901h570l-39 -219h-901z" />
    <glyph glyph-name="three" unicode="3" horiz-adv-x="1077" 
d="M530 -23q-182 0 -296 72t-162 201l207 108q35 -70 98 -110.5t151 -40.5q130 0 198.5 68t68.5 169q0 83 -62.5 128.5t-181.5 45.5h-90l41 230h78q121 0 199.5 61.5t78.5 161.5q0 72 -44.5 113t-135.5 41q-132 0 -223 -123l-168 133q73 109 187.5 165t258.5 56
q171 0 277 -87t106 -236q0 -129 -74 -233t-215 -152l-2 -7q104 -26 165 -104.5t61 -181.5q0 -208 -144.5 -343t-376.5 -135z" />
    <glyph glyph-name="four" unicode="4" horiz-adv-x="1187" 
d="M709 0l59 332h-657l30 174l717 928h281l-674 -871h344l61 359h236l-62 -359h183l-41 -231h-182l-60 -332h-235z" />
    <glyph glyph-name="five" unicode="5" horiz-adv-x="1075" 
d="M297 672l229 762h691l-41 -232h-486l-88 -293q45 9 74 9q171 0 278 -112.5t107 -277.5q0 -250 -155 -400.5t-404 -150.5q-133 0 -248 56t-178 160l172 155q43 -68 116 -104.5t156 -36.5q137 0 211 81t74 204q0 101 -66.5 159t-199.5 58q-62 0 -132.5 -11t-109.5 -26z" />
    <glyph glyph-name="six" unicode="6" horiz-adv-x="1155" 
d="M188 438q0 154 51.5 302t139.5 265.5t201 213t239 155.5t250 82l59 -192q-201 -57 -369 -188.5t-255 -332.5q114 144 295 144q161 0 266.5 -105.5t105.5 -273.5q0 -231 -144 -381t-378 -150q-218 0 -339.5 128.5t-121.5 332.5zM449 506q-22 -126 35 -212.5t173 -86.5
q121 0 189.5 79.5t68.5 188.5q0 84 -54.5 138.5t-147.5 54.5q-88 0 -158 -46.5t-106 -115.5z" />
    <glyph glyph-name="seven" unicode="7" horiz-adv-x="1021" 
d="M262 1202l41 232h901l-28 -158l-732 -1276h-276l694 1202h-600z" />
    <glyph glyph-name="eight" unicode="8" 
d="M780 852h25q88 0 148.5 56t60.5 145q0 79 -55 125.5t-142 46.5q-93 0 -157 -57t-64 -146q0 -72 49 -121t135 -49zM723 621h-25q-112 0 -186 -63.5t-74 -164.5q0 -83 59.5 -134.5t170.5 -51.5q129 0 198.5 66t69.5 169q0 84 -59.5 131.5t-153.5 47.5zM655 -23
q-215 0 -345 100t-130 269q0 152 88 261t248 145l2 6q-77 38 -125.5 107.5t-48.5 172.5q0 179 143 298.5t369 119.5q186 0 300 -92t114 -248q0 -130 -71 -233.5t-206 -143.5l-2 -6q95 -38 146 -115t51 -182q0 -212 -143 -335.5t-390 -123.5z" />
    <glyph glyph-name="nine" unicode="9" horiz-adv-x="1163" 
d="M1227 967q0 -264 -110.5 -479.5t-318.5 -350.5t-483 -160l-47 197q527 83 652 508q-51 -68 -131 -107.5t-173 -39.5q-171 0 -274.5 115.5t-103.5 289.5q0 146 64.5 263t183.5 185t272 68q214 0 341.5 -130.5t127.5 -358.5zM965 911q22 127 -39 220.5t-178 93.5
q-116 0 -185 -76t-69 -176q0 -98 58 -157.5t163 -59.5q163 0 250 155z" />
    <glyph glyph-name="colon" unicode=":" horiz-adv-x="661" 
d="M307 793q0 58 45.5 103.5t118.5 45.5q66 0 111 -46t45 -103q0 -67 -44 -115.5t-114 -48.5q-75 0 -118.5 48t-43.5 116zM197 154q0 58 44 103.5t117 45.5q66 0 112 -46t46 -103q0 -67 -45 -115.5t-115 -48.5q-75 0 -117 48t-42 116z" />
    <glyph glyph-name="semicolon" unicode=";" horiz-adv-x="665" 
d="M182 121q0 71 48 114.5t118 43.5q80 0 123 -53t43 -138q0 -138 -86.5 -240t-239.5 -145l-45 109q65 23 119.5 76t61.5 118q-8 -4 -31 -4q-51 0 -81 33.5t-30 85.5zM303 793q0 58 44.5 103.5t117.5 45.5q67 0 112.5 -45t45.5 -104q0 -67 -44.5 -115.5t-115.5 -48.5
q-75 0 -117.5 48t-42.5 116z" />
    <glyph glyph-name="less" unicode="&#x3c;" 
d="M1184 135l-953 555v101l953 550v-254l-627 -346l627 -350v-256z" />
    <glyph glyph-name="equal" unicode="=" 
d="M264 829v205h950v-205h-950zM264 440v205h950v-205h-950z" />
    <glyph glyph-name="greater" unicode="&#x3e;" 
d="M1233 690l-952 -555v256l628 350l-628 346v254l952 -550v-101z" />
    <glyph glyph-name="question" unicode="?" horiz-adv-x="960" 
d="M827 1067q0 68 -42 111t-128 43q-78 0 -138.5 -33.5t-119.5 -100.5l-143 158q169 211 449 211q181 0 281.5 -95t100.5 -239q0 -80 -26.5 -149t-69 -117.5t-94 -91t-103.5 -79.5t-95.5 -72t-72 -78.5t-30.5 -90.5h-209q0 69 24.5 127.5t63.5 99.5t86 78t93.5 70.5
t85.5 68.5t63 80.5t24 98.5zM289 129q0 55 42.5 98t112.5 43q61 0 104.5 -44t43.5 -97q0 -61 -43.5 -106.5t-106.5 -45.5q-69 0 -111 44.5t-42 107.5z" />
    <glyph glyph-name="at" unicode="@" horiz-adv-x="2054" 
d="M1253 154l19 106q-33 -53 -69.5 -98t-85.5 -89.5t-108 -70t-120 -25.5q-124 0 -186 87t-62 231q0 183 81.5 331.5t225 233t320.5 84.5q156 0 331 -74l-106 -649h43q140 0 218.5 101t78.5 299q0 148 -77.5 266.5t-224.5 187t-339 68.5q-155 0 -291 -48.5t-238.5 -138
t-161.5 -227.5t-59 -307q0 -158 50.5 -282t140.5 -202t210.5 -118.5t264.5 -40.5q171 0 278 35l19 -213q-127 -43 -313 -43q-185 0 -343.5 58.5t-275.5 167t-183.5 272t-66.5 362.5q0 198 73.5 372.5t201.5 300.5t310 198.5t390 72.5q254 0 450 -96t301 -261.5t105 -371.5
q0 -136 -34.5 -248t-105 -199.5t-188 -136.5t-272.5 -49q-126 0 -170 32t-31 122zM999 188q56 0 125 68.5t121 155.5t76 161l27 146q-44 12 -103 12q-159 0 -259.5 -110t-100.5 -271q0 -77 28.5 -119.5t85.5 -42.5z" />
    <glyph glyph-name="A" unicode="A" horiz-adv-x="1443" 
d="M14 0l850 1438h219l344 -1438h-251l-89 367h-589l-213 -367h-271zM920 1112l-287 -510h399z" />
    <glyph glyph-name="B" unicode="B" horiz-adv-x="1286" 
d="M199 2l252 1428q200 10 446 10q408 0 408 -320q0 -137 -77.5 -237t-211.5 -140l-2 -4q103 -26 162 -96.5t59 -171.5q0 -97 -31 -177t-85.5 -135.5t-130.5 -93.5t-165 -55.5t-190 -17.5q-294 0 -434 10zM748 621h-189l-67 -388q56 -10 182 -10q141 0 218 60.5t77 165.5
q0 172 -221 172zM838 1210q-90 0 -176 -8l-66 -371h180q112 0 187 60.5t75 165.5q0 73 -51 113t-149 40z" />
    <glyph glyph-name="C" unicode="C" horiz-adv-x="1357" 
d="M1286 319l96 -192q-80 -70 -207 -110t-257 -40q-317 0 -513 184t-196 488q0 128 36 247t108 220.5t172.5 177.5t239 119t298.5 43q144 0 262 -35.5t182 -95.5l-129 -188q-128 84 -323 84q-127 0 -235 -43t-182 -117t-115.5 -174t-41.5 -213q0 -207 122.5 -334t336.5 -127
q201 0 346 106z" />
    <glyph glyph-name="D" unicode="D" horiz-adv-x="1523" 
d="M199 0l252 1434h26q41 0 191 3t202 3q183 0 320 -46.5t218.5 -130t121 -190.5t39.5 -237q0 -179 -63 -332t-181.5 -266t-300.5 -177.5t-408 -64.5q-46 0 -183.5 2t-205.5 2h-28zM836 1204q-88 0 -174 -6l-170 -962q85 -5 161 -5q296 0 469.5 157t173.5 425
q0 189 -114 290t-346 101z" />
    <glyph glyph-name="E" unicode="E" horiz-adv-x="1177" 
d="M199 0l252 1434h839l-41 -236h-587l-64 -358h526l-41 -236h-526l-65 -368h608l-41 -236h-860z" />
    <glyph glyph-name="F" unicode="F" horiz-adv-x="1114" 
d="M199 0l252 1434h837l-41 -236h-585l-72 -405h526l-43 -236h-526l-96 -557h-252z" />
    <glyph glyph-name="G" unicode="G" horiz-adv-x="1505" 
d="M903 537l41 235h582l-103 -594q-86 -92 -230.5 -146.5t-299.5 -54.5q-311 0 -497.5 183t-186.5 489q0 129 37 249.5t109 221.5t171.5 176t232 117.5t283.5 42.5q293 0 467 -160l-143 -186q-134 111 -346 111q-240 0 -390.5 -158t-150.5 -397q0 -204 112.5 -328.5
t309.5 -124.5q188 0 309 96l39 228h-346z" />
    <glyph glyph-name="H" unicode="H" horiz-adv-x="1566" 
d="M1116 0l109 612h-666l-108 -612h-252l252 1434h251l-102 -586h666l102 586h250l-252 -1434h-250z" />
    <glyph glyph-name="I" unicode="I" horiz-adv-x="710" 
d="M229 0l252 1434h252l-252 -1434h-252z" />
    <glyph glyph-name="J" unicode="J" horiz-adv-x="800" 
d="M852 1434l-188 -1076q-69 -381 -418 -381q-77 0 -142 27t-90 62l117 190q50 -43 125 -43q130 0 162 168l184 1053h250z" />
    <glyph glyph-name="K" unicode="K" horiz-adv-x="1370" 
d="M199 0l252 1434h251l-118 -678l667 678h316l-705 -705l473 -729h-291l-464 739l-129 -739h-252z" />
    <glyph glyph-name="L" unicode="L" horiz-adv-x="1136" 
d="M199 0l252 1434h251l-210 -1198h659l-41 -236h-911z" />
    <glyph glyph-name="M" unicode="M" horiz-adv-x="1826" 
d="M199 0l252 1434h231l360 -668l566 668h270l-252 -1434h-250l180 1030l-555 -635h-36l-336 629l-178 -1024h-252z" />
    <glyph glyph-name="N" unicode="N" horiz-adv-x="1628" 
d="M1427 0h-200l-615 1020l-178 -1020h-235l252 1434h200l615 -1022l178 1022h235z" />
    <glyph glyph-name="O" unicode="O" horiz-adv-x="1687" 
d="M209 645q0 169 59.5 317.5t165.5 258t263 172.5t343 63q201 0 357.5 -79.5t245 -229.5t88.5 -348q0 -172 -57.5 -322t-161 -261t-257.5 -175t-337 -64q-169 0 -305 52t-223.5 143t-134 212t-46.5 261zM481 659q0 -203 124.5 -324.5t322.5 -121.5q236 0 383 157t147 408
q0 199 -119.5 321t-320.5 122q-156 0 -279.5 -74t-190.5 -202t-67 -286z" />
    <glyph glyph-name="P" unicode="P" horiz-adv-x="1255" 
d="M451 0h-252l252 1434q37 0 197 2t212 2q128 0 224 -32t150.5 -87.5t80.5 -122.5t26 -145q0 -115 -39 -213t-113.5 -171t-190.5 -114t-261 -41q-135 0 -196 6zM842 1202q-44 0 -180 -4l-78 -440q95 -10 178 -10q143 0 226 73.5t83 194.5q0 186 -229 186z" />
    <glyph glyph-name="Q" unicode="Q" horiz-adv-x="1687" 
d="M209 645q0 166 58 313.5t163 258t262.5 175t345.5 64.5q206 0 363.5 -81t243.5 -231t86 -347q0 -166 -63.5 -322.5t-182.5 -273.5l135 -201h-289l-43 61q-173 -84 -375 -84q-167 0 -302 52t-222 143t-133.5 212t-46.5 261zM1057 399l194 150l92 -137q115 150 115 370
q0 200 -121 319.5t-319 119.5q-233 0 -385 -158t-152 -404q0 -207 126.5 -326.5t324.5 -119.5q118 0 221 47z" />
    <glyph glyph-name="R" unicode="R" horiz-adv-x="1349" 
d="M451 0h-252l252 1434q45 0 222 2t193 2q126 0 220.5 -29.5t150 -82.5t82.5 -119.5t27 -145.5q0 -186 -100 -307t-263 -168l340 -586h-289l-301 537h-188zM840 1202q-42 0 -178 -4l-76 -426h137q161 0 256.5 63.5t95.5 186.5q0 180 -235 180z" />
    <glyph glyph-name="S" unicode="S" horiz-adv-x="1112" 
d="M831 389q0 51 -29.5 94t-76.5 75.5t-103.5 64.5t-113 69.5t-103.5 82t-76.5 110.5t-29.5 147q0 84 34 159.5t97 135t162.5 94.5t222.5 35q126 0 228.5 -44t160.5 -116l-153 -176q-98 101 -250 101q-109 0 -170.5 -48.5t-61.5 -121.5q0 -51 29.5 -93t76.5 -73t103.5 -62
t113.5 -68t104 -81t76.5 -111t29.5 -149q0 -194 -136 -315.5t-364 -121.5q-169 0 -293.5 67.5t-171.5 174.5l162 160q51 -80 129 -123t174 -43q98 0 163.5 46.5t65.5 129.5z" />
    <glyph glyph-name="T" unicode="T" horiz-adv-x="1222" 
d="M227 1198l41 236h1192l-41 -236h-471l-211 -1198h-250l211 1198h-471z" />
    <glyph glyph-name="U" unicode="U" horiz-adv-x="1533" 
d="M1610 1434l-148 -840q-27 -150 -76.5 -261t-129.5 -192.5t-196 -122.5t-269 -41q-262 0 -401.5 150t-108.5 428q0 33 6 70l143 809h252l-137 -775q-8 -36 -8 -71q-18 -180 50.5 -277.5t231.5 -97.5q91 0 161 31t117 90.5t76.5 135t47.5 175.5l139 789h250z" />
    <glyph glyph-name="V" unicode="V" horiz-adv-x="1343" 
d="M1599 1434l-827 -1438h-190l-336 1438h256l233 -1061l600 1061h264z" />
    <glyph glyph-name="W" unicode="W" horiz-adv-x="1996" 
d="M2238 1434l-655 -1434h-237l-152 1044l-518 -1044h-238l-176 1434h254l115 -1020l499 1020h254l140 -1020l456 1020h258z" />
    <glyph glyph-name="X" unicode="X" horiz-adv-x="1378" 
d="M1587 1434l-612 -713l379 -721h-281l-278 537l-463 -537h-307l637 739l-363 695h283l264 -510l436 510h305z" />
    <glyph glyph-name="Y" unicode="Y" horiz-adv-x="1257" 
d="M1503 1434l-647 -836l-104 -598h-252l104 598l-348 836h266l240 -594l448 594h293z" />
    <glyph glyph-name="Z" unicode="Z" horiz-adv-x="1320" 
d="M334 1198l41 236h1095l-30 -174l-961 -1024h801l-41 -236h-1157l31 172l956 1026h-735z" />
    <glyph glyph-name="bracketleft" unicode="[" horiz-adv-x="727" 
d="M61 -410l308 1741h563l-39 -221h-328l-229 -1300h328l-39 -220h-564z" />
    <glyph glyph-name="backslash" unicode="\" horiz-adv-x="733" 
d="M252 1456l676 -1814l-183 -68l-673 1815z" />
    <glyph glyph-name="bracketright" unicode="]" horiz-adv-x="727" 
d="M829 1331l-307 -1741h-563l39 220h328l229 1300h-328l39 221h563z" />
    <glyph glyph-name="asciicircum" unicode="^" horiz-adv-x="1038" 
d="M215 922l379 528h162l374 -528h-253l-203 292l-203 -292h-256z" />
    <glyph glyph-name="underscore" unicode="_" horiz-adv-x="702" 
d="M0 -410v236h702v-236h-702z" />
    <glyph glyph-name="grave" unicode="`" horiz-adv-x="647" 
d="M383 1079l-260 293l186 139l215 -333z" />
    <glyph glyph-name="a" unicode="a" horiz-adv-x="1077" 
d="M942 0h-231l45 260q-177 -283 -383 -283q-122 0 -184 87t-62 231q0 183 81 331.5t225 233t321 84.5q99 0 190.5 -23t138.5 -51zM485 188q55 0 124 68t121 156t75 161l29 146q-47 12 -103 12q-160 0 -261 -110t-101 -271q0 -77 29.5 -119.5t86.5 -42.5z" />
    <glyph glyph-name="b" unicode="b" horiz-adv-x="1095" 
d="M117 70l235 1355h234l-133 -745q143 200 303 238q46 12 90 12q40 0 80 -12q84 -23 125 -103.5t41 -189.5q0 -185 -80.5 -333.5t-221 -231.5t-313.5 -83q-111 0 -211 27.5t-149 65.5zM731 731q-56 0 -128 -67.5t-125.5 -151t-80.5 -152.5l-26 -141q53 -31 133 -31
q155 0 250.5 112t95.5 271q0 71 -29.5 115.5t-89.5 44.5z" />
    <glyph glyph-name="c" unicode="c" horiz-adv-x="925" 
d="M791 289l102 -144q-69 -75 -170.5 -121.5t-218.5 -46.5q-183 0 -280 102.5t-97 266.5q0 115 38 221.5t108 191t180.5 135t244.5 50.5q173 0 258 -55l-77 -187q-79 29 -191 29q-146 0 -231.5 -101.5t-85.5 -248.5q0 -89 47 -141t133 -52q109 0 240 101z" />
    <glyph glyph-name="d" unicode="d" horiz-adv-x="1099" 
d="M723 0l43 256q-183 -279 -399 -279q-116 0 -178 86t-62 230q0 127 43.5 245t120 208t188.5 144t240 54q87 0 151 -20l88 510h232l-242 -1434h-225zM483 188q55 0 127.5 69t127 155t73.5 149l27 139q-57 31 -133 31q-144 0 -242 -112.5t-98 -268.5q0 -75 30 -118.5
t88 -43.5z" />
    <glyph glyph-name="e" unicode="e" horiz-adv-x="983" 
d="M825 276l99 -131q-74 -74 -176.5 -121t-223.5 -47q-191 0 -294 103.5t-103 267.5q0 116 40 223t111.5 190t180 133t237.5 50q154 0 233 -62.5t77 -179.5q0 -159 -169 -249.5t-475 -104.5q6 -86 59.5 -129t145.5 -43q118 0 258 100zM674 743q-109 0 -189.5 -70
t-107.5 -175q192 12 292.5 54.5t100.5 111.5q1 37 -25.5 58t-70.5 21z" />
    <glyph glyph-name="f" unicode="f" horiz-adv-x="655" 
d="M135 -31l191 1102q68 385 393 385q84 0 150 -22.5t96 -59.5l-111 -178q-45 39 -125 39q-142 0 -172 -182l-22 -131h213l-39 -222h-213l-129 -745q-63 -373 -377 -373q-70 0 -132 22.5t-89 55.5l102 178q50 -37 106 -37q132 0 158 168z" />
    <glyph glyph-name="g" unicode="g" horiz-adv-x="1009" 
d="M-37 -162q0 70 28 127t78.5 94.5t110.5 61.5t133 37q-8 19 -8 45q0 53 37 90q-81 37 -125.5 105.5t-44.5 156.5q0 163 119.5 276t318.5 113q148 0 240 -72l280 68l-26 -184l-160 -39q12 -30 12 -74q0 -150 -106 -256t-277 -123q-27 -4 -86 -4q-14 -21 -14 -53
q0 -25 6 -33q57 0 84 -4q164 -11 261.5 -77.5t97.5 -182.5q0 -86 -41 -151.5t-114 -105.5t-167 -59.5t-207 -19.5q-196 0 -313 66t-117 198zM178 -137q0 -51 65 -78t177 -27q131 0 209 32.5t78 94.5q0 51 -65.5 79t-182.5 28q-132 0 -206.5 -34.5t-74.5 -94.5zM387 575
q0 -60 42 -96.5t114 -36.5q84 0 141 50t57 131q0 61 -40 99t-111 38q-89 0 -146 -53.5t-57 -131.5z" />
    <glyph glyph-name="h" unicode="h" horiz-adv-x="1091" 
d="M117 0l245 1434h234l-133 -762q74 114 177.5 193t215.5 79q110 0 160.5 -64t50.5 -169q0 -72 -18 -174l-101 -537h-231l94 502q14 82 14 123q-2 48 -17.5 73t-55.5 25q-58 0 -131 -65t-128.5 -149.5t-82.5 -156.5l-62 -352h-231z" />
    <glyph glyph-name="i" unicode="i" horiz-adv-x="542" 
d="M135 0l158 922h233l-159 -922h-232zM328 1274q0 61 41.5 98t101.5 37q54 0 96.5 -37.5t42.5 -97.5q0 -67 -42 -107.5t-97 -40.5q-61 0 -102 40t-41 108z" />
    <glyph glyph-name="j" unicode="j" horiz-adv-x="536" 
d="M541 922l-174 -990q-28 -164 -118 -261t-251 -97q-69 0 -129 18t-94 48l96 186q53 -33 109 -33q126 0 153 160l172 969h236zM340 1274q0 61 40 98t99 37q55 0 97 -37.5t42 -97.5q0 -67 -41.5 -107.5t-97.5 -40.5q-59 0 -99 40t-40 108z" />
    <glyph glyph-name="k" unicode="k" horiz-adv-x="1015" 
d="M1114 922l-412 -445l306 -477h-277l-299 483l395 439h287zM117 0l245 1434h234l-248 -1434h-231z" />
    <glyph glyph-name="l" unicode="l" horiz-adv-x="600" 
d="M156 297l202 1137h234l-199 -1110q-4 -20 -4 -29q-9 -96 72 -96q48 0 106 30l27 -186q-38 -25 -101 -44t-124 -19q-97 0 -153.5 47t-65.5 141q-6 65 6 129z" />
    <glyph glyph-name="m" unicode="m" horiz-adv-x="1564" 
d="M1522 567l-107 -567h-235l98 510q16 93 14 127q0 88 -63 88q-44 0 -90 -39.5t-83.5 -103t-66 -126t-49.5 -124.5l-59 -332h-236l96 512q17 84 15 123q0 90 -60 90q-56 0 -120 -76t-106.5 -163.5t-66.5 -163.5l-55 -322h-231l157 922h234l-43 -246q26 49 59.5 93.5
t78.5 85.5t103 65t119 24q85 0 127.5 -50.5t42.5 -127.5q0 -40 -4 -94q27 52 60 96t78 86t103 66t122 24q95 0 140.5 -51.5t45.5 -136.5q0 -100 -18 -189z" />
    <glyph glyph-name="n" unicode="n" horiz-adv-x="1089" 
d="M410 352l-62 -352h-231l157 922h234l-45 -250q38 54 79 98.5t92.5 85.5t111.5 64.5t122 23.5q99 0 148 -61.5t49 -153.5q0 -93 -18 -192l-101 -537h-231l94 502q14 82 14 131q-2 43 -16.5 66.5t-52.5 23.5q-58 0 -132 -65t-129.5 -149.5t-82.5 -156.5z" />
    <glyph glyph-name="o" unicode="o" horiz-adv-x="1071" 
d="M127 362q0 118 37 222.5t106 185t176.5 127.5t239.5 47q181 0 281 -105.5t100 -275.5q0 -169 -63.5 -301t-188 -208.5t-291.5 -76.5q-185 0 -291 107t-106 278zM369 406q0 -100 52 -159t142 -59q121 0 191.5 93t70.5 237q0 98 -46 155.5t-136 57.5q-123 0 -198.5 -91
t-75.5 -234z" />
    <glyph glyph-name="p" unicode="p" horiz-adv-x="1095" 
d="M344 -4l-70 -406h-233l82 469l149 863h232l-43 -252q48 73 102.5 130.5t133 100.5t159.5 43q82 0 137 -48.5t77 -117.5t22 -153q0 -103 -28 -200t-81 -178t-125.5 -141.5t-167 -94.5t-198.5 -34q-70 0 -148 19zM735 731q-55 0 -126.5 -70t-124.5 -156t-76 -153l-25 -131
q57 -33 127 -33q148 0 246 112t98 271q0 71 -30.5 115.5t-88.5 44.5z" />
    <glyph glyph-name="q" unicode="q" horiz-adv-x="1095" 
d="M649 -410l121 670q-38 -55 -74.5 -99t-87.5 -89t-111.5 -70t-125.5 -25q-118 0 -181 87.5t-63 238.5q0 125 44.5 241t122.5 205t194.5 142t250.5 53q106 0 203.5 -29.5t155.5 -74.5l-217 -1250h-232zM489 188q55 0 129 69.5t129 156t74 149.5l23 139q-60 29 -131 29
q-99 0 -179 -55t-122.5 -142t-42.5 -184q0 -72 28.5 -117t91.5 -45z" />
    <glyph glyph-name="r" unicode="r" horiz-adv-x="729" 
d="M117 0l157 922h234l-35 -195q145 217 303 217q50 0 98 -29l-116 -210q-30 18 -70 18q-53 0 -109.5 -56.5t-96 -129t-66.5 -150.5l-68 -387h-231z" />
    <glyph glyph-name="s" unicode="s" horiz-adv-x="796" 
d="M516 266q0 32 -25 60.5t-62 49t-81 48.5t-81 57.5t-62 77t-25 105.5q0 124 97 202t262 78q194 0 299 -67l-103 -172q-69 38 -174 38q-65 0 -102 -21t-37 -58q0 -27 25 -53t62 -46t81 -49t81 -60.5t62 -83.5t25 -114q0 -135 -106 -208t-273 -73q-102 0 -189.5 26
t-132.5 71l109 159q92 -57 201 -57q71 0 110 23t39 67z" />
    <glyph glyph-name="t" unicode="t" horiz-adv-x="706" 
d="M152 350l153 828h230l-46 -256h291l-37 -222h-288l-68 -335q-4 -18 -4 -50q-10 -96 55 -110q25 -5 66 2q51 5 106 45l60 -186q-45 -36 -121 -61t-154 -25q-226 0 -248 210q-13 74 5 160z" />
    <glyph glyph-name="u" unicode="u" horiz-adv-x="1056" 
d="M1065 922l-162 -922h-231l43 248q-179 -271 -387 -271q-104 0 -150.5 62.5t-46.5 159.5q0 73 19 166l116 557h234l-109 -508q-18 -93 -16 -129q0 -88 63 -88q56 0 128 65t127 149.5t77 153.5l61 357h234z" />
    <glyph glyph-name="v" unicode="v" horiz-adv-x="884" 
d="M711 922h252q-29 -266 -170.5 -529.5t-303.5 -400.5h-172q-80 486 -200 930h256q93 -367 108 -615q99 136 159 299t71 316z" />
    <glyph glyph-name="w" unicode="w" horiz-adv-x="1380" 
d="M1198 922h252q-27 -264 -150 -520t-288 -410h-181q-17 232 -53 442q-56 -131 -132.5 -247.5t-162.5 -194.5h-180q-69 485 -186 930h256q91 -385 108 -633q137 198 197 477q-1 3 -47 156h256q85 -317 100 -633q96 139 149.5 308t61.5 325z" />
    <glyph glyph-name="x" unicode="x" horiz-adv-x="954" 
d="M1075 922l-370 -447l231 -475h-260l-146 315l-251 -315h-287l387 471l-215 451h264l129 -297l231 297h287z" />
    <glyph glyph-name="y" unicode="y" horiz-adv-x="907" 
d="M727 922h248q-66 -277 -152 -515t-188 -422t-221 -289.5t-238 -105.5q-117 0 -199 72l107 178q52 -33 94 -33q111 0 209 189q-32 182 -113.5 432.5t-183.5 493.5h264q51 -120 109.5 -309t87.5 -328q56 137 105 310.5t71 326.5z" />
    <glyph glyph-name="z" unicode="z" horiz-adv-x="909" 
d="M193 700l36 222h754l-29 -170l-534 -533h432l-37 -219h-774l29 170l530 530h-407z" />
    <glyph glyph-name="braceleft" unicode="{" horiz-adv-x="747" 
d="M215 -88l45 246q18 100 -24 151t-125 49l34 205q83 0 144 56t82 169l39 230q29 160 119 236.5t270 76.5h143l-39 -221h-88q-86 0 -125.5 -37t-58.5 -137l-43 -246q-16 -100 -61.5 -159.5t-133.5 -73.5q72 -10 100.5 -75t12.5 -159l-41 -237q-17 -95 11.5 -135.5
t113.5 -40.5h84l-39 -220h-158q-161 0 -226.5 77.5t-35.5 244.5z" />
    <glyph glyph-name="bar" unicode="|" horiz-adv-x="696" 
d="M360 0v1434h236v-1434h-236z" />
    <glyph glyph-name="braceright" unicode="}" horiz-adv-x="747" 
d="M545 154l-47 -265q-27 -156 -120 -227.5t-255 -71.5h-154l39 220h82q89 0 131.5 41t57.5 135l45 250q18 105 63 162.5t131 70.5q-50 10 -79.5 46.5t-35 87t2.5 110.5l40 223q15 94 -9.5 134t-104.5 40h-94l38 221h140q182 0 245 -79.5t33 -250.5l-37 -213
q-19 -103 14 -164t130 -61l-35 -205q-93 3 -149 -54t-72 -150z" />
    <glyph glyph-name="asciitilde" unicode="~" 
d="M313 590l-102 149q67 76 146 121t153 45q56 0 123 -21.5t118.5 -48t117 -48t118.5 -21.5q46 0 95.5 26t84.5 66l93 -162q-142 -135 -275 -135q-55 0 -121 21.5t-117.5 48t-113.5 48t-109 21.5q-97 0 -211 -110z" />
    <glyph glyph-name="uni00A0" unicode="&#xa0;" horiz-adv-x="434" 
 />
    <glyph glyph-name="exclamdown" unicode="&#xa1;" horiz-adv-x="634" 
d="M522 446l-166 -946h-252l166 946h252zM604 791q0 -55 -42.5 -97.5t-112.5 -42.5q-61 0 -104.5 43.5t-43.5 96.5q0 61 43.5 107t106.5 46q69 0 111 -45t42 -108z" />
    <glyph glyph-name="cent" unicode="&#xa2;" 
d="M1008 295l84 -176q-111 -108 -304 -133l-40 -232h-236l47 250q-136 34 -213.5 144t-77.5 245q0 215 122.5 366.5t328.5 178.5l41 221h235l-39 -225q145 -27 226 -123l-135 -176q-85 88 -226 88t-219 -86t-78 -215q0 -105 63.5 -165t176.5 -60q132 0 244 98z" />
    <glyph glyph-name="sterling" unicode="&#xa3;" 
d="M252 543l33 188h166q-5 16 -18.5 56.5t-20.5 65t-14 63t-7 73.5q0 202 140 331.5t372 129.5q265 0 393 -170l-151 -174q-53 56 -112 82t-138 26q-100 0 -169 -63t-69 -158q0 -55 30 -140t36 -122h307l-33 -188h-295q-21 -120 -143 -226q18 -4 146 -47t200 -43
q66 0 119.5 21t114.5 69l75 -186q-154 -139 -335 -139q-75 0 -158.5 26.5t-163.5 53t-145 26.5q-103 0 -238 -112l-68 190q104 101 226 141q103 108 129 226h-209z" />
    <glyph glyph-name="currency" unicode="&#xa4;" 
d="M250 678q0 167 92 285l-149 161l147 142l152 -164q111 63 256 63q132 0 245 -63l174 162l142 -146l-168 -160q61 -103 61 -231q0 -159 -88 -285l146 -155l-150 -142l-149 158q-112 -67 -252 -67q-147 0 -258 69l-172 -162l-142 148l170 160q-57 94 -57 227zM471 684
q0 -109 61.5 -176.5t176.5 -67.5q125 0 198.5 83t73.5 200q0 110 -63 174t-177 64q-117 0 -193.5 -79.5t-76.5 -197.5z" />
    <glyph glyph-name="yen" unicode="&#xa5;" 
d="M242 598l32 188h246l-241 648h268l201 -600l417 600h289l-477 -648h248l-33 -188h-350l-31 -170h350l-33 -188h-350l-43 -240h-252l43 240h-348l33 188h348l31 170h-348z" />
    <glyph glyph-name="brokenbar" unicode="&#xa6;" horiz-adv-x="696" 
d="M596 901h-236v533h236v-533zM360 532h236v-532h-236v532z" />
    <glyph glyph-name="section" unicode="&#xa7;" horiz-adv-x="1073" 
d="M209 469q0 148 85 260.5t243 147.5q-115 83 -115 225q0 145 101.5 238.5t275.5 93.5q194 0 293 -148l-148 -149q-63 75 -145 75q-70 0 -109 -40t-39 -103q0 -111 115 -184q138 -26 215.5 -115.5t77.5 -220.5q0 -152 -89 -264t-243 -142q115 -85 115 -227
q0 -141 -102 -233.5t-283 -92.5q-194 0 -285 148l147 147q60 -75 144 -75q68 0 107.5 39t39.5 104q0 112 -112 182q-134 26 -211.5 115t-77.5 219zM446 485q0 -64 43 -107.5t117 -43.5q101 0 157 59t56 144q0 65 -43 107t-119 42q-101 0 -156 -60.5t-55 -140.5z" />
    <glyph glyph-name="dieresis" unicode="&#xa8;" horiz-adv-x="913" 
d="M123 1239q0 51 36.5 87t90.5 36q53 0 89 -34t36 -87q0 -58 -35.5 -95.5t-89.5 -37.5q-57 0 -92 35.5t-35 95.5zM537 1239q0 50 37 86.5t92 36.5q53 0 89 -34t36 -87q0 -58 -35.5 -95.5t-89.5 -37.5q-58 0 -93.5 36t-35.5 95z" />
    <glyph glyph-name="copyright" unicode="&#xa9;" horiz-adv-x="2084" 
d="M229 453q0 185 69 350t188 284.5t285.5 189t352.5 69.5t352 -69.5t284.5 -189t187.5 -284.5t69 -350q0 -248 -117 -453t-322 -323.5t-454 -118.5t-454.5 118.5t-323 323.5t-117.5 453zM434 451q0 -188 89 -345.5t248 -250.5t353 -93q145 0 273.5 54.5t219 147.5t143 220
t52.5 267q0 141 -52.5 268t-143 220t-219 147.5t-273.5 54.5q-195 0 -353.5 -92.5t-247.5 -250.5t-89 -347zM1395 307l110 -172q-58 -76 -154.5 -117t-211.5 -41q-225 0 -362.5 133t-137.5 351q0 133 60 243.5t170 175t247 64.5q247 0 371 -127l-109 -184q-95 90 -231 90
q-103 0 -179.5 -72.5t-76.5 -189.5q0 -119 78.5 -191.5t187.5 -72.5q135 0 238 110z" />
    <glyph glyph-name="ordfeminine" unicode="&#xaa;" horiz-adv-x="911" 
d="M446 1130l-61 146q126 72 287 72q155 0 235 -80.5t58 -206.5l-76 -432h-205l14 82q-96 -93 -231 -93q-104 0 -167.5 58t-63.5 149q0 117 80.5 185.5t232.5 68.5q114 0 205 -43l2 11q12 62 -24 94.5t-105 32.5q-105 0 -181 -44zM563 791q72 0 158 53l10 61q-76 31 -143 31
q-56 0 -90.5 -21.5t-34.5 -56.5q0 -32 27 -49.5t73 -17.5z" />
    <glyph glyph-name="guillemotleft" unicode="&#xab;" horiz-adv-x="1159" 
d="M920 43l-316 473l2 8l463 453l135 -146l-340 -331l226 -334zM479 43l-315 473l2 8l463 453l135 -146l-340 -331l225 -334z" />
    <glyph glyph-name="logicalnot" unicode="&#xac;" 
d="M213 635v205h1012v-473h-205v268h-807z" />
    <glyph glyph-name="uni00AD" unicode="&#xad;" horiz-adv-x="819" 
d="M231 451l25 219h516l-27 -219h-514z" />
    <glyph glyph-name="registered" unicode="&#xae;" horiz-adv-x="1357" 
d="M268 1018q0 159 78 293t214 212.5t298 78.5q158 0 292.5 -78.5t213 -213t78.5 -292.5q0 -162 -78.5 -298.5t-212.5 -215t-293 -78.5q-122 0 -231 46.5t-188 125.5t-125 188.5t-46 231.5zM459 1016q0 -164 116.5 -281t280.5 -117t280.5 117t116.5 281t-116.5 280.5
t-280.5 116.5t-280.5 -116.5t-116.5 -280.5zM788 737h-159v574h239q118 0 176 -51t58 -140q0 -57 -32 -103.5t-77 -64.5l121 -215h-184l-88 181h-54v-181zM846 1198h-58v-168h60q45 0 70.5 25.5t25.5 62.5t-25 58.5t-73 21.5z" />
    <glyph glyph-name="macron" unicode="&#xaf;" horiz-adv-x="817" 
d="M104 1147l33 188h572l-33 -188h-572z" />
    <glyph glyph-name="degree" unicode="&#xb0;" horiz-adv-x="870" 
d="M266 1163q0 148 99.5 247t240.5 99q145 0 245.5 -94t100.5 -241q0 -145 -101.5 -248t-244.5 -103q-141 0 -240.5 98t-99.5 242zM471 1167q0 -57 40 -98t97 -41t98.5 41t41.5 98q0 56 -41.5 97t-98.5 41t-97 -41t-40 -97z" />
    <glyph glyph-name="plusminus" unicode="&#xb1;" 
d="M260 823v205h363v371h221v-371h366v-205h-366v-211h-221v211h-363zM260 317v205h950v-205h-950z" />
    <glyph glyph-name="twosuperior" unicode="&#xb2;" horiz-adv-x="741" 
d="M188 717l27 147q15 9 47 26q59 32 90.5 50t84.5 50t83 55t62.5 52t47.5 55.5t15 51.5q0 29 -20.5 46.5t-55.5 17.5q-48 0 -81 -29.5t-46 -75.5l-168 66q29 101 114.5 157t207.5 56q124 0 199 -53.5t75 -145.5q0 -54 -26 -103.5t-64.5 -85.5t-93 -69.5t-101.5 -54
t-100 -39.5h359l-31 -174h-625z" />
    <glyph glyph-name="threesuperior" unicode="&#xb3;" horiz-adv-x="739" 
d="M487 702q-98 0 -177.5 36.5t-119.5 113.5l125 109q58 -91 179 -91q53 0 86.5 21t33.5 57q0 27 -30 42.5t-78 15.5h-62l23 143h57q54 0 84.5 22t30.5 56q0 24 -23 38.5t-63 14.5q-110 0 -184 -80l-88 117q109 129 319 129q127 0 197.5 -46.5t70.5 -129.5
q0 -67 -54.5 -115.5t-135.5 -60.5v-2q71 -6 113.5 -45t42.5 -99q0 -119 -97 -182.5t-250 -63.5z" />
    <glyph glyph-name="acute" unicode="&#xb4;" horiz-adv-x="645" 
d="M522 1378l-260 -299l-139 99l215 342z" />
    <glyph glyph-name="mu" unicode="&#xb5;" horiz-adv-x="1110" 
d="M1143 922l-164 -922h-236l21 104q-52 -56 -121.5 -91.5t-146.5 -35.5q-80 0 -131 41l-76 -428h-236l236 1332h233l-90 -514q-34 -211 141 -211q59 0 118.5 29.5t107.5 80.5l108 615h236z" />
    <glyph glyph-name="mu" unicode="&#x3bc;" horiz-adv-x="1110" 
d="M1143 922l-164 -922h-236l21 104q-52 -56 -121.5 -91.5t-146.5 -35.5q-80 0 -131 41l-76 -428h-236l236 1332h233l-90 -514q-34 -211 141 -211q59 0 118.5 29.5t107.5 80.5l108 615h236z" />
    <glyph glyph-name="paragraph" unicode="&#xb6;" horiz-adv-x="1005" 
d="M217 985q0 205 128 327t327 122h424v-222h-193v-1198q0 -218 -97 -329t-286 -111q-78 0 -152 29t-116 71l94 170q67 -51 156 -51q64 0 102 32.5t51 81t13 118.5v514q-119 1 -220 52.5t-166 155t-65 238.5z" />
    <glyph glyph-name="periodcentered" unicode="&#xb7;" horiz-adv-x="434" 
d="M172 618q0 58 44.5 104t117.5 46q67 0 112.5 -45.5t45.5 -104.5q0 -67 -44.5 -115t-115.5 -48q-75 0 -117.5 47.5t-42.5 115.5z" />
    <glyph glyph-name="cedilla" unicode="&#xb8;" horiz-adv-x="772" 
d="M63 -338l89 109q66 -54 141 -54q37 0 59.5 17t22.5 45q0 47 -76 47h-12l30 174h121l-12 -72q90 -4 137 -42t47 -103q0 -95 -79 -152t-220 -57q-160 0 -248 88z" />
    <glyph glyph-name="onesuperior" unicode="&#xb9;" horiz-adv-x="548" 
d="M258 1278l258 154h148l-125 -715h-205l82 475l-105 -57z" />
    <glyph glyph-name="ordmasculine" unicode="&#xba;" horiz-adv-x="1005" 
d="M283 983q0 158 109.5 266.5t273.5 108.5q176 0 283.5 -101t107.5 -262q0 -153 -110 -266t-281 -113q-170 0 -276.5 102.5t-106.5 264.5zM492 987q0 -78 49.5 -128t128.5 -50q78 0 127 50t49 128q0 75 -49 125.5t-127 50.5q-81 0 -129.5 -51t-48.5 -125z" />
    <glyph glyph-name="guillemotright" unicode="&#xbb;" horiz-adv-x="1159" 
d="M854 977l320 -471l-3 -8l-460 -457l-136 143l338 336l-229 332zM414 977l319 -471l-2 -8l-461 -457l-135 143l338 336l-229 332z" />
    <glyph glyph-name="onequarter" unicode="&#xbc;" horiz-adv-x="1429" 
d="M268 1278l258 154h148l-125 -715h-205l82 475l-104 -57zM217 72l1034 1384l133 -100l-1032 -1379zM1085 0l27 143h-395l24 136l394 438h200l-377 -416h183l26 160h191l-29 -160h115l-29 -158h-115l-24 -143h-191z" />
    <glyph glyph-name="onehalf" unicode="&#xbd;" horiz-adv-x="1466" 
d="M268 1278l258 154h148l-125 -715h-205l82 475l-104 -57zM197 72l1034 1384l133 -100l-1032 -1379zM776 0l27 147q15 9 47 26q59 32 90.5 50t84.5 50t83 55t62.5 52t47.5 55.5t15 51.5q0 29 -20.5 46.5t-55.5 17.5q-48 0 -81 -29.5t-46 -75.5l-168 66q29 101 114.5 157
t207.5 56q124 0 199 -53.5t75 -145.5q0 -214 -385 -352h359l-31 -174h-625z" />
    <glyph glyph-name="threequarters" unicode="&#xbe;" horiz-adv-x="1562" 
d="M504 702q-98 0 -177.5 36.5t-119.5 113.5l125 109q58 -91 178 -91q54 0 87.5 21t33.5 57q0 27 -30.5 42.5t-78.5 15.5h-61l22 143h58q54 0 84 22t30 56q0 24 -23 38.5t-63 14.5q-110 0 -184 -80l-88 117q109 129 319 129q127 0 198 -46.5t71 -129.5q0 -67 -55 -115.5
t-136 -60.5v-2q71 -6 113.5 -45t42.5 -99q0 -119 -96.5 -182.5t-249.5 -63.5zM360 72l1035 1384l133 -100l-1032 -1379zM1219 0l26 143h-395l24 136l394 438h200l-376 -416h182l26 160h191l-29 -160h115l-29 -158h-114l-25 -143h-190z" />
    <glyph glyph-name="questiondown" unicode="&#xbf;" horiz-adv-x="968" 
d="M313 -133q0 -68 42 -111t128 -43q78 0 138.5 33t119.5 100l144 -157q-169 -211 -449 -211q-182 0 -282.5 95t-100.5 239q0 71 20.5 133t54.5 106.5t77.5 86t89 72.5t89.5 65t79 64t57.5 69t24.5 81h209q0 -54 -15.5 -102t-41 -84t-58.5 -68t-69.5 -59t-73 -53.5
t-69.5 -54t-58.5 -56.5t-40.5 -66t-15 -79zM852 805q0 -55 -43 -98t-113 -43q-61 0 -104 44t-43 97q0 61 43 106t106 45q70 0 112 -44t42 -107z" />
    <glyph glyph-name="Agrave" unicode="&#xc0;" horiz-adv-x="1443" 
d="M14 0l850 1438h219l344 -1438h-251l-89 367h-589l-213 -367h-271zM920 1112l-287 -510h399zM1116 1497l-461 166l88 203l439 -228z" />
    <glyph glyph-name="Aacute" unicode="&#xc1;" horiz-adv-x="1443" 
d="M14 0l850 1438h219l344 -1438h-251l-89 367h-589l-213 -367h-271zM920 1112l-287 -510h399zM1307 1663l-461 -166l-66 141l439 228z" />
    <glyph glyph-name="Acircumflex" unicode="&#xc2;" horiz-adv-x="1443" 
d="M14 0l850 1438h219l344 -1438h-251l-89 367h-589l-213 -367h-271zM920 1112l-287 -510h399zM1034 1860l332 -228l-113 -131l-243 162l-312 -162l-67 139l395 220h8z" />
    <glyph glyph-name="Atilde" unicode="&#xc3;" horiz-adv-x="1443" 
d="M14 0l850 1438h219l344 -1438h-251l-89 367h-589l-213 -367h-271zM920 1112l-287 -510h399zM713 1542l-74 148q44 52 106 82t123 30q63 0 151 -35.5t142 -35.5q98 0 156 63l61 -147q-82 -121 -233 -121q-52 0 -144.5 35.5t-152.5 35.5q-69 0 -135 -55z" />
    <glyph glyph-name="Adieresis" unicode="&#xc4;" horiz-adv-x="1443" 
d="M14 0l850 1438h219l344 -1438h-251l-89 367h-589l-213 -367h-271zM920 1112l-287 -510h399zM1112 1681q0 55 42 89t103 34q60 0 101 -33.5t41 -87.5q0 -56 -39 -92.5t-103 -36.5q-65 0 -105 34.5t-40 92.5zM623 1681q0 55 42 89t103 34t101 -33t40 -88q0 -56 -38.5 -92.5
t-102.5 -36.5q-65 0 -105 34.5t-40 92.5z" />
    <glyph glyph-name="Aring" unicode="&#xc5;" horiz-adv-x="1443" 
d="M705 1638q0 110 79.5 165t206.5 55q130 0 211.5 -55t81.5 -165q0 -86 -54 -140.5t-143 -74.5l340 -1423h-251l-91 367h-587l-213 -367h-271l846 1432q-71 24 -113 77t-42 129zM920 1112l-287 -510h399zM879 1638q0 -48 31 -73t83 -25t84.5 25t32.5 73q0 47 -32 70t-85 23
q-52 0 -83 -23t-31 -70z" />
    <glyph glyph-name="AE" unicode="&#xc6;" horiz-adv-x="1988" 
d="M2101 1434l-41 -236h-587l-64 -358h526l-41 -236h-526l-65 -368h608l-41 -236h-860l65 371h-452l-326 -371h-313l1280 1434h837zM1188 1014l-352 -408h280z" />
    <glyph glyph-name="Ccedilla" unicode="&#xc7;" horiz-adv-x="1357" 
d="M578 -344l86 117q70 -56 151 -56q38 0 60 17t22 45q0 47 -76 47h-12l27 156q-284 23 -455.5 203.5t-171.5 463.5q0 128 36 247t108 220.5t172.5 177.5t239 119t298.5 43q144 0 262 -35.5t182 -95.5l-129 -188q-128 84 -323 84q-127 0 -235 -43t-182 -117t-115.5 -174
t-41.5 -213q0 -207 122.5 -334t336.5 -127q201 0 346 106l96 -192q-72 -65 -188 -103t-238 -44l-8 -52q99 -4 150 -42t51 -105q0 -95 -83 -151t-216 -56q-164 0 -272 82z" />
    <glyph glyph-name="Egrave" unicode="&#xc8;" horiz-adv-x="1177" 
d="M199 0l252 1434h839l-41 -236h-587l-64 -358h526l-41 -236h-526l-65 -368h608l-41 -236h-860zM1087 1497l-460 166l88 203l438 -228z" />
    <glyph glyph-name="Eacute" unicode="&#xc9;" horiz-adv-x="1177" 
d="M199 0l252 1434h839l-41 -236h-587l-64 -358h526l-41 -236h-526l-65 -368h608l-41 -236h-860zM1196 1663l-461 -166l-65 141l438 228z" />
    <glyph glyph-name="Ecircumflex" unicode="&#xca;" horiz-adv-x="1177" 
d="M199 0l252 1434h839l-41 -236h-587l-64 -358h526l-41 -236h-526l-65 -368h608l-41 -236h-860zM936 1860l332 -228l-113 -131l-244 162l-311 -162l-68 139l396 220h8z" />
    <glyph glyph-name="Edieresis" unicode="&#xcb;" horiz-adv-x="1177" 
d="M199 0l252 1434h839l-41 -236h-587l-64 -358h526l-41 -236h-526l-65 -368h608l-41 -236h-860zM1016 1681q0 55 42 89t103 34q60 0 101 -33.5t41 -87.5q0 -56 -39 -92.5t-103 -36.5q-65 0 -105 34.5t-40 92.5zM526 1681q0 55 42.5 89t103.5 34t101 -33t40 -88
q0 -56 -38.5 -92.5t-102.5 -36.5q-65 0 -105.5 34.5t-40.5 92.5z" />
    <glyph glyph-name="Igrave" unicode="&#xcc;" horiz-adv-x="710" 
d="M229 0l252 1434h252l-252 -1434h-252zM784 1497l-460 166l88 203l438 -228z" />
    <glyph glyph-name="Iacute" unicode="&#xcd;" horiz-adv-x="710" 
d="M229 0l252 1434h252l-252 -1434h-252zM940 1663l-461 -166l-65 141l438 228z" />
    <glyph glyph-name="Icircumflex" unicode="&#xce;" horiz-adv-x="710" 
d="M229 0l252 1434h252l-252 -1434h-252zM672 1860l332 -228l-113 -131l-244 162l-311 -162l-68 139l396 220h8z" />
    <glyph glyph-name="Idieresis" unicode="&#xcf;" horiz-adv-x="710" 
d="M229 0l252 1434h252l-252 -1434h-252zM492 1681q0 55 42 89t103 34h29q61 0 102 -33.5t41 -87.5q0 -56 -39.5 -92.5t-103.5 -36.5h-29q-65 0 -105 34.5t-40 92.5z" />
    <glyph glyph-name="Eth" unicode="&#xd0;" horiz-adv-x="1523" 
d="M111 608l39 219h194l107 607h26q41 0 192 3t205 3q181 0 317.5 -46.5t217.5 -130t120.5 -190t39.5 -235.5q0 -141 -37.5 -266t-116 -231t-191.5 -182.5t-271.5 -119.5t-348.5 -43q-38 0 -172.5 2t-204.5 2h-28l106 608h-194zM829 1204q-85 0 -167 -6l-66 -371h360
l-38 -219h-361l-65 -372q85 -5 161 -5q296 0 469.5 156t173.5 422q0 395 -467 395z" />
    <glyph glyph-name="Ntilde" unicode="&#xd1;" horiz-adv-x="1628" 
d="M1427 0h-200l-615 1020l-178 -1020h-235l252 1434h200l615 -1022l178 1022h235zM815 1542l-74 148q44 52 106.5 82t123.5 30q63 0 151 -35.5t142 -35.5q97 0 155 63l62 -147q-82 -121 -234 -121q-52 0 -144.5 35.5t-152.5 35.5q-69 0 -135 -55z" />
    <glyph glyph-name="Ograve" unicode="&#xd2;" horiz-adv-x="1687" 
d="M209 645q0 169 59.5 317.5t165.5 258t263 172.5t343 63q201 0 357.5 -79.5t245 -229.5t88.5 -348q0 -172 -57.5 -322t-161 -261t-257.5 -175t-337 -64q-169 0 -305 52t-223.5 143t-134 212t-46.5 261zM481 659q0 -203 124.5 -324.5t322.5 -121.5q236 0 383 157t147 408
q0 199 -119.5 321t-320.5 122q-156 0 -279.5 -74t-190.5 -202t-67 -286zM1294 1497l-460 166l88 203l438 -228z" />
    <glyph glyph-name="Oacute" unicode="&#xd3;" horiz-adv-x="1687" 
d="M209 645q0 169 59.5 317.5t165.5 258t263 172.5t343 63q201 0 357.5 -79.5t245 -229.5t88.5 -348q0 -172 -57.5 -322t-161 -261t-257.5 -175t-337 -64q-169 0 -305 52t-223.5 143t-134 212t-46.5 261zM481 659q0 -203 124.5 -324.5t322.5 -121.5q236 0 383 157t147 408
q0 199 -119.5 321t-320.5 122q-156 0 -279.5 -74t-190.5 -202t-67 -286zM1423 1663l-460 -166l-66 141l438 228z" />
    <glyph glyph-name="Ocircumflex" unicode="&#xd4;" horiz-adv-x="1687" 
d="M209 645q0 169 59.5 317.5t165.5 258t263 172.5t343 63q201 0 357.5 -79.5t245 -229.5t88.5 -348q0 -172 -57.5 -322t-161 -261t-257.5 -175t-337 -64q-169 0 -305 52t-223.5 143t-134 212t-46.5 261zM481 659q0 -203 124.5 -324.5t322.5 -121.5q236 0 383 157t147 408
q0 199 -119.5 321t-320.5 122q-156 0 -279.5 -74t-190.5 -202t-67 -286zM1157 1860l332 -228l-113 -131l-243 162l-312 -162l-67 139l395 220h8z" />
    <glyph glyph-name="Otilde" unicode="&#xd5;" horiz-adv-x="1687" 
d="M209 645q0 169 59.5 317.5t165.5 258t263 172.5t343 63q201 0 357.5 -79.5t245 -229.5t88.5 -348q0 -172 -57.5 -322t-161 -261t-257.5 -175t-337 -64q-169 0 -305 52t-223.5 143t-134 212t-46.5 261zM481 659q0 -203 124.5 -324.5t322.5 -121.5q236 0 383 157t147 408
q0 199 -119.5 321t-320.5 122q-156 0 -279.5 -74t-190.5 -202t-67 -286zM838 1542l-74 148q44 52 106 82t123 30q63 0 151 -35.5t142 -35.5q98 0 156 63l61 -147q-82 -121 -233 -121q-52 0 -144.5 35.5t-152.5 35.5q-69 0 -135 -55z" />
    <glyph glyph-name="Odieresis" unicode="&#xd6;" horiz-adv-x="1687" 
d="M209 645q0 169 59.5 317.5t165.5 258t263 172.5t343 63q201 0 357.5 -79.5t245 -229.5t88.5 -348q0 -172 -57.5 -322t-161 -261t-257.5 -175t-337 -64q-169 0 -305 52t-223.5 143t-134 212t-46.5 261zM481 659q0 -203 124.5 -324.5t322.5 -121.5q236 0 383 157t147 408
q0 199 -119.5 321t-320.5 122q-156 0 -279.5 -74t-190.5 -202t-67 -286zM1237 1681q0 55 42 89t103 34q60 0 101 -33.5t41 -87.5q0 -56 -39 -92.5t-103 -36.5q-65 0 -105 34.5t-40 92.5zM748 1681q0 55 42 89t103 34t101 -33t40 -88q0 -56 -38.5 -92.5t-102.5 -36.5
q-65 0 -105 34.5t-40 92.5z" />
    <glyph glyph-name="multiply" unicode="&#xd7;" 
d="M328 999l145 146l262 -264l262 264l146 -146l-262 -262l264 -264l-146 -145l-264 264l-264 -264l-145 145l264 264z" />
    <glyph glyph-name="Oslash" unicode="&#xd8;" horiz-adv-x="1687" 
d="M209 645q0 169 59.5 317.5t165.5 258t263 172.5t343 63q279 0 465 -153l113 94l117 -142l-107 -88q103 -159 103 -368q0 -172 -57.5 -322t-161 -261t-257.5 -175t-337 -64q-318 0 -510 179l-127 -107l-117 141l131 109q-86 151 -86 346zM1458 778q0 116 -45 211
l-799 -663q119 -113 314 -113q236 0 383 157t147 408zM481 659q0 -105 33 -178l784 649q-115 91 -280 91q-156 0 -279.5 -74t-190.5 -202t-67 -286z" />
    <glyph glyph-name="Ugrave" unicode="&#xd9;" horiz-adv-x="1533" 
d="M1610 1434l-148 -840q-27 -150 -76.5 -261t-129.5 -192.5t-196 -122.5t-269 -41q-262 0 -401.5 150t-108.5 428q0 33 6 70l143 809h252l-137 -775q-8 -36 -8 -71q-18 -180 50.5 -277.5t231.5 -97.5q91 0 161 31t117 90.5t76.5 135t47.5 175.5l139 789h250zM1227 1497
l-461 166l88 203l438 -228z" />
    <glyph glyph-name="Uacute" unicode="&#xda;" horiz-adv-x="1533" 
d="M1610 1434l-148 -840q-27 -150 -76.5 -261t-129.5 -192.5t-196 -122.5t-269 -41q-262 0 -401.5 150t-108.5 428q0 33 6 70l143 809h252l-137 -775q-8 -36 -8 -71q-18 -180 50.5 -277.5t231.5 -97.5q91 0 161 31t117 90.5t76.5 135t47.5 175.5l139 789h250zM1419 1663
l-461 -166l-65 141l438 228z" />
    <glyph glyph-name="Ucircumflex" unicode="&#xdb;" horiz-adv-x="1533" 
d="M1610 1434l-148 -840q-27 -150 -76.5 -261t-129.5 -192.5t-196 -122.5t-269 -41q-262 0 -401.5 150t-108.5 428q0 33 6 70l143 809h252l-137 -775q-8 -36 -8 -71q-18 -180 50.5 -277.5t231.5 -97.5q91 0 161 31t117 90.5t76.5 135t47.5 175.5l139 789h250zM1083 1860
l332 -228l-112 -131l-244 162l-311 -162l-68 139l395 220h8z" />
    <glyph glyph-name="Udieresis" unicode="&#xdc;" horiz-adv-x="1533" 
d="M1610 1434l-148 -840q-27 -150 -76.5 -261t-129.5 -192.5t-196 -122.5t-269 -41q-262 0 -401.5 150t-108.5 428q0 33 6 70l143 809h252l-137 -775q-8 -36 -8 -71q-18 -180 50.5 -277.5t231.5 -97.5q91 0 161 31t117 90.5t76.5 135t47.5 175.5l139 789h250zM1159 1681
q0 55 42.5 89t103.5 34q60 0 100.5 -33.5t40.5 -87.5q0 -56 -38.5 -92.5t-102.5 -36.5q-65 0 -105.5 34.5t-40.5 92.5zM670 1681q0 55 42 89t103 34t101 -33t40 -88q0 -56 -38.5 -92.5t-102.5 -36.5q-65 0 -105 34.5t-40 92.5z" />
    <glyph glyph-name="Yacute" unicode="&#xdd;" horiz-adv-x="1257" 
d="M1503 1434l-647 -836l-104 -598h-252l104 598l-348 836h266l240 -594l448 594h293zM1262 1663l-461 -166l-66 141l439 228z" />
    <glyph glyph-name="Thorn" unicode="&#xde;" horiz-adv-x="1255" 
d="M451 0h-252l252 1434h251l-36 -211q18 0 78.5 2t76.5 2q128 0 223.5 -30.5t151 -85.5t82.5 -123.5t27 -151.5q0 -239 -163.5 -387t-441.5 -148q-115 0 -194 8zM799 991q-59 0 -176 -6l-76 -438q98 -10 176 -10q146 0 228.5 73.5t82.5 198.5q0 87 -54.5 134.5t-180.5 47.5
z" />
    <glyph glyph-name="germandbls" unicode="&#xdf;" horiz-adv-x="1105" 
d="M866 336q0 44 -26 85t-63 74.5t-74 68t-63 79t-26 94.5q0 65 24 118t58 87t68 64t58 65.5t24 75.5q0 44 -34 70t-87 26q-86 0 -129.5 -55.5t-63.5 -167.5l-176 -1022h-231l176 1026q18 102 48.5 177t82 134.5t131.5 90t189 30.5q149 0 243.5 -74.5t94.5 -193.5
q0 -61 -24 -110t-58 -81.5t-68 -63t-58 -70t-24 -87.5q0 -39 26 -74.5t62.5 -66.5t73 -66.5t62.5 -90.5t26 -122q0 -160 -104.5 -269.5t-274.5 -109.5q-181 0 -276 125l104 168q63 -82 160 -82q70 0 109.5 40t39.5 108z" />
    <glyph glyph-name="agrave" unicode="&#xe0;" horiz-adv-x="1077" 
d="M942 0h-231l45 260q-177 -283 -383 -283q-122 0 -184 87t-62 231q0 183 81 331.5t225 233t321 84.5q99 0 190.5 -23t138.5 -51zM485 188q55 0 124 68t121 156t75 161l29 146q-47 12 -103 12q-160 0 -261 -110t-101 -271q0 -77 29.5 -119.5t86.5 -42.5zM793 1079l-261 293
l187 139l215 -333z" />
    <glyph glyph-name="aacute" unicode="&#xe1;" horiz-adv-x="1077" 
d="M942 0h-231l45 260q-177 -283 -383 -283q-122 0 -184 87t-62 231q0 183 81 331.5t225 233t321 84.5q99 0 190.5 -23t138.5 -51zM485 188q55 0 124 68t121 156t75 161l29 146q-47 12 -103 12q-160 0 -261 -110t-101 -271q0 -77 29.5 -119.5t86.5 -42.5zM1085 1378
l-260 -299l-139 99l215 342z" />
    <glyph glyph-name="acircumflex" unicode="&#xe2;" horiz-adv-x="1077" 
d="M942 0h-231l45 260q-177 -283 -383 -283q-122 0 -184 87t-62 231q0 183 81 331.5t225 233t321 84.5q99 0 190.5 -23t138.5 -51zM485 188q55 0 124 68t121 156t75 161l29 146q-47 12 -103 12q-160 0 -261 -110t-101 -271q0 -77 29.5 -119.5t86.5 -42.5zM823 1473l271 -289
l-125 -125l-174 188l-242 -188l-98 139l360 275h8z" />
    <glyph glyph-name="atilde" unicode="&#xe3;" horiz-adv-x="1077" 
d="M942 0h-231l45 260q-177 -283 -383 -283q-122 0 -184 87t-62 231q0 183 81 331.5t225 233t321 84.5q99 0 190.5 -23t138.5 -51zM485 188q55 0 124 68t121 156t75 161l29 146q-47 12 -103 12q-160 0 -261 -110t-101 -271q0 -77 29.5 -119.5t86.5 -42.5zM526 1122l-94 107
q112 141 248 141q50 0 122 -43t113 -43q29 0 54.5 9.5t37.5 17.5t50 37l78 -119q-117 -133 -238 -133q-45 0 -119.5 42t-120.5 42q-45 0 -131 -58z" />
    <glyph glyph-name="adieresis" unicode="&#xe4;" horiz-adv-x="1077" 
d="M942 0h-231l45 260q-177 -283 -383 -283q-122 0 -184 87t-62 231q0 183 81 331.5t225 233t321 84.5q99 0 190.5 -23t138.5 -51zM485 188q55 0 124 68t121 156t75 161l29 146q-47 12 -103 12q-160 0 -261 -110t-101 -271q0 -77 29.5 -119.5t86.5 -42.5zM455 1239
q0 51 36.5 87t90.5 36q53 0 89 -34t36 -87q0 -58 -35.5 -95.5t-89.5 -37.5q-57 0 -92 35.5t-35 95.5zM868 1239q0 50 37 86.5t92 36.5q53 0 89 -34t36 -87q0 -58 -35.5 -95.5t-89.5 -37.5q-57 0 -93 36t-36 95z" />
    <glyph glyph-name="aring" unicode="&#xe5;" horiz-adv-x="1077" 
d="M942 0h-231l45 260q-177 -283 -383 -283q-122 0 -184 87t-62 231q0 183 81 331.5t225 233t321 84.5q99 0 190.5 -23t138.5 -51zM485 188q55 0 124 68t121 156t75 161l29 146q-47 12 -103 12q-160 0 -261 -110t-101 -271q0 -77 29.5 -119.5t86.5 -42.5zM532 1274
q0 102 73.5 174t182.5 72q113 0 188 -71.5t75 -174.5q0 -102 -75 -173t-188 -71q-109 0 -182.5 71t-73.5 173zM682 1276q0 -50 31 -83.5t80 -33.5q47 0 76.5 33.5t29.5 83.5q0 48 -30 81.5t-76 33.5q-49 0 -80 -33.5t-31 -81.5z" />
    <glyph glyph-name="ae" unicode="&#xe6;" horiz-adv-x="1622" 
d="M778 272q-31 -48 -58.5 -84t-68 -78t-80 -69t-92 -45.5t-108.5 -18.5q-120 0 -182 87.5t-62 234.5q0 179 80.5 326.5t224.5 233t322 85.5q168 0 295 -78q71 42 139 60t155 18q161 0 232.5 -68.5t69.5 -173.5q-1 -107 -79.5 -183.5t-220.5 -118.5t-344 -52q6 -86 61 -129
t144 -43q118 0 258 100l99 -131q-73 -74 -177 -121t-223 -47q-167 0 -264.5 80t-120.5 215zM485 188q54 0 121.5 66t119.5 151.5t79 161.5q28 95 53 138q-53 26 -143 26q-147 0 -246.5 -111.5t-99.5 -269.5q0 -77 29.5 -119.5t86.5 -42.5zM1313 743q-110 0 -189.5 -70
t-107.5 -175q390 26 393 166q2 35 -23 57t-73 22z" />
    <glyph glyph-name="ccedilla" unicode="&#xe7;" horiz-adv-x="942" 
d="M197 -338l90 109q57 -54 141 -54q35 0 57.5 17t22.5 45q0 47 -76 47h-12l29 158q-154 18 -236 121.5t-82 248.5q0 156 69.5 290t200.5 217t295 83q206 0 295 -92l-119 -188q-71 59 -190 59q-125 0 -211 -93t-86 -229q0 -92 52 -148t136 -56q66 0 125 29t123 79l88 -162
q-64 -68 -153 -111t-189 -52l-8 -52q90 -6 137 -43t47 -102q0 -96 -81 -152.5t-230 -56.5q-147 0 -235 88z" />
    <glyph glyph-name="egrave" unicode="&#xe8;" horiz-adv-x="983" 
d="M825 276l99 -131q-74 -74 -176.5 -121t-223.5 -47q-191 0 -294 103.5t-103 267.5q0 116 40 223t111.5 190t180 133t237.5 50q154 0 233 -62.5t77 -179.5q0 -159 -169 -249.5t-475 -104.5q6 -86 59.5 -129t145.5 -43q118 0 258 100zM674 743q-109 0 -189.5 -70
t-107.5 -175q192 12 292.5 54.5t100.5 111.5q1 37 -25.5 58t-70.5 21zM801 1079l-260 293l186 139l215 -333z" />
    <glyph glyph-name="eacute" unicode="&#xe9;" horiz-adv-x="983" 
d="M825 276l99 -131q-74 -74 -176.5 -121t-223.5 -47q-191 0 -294 103.5t-103 267.5q0 116 40 223t111.5 190t180 133t237.5 50q154 0 233 -62.5t77 -179.5q0 -159 -169 -249.5t-475 -104.5q6 -86 59.5 -129t145.5 -43q118 0 258 100zM674 743q-109 0 -189.5 -70
t-107.5 -175q192 12 292.5 54.5t100.5 111.5q1 37 -25.5 58t-70.5 21zM1063 1378l-260 -299l-139 99l215 342z" />
    <glyph glyph-name="ecircumflex" unicode="&#xea;" horiz-adv-x="983" 
d="M825 276l99 -131q-74 -74 -176.5 -121t-223.5 -47q-191 0 -294 103.5t-103 267.5q0 116 40 223t111.5 190t180 133t237.5 50q154 0 233 -62.5t77 -179.5q0 -159 -169 -249.5t-475 -104.5q6 -86 59.5 -129t145.5 -43q118 0 258 100zM674 743q-109 0 -189.5 -70
t-107.5 -175q192 12 292.5 54.5t100.5 111.5q1 37 -25.5 58t-70.5 21zM791 1473l270 -289l-125 -125l-174 188l-242 -188l-98 139l360 275h9z" />
    <glyph glyph-name="edieresis" unicode="&#xeb;" horiz-adv-x="983" 
d="M825 276l99 -131q-74 -74 -176.5 -121t-223.5 -47q-191 0 -294 103.5t-103 267.5q0 116 40 223t111.5 190t180 133t237.5 50q154 0 233 -62.5t77 -179.5q0 -159 -169 -249.5t-475 -104.5q6 -86 59.5 -129t145.5 -43q118 0 258 100zM674 743q-109 0 -189.5 -70
t-107.5 -175q192 12 292.5 54.5t100.5 111.5q1 37 -25.5 58t-70.5 21zM401 1239q0 51 36.5 87t90.5 36q53 0 89 -34t36 -87q0 -58 -35.5 -95.5t-89.5 -37.5q-57 0 -92 35.5t-35 95.5zM815 1239q0 50 37 86.5t92 36.5q53 0 89 -34t36 -87q0 -58 -35.5 -95.5t-89.5 -37.5
q-58 0 -93.5 36t-35.5 95z" />
    <glyph glyph-name="igrave" unicode="&#xec;" horiz-adv-x="542" 
d="M135 0l158 922h233l-159 -922h-232zM451 1079l-261 293l187 139l215 -333z" />
    <glyph glyph-name="iacute" unicode="&#xed;" horiz-adv-x="542" 
d="M135 0l158 922h233l-159 -922h-232zM756 1378l-260 -299l-140 99l215 342z" />
    <glyph glyph-name="icircumflex" unicode="&#xee;" horiz-adv-x="542" 
d="M135 0l158 922h233l-159 -922h-232zM512 1473l270 -289l-125 -125l-174 188l-241 -188l-99 139l361 275h8z" />
    <glyph glyph-name="idieresis" unicode="&#xef;" horiz-adv-x="542" 
d="M510 1237q0 48 35 83.5t88 35.5q50 0 83.5 -33t33.5 -84q0 -54 -33.5 -90.5t-85.5 -36.5q-54 0 -87.5 34.5t-33.5 90.5zM188 1237q0 48 35 83.5t88 35.5q50 0 84.5 -33.5t34.5 -83.5q0 -54 -34 -90.5t-85 -36.5q-55 0 -89 34.5t-34 90.5zM135 0l158 922h231l-157 -922
h-232z" />
    <glyph glyph-name="eth" unicode="&#xf0;" horiz-adv-x="1112" 
d="M369 406q0 -97 51 -157.5t139 -60.5q135 0 218.5 119.5t99.5 300.5q-75 113 -226 113q-130 0 -206 -89t-76 -226zM774 1110l-254 -115l-43 191l172 84q-88 84 -164 131l265 53q64 -33 129 -94l198 92l37 -192l-119 -58q117 -177 123 -399q3 -56 0 -115
q-5 -151 -44.5 -279t-111.5 -225t-184.5 -152t-253.5 -55q-185 0 -291 107t-106 278q0 115 38 218t107 182t174.5 125.5t233.5 46.5q117 0 192 -60q-9 64 -35.5 127.5t-62.5 108.5z" />
    <glyph glyph-name="ntilde" unicode="&#xf1;" horiz-adv-x="1089" 
d="M410 352l-62 -352h-231l157 922h234l-45 -250q38 54 79 98.5t92.5 85.5t111.5 64.5t122 23.5q99 0 148 -61.5t49 -153.5q0 -93 -18 -192l-101 -537h-231l94 502q14 82 14 131q-2 43 -16.5 66.5t-52.5 23.5q-58 0 -132 -65t-129.5 -149.5t-82.5 -156.5zM512 1122l-94 107
q112 141 248 141q50 0 122 -43t113 -43q10 0 18.5 0.5t18 3t15 3.5t15 6.5t13 7t14.5 9t13.5 9.5t16.5 12.5t17 12.5l78 -119q-117 -133 -237 -133q-45 0 -119.5 42t-120.5 42q-45 0 -131 -58z" />
    <glyph glyph-name="ograve" unicode="&#xf2;" horiz-adv-x="1071" 
d="M127 362q0 118 37 222.5t106 185t176.5 127.5t239.5 47q181 0 281 -105.5t100 -275.5q0 -169 -63.5 -301t-188 -208.5t-291.5 -76.5q-185 0 -291 107t-106 278zM369 406q0 -100 52 -159t142 -59q121 0 191.5 93t70.5 237q0 98 -46 155.5t-136 57.5q-123 0 -198.5 -91
t-75.5 -234zM719 1079l-260 293l186 139l215 -333z" />
    <glyph glyph-name="oacute" unicode="&#xf3;" horiz-adv-x="1071" 
d="M127 362q0 118 37 222.5t106 185t176.5 127.5t239.5 47q181 0 281 -105.5t100 -275.5q0 -169 -63.5 -301t-188 -208.5t-291.5 -76.5q-185 0 -291 107t-106 278zM369 406q0 -100 52 -159t142 -59q121 0 191.5 93t70.5 237q0 98 -46 155.5t-136 57.5q-123 0 -198.5 -91
t-75.5 -234zM1047 1378l-261 -299l-139 99l215 342z" />
    <glyph glyph-name="ocircumflex" unicode="&#xf4;" horiz-adv-x="1071" 
d="M127 362q0 118 37 222.5t106 185t176.5 127.5t239.5 47q181 0 281 -105.5t100 -275.5q0 -169 -63.5 -301t-188 -208.5t-291.5 -76.5q-185 0 -291 107t-106 278zM369 406q0 -100 52 -159t142 -59q121 0 191.5 93t70.5 237q0 98 -46 155.5t-136 57.5q-123 0 -198.5 -91
t-75.5 -234zM778 1473l271 -289l-125 -125l-174 188l-242 -188l-98 139l360 275h8z" />
    <glyph glyph-name="otilde" unicode="&#xf5;" horiz-adv-x="1071" 
d="M127 362q0 118 37 222.5t106 185t176.5 127.5t239.5 47q181 0 281 -105.5t100 -275.5q0 -169 -63.5 -301t-188 -208.5t-291.5 -76.5q-185 0 -291 107t-106 278zM369 406q0 -100 52 -159t142 -59q121 0 191.5 93t70.5 237q0 98 -46 155.5t-136 57.5q-123 0 -198.5 -91
t-75.5 -234zM489 1122l-94 107q112 141 248 141q49 0 122 -43t114 -43q10 0 18.5 0.5t18 3t15 3.5t15 6.5t13 7t14.5 9t13.5 9.5t16.5 12.5t17 12.5l78 -119q-117 -133 -238 -133q-45 0 -119 42t-120 42t-132 -58z" />
    <glyph glyph-name="odieresis" unicode="&#xf6;" horiz-adv-x="1071" 
d="M127 362q0 118 37 222.5t106 185t176.5 127.5t239.5 47q181 0 281 -105.5t100 -275.5q0 -169 -63.5 -301t-188 -208.5t-291.5 -76.5q-185 0 -291 107t-106 278zM369 406q0 -100 52 -159t142 -59q121 0 191.5 93t70.5 237q0 98 -46 155.5t-136 57.5q-123 0 -198.5 -91
t-75.5 -234zM414 1239q0 51 36 87t91 36q53 0 89 -34t36 -87q0 -58 -35.5 -95.5t-89.5 -37.5q-57 0 -92 35.5t-35 95.5zM827 1239q0 50 37 86.5t92 36.5q53 0 89 -34t36 -87q0 -58 -35.5 -95.5t-89.5 -37.5q-58 0 -93.5 36t-35.5 95z" />
    <glyph glyph-name="divide" unicode="&#xf7;" 
d="M596 1141q0 52 37.5 92.5t101.5 40.5q61 0 99 -41t38 -92q0 -58 -37.5 -101t-99.5 -43q-64 0 -101.5 42.5t-37.5 101.5zM596 336q0 52 37.5 92.5t101.5 40.5q60 0 98.5 -41t38.5 -92q0 -58 -37.5 -100.5t-99.5 -42.5q-64 0 -101.5 42t-37.5 101zM260 635v205h950v-205
h-950z" />
    <glyph glyph-name="oslash" unicode="&#xf8;" horiz-adv-x="1071" 
d="M127 362q0 118 37 222.5t106 185t176.5 127.5t239.5 47q156 0 256 -84l80 72l94 -113l-86 -76q37 -78 37 -180q0 -169 -63.5 -301t-188 -208.5t-291.5 -76.5q-165 0 -266 84l-94 -84l-94 113l96 86q-39 86 -39 186zM825 518q0 29 -2 43l-381 -336q49 -37 121 -37
q121 0 191.5 93t70.5 237zM369 406q0 -20 4 -48l381 336q-43 37 -111 37q-123 0 -198.5 -91t-75.5 -234z" />
    <glyph glyph-name="ugrave" unicode="&#xf9;" horiz-adv-x="1056" 
d="M1065 922l-162 -922h-231l43 248q-179 -271 -387 -271q-104 0 -150.5 62.5t-46.5 159.5q0 73 19 166l116 557h234l-109 -508q-18 -93 -16 -129q0 -88 63 -88q56 0 128 65t127 149.5t77 153.5l61 357h234zM715 1079l-260 293l186 139l215 -333z" />
    <glyph glyph-name="uacute" unicode="&#xfa;" horiz-adv-x="1056" 
d="M1065 922l-162 -922h-231l43 248q-179 -271 -387 -271q-104 0 -150.5 62.5t-46.5 159.5q0 73 19 166l116 557h234l-109 -508q-18 -93 -16 -129q0 -88 63 -88q56 0 128 65t127 149.5t77 153.5l61 357h234zM1016 1378l-260 -299l-140 99l215 342z" />
    <glyph glyph-name="ucircumflex" unicode="&#xfb;" horiz-adv-x="1056" 
d="M1065 922l-162 -922h-231l43 248q-179 -271 -387 -271q-104 0 -150.5 62.5t-46.5 159.5q0 73 19 166l116 557h234l-109 -508q-18 -93 -16 -129q0 -88 63 -88q56 0 128 65t127 149.5t77 153.5l61 357h234zM772 1473l270 -289l-124 -125l-175 188l-241 -188l-99 139
l361 275h8z" />
    <glyph glyph-name="udieresis" unicode="&#xfc;" horiz-adv-x="1056" 
d="M1065 922l-162 -922h-231l43 248q-179 -271 -387 -271q-104 0 -150.5 62.5t-46.5 159.5q0 73 19 166l116 557h234l-109 -508q-18 -93 -16 -129q0 -88 63 -88q56 0 128 65t127 149.5t77 153.5l61 357h234zM408 1239q0 51 36 87t91 36q53 0 88.5 -34t35.5 -87
q0 -58 -35 -95.5t-89 -37.5q-57 0 -92 35.5t-35 95.5zM821 1239q0 50 37 86.5t92 36.5q53 0 89 -34t36 -87q0 -58 -35.5 -95.5t-89.5 -37.5q-58 0 -93.5 36t-35.5 95z" />
    <glyph glyph-name="yacute" unicode="&#xfd;" horiz-adv-x="907" 
d="M727 922h248q-66 -277 -152 -515t-188 -422t-221 -289.5t-238 -105.5q-117 0 -199 72l107 178q52 -33 94 -33q111 0 209 189q-32 182 -113.5 432.5t-183.5 493.5h264q51 -120 109.5 -309t87.5 -328q56 137 105 310.5t71 326.5zM895 1378l-260 -299l-139 99l215 342z" />
    <glyph glyph-name="thorn" unicode="&#xfe;" horiz-adv-x="1095" 
d="M344 -4l-70 -406h-233q72 415 88 498l233 1346h232l-133 -764q48 73 102.5 130.5t133 100.5t159.5 43q82 0 137 -48.5t77 -117.5t22 -153q0 -103 -28 -200t-81 -178t-125.5 -141.5t-167 -94.5t-198.5 -34q-70 0 -148 19zM735 731q-55 0 -126.5 -70t-124.5 -156t-76 -153
l-25 -131q57 -33 127 -33q148 0 246 112t98 271q0 71 -30.5 115.5t-88.5 44.5z" />
    <glyph glyph-name="ydieresis" unicode="&#xff;" horiz-adv-x="907" 
d="M727 922h248q-66 -277 -152 -515t-188 -422t-221 -289.5t-238 -105.5q-117 0 -199 72l107 178q52 -33 94 -33q111 0 209 189q-32 182 -113.5 432.5t-183.5 493.5h264q51 -120 109.5 -309t87.5 -328q56 137 105 310.5t71 326.5zM256 1239q0 51 36 87t91 36q53 0 89 -34
t36 -87q0 -58 -35.5 -95.5t-89.5 -37.5q-57 0 -92 35.5t-35 95.5zM670 1239q0 50 37 86.5t92 36.5q53 0 89 -34t36 -87q0 -58 -35.5 -95.5t-89.5 -37.5q-57 0 -93 36t-36 95z" />
    <glyph glyph-name="Amacron" unicode="&#x100;" horiz-adv-x="1443" 
d="M14 0l850 1438h219l344 -1438h-251l-89 367h-589l-213 -367h-271zM920 1112l-287 -510h399zM678 1556l33 189h632l-32 -189h-633z" />
    <glyph glyph-name="amacron" unicode="&#x101;" horiz-adv-x="1077" 
d="M942 0h-231l45 260q-177 -283 -383 -283q-122 0 -184 87t-62 231q0 183 81 331.5t225 233t321 84.5q99 0 190.5 -23t138.5 -51zM485 188q55 0 124 68t121 156t75 161l29 146q-47 12 -103 12q-160 0 -261 -110t-101 -271q0 -77 29.5 -119.5t86.5 -42.5zM492 1147l32 188
h572l-33 -188h-571z" />
    <glyph glyph-name="Abreve" unicode="&#x102;" horiz-adv-x="1443" 
d="M14 0l850 1438h219l344 -1438h-251l-89 367h-589l-213 -367h-271zM920 1112l-287 -510h399zM625 1720l127 123q96 -129 270 -129q178 0 309 127l78 -133q-68 -87 -178.5 -143t-235.5 -56q-132 0 -229 57.5t-141 153.5z" />
    <glyph glyph-name="abreve" unicode="&#x103;" horiz-adv-x="1077" 
d="M942 0h-231l45 260q-177 -283 -383 -283q-122 0 -184 87t-62 231q0 183 81 331.5t225 233t321 84.5q99 0 190.5 -23t138.5 -51zM485 188q55 0 124 68t121 156t75 161l29 146q-47 12 -103 12q-160 0 -261 -110t-101 -271q0 -77 29.5 -119.5t86.5 -42.5zM489 1298l123 117
q18 -24 31.5 -39t39 -35t59.5 -30.5t75 -10.5q71 0 138 33.5t112 79.5l74 -125q-156 -178 -348 -178q-122 0 -197.5 57t-106.5 131z" />
    <glyph glyph-name="Aogonek" unicode="&#x104;" horiz-adv-x="1443" 
d="M1313 -207l55 -147q-75 -62 -225 -62q-107 0 -178.5 46t-71.5 130q0 93 76 155.5t202 92.5l-84 359h-589l-213 -367h-271l850 1438h219l344 -1438h-38q-95 -2 -169.5 -47.5t-74.5 -106.5q0 -36 24.5 -53.5t59.5 -17.5q41 0 84 18zM920 1112l-287 -510h399z" />
    <glyph glyph-name="aogonek" unicode="&#x105;" horiz-adv-x="1077" 
d="M858 -207l53 -145q-77 -64 -231 -64q-104 0 -173 45t-69 135q0 89 76.5 152.5t198.5 93.5l43 250q-177 -283 -383 -283q-122 0 -184 87t-62 231q0 183 81 331.5t225 233t321 84.5q99 0 190.5 -23t138.5 -51l-141 -870h-18q-95 -3 -165.5 -48t-70.5 -106q0 -36 23.5 -53.5
t60.5 -17.5q42 0 86 18zM485 188q55 0 124 68t121 156t75 161l29 146q-47 12 -103 12q-160 0 -261 -110t-101 -271q0 -77 29.5 -119.5t86.5 -42.5z" />
    <glyph glyph-name="Cacute" unicode="&#x106;" horiz-adv-x="1357" 
d="M1286 319l96 -192q-80 -70 -207 -110t-257 -40q-317 0 -513 184t-196 488q0 128 36 247t108 220.5t172.5 177.5t239 119t298.5 43q144 0 262 -35.5t182 -95.5l-129 -188q-128 84 -323 84q-127 0 -235 -43t-182 -117t-115.5 -174t-41.5 -213q0 -207 122.5 -334t336.5 -127
q201 0 346 106zM1395 1663l-461 -166l-66 141l439 228z" />
    <glyph glyph-name="cacute" unicode="&#x107;" horiz-adv-x="925" 
d="M791 289l102 -144q-69 -75 -170.5 -121.5t-218.5 -46.5q-183 0 -280 102.5t-97 266.5q0 115 38 221.5t108 191t180.5 135t244.5 50.5q173 0 258 -55l-77 -187q-79 29 -191 29q-146 0 -231.5 -101.5t-85.5 -248.5q0 -89 47 -141t133 -52q109 0 240 101zM1026 1378
l-260 -299l-139 99l215 342z" />
    <glyph glyph-name="Ccircumflex" unicode="&#x108;" horiz-adv-x="1357" 
d="M1286 319l96 -192q-80 -70 -207 -110t-257 -40q-317 0 -513 184t-196 488q0 128 36 247t108 220.5t172.5 177.5t239 119t298.5 43q144 0 262 -35.5t182 -95.5l-129 -188q-128 84 -323 84q-127 0 -235 -43t-182 -117t-115.5 -174t-41.5 -213q0 -207 122.5 -334t336.5 -127
q201 0 346 106zM1124 1860l332 -228l-113 -131l-243 162l-312 -162l-67 139l395 220h8z" />
    <glyph glyph-name="ccircumflex" unicode="&#x109;" horiz-adv-x="925" 
d="M791 289l102 -144q-69 -75 -170.5 -121.5t-218.5 -46.5q-183 0 -280 102.5t-97 266.5q0 115 38 221.5t108 191t180.5 135t244.5 50.5q173 0 258 -55l-77 -187q-79 29 -191 29q-146 0 -231.5 -101.5t-85.5 -248.5q0 -89 47 -141t133 -52q109 0 240 101zM786 1473l271 -289
l-125 -125l-174 188l-242 -188l-98 139l360 275h8z" />
    <glyph glyph-name="Cdotaccent" unicode="&#x10a;" horiz-adv-x="1357" 
d="M1286 319l96 -192q-80 -70 -207 -110t-257 -40q-317 0 -513 184t-196 488q0 128 36 247t108 220.5t172.5 177.5t239 119t298.5 43q144 0 262 -35.5t182 -95.5l-129 -188q-128 84 -323 84q-127 0 -235 -43t-182 -117t-115.5 -174t-41.5 -213q0 -207 122.5 -334t336.5 -127
q201 0 346 106zM930 1702q0 65 46.5 104t113.5 39q62 0 108.5 -39.5t46.5 -103.5q0 -71 -46 -112.5t-109 -41.5q-68 0 -114 41t-46 113z" />
    <glyph glyph-name="cdotaccent" unicode="&#x10b;" horiz-adv-x="925" 
d="M791 289l102 -144q-69 -75 -170.5 -121.5t-218.5 -46.5q-183 0 -280 102.5t-97 266.5q0 115 38 221.5t108 191t180.5 135t244.5 50.5q173 0 258 -55l-77 -187q-79 29 -191 29q-146 0 -231.5 -101.5t-85.5 -248.5q0 -89 47 -141t133 -52q109 0 240 101zM633 1274
q0 61 41.5 98t101.5 37q56 0 99 -37.5t43 -97.5q0 -67 -43 -107.5t-99 -40.5q-61 0 -102 40t-41 108z" />
    <glyph glyph-name="Ccaron" unicode="&#x10c;" horiz-adv-x="1357" 
d="M1286 319l96 -192q-80 -70 -207 -110t-257 -40q-317 0 -513 184t-196 488q0 128 36 247t108 220.5t172.5 177.5t239 119t298.5 43q144 0 262 -35.5t182 -95.5l-129 -188q-128 84 -323 84q-127 0 -235 -43t-182 -117t-115.5 -174t-41.5 -213q0 -207 122.5 -334t336.5 -127
q201 0 346 106zM1065 1505l-332 226l113 135l244 -162l311 162l67 -142l-395 -219h-8z" />
    <glyph glyph-name="ccaron" unicode="&#x10d;" horiz-adv-x="925" 
d="M791 289l102 -144q-69 -75 -170.5 -121.5t-218.5 -46.5q-183 0 -280 102.5t-97 266.5q0 115 38 221.5t108 191t180.5 135t244.5 50.5q173 0 258 -55l-77 -187q-79 29 -191 29q-146 0 -231.5 -101.5t-85.5 -248.5q0 -89 47 -141t133 -52q109 0 240 101zM713 1061l-271 287
l125 129l174 -191l242 189l98 -142l-360 -272h-8z" />
    <glyph glyph-name="Dcaron" unicode="&#x10e;" horiz-adv-x="1523" 
d="M199 0l252 1434h26q41 0 191 3t202 3q183 0 320 -46.5t218.5 -130t121 -190.5t39.5 -237q0 -179 -63 -332t-181.5 -266t-300.5 -177.5t-408 -64.5q-46 0 -183.5 2t-205.5 2h-28zM836 1204q-88 0 -174 -6l-170 -962q85 -5 161 -5q296 0 469.5 157t173.5 425
q0 189 -114 290t-346 101zM958 1505l-331 226l112 135l244 -162l311 162l68 -142l-395 -219h-9z" />
    <glyph glyph-name="dcaron" unicode="&#x10f;" horiz-adv-x="1124" 
d="M735 0l43 256q-34 -53 -73 -97.5t-90.5 -88t-114.5 -68.5t-129 -25q-117 0 -180.5 86.5t-63.5 229.5q0 127 44.5 245t122.5 208t192 144t245 54q89 0 156 -20l88 510h235l-245 -1434h-230zM489 188q55 0 130 69t131.5 155t76.5 149l27 139q-57 31 -137 31
q-148 0 -248 -112.5t-100 -268.5q0 -75 30 -118.5t90 -43.5zM1393 1434h229q2 -10 2 -41q0 -70 -24 -133.5t-65 -111t-85.5 -82.5t-93.5 -60l-92 100q63 54 100 123t37 139q0 30 -8 66z" />
    <glyph glyph-name="Dcroat" unicode="&#x110;" horiz-adv-x="1523" 
d="M111 608l39 219h194l107 607h26q41 0 192 3t205 3q181 0 317.5 -46.5t217.5 -130t120.5 -190t39.5 -235.5q0 -141 -37.5 -266t-116 -231t-191.5 -182.5t-271.5 -119.5t-348.5 -43q-38 0 -172.5 2t-204.5 2h-28l106 608h-194zM829 1204q-85 0 -167 -6l-66 -371h360
l-38 -219h-361l-65 -372q85 -5 161 -5q296 0 469.5 156t173.5 422q0 395 -467 395z" />
    <glyph glyph-name="dcroat" unicode="&#x111;" horiz-adv-x="1099" 
d="M723 0l43 256q-183 -279 -399 -279q-116 0 -178 86t-62 230q0 127 43.5 245t120 208t188.5 144t240 54q87 0 151 -20l23 141h-260l33 190h260l32 179h232l-31 -179h158l-33 -190h-158l-178 -1065h-225zM483 188q55 0 127.5 69t127 155t73.5 149l27 139q-57 31 -133 31
q-144 0 -242 -112.5t-98 -268.5q0 -75 30 -118.5t88 -43.5z" />
    <glyph glyph-name="Emacron" unicode="&#x112;" horiz-adv-x="1177" 
d="M199 0l252 1434h839l-41 -236h-587l-64 -358h526l-41 -236h-526l-65 -368h608l-41 -236h-860zM575 1556l33 189h633l-33 -189h-633z" />
    <glyph glyph-name="emacron" unicode="&#x113;" horiz-adv-x="983" 
d="M825 276l99 -131q-74 -74 -176.5 -121t-223.5 -47q-191 0 -294 103.5t-103 267.5q0 116 40 223t111.5 190t180 133t237.5 50q154 0 233 -62.5t77 -179.5q0 -159 -169 -249.5t-475 -104.5q6 -86 59.5 -129t145.5 -43q118 0 258 100zM674 743q-109 0 -189.5 -70
t-107.5 -175q192 12 292.5 54.5t100.5 111.5q1 37 -25.5 58t-70.5 21zM449 1147l32 188h572l-33 -188h-571z" />
    <glyph glyph-name="Edotaccent" unicode="&#x116;" horiz-adv-x="1177" 
d="M199 0l252 1434h839l-41 -236h-587l-64 -358h526l-41 -236h-526l-65 -368h608l-41 -236h-860zM762 1702q0 65 46.5 104t113.5 39q62 0 108.5 -39.5t46.5 -103.5q0 -71 -46 -112.5t-109 -41.5q-68 0 -114 41t-46 113z" />
    <glyph glyph-name="edotaccent" unicode="&#x117;" horiz-adv-x="983" 
d="M825 276l99 -131q-74 -74 -176.5 -121t-223.5 -47q-191 0 -294 103.5t-103 267.5q0 116 40 223t111.5 190t180 133t237.5 50q154 0 233 -62.5t77 -179.5q0 -159 -169 -249.5t-475 -104.5q6 -86 59.5 -129t145.5 -43q118 0 258 100zM674 743q-109 0 -189.5 -70
t-107.5 -175q192 12 292.5 54.5t100.5 111.5q1 37 -25.5 58t-70.5 21zM618 1274q0 61 41.5 98t102.5 37q56 0 98.5 -37.5t42.5 -97.5q0 -67 -42.5 -107.5t-98.5 -40.5q-61 0 -102.5 40t-41.5 108z" />
    <glyph glyph-name="Eogonek" unicode="&#x118;" horiz-adv-x="1177" 
d="M199 0l252 1434h839l-41 -236h-587l-64 -358h526l-41 -236h-526l-65 -368h608l-41 -236h-6q-97 -2 -170.5 -47.5t-73.5 -106.5q0 -36 24.5 -53.5t59.5 -17.5q41 0 84 18l55 -147q-75 -62 -225 -62q-107 0 -178.5 46t-71.5 130q0 83 66.5 144t171.5 96h-596z" />
    <glyph glyph-name="eogonek" unicode="&#x119;" horiz-adv-x="983" 
d="M739 -207l54 -145q-36 -30 -97.5 -47t-134.5 -17q-103 0 -172.5 44t-69.5 130q0 123 185 219q-92 2 -165 31.5t-118.5 80t-69.5 116.5t-24 143q0 116 40 223t111.5 190t180 133t237.5 50q154 0 233 -62.5t77 -179.5q0 -159 -169 -249.5t-475 -104.5q6 -86 59.5 -129
t145.5 -43q118 0 258 100l99 -131q-85 -88 -213 -137q-142 -80 -142 -162q0 -36 23.5 -53.5t60.5 -17.5q43 0 86 18zM674 743q-109 0 -189.5 -70t-107.5 -175q192 12 292.5 54.5t100.5 111.5q1 37 -25.5 58t-70.5 21z" />
    <glyph glyph-name="Ecaron" unicode="&#x11a;" horiz-adv-x="1177" 
d="M199 0l252 1434h839l-41 -236h-587l-64 -358h526l-41 -236h-526l-65 -368h608l-41 -236h-860zM883 1505l-332 226l113 135l243 -162l312 162l67 -142l-395 -219h-8z" />
    <glyph glyph-name="ecaron" unicode="&#x11b;" horiz-adv-x="983" 
d="M825 276l99 -131q-74 -74 -176.5 -121t-223.5 -47q-191 0 -294 103.5t-103 267.5q0 116 40 223t111.5 190t180 133t237.5 50q154 0 233 -62.5t77 -179.5q0 -159 -169 -249.5t-475 -104.5q6 -86 59.5 -129t145.5 -43q118 0 258 100zM674 743q-109 0 -189.5 -70
t-107.5 -175q192 12 292.5 54.5t100.5 111.5q1 37 -25.5 58t-70.5 21zM727 1061l-270 287l125 129l174 -191l241 189l99 -142l-361 -272h-8z" />
    <glyph glyph-name="Gcircumflex" unicode="&#x11c;" horiz-adv-x="1505" 
d="M903 537l41 235h582l-103 -594q-86 -92 -230.5 -146.5t-299.5 -54.5q-311 0 -497.5 183t-186.5 489q0 129 37 249.5t109 221.5t171.5 176t232 117.5t283.5 42.5q293 0 467 -160l-143 -186q-134 111 -346 111q-240 0 -390.5 -158t-150.5 -397q0 -204 112.5 -328.5
t309.5 -124.5q188 0 309 96l39 228h-346zM1104 1860l332 -228l-113 -131l-244 162l-311 -162l-68 139l396 220h8z" />
    <glyph glyph-name="gcircumflex" unicode="&#x11d;" horiz-adv-x="1009" 
d="M-37 -162q0 70 28 127t78.5 94.5t110.5 61.5t133 37q-8 19 -8 45q0 53 37 90q-81 37 -125.5 105.5t-44.5 156.5q0 163 119.5 276t318.5 113q148 0 240 -72l280 68l-26 -184l-160 -39q12 -30 12 -74q0 -150 -106 -256t-277 -123q-27 -4 -86 -4q-14 -21 -14 -53
q0 -25 6 -33q57 0 84 -4q164 -11 261.5 -77.5t97.5 -182.5q0 -86 -41 -151.5t-114 -105.5t-167 -59.5t-207 -19.5q-196 0 -313 66t-117 198zM178 -137q0 -51 65 -78t177 -27q131 0 209 32.5t78 94.5q0 51 -65.5 79t-182.5 28q-132 0 -206.5 -34.5t-74.5 -94.5zM387 575
q0 -60 42 -96.5t114 -36.5q84 0 141 50t57 131q0 61 -40 99t-111 38q-89 0 -146 -53.5t-57 -131.5zM696 1473l271 -289l-125 -125l-174 188l-242 -188l-98 139l360 275h8z" />
    <glyph glyph-name="Gbreve" unicode="&#x11e;" horiz-adv-x="1505" 
d="M903 537l41 235h582l-103 -594q-86 -92 -230.5 -146.5t-299.5 -54.5q-311 0 -497.5 183t-186.5 489q0 129 37 249.5t109 221.5t171.5 176t232 117.5t283.5 42.5q293 0 467 -160l-143 -186q-134 111 -346 111q-240 0 -390.5 -158t-150.5 -397q0 -204 112.5 -328.5
t309.5 -124.5q188 0 309 96l39 228h-346zM686 1720l127 123q96 -129 270 -129q179 0 310 127l77 -133q-68 -88 -178 -143.5t-235 -55.5q-132 0 -229.5 57.5t-141.5 153.5z" />
    <glyph glyph-name="gbreve" unicode="&#x11f;" horiz-adv-x="1009" 
d="M-37 -162q0 70 28 127t78.5 94.5t110.5 61.5t133 37q-8 19 -8 45q0 53 37 90q-81 37 -125.5 105.5t-44.5 156.5q0 163 119.5 276t318.5 113q148 0 240 -72l280 68l-26 -184l-160 -39q12 -30 12 -74q0 -150 -106 -256t-277 -123q-27 -4 -86 -4q-14 -21 -14 -53
q0 -25 6 -33q57 0 84 -4q164 -11 261.5 -77.5t97.5 -182.5q0 -86 -41 -151.5t-114 -105.5t-167 -59.5t-207 -19.5q-196 0 -313 66t-117 198zM178 -137q0 -51 65 -78t177 -27q131 0 209 32.5t78 94.5q0 51 -65.5 79t-182.5 28q-132 0 -206.5 -34.5t-74.5 -94.5zM387 575
q0 -60 42 -96.5t114 -36.5q84 0 141 50t57 131q0 61 -40 99t-111 38q-89 0 -146 -53.5t-57 -131.5zM352 1298l123 117q18 -24 31.5 -39t39 -35t59.5 -30.5t75 -10.5q71 0 138 33.5t112 79.5l74 -125q-156 -178 -349 -178q-122 0 -197 57t-106 131z" />
    <glyph glyph-name="Gdotaccent" unicode="&#x120;" horiz-adv-x="1505" 
d="M903 537l41 235h582l-103 -594q-86 -92 -230.5 -146.5t-299.5 -54.5q-311 0 -497.5 183t-186.5 489q0 129 37 249.5t109 221.5t171.5 176t232 117.5t283.5 42.5q293 0 467 -160l-143 -186q-134 111 -346 111q-240 0 -390.5 -158t-150.5 -397q0 -204 112.5 -328.5
t309.5 -124.5q188 0 309 96l39 228h-346zM911 1702q0 65 46.5 104t113.5 39q62 0 109 -39.5t47 -103.5q0 -71 -46.5 -112.5t-109.5 -41.5q-68 0 -114 41t-46 113z" />
    <glyph glyph-name="gdotaccent" unicode="&#x121;" horiz-adv-x="1009" 
d="M-37 -162q0 70 28 127t78.5 94.5t110.5 61.5t133 37q-8 19 -8 45q0 53 37 90q-81 37 -125.5 105.5t-44.5 156.5q0 163 119.5 276t318.5 113q148 0 240 -72l280 68l-26 -184l-160 -39q12 -30 12 -74q0 -150 -106 -256t-277 -123q-27 -4 -86 -4q-14 -21 -14 -53
q0 -25 6 -33q57 0 84 -4q164 -11 261.5 -77.5t97.5 -182.5q0 -86 -41 -151.5t-114 -105.5t-167 -59.5t-207 -19.5q-196 0 -313 66t-117 198zM178 -137q0 -51 65 -78t177 -27q131 0 209 32.5t78 94.5q0 51 -65.5 79t-182.5 28q-132 0 -206.5 -34.5t-74.5 -94.5zM387 575
q0 -60 42 -96.5t114 -36.5q84 0 141 50t57 131q0 61 -40 99t-111 38q-89 0 -146 -53.5t-57 -131.5zM537 1274q0 61 41.5 98t101.5 37q56 0 98.5 -37.5t42.5 -97.5q0 -67 -42.5 -107.5t-98.5 -40.5q-61 0 -102 40t-41 108z" />
    <glyph glyph-name="uni0122" unicode="&#x122;" horiz-adv-x="1505" 
d="M903 537l41 235h582l-103 -594q-86 -92 -230.5 -146.5t-299.5 -54.5q-311 0 -497.5 183t-186.5 489q0 129 37 249.5t109 221.5t171.5 176t232 117.5t283.5 42.5q293 0 467 -160l-143 -186q-134 111 -346 111q-240 0 -390.5 -158t-150.5 -397q0 -204 112.5 -328.5
t309.5 -124.5q188 0 309 96l39 228h-346zM721 -119l235 49q11 -6 19 -26t8 -45q0 -109 -89.5 -186t-217.5 -97l-49 109q57 21 85.5 53t28.5 84q0 42 -20 59z" />
    <glyph glyph-name="uni0123" unicode="&#x123;" horiz-adv-x="1009" 
d="M-37 -162q0 70 28 127t78.5 94.5t110.5 61.5t133 37q-8 19 -8 45q0 53 37 90q-81 37 -125.5 105.5t-44.5 156.5q0 163 119.5 276t318.5 113q148 0 240 -72l280 68l-26 -184l-160 -39q12 -30 12 -74q0 -150 -106 -256t-277 -123q-27 -4 -86 -4q-14 -21 -14 -53
q0 -25 6 -33q57 0 84 -4q164 -11 261.5 -77.5t97.5 -182.5q0 -86 -41 -151.5t-114 -105.5t-167 -59.5t-207 -19.5q-196 0 -313 66t-117 198zM178 -137q0 -51 65 -78t177 -27q131 0 209 32.5t78 94.5q0 51 -65.5 79t-182.5 28q-132 0 -206.5 -34.5t-74.5 -94.5zM387 575
q0 -60 42 -96.5t114 -36.5q84 0 141 50t57 131q0 61 -40 99t-111 38q-89 0 -146 -53.5t-57 -131.5zM791 1137l-236 -50q-11 6 -19 26.5t-8 45.5q0 109 90 186t218 97l49 -109q-57 -21 -86 -53t-29 -84q0 -41 21 -59z" />
    <glyph glyph-name="Hcircumflex" unicode="&#x124;" horiz-adv-x="1566" 
d="M1116 0l109 612h-666l-108 -612h-252l252 1434h251l-102 -586h666l102 586h250l-252 -1434h-250zM1106 1860l332 -228l-113 -131l-244 162l-311 -162l-68 139l396 220h8z" />
    <glyph glyph-name="hcircumflex" unicode="&#x125;" horiz-adv-x="1091" 
d="M117 0l245 1434h234l-133 -762q74 114 177.5 193t215.5 79q110 0 160.5 -64t50.5 -169q0 -72 -18 -174l-101 -537h-231l94 502q14 82 14 123q-2 48 -17.5 73t-55.5 25q-58 0 -131 -65t-128.5 -149.5t-82.5 -156.5l-62 -352h-231zM614 1860l332 -228l-112 -131l-244 162
l-311 -162l-68 139l395 220h8z" />
    <glyph glyph-name="Hbar" unicode="&#x126;" horiz-adv-x="1576" 
d="M229 1034l37 221h164l31 179h252l-31 -179h655l31 179h250l-31 -179h164l-37 -221h-164l-184 -1034h-250l109 612h-656l-108 -612h-252l184 1034h-164zM610 848h656l32 186h-655z" />
    <glyph glyph-name="hbar" unicode="&#x127;" horiz-adv-x="1126" 
d="M150 0l178 1034h-211l39 219h209l32 181h232l-31 -181h297l-37 -219h-299l-61 -362q74 114 176.5 193t214.5 79t162.5 -64t50.5 -169q0 -55 -21 -174l-98 -537h-231l92 502q16 92 14 123q0 98 -72 98q-59 0 -132 -65t-128.5 -149.5t-81.5 -156.5l-61 -352h-233z" />
    <glyph glyph-name="Imacron" unicode="&#x12a;" horiz-adv-x="710" 
d="M229 0l252 1434h252l-252 -1434h-252zM313 1556l33 189h633l-33 -189h-633z" />
    <glyph glyph-name="imacron" unicode="&#x12b;" horiz-adv-x="542" 
d="M174 1147l33 188h571l-33 -188h-571zM135 0l158 922h233l-159 -922h-232z" />
    <glyph glyph-name="Iogonek" unicode="&#x12e;" horiz-adv-x="710" 
d="M399 -207l56 -147q-35 -29 -97 -45.5t-129 -16.5q-108 0 -178.5 45.5t-70.5 132.5q0 88 69 150.5t182 93.5l250 1428h252l-252 -1434q-99 0 -174.5 -45.5t-75.5 -108.5q0 -36 24.5 -53.5t59.5 -17.5q41 0 84 18z" />
    <glyph glyph-name="iogonek" unicode="&#x12f;" horiz-adv-x="575" 
d="M311 -207l54 -145q-77 -64 -230 -64q-105 0 -174.5 45t-69.5 135q0 92 76 155t197 93l155 910h234l-147 -854l-13 -68h-6q-99 -2 -171.5 -47.5t-72.5 -106.5q0 -36 23 -53.5t61 -17.5q40 0 84 18zM352 1253q0 61 42.5 98.5t103.5 37.5q54 0 94.5 -38t40.5 -98
q0 -67 -40.5 -107t-94.5 -40q-61 0 -103.5 39.5t-42.5 107.5z" />
    <glyph glyph-name="Idotaccent" unicode="&#x130;" horiz-adv-x="710" 
d="M229 0l252 1434h252l-252 -1434h-252zM498 1702q0 65 46 104t113 39q62 0 109 -39.5t47 -103.5q0 -71 -46.5 -112.5t-109.5 -41.5q-68 0 -113.5 41t-45.5 113z" />
    <glyph glyph-name="dotlessi" unicode="&#x131;" horiz-adv-x="542" 
d="M135 0l158 922h233l-159 -922h-232z" />
    <glyph glyph-name="Jcircumflex" unicode="&#x134;" horiz-adv-x="800" 
d="M852 1434l-188 -1076q-69 -381 -418 -381q-77 0 -142 27t-90 62l117 190q50 -43 125 -43q130 0 162 168l184 1053h250zM791 1860l331 -228l-112 -131l-244 162l-311 -162l-68 139l395 220h9z" />
    <glyph glyph-name="jcircumflex" unicode="&#x135;" horiz-adv-x="536" 
d="M541 922l-174 -990q-28 -164 -118 -261t-251 -97q-69 0 -129 18t-94 48l96 186q53 -33 109 -33q126 0 153 160l172 969h236zM510 1473l270 -289l-125 -125l-174 188l-241 -188l-99 139l361 275h8z" />
    <glyph glyph-name="uni0136" unicode="&#x136;" horiz-adv-x="1370" 
d="M199 0l252 1434h251l-118 -678l667 678h316l-705 -705l473 -729h-291l-464 739l-129 -739h-252zM555 -119l236 49q26 -15 26 -71q0 -109 -89.5 -186t-217.5 -97l-49 109q57 21 85.5 53t28.5 84q0 42 -20 59z" />
    <glyph glyph-name="uni0137" unicode="&#x137;" horiz-adv-x="1015" 
d="M1114 922l-412 -445l306 -477h-277l-299 483l395 439h287zM117 0l245 1434h234l-248 -1434h-231zM375 -119l235 49q11 -6 19 -26t8 -45q0 -109 -89.5 -186t-217.5 -97l-49 109q57 21 85.5 53t28.5 84q0 42 -20 59z" />
    <glyph glyph-name="Lacute" unicode="&#x139;" horiz-adv-x="1136" 
d="M199 0l252 1434h251l-210 -1198h659l-41 -236h-911zM1217 1663l-461 -166l-66 141l438 228z" />
    <glyph glyph-name="lacute" unicode="&#x13a;" horiz-adv-x="600" 
d="M156 297l202 1137h234l-199 -1110q-4 -20 -4 -29q-9 -96 72 -96q48 0 106 30l27 -186q-38 -25 -101 -44t-124 -19q-97 0 -153.5 47t-65.5 141q-6 65 6 129zM934 1663l-461 -166l-65 141l438 228z" />
    <glyph glyph-name="uni013B" unicode="&#x13b;" horiz-adv-x="1136" 
d="M199 0l252 1434h251l-210 -1198h659l-41 -236h-911zM524 -119l236 49q26 -15 26 -71q0 -109 -89.5 -186t-217.5 -97l-49 109q57 21 86 53t29 84q0 41 -21 59z" />
    <glyph glyph-name="uni013C" unicode="&#x13c;" horiz-adv-x="600" 
d="M156 297l202 1137h234l-199 -1110q-4 -20 -4 -29q-9 -96 72 -96q48 0 106 30l27 -186q-38 -25 -101 -44t-124 -19q-97 0 -153.5 47t-65.5 141q-6 65 6 129zM217 -119l236 49q26 -15 26 -71q0 -109 -89.5 -186t-217.5 -97l-49 109q57 21 86 53t29 84q0 41 -21 59z" />
    <glyph glyph-name="Lcaron" unicode="&#x13d;" horiz-adv-x="1136" 
d="M199 0l252 1434h251l-210 -1198h659l-41 -236h-911zM1034 1434h230q2 -10 2 -41q0 -70 -24.5 -133.5t-65.5 -111t-85.5 -82.5t-93.5 -60l-92 100q63 54 100 123t37 139q0 30 -8 66z" />
    <glyph glyph-name="lcaron" unicode="&#x13e;" horiz-adv-x="610" 
d="M156 297l209 1137h235l-203 -1110q-4 -10 -4 -29q-9 -96 72 -96q52 0 110 30l27 -186q-40 -25 -103.5 -44t-125.5 -19q-205 0 -223 188q-6 65 6 129zM756 1434h229q2 -10 2 -41q0 -70 -24 -133.5t-65 -111t-85.5 -82.5t-93.5 -60l-92 100q63 54 100 123t37 139
q0 30 -8 66z" />
    <glyph glyph-name="Ldot" unicode="&#x13f;" horiz-adv-x="1136" 
d="M199 0l252 1434h251l-210 -1198h659l-41 -236h-911zM874 768q0 58 44.5 104t117.5 46q67 0 112.5 -45.5t45.5 -104.5q0 -67 -44.5 -115.5t-115.5 -48.5q-75 0 -117.5 48t-42.5 116z" />
    <glyph glyph-name="ldot" unicode="&#x140;" horiz-adv-x="710" 
d="M156 297l202 1137h234l-199 -1110q-4 -20 -4 -29q-9 -96 72 -96q48 0 106 30l27 -186q-38 -25 -101 -44t-124 -19q-97 0 -153.5 47t-65.5 141q-6 65 6 129zM559 713q0 61 41.5 98t101.5 37q56 0 99 -37.5t43 -97.5q0 -67 -43 -107.5t-99 -40.5q-61 0 -102 40t-41 108z
" />
    <glyph glyph-name="Lslash" unicode="&#x141;" horiz-adv-x="1146" 
d="M109 418l43 246l188 79l123 691h250l-103 -576l361 156l-41 -244l-361 -158l-67 -376h659l-41 -236h-911l88 498z" />
    <glyph glyph-name="lslash" unicode="&#x142;" horiz-adv-x="673" 
d="M96 414l43 248l154 67l127 705h231l-106 -598l203 88l-43 -246l-205 -88l-47 -266q-2 -10 -2 -29q-12 -96 71 -96q45 0 107 30l26 -186q-44 -29 -106.5 -46t-122.5 -17q-92 0 -145.5 45.5t-65.5 130.5q-11 64 6 163l29 160z" />
    <glyph glyph-name="Nacute" unicode="&#x143;" horiz-adv-x="1628" 
d="M1427 0h-200l-615 1020l-178 -1020h-235l252 1434h200l615 -1022l178 1022h235zM1477 1663l-461 -166l-66 141l439 228z" />
    <glyph glyph-name="nacute" unicode="&#x144;" horiz-adv-x="1089" 
d="M410 352l-62 -352h-231l157 922h234l-45 -250q38 54 79 98.5t92.5 85.5t111.5 64.5t122 23.5q99 0 148 -61.5t49 -153.5q0 -93 -18 -192l-101 -537h-231l94 502q14 82 14 131q-2 43 -16.5 66.5t-52.5 23.5q-58 0 -132 -65t-129.5 -149.5t-82.5 -156.5zM1053 1378
l-260 -299l-140 99l215 342z" />
    <glyph glyph-name="uni0145" unicode="&#x145;" horiz-adv-x="1628" 
d="M1427 0h-200l-615 1020l-178 -1020h-235l252 1434h200l615 -1022l178 1022h235zM659 -119l236 49q11 -6 19 -26t8 -45q0 -109 -90 -186t-218 -97l-49 109q57 21 86 53t29 84q0 41 -21 59z" />
    <glyph glyph-name="uni0146" unicode="&#x146;" horiz-adv-x="1089" 
d="M410 352l-62 -352h-231l157 922h234l-45 -250q38 54 79 98.5t92.5 85.5t111.5 64.5t122 23.5q99 0 148 -61.5t49 -153.5q0 -93 -18 -192l-101 -537h-231l94 502q14 82 14 131q-2 43 -16.5 66.5t-52.5 23.5q-58 0 -132 -65t-129.5 -149.5t-82.5 -156.5zM397 -119l236 49
q26 -15 26 -71q0 -109 -89.5 -186t-217.5 -97l-49 109q57 21 86 53t29 84q0 41 -21 59z" />
    <glyph glyph-name="Ncaron" unicode="&#x147;" horiz-adv-x="1628" 
d="M1427 0h-200l-615 1020l-178 -1020h-235l252 1434h200l615 -1022l178 1022h235zM1085 1505l-331 226l112 135l244 -162l311 162l68 -142l-395 -219h-9z" />
    <glyph glyph-name="ncaron" unicode="&#x148;" horiz-adv-x="1089" 
d="M410 352l-62 -352h-231l157 922h234l-45 -250q38 54 79 98.5t92.5 85.5t111.5 64.5t122 23.5q99 0 148 -61.5t49 -153.5q0 -93 -18 -192l-101 -537h-231l94 502q14 82 14 131q-2 43 -16.5 66.5t-52.5 23.5q-58 0 -132 -65t-129.5 -149.5t-82.5 -156.5zM739 1061l-270 287
l125 129l174 -191l242 189l98 -142l-360 -272h-9z" />
    <glyph glyph-name="Eng" unicode="&#x14a;" horiz-adv-x="1628" 
d="M1679 1434l-260 -1479q-66 -381 -401 -381q-77 0 -142 26.5t-90 61.5l117 191q50 -43 125 -43q133 0 162 167l4 23l-582 1020l-178 -1020h-235l252 1434h200l609 -1063l184 1063h235z" />
    <glyph glyph-name="eng" unicode="&#x14b;" horiz-adv-x="1089" 
d="M444 -174q46 -33 109 -33q124 0 154 160l102 549q14 82 14 131q-2 43 -16.5 66.5t-52.5 23.5q-58 0 -132 -65t-129.5 -149.5t-82.5 -156.5l-62 -352h-231l157 922h234l-45 -250q38 54 79 98.5t92.5 85.5t111.5 64.5t122 23.5q99 0 148 -61.5t49 -153.5q0 -93 -18 -192
l-111 -605q-30 -165 -118.5 -261.5t-246.5 -96.5q-69 0 -129 18t-94 48z" />
    <glyph glyph-name="Omacron" unicode="&#x14c;" horiz-adv-x="1687" 
d="M209 645q0 169 59.5 317.5t165.5 258t263 172.5t343 63q201 0 357.5 -79.5t245 -229.5t88.5 -348q0 -172 -57.5 -322t-161 -261t-257.5 -175t-337 -64q-169 0 -305 52t-223.5 143t-134 212t-46.5 261zM481 659q0 -203 124.5 -324.5t322.5 -121.5q236 0 383 157t147 408
q0 199 -119.5 321t-320.5 122q-156 0 -279.5 -74t-190.5 -202t-67 -286zM772 1556l33 189h633l-33 -189h-633z" />
    <glyph glyph-name="omacron" unicode="&#x14d;" horiz-adv-x="1071" 
d="M127 362q0 118 37 222.5t106 185t176.5 127.5t239.5 47q181 0 281 -105.5t100 -275.5q0 -169 -63.5 -301t-188 -208.5t-291.5 -76.5q-185 0 -291 107t-106 278zM369 406q0 -100 52 -159t142 -59q121 0 191.5 93t70.5 237q0 98 -46 155.5t-136 57.5q-123 0 -198.5 -91
t-75.5 -234zM457 1147l32 188h572l-33 -188h-571z" />
    <glyph glyph-name="Ohungarumlaut" unicode="&#x150;" horiz-adv-x="1687" 
d="M209 645q0 169 59.5 317.5t165.5 258t263 172.5t343 63q201 0 357.5 -79.5t245 -229.5t88.5 -348q0 -172 -57.5 -322t-161 -261t-257.5 -175t-337 -64q-169 0 -305 52t-223.5 143t-134 212t-46.5 261zM481 659q0 -203 124.5 -324.5t322.5 -121.5q236 0 383 157t147 408
q0 199 -119.5 321t-320.5 122q-156 0 -279.5 -74t-190.5 -202t-67 -286zM1675 1716l-391 -219l-96 100l323 269zM1251 1761l-336 -264l-100 92l234 277z" />
    <glyph glyph-name="ohungarumlaut" unicode="&#x151;" horiz-adv-x="1071" 
d="M127 362q0 118 37 222.5t106 185t176.5 127.5t239.5 47q181 0 281 -105.5t100 -275.5q0 -169 -63.5 -301t-188 -208.5t-291.5 -76.5q-185 0 -291 107t-106 278zM369 406q0 -100 52 -159t142 -59q121 0 191.5 93t70.5 237q0 98 -46 155.5t-136 57.5q-123 0 -198.5 -91
t-75.5 -234zM1192 1364l-270 -285l-142 99l238 319zM827 1395l-239 -316l-144 97l209 342z" />
    <glyph glyph-name="OE" unicode="&#x152;" horiz-adv-x="2127" 
d="M1147 0l8 39q-124 -62 -283 -62q-199 0 -351.5 89.5t-232 238t-79.5 330.5q0 129 33 249t102.5 224t168.5 181.5t239.5 122t306.5 44.5q200 0 334 -72l8 50h842l-43 -236h-588l-64 -358h527l-41 -236h-527l-63 -368h608l-43 -236h-862zM924 213q83 0 146.5 19t129.5 61
l146 829q-63 49 -137 74t-185 25q-154 0 -277 -67.5t-194.5 -195.5t-71.5 -294q0 -126 50 -227t152 -162.5t241 -61.5z" />
    <glyph glyph-name="oe" unicode="&#x153;" horiz-adv-x="1622" 
d="M1464 276l101 -131q-74 -74 -177.5 -121t-224.5 -47q-192 0 -301 115q-141 -115 -338 -115q-185 0 -291 107t-106 278q0 118 37 222.5t106 185t176.5 127.5t239.5 47q198 0 295 -129q148 129 354 129q155 0 233.5 -62t78.5 -180q0 -159 -169.5 -249.5t-476.5 -104.5
q6 -85 60.5 -128.5t144.5 -43.5q118 0 258 100zM369 406q0 -100 52 -159t142 -59q129 0 197 105q0 1 6 82l10 98q4 36 12 98t9 74q-42 86 -154 86q-123 0 -198.5 -91t-75.5 -234zM1313 743q-105 0 -191.5 -72.5t-101.5 -172.5q190 12 289.5 54.5t101.5 111.5
q0 38 -26.5 58.5t-71.5 20.5z" />
    <glyph glyph-name="Racute" unicode="&#x154;" horiz-adv-x="1349" 
d="M451 0h-252l252 1434q45 0 222 2t193 2q126 0 220.5 -29.5t150 -82.5t82.5 -119.5t27 -145.5q0 -186 -100 -307t-263 -168l340 -586h-289l-301 537h-188zM840 1202q-42 0 -178 -4l-76 -426h137q161 0 256.5 63.5t95.5 186.5q0 180 -235 180zM1202 1663l-461 -166l-65 141
l438 228z" />
    <glyph glyph-name="racute" unicode="&#x155;" horiz-adv-x="729" 
d="M117 0l157 922h234l-35 -195q145 217 303 217q50 0 98 -29l-116 -210q-30 18 -70 18q-53 0 -109.5 -56.5t-96 -129t-66.5 -150.5l-68 -387h-231zM954 1378l-260 -299l-139 99l215 342z" />
    <glyph glyph-name="uni0156" unicode="&#x156;" horiz-adv-x="1349" 
d="M451 0h-252l252 1434q45 0 222 2t193 2q126 0 220.5 -29.5t150 -82.5t82.5 -119.5t27 -145.5q0 -186 -100 -307t-263 -168l340 -586h-289l-301 537h-188zM840 1202q-42 0 -178 -4l-76 -426h137q161 0 256.5 63.5t95.5 186.5q0 180 -235 180zM567 -119l236 49
q26 -15 26 -71q0 -109 -89.5 -186t-217.5 -97l-49 109q57 21 86 53t29 84q0 41 -21 59z" />
    <glyph glyph-name="uni0157" unicode="&#x157;" horiz-adv-x="729" 
d="M117 0l157 922h234l-35 -195q145 217 303 217q50 0 98 -29l-116 -210q-30 18 -70 18q-53 0 -109.5 -56.5t-96 -129t-66.5 -150.5l-68 -387h-231zM88 -119l236 49q26 -15 26 -71q0 -109 -89.5 -186t-217.5 -97l-49 109q57 21 86 53t29 84q0 41 -21 59z" />
    <glyph glyph-name="Rcaron" unicode="&#x158;" horiz-adv-x="1349" 
d="M451 0h-252l252 1434q45 0 222 2t193 2q126 0 220.5 -29.5t150 -82.5t82.5 -119.5t27 -145.5q0 -186 -100 -307t-263 -168l340 -586h-289l-301 537h-188zM840 1202q-42 0 -178 -4l-76 -426h137q161 0 256.5 63.5t95.5 186.5q0 180 -235 180zM883 1505l-332 226l113 135
l243 -162l312 162l67 -142l-395 -219h-8z" />
    <glyph glyph-name="rcaron" unicode="&#x159;" horiz-adv-x="729" 
d="M117 0l157 922h234l-35 -195q145 217 303 217q50 0 98 -29l-116 -210q-30 18 -70 18q-53 0 -109.5 -56.5t-96 -129t-66.5 -150.5l-68 -387h-231zM610 1061l-270 287l125 129l174 -191l242 189l98 -142l-361 -272h-8z" />
    <glyph glyph-name="Sacute" unicode="&#x15a;" horiz-adv-x="1112" 
d="M831 389q0 51 -29.5 94t-76.5 75.5t-103.5 64.5t-113 69.5t-103.5 82t-76.5 110.5t-29.5 147q0 84 34 159.5t97 135t162.5 94.5t222.5 35q126 0 228.5 -44t160.5 -116l-153 -176q-98 101 -250 101q-109 0 -170.5 -48.5t-61.5 -121.5q0 -51 29.5 -93t76.5 -73t103.5 -62
t113.5 -68t104 -81t76.5 -111t29.5 -149q0 -194 -136 -315.5t-364 -121.5q-169 0 -293.5 67.5t-171.5 174.5l162 160q51 -80 129 -123t174 -43q98 0 163.5 46.5t65.5 129.5zM1200 1663l-461 -166l-65 141l438 228z" />
    <glyph glyph-name="sacute" unicode="&#x15b;" horiz-adv-x="796" 
d="M516 266q0 32 -25 60.5t-62 49t-81 48.5t-81 57.5t-62 77t-25 105.5q0 124 97 202t262 78q194 0 299 -67l-103 -172q-69 38 -174 38q-65 0 -102 -21t-37 -58q0 -27 25 -53t62 -46t81 -49t81 -60.5t62 -83.5t25 -114q0 -135 -106 -208t-273 -73q-102 0 -189.5 26
t-132.5 71l109 159q92 -57 201 -57q71 0 110 23t39 67zM907 1378l-260 -299l-139 99l215 342z" />
    <glyph glyph-name="Scircumflex" unicode="&#x15c;" horiz-adv-x="1112" 
d="M831 389q0 51 -29.5 94t-76.5 75.5t-103.5 64.5t-113 69.5t-103.5 82t-76.5 110.5t-29.5 147q0 84 34 159.5t97 135t162.5 94.5t222.5 35q126 0 228.5 -44t160.5 -116l-153 -176q-98 101 -250 101q-109 0 -170.5 -48.5t-61.5 -121.5q0 -51 29.5 -93t76.5 -73t103.5 -62
t113.5 -68t104 -81t76.5 -111t29.5 -149q0 -194 -136 -315.5t-364 -121.5q-169 0 -293.5 67.5t-171.5 174.5l162 160q51 -80 129 -123t174 -43q98 0 163.5 46.5t65.5 129.5zM874 1860l332 -228l-112 -131l-244 162l-311 -162l-68 139l395 220h8z" />
    <glyph glyph-name="scircumflex" unicode="&#x15d;" horiz-adv-x="796" 
d="M516 266q0 32 -25 60.5t-62 49t-81 48.5t-81 57.5t-62 77t-25 105.5q0 124 97 202t262 78q194 0 299 -67l-103 -172q-69 38 -174 38q-65 0 -102 -21t-37 -58q0 -27 25 -53t62 -46t81 -49t81 -60.5t62 -83.5t25 -114q0 -135 -106 -208t-273 -73q-102 0 -189.5 26
t-132.5 71l109 159q92 -57 201 -57q71 0 110 23t39 67zM629 1473l270 -289l-125 -125l-174 188l-242 -188l-98 139l361 275h8z" />
    <glyph glyph-name="Scedilla" unicode="&#x15e;" horiz-adv-x="1112" 
d="M276 -344l86 117q70 -56 150 -56q39 0 61.5 17t22.5 45q0 47 -76 47h-12l27 154q-147 13 -252.5 77.5t-145.5 161.5l162 160q51 -80 129 -123t174 -43q98 0 163.5 46.5t65.5 129.5q0 51 -29.5 94t-76.5 75.5t-103.5 64.5t-113 69.5t-103.5 82t-76.5 110.5t-29.5 147
q0 84 34 159.5t97 135t162.5 94.5t222.5 35q126 0 228.5 -44t160.5 -116l-153 -176q-98 101 -250 101q-109 0 -170.5 -48.5t-61.5 -121.5q0 -51 29.5 -93t76.5 -73t103.5 -62t113.5 -68t104 -81t76.5 -111t29.5 -149q0 -183 -121.5 -302t-325.5 -132l-10 -52q99 -4 150 -42
t51 -105q0 -95 -82.5 -151t-216.5 -56q-166 0 -271 82z" />
    <glyph glyph-name="scedilla" unicode="&#x15f;" horiz-adv-x="796" 
d="M55 -338l88 109q66 -54 142 -54q37 0 59.5 17t22.5 45q0 47 -76 47h-12l26 156q-172 16 -248 92l109 159q92 -57 201 -57q71 0 110 23t39 67q0 32 -25 60.5t-62 49t-81 48.5t-81 57.5t-62 77t-25 105.5q0 124 97 202t262 78q194 0 299 -67l-103 -172q-69 38 -174 38
q-65 0 -102 -21t-37 -58q0 -27 25 -53t62 -46t81 -49t81 -60.5t62 -83.5t25 -114q0 -124 -92.5 -196.5t-239.5 -81.5l-8 -52q90 -4 137 -42t47 -103q0 -95 -79 -152t-220 -57q-160 0 -248 88z" />
    <glyph glyph-name="Scaron" unicode="&#x160;" horiz-adv-x="1112" 
d="M831 389q0 51 -29.5 94t-76.5 75.5t-103.5 64.5t-113 69.5t-103.5 82t-76.5 110.5t-29.5 147q0 84 34 159.5t97 135t162.5 94.5t222.5 35q126 0 228.5 -44t160.5 -116l-153 -176q-98 101 -250 101q-109 0 -170.5 -48.5t-61.5 -121.5q0 -51 29.5 -93t76.5 -73t103.5 -62
t113.5 -68t104 -81t76.5 -111t29.5 -149q0 -194 -136 -315.5t-364 -121.5q-169 0 -293.5 67.5t-171.5 174.5l162 160q51 -80 129 -123t174 -43q98 0 163.5 46.5t65.5 129.5zM819 1505l-332 226l113 135l244 -162l311 162l68 -142l-396 -219h-8z" />
    <glyph glyph-name="scaron" unicode="&#x161;" horiz-adv-x="796" 
d="M516 266q0 32 -25 60.5t-62 49t-81 48.5t-81 57.5t-62 77t-25 105.5q0 124 97 202t262 78q194 0 299 -67l-103 -172q-69 38 -174 38q-65 0 -102 -21t-37 -58q0 -27 25 -53t62 -46t81 -49t81 -60.5t62 -83.5t25 -114q0 -135 -106 -208t-273 -73q-102 0 -189.5 26
t-132.5 71l109 159q92 -57 201 -57q71 0 110 23t39 67zM567 1061l-270 287l125 129l174 -191l242 189l98 -142l-361 -272h-8z" />
    <glyph glyph-name="uni0162" unicode="&#x162;" horiz-adv-x="1222" 
d="M287 -346l88 119q70 -56 143 -56q39 0 64.5 16t25.5 46q0 47 -76 47h-12l31 174h-64l211 1198h-471l41 236h1192l-41 -236h-471l-211 -1198h-65l-13 -72q99 -4 149 -42t50 -105q0 -93 -83 -150t-224 -57q-160 0 -264 80z" />
    <glyph glyph-name="uni0163" unicode="&#x163;" horiz-adv-x="706" 
d="M84 -338l88 109q63 -54 141 -54q34 0 58 17t24 45q0 47 -76 47h-12l27 160q-178 26 -191 225q-6 63 9 139l153 828h230l-46 -256h291l-37 -222h-288l-68 -335q-4 -18 -4 -50q-10 -96 55 -110q25 -5 66 2q51 5 106 45l60 -186q-80 -63 -215 -82l-9 -56q89 -4 137 -42
t48 -103q0 -95 -80 -152t-221 -57q-158 0 -246 88z" />
    <glyph glyph-name="Tcaron" unicode="&#x164;" horiz-adv-x="1222" 
d="M227 1198l41 236h1192l-41 -236h-471l-211 -1198h-250l211 1198h-471zM870 1505l-331 226l112 135l244 -162l311 162l68 -142l-395 -219h-9z" />
    <glyph glyph-name="tcaron" unicode="&#x165;" horiz-adv-x="737" 
d="M152 350l153 828h230l-46 -256h291l-37 -222h-288l-68 -335q-4 -18 -4 -50q-10 -96 55 -110q25 -5 66 2q51 5 106 45l60 -186q-45 -36 -121 -61t-154 -25q-226 0 -248 210q-13 74 5 160zM737 1434h230q2 -10 2 -41q0 -128 -76 -227.5t-193 -159.5l-96 104
q141 118 141 258q0 30 -8 66z" />
    <glyph glyph-name="Umacron" unicode="&#x16a;" horiz-adv-x="1533" 
d="M1610 1434l-148 -840q-27 -150 -76.5 -261t-129.5 -192.5t-196 -122.5t-269 -41q-262 0 -401.5 150t-108.5 428q0 33 6 70l143 809h252l-137 -775q-8 -36 -8 -71q-18 -180 50.5 -277.5t231.5 -97.5q91 0 161 31t117 90.5t76.5 135t47.5 175.5l139 789h250zM731 1556
l33 189h633l-33 -189h-633z" />
    <glyph glyph-name="umacron" unicode="&#x16b;" horiz-adv-x="1056" 
d="M1065 922l-162 -922h-231l43 248q-179 -271 -387 -271q-104 0 -150.5 62.5t-46.5 159.5q0 73 19 166l116 557h234l-109 -508q-18 -93 -16 -129q0 -88 63 -88q56 0 128 65t127 149.5t77 153.5l61 357h234zM420 1147l33 188h571l-33 -188h-571z" />
    <glyph glyph-name="Ubreve" unicode="&#x16c;" horiz-adv-x="1533" 
d="M1610 1434l-148 -840q-27 -150 -76.5 -261t-129.5 -192.5t-196 -122.5t-269 -41q-262 0 -401.5 150t-108.5 428q0 33 6 70l143 809h252l-137 -775q-8 -36 -8 -71q-18 -180 50.5 -277.5t231.5 -97.5q91 0 161 31t117 90.5t76.5 135t47.5 175.5l139 789h250zM676 1720
l127 123q96 -129 270 -129q178 0 309 127l78 -133q-68 -88 -178 -143.5t-235 -55.5q-132 0 -229.5 57.5t-141.5 153.5z" />
    <glyph glyph-name="ubreve" unicode="&#x16d;" horiz-adv-x="1056" 
d="M1065 922l-162 -922h-231l43 248q-179 -271 -387 -271q-104 0 -150.5 62.5t-46.5 159.5q0 73 19 166l116 557h234l-109 -508q-18 -93 -16 -129q0 -88 63 -88q56 0 128 65t127 149.5t77 153.5l61 357h234zM401 1298l123 117q18 -24 31.5 -39t39 -35t59.5 -30.5t75 -10.5
q71 0 138 33.5t112 79.5l74 -125q-156 -178 -348 -178q-122 0 -197.5 57t-106.5 131z" />
    <glyph glyph-name="Uring" unicode="&#x16e;" horiz-adv-x="1533" 
d="M1610 1434l-148 -840q-27 -150 -76.5 -261t-129.5 -192.5t-196 -122.5t-269 -41q-262 0 -401.5 150t-108.5 428q0 33 6 70l143 809h252l-137 -775q-8 -36 -8 -71q-18 -180 50.5 -277.5t231.5 -97.5q91 0 161 31t117 90.5t76.5 135t47.5 175.5l139 789h250zM758 1638
q0 110 79.5 165t204.5 55q131 0 212 -55t81 -165q0 -108 -82 -166.5t-211 -58.5q-123 0 -203.5 58.5t-80.5 166.5zM932 1638q0 -48 31.5 -73t83.5 -25q50 0 82 25.5t32 72.5t-31.5 70t-82.5 23q-53 0 -84 -23t-31 -70z" />
    <glyph glyph-name="uring" unicode="&#x16f;" horiz-adv-x="1056" 
d="M1065 922l-162 -922h-231l43 248q-179 -271 -387 -271q-104 0 -150.5 62.5t-46.5 159.5q0 73 19 166l116 557h234l-109 -508q-18 -93 -16 -129q0 -88 63 -88q56 0 128 65t127 149.5t77 153.5l61 357h234zM459 1274q0 102 73.5 174t182.5 72q113 0 187.5 -71.5
t74.5 -174.5q0 -102 -74.5 -173t-187.5 -71q-109 0 -182.5 71t-73.5 173zM608 1276q0 -50 31 -83.5t80 -33.5q47 0 76.5 33.5t29.5 83.5q0 48 -30 81.5t-76 33.5q-49 0 -80 -33.5t-31 -81.5z" />
    <glyph glyph-name="Uhungarumlaut" unicode="&#x170;" horiz-adv-x="1533" 
d="M1610 1434l-148 -840q-27 -150 -76.5 -261t-129.5 -192.5t-196 -122.5t-269 -41q-262 0 -401.5 150t-108.5 428q0 33 6 70l143 809h252l-137 -775q-8 -36 -8 -71q-18 -180 50.5 -277.5t231.5 -97.5q91 0 161 31t117 90.5t76.5 135t47.5 175.5l139 789h250zM1581 1716
l-391 -219l-96 100l323 269zM1157 1761l-336 -264l-100 92l233 277z" />
    <glyph glyph-name="uhungarumlaut" unicode="&#x171;" horiz-adv-x="1056" 
d="M1065 922l-162 -922h-231l43 248q-179 -271 -387 -271q-104 0 -150.5 62.5t-46.5 159.5q0 73 19 166l116 557h234l-109 -508q-18 -93 -16 -129q0 -88 63 -88q56 0 128 65t127 149.5t77 153.5l61 357h234zM1163 1364l-270 -285l-141 99l237 319zM799 1395l-240 -316
l-143 97l209 342z" />
    <glyph glyph-name="Uogonek" unicode="&#x172;" horiz-adv-x="1533" 
d="M971 -207l53 -147q-75 -62 -225 -62q-106 0 -177 46t-71 130q0 134 203 220q-227 9 -356 136.5t-126 358.5q3 72 15 150l143 809h252l-137 -775q-15 -79 -15 -149q0 -297 289 -297q91 0 161 31t117 90.5t76.5 135t47.5 175.5l139 789h250l-148 -840q-46 -257 -163.5 -407
t-329.5 -193q-168 -64 -168 -148q0 -36 24.5 -53.5t59.5 -17.5q43 0 86 18z" />
    <glyph glyph-name="uogonek" unicode="&#x173;" horiz-adv-x="1056" 
d="M823 -207l54 -145q-77 -64 -230 -64q-105 0 -174.5 45t-69.5 135q0 92 75.5 155t195.5 91l41 238q-179 -271 -387 -271q-104 0 -150.5 62.5t-46.5 159.5q0 76 10 127l125 596h234l-109 -508q-18 -93 -16 -129q0 -88 63 -88q66 0 150.5 88.5t142.5 195.5q38 86 53 164
l47 277h234l-162 -922q-99 0 -173.5 -45.5t-74.5 -108.5q0 -36 23 -53.5t61 -17.5q41 0 84 18z" />
    <glyph glyph-name="Ydieresis" unicode="&#x178;" horiz-adv-x="1257" 
d="M1503 1434l-647 -836l-104 -598h-252l104 598l-348 836h266l240 -594l448 594h293zM1012 1681q0 55 42 89t103 34q60 0 100.5 -33.5t40.5 -87.5q0 -56 -38.5 -92.5t-102.5 -36.5q-65 0 -105 34.5t-40 92.5zM522 1681q0 55 42.5 89t103.5 34t101 -33t40 -88
q0 -56 -38.5 -92.5t-102.5 -36.5q-65 0 -105.5 34.5t-40.5 92.5z" />
    <glyph glyph-name="Zacute" unicode="&#x179;" horiz-adv-x="1320" 
d="M334 1198l41 236h1095l-30 -174l-961 -1024h801l-41 -236h-1157l31 172l956 1026h-735zM1298 1663l-460 -166l-66 141l438 228z" />
    <glyph glyph-name="zacute" unicode="&#x17a;" horiz-adv-x="909" 
d="M193 700l36 222h754l-29 -170l-534 -533h432l-37 -219h-774l29 170l530 530h-407zM971 1378l-260 -299l-140 99l215 342z" />
    <glyph glyph-name="Zdotaccent" unicode="&#x17b;" horiz-adv-x="1320" 
d="M334 1198l41 236h1095l-30 -174l-961 -1024h801l-41 -236h-1157l31 172l956 1026h-735zM805 1702q0 65 46.5 104t113.5 39q62 0 108.5 -39.5t46.5 -103.5q0 -71 -46 -112.5t-109 -41.5q-68 0 -114 41t-46 113z" />
    <glyph glyph-name="zdotaccent" unicode="&#x17c;" horiz-adv-x="909" 
d="M193 700l36 222h754l-29 -170l-534 -533h432l-37 -219h-774l29 170l530 530h-407zM524 1274q0 61 41.5 98t102.5 37q56 0 98.5 -37.5t42.5 -97.5q0 -67 -42.5 -107.5t-98.5 -40.5q-61 0 -102.5 40t-41.5 108z" />
    <glyph glyph-name="Zcaron" unicode="&#x17d;" horiz-adv-x="1320" 
d="M334 1198l41 236h1095l-30 -174l-961 -1024h801l-41 -236h-1157l31 172l956 1026h-735zM920 1505l-332 226l112 135l244 -162l311 162l68 -142l-395 -219h-8z" />
    <glyph glyph-name="zcaron" unicode="&#x17e;" horiz-adv-x="909" 
d="M193 700l36 222h754l-29 -170l-534 -533h432l-37 -219h-774l29 170l530 530h-407zM631 1061l-271 287l125 129l174 -191l242 189l98 -142l-360 -272h-8z" />
    <glyph glyph-name="longs" unicode="&#x17f;" horiz-adv-x="552" 
d="M117 0l188 1071q31 183 125 284t270 101q80 0 146 -24.5t98 -61.5l-110 -180q-45 45 -125 45q-140 0 -170 -178l-187 -1057h-235z" />
    <glyph glyph-name="uni018F" unicode="&#x18f;" horiz-adv-x="1611" 
d="M252 848h1126q-15 175 -129 274t-301 99q-202 0 -370 -111l-91 195q199 151 500 151q304 0 486 -174.5t182 -486.5q0 -162 -55.5 -308.5t-159 -260.5t-265.5 -181.5t-360 -67.5q-235 0 -389 106t-200.5 299.5t26.5 465.5zM838 213q206 0 345.5 111t180.5 288h-885
q-16 -174 76.5 -286.5t282.5 -112.5z" />
    <glyph glyph-name="florin" unicode="&#x192;" 
d="M903 1053l-24 -131h239v-222h-276l-135 -768q-15 -85 -37.5 -146.5t-60.5 -111.5t-97.5 -75t-140.5 -25q-64 0 -119.5 17.5t-87.5 46.5l61 188q53 -33 101 -33q119 0 145 162l131 745h-240v222h279l27 159q35 187 114.5 281t239.5 94q77 0 143.5 -24t104.5 -62l-80 -180
q-52 45 -125 45q-68 0 -106.5 -43.5t-55.5 -138.5z" />
    <glyph glyph-name="uni01DD" unicode="&#x1dd;" horiz-adv-x="1007" 
d="M297 649l-64 164q68 59 168.5 95t202.5 36t180.5 -30.5t125.5 -83t70.5 -119t23.5 -144.5q0 -114 -36 -218.5t-103.5 -188t-176 -133.5t-242.5 -50q-149 0 -234.5 64.5t-105.5 171.5q-9 52 -4 100q11 97 78 174q236 57 582 66q-9 85 -53.5 135.5t-145.5 50.5
q-130 0 -266 -90zM469 182q100 0 172.5 58t101.5 151q-244 -11 -378 -51q-26 -45 -11 -90q12 -68 115 -68z" />
    <glyph glyph-name="uni0218" unicode="&#x218;" horiz-adv-x="1112" 
d="M831 389q0 51 -29.5 94t-76.5 75.5t-103.5 64.5t-113 69.5t-103.5 82t-76.5 110.5t-29.5 147q0 84 34 159.5t97 135t162.5 94.5t222.5 35q126 0 228.5 -44t160.5 -116l-153 -176q-98 101 -250 101q-109 0 -170.5 -48.5t-61.5 -121.5q0 -51 29.5 -93t76.5 -73t103.5 -62
t113.5 -68t104 -81t76.5 -111t29.5 -149q0 -194 -136 -315.5t-364 -121.5q-169 0 -293.5 67.5t-171.5 174.5l162 160q51 -80 129 -123t174 -43q98 0 163.5 46.5t65.5 129.5zM440 -119l236 49q26 -15 26 -71q0 -109 -89.5 -186t-217.5 -97l-49 109q57 21 86 53t29 84
q0 41 -21 59z" />
    <glyph glyph-name="uni0219" unicode="&#x219;" horiz-adv-x="796" 
d="M516 266q0 32 -25 60.5t-62 49t-81 48.5t-81 57.5t-62 77t-25 105.5q0 124 97 202t262 78q194 0 299 -67l-103 -172q-69 38 -174 38q-65 0 -102 -21t-37 -58q0 -27 25 -53t62 -46t81 -49t81 -60.5t62 -83.5t25 -114q0 -135 -106 -208t-273 -73q-102 0 -189.5 26
t-132.5 71l109 159q92 -57 201 -57q71 0 110 23t39 67zM240 -119l235 49q11 -6 19 -26t8 -45q0 -109 -89.5 -186t-217.5 -97l-50 109q57 21 86 53t29 84q0 42 -20 59z" />
    <glyph glyph-name="uni021A" unicode="&#x21a;" horiz-adv-x="1222" 
d="M227 1198l41 236h1192l-41 -236h-471l-211 -1198h-250l211 1198h-471zM465 -119l235 49q11 -6 19 -26t8 -45q0 -109 -89.5 -186t-217.5 -97l-49 109q57 21 85.5 53t28.5 84q0 42 -20 59z" />
    <glyph glyph-name="uni021B" unicode="&#x21b;" horiz-adv-x="706" 
d="M152 350l153 828h230l-46 -256h291l-37 -222h-288l-68 -335q-4 -18 -4 -50q-10 -96 55 -110q25 -5 66 2q51 5 106 45l60 -186q-45 -36 -121 -61t-154 -25q-226 0 -248 210q-13 74 5 160zM248 -119l235 49q11 -6 19 -26t8 -45q0 -109 -89.5 -186t-217.5 -97l-49 109
q57 21 85.5 53t28.5 84q0 42 -20 59z" />
    <glyph glyph-name="uni0237" unicode="&#x237;" horiz-adv-x="536" 
d="M541 922l-174 -990q-28 -164 -118 -261t-251 -97q-69 0 -129 18t-94 48l96 186q53 -33 109 -33q126 0 153 160l172 969h236z" />
    <glyph glyph-name="uni0259" unicode="&#x259;" horiz-adv-x="1007" 
d="M297 649l-64 164q68 59 168.5 95t202.5 36t180.5 -30.5t125.5 -83t70.5 -119t23.5 -144.5q0 -114 -36 -218.5t-103.5 -188t-176 -133.5t-242.5 -50q-149 0 -234.5 64.5t-105.5 171.5q-9 52 -4 100q11 97 78 174q236 57 582 66q-9 85 -53.5 135.5t-145.5 50.5
q-130 0 -266 -90zM469 182q100 0 172.5 58t101.5 151q-244 -11 -378 -51q-26 -45 -11 -90q12 -68 115 -68z" />
    <glyph glyph-name="uni02BC" unicode="&#x2bc;" horiz-adv-x="557" 
d="M399 1288l215 113q39 -51 39 -148q0 -134 -69 -236.5t-207 -156.5l-90 107q65 40 101 98.5t36 124.5q0 67 -25 98z" />
    <glyph glyph-name="circumflex" unicode="&#x2c6;" horiz-adv-x="878" 
d="M698 1473l271 -289l-125 -125l-174 188l-242 -188l-98 139l360 275h8z" />
    <glyph glyph-name="caron" unicode="&#x2c7;" horiz-adv-x="878" 
d="M623 1061l-271 287l125 129l174 -191l242 189l98 -142l-360 -272h-8z" />
    <glyph glyph-name="breve" unicode="&#x2d8;" horiz-adv-x="886" 
d="M350 1298l123 117q18 -24 31.5 -39t39 -35t59.5 -30.5t75 -10.5q71 0 138 33.5t112 79.5l73 -125q-156 -178 -348 -178q-122 0 -197 57t-106 131z" />
    <glyph glyph-name="dotaccent" unicode="&#x2d9;" horiz-adv-x="528" 
d="M123 1274q0 61 41.5 98t101.5 37q56 0 99 -37.5t43 -97.5q0 -67 -43 -107.5t-99 -40.5q-61 0 -102 40t-41 108z" />
    <glyph glyph-name="ring" unicode="&#x2da;" horiz-adv-x="763" 
d="M123 1274q0 102 73.5 174t182.5 72q113 0 187.5 -71.5t74.5 -174.5q0 -102 -74.5 -173t-187.5 -71q-109 0 -182.5 71t-73.5 173zM272 1276q0 -50 31 -83.5t80 -33.5q47 0 76.5 33.5t29.5 83.5q0 48 -30 81.5t-76 33.5q-49 0 -80 -33.5t-31 -81.5z" />
    <glyph glyph-name="ogonek" unicode="&#x2db;" horiz-adv-x="729" 
d="M500 -207l53 -145q-77 -64 -229 -64q-105 0 -174.5 45t-69.5 135q0 68 45 122.5t119 87t162.5 49.5t181.5 16l-6 -39q-99 0 -174.5 -46t-75.5 -108q0 -36 23 -53.5t61 -17.5q40 0 84 18z" />
    <glyph glyph-name="tilde" unicode="&#x2dc;" horiz-adv-x="948" 
d="M217 1122l-94 107q112 141 248 141q40 0 81.5 -21.5t80 -43t73.5 -21.5q29 0 54.5 9.5t37.5 17.5t50 37l77 -119q-117 -133 -237 -133q-45 0 -119.5 42t-120.5 42q-45 0 -131 -58z" />
    <glyph glyph-name="hungarumlaut" unicode="&#x2dd;" horiz-adv-x="989" 
d="M866 1364l-270 -285l-141 99l237 319zM502 1395l-240 -316l-143 97l209 342z" />
    <glyph glyph-name="gravecomb" unicode="&#x300;" horiz-adv-x="0" 
d="M-389 1079l-260 293l186 139l215 -333z" />
    <glyph glyph-name="acutecomb" unicode="&#x301;" horiz-adv-x="0" 
d="M-35 1378l-260 -299l-139 99l215 342z" />
    <glyph glyph-name="Delta" unicode="&#x394;" horiz-adv-x="1517" 
d="M98 0l748 1450h160l507 -1450h-1415zM872 1028l-385 -792h678z" />
    <glyph glyph-name="Delta" unicode="&#x2206;" horiz-adv-x="1517" 
d="M98 0l748 1450h160l507 -1450h-1415zM872 1028l-385 -792h678z" />
    <glyph glyph-name="uni03A9" unicode="&#x3a9;" horiz-adv-x="1683" 
d="M172 0l27 236h319q-109 36 -194.5 175.5t-85.5 321.5q0 160 63.5 297t172 229.5t253 144.5t305.5 52q196 0 350 -76t242 -219t88 -330q0 -96 -24 -184.5t-63 -155t-88.5 -120t-99.5 -86.5t-98 -49h322l-27 -236h-643l27 236q187 50 303.5 202t116.5 330q0 91 -29.5 173
t-83.5 144.5t-136.5 99t-182.5 36.5q-118 0 -215.5 -44t-159.5 -117t-95.5 -164.5t-33.5 -188.5q0 -99 37.5 -195.5t116.5 -173.5t184 -102l-27 -236h-641z" />
    <glyph glyph-name="uni03A9" unicode="&#x2126;" horiz-adv-x="1683" 
d="M172 0l27 236h319q-109 36 -194.5 175.5t-85.5 321.5q0 160 63.5 297t172 229.5t253 144.5t305.5 52q196 0 350 -76t242 -219t88 -330q0 -96 -24 -184.5t-63 -155t-88.5 -120t-99.5 -86.5t-98 -49h322l-27 -236h-643l27 236q187 50 303.5 202t116.5 330q0 91 -29.5 173
t-83.5 144.5t-136.5 99t-182.5 36.5q-118 0 -215.5 -44t-159.5 -117t-95.5 -164.5t-33.5 -188.5q0 -99 37.5 -195.5t116.5 -173.5t184 -102l-27 -236h-641z" />
    <glyph glyph-name="pi" unicode="&#x3c0;" horiz-adv-x="1284" 
d="M223 700l37 222h1096l-39 -222h-158l-63 -360q-5 -31 -6.5 -51.5t2 -43.5t19 -34.5t42.5 -11.5q42 0 86 28l16 -186q-87 -61 -204 -61q-129 0 -177.5 79.5t-25.5 214.5l76 426h-297l-17 -92q-19 -107 -37.5 -183.5t-47 -152.5t-66.5 -126t-90.5 -89.5t-124 -57.5
t-162.5 -17l20 229q109 -7 169.5 80.5t97.5 279.5l24 129h-170z" />
    <glyph glyph-name="uni0401" unicode="&#x401;" horiz-adv-x="1177" 
d="M199 0l252 1434h839l-41 -236h-587l-64 -358h526l-41 -236h-526l-65 -368h608l-41 -236h-860zM1020 1681q0 55 42 89t103 34q60 0 101 -33.5t41 -87.5q0 -56 -39 -92.5t-103 -36.5q-65 0 -105 34.5t-40 92.5zM530 1681q0 55 42.5 89t103.5 34t101 -33t40 -88
q0 -56 -38.5 -92.5t-102.5 -36.5q-65 0 -105.5 34.5t-40.5 92.5z" />
    <glyph glyph-name="uni0402" unicode="&#x402;" horiz-adv-x="1566" 
d="M1565 487q0 -231 -123.5 -370.5t-331.5 -139.5q-79 0 -141 27t-92 70l110 182q50 -43 119 -43q89 0 139.5 64t50.5 180q0 174 -194 174q-131 0 -271 -76l-98 -555h-250l211 1198h-467l41 236h1184l-41 -236h-467l-74 -412q141 80 310 80q173 0 279 -99.5t106 -279.5z" />
    <glyph glyph-name="uni0403" unicode="&#x403;" horiz-adv-x="1058" 
d="M199 0l252 1434h829l-41 -236h-577l-211 -1198h-252zM1241 1663l-461 -166l-65 141l438 228z" />
    <glyph glyph-name="uni0404" unicode="&#x404;" horiz-adv-x="1390" 
d="M1149 848l-41 -236h-631q12 -176 134 -287.5t317 -111.5q215 0 383 125l71 -211q-84 -68 -209.5 -109t-261.5 -41q-321 0 -511.5 186.5t-190.5 489.5q0 166 60.5 312.5t170 255.5t274 172t361.5 63q155 0 275.5 -43t191.5 -115l-139 -178q-137 101 -338 101
q-211 0 -360.5 -99.5t-202.5 -273.5h647z" />
    <glyph glyph-name="uni0405" unicode="&#x405;" horiz-adv-x="1112" 
d="M831 389q0 51 -29.5 94t-76.5 75.5t-103.5 64.5t-113 69.5t-103.5 82t-76.5 110.5t-29.5 147q0 84 34 159.5t97 135t162.5 94.5t222.5 35q126 0 228.5 -44t160.5 -116l-153 -176q-98 101 -250 101q-109 0 -170.5 -48.5t-61.5 -121.5q0 -51 29.5 -93t76.5 -73t103.5 -62
t113.5 -68t104 -81t76.5 -111t29.5 -149q0 -194 -136 -315.5t-364 -121.5q-169 0 -293.5 67.5t-171.5 174.5l162 160q51 -80 129 -123t174 -43q98 0 163.5 46.5t65.5 129.5z" />
    <glyph glyph-name="uni0406" unicode="&#x406;" horiz-adv-x="710" 
d="M229 0l252 1434h252l-252 -1434h-252z" />
    <glyph glyph-name="uni0407" unicode="&#x407;" horiz-adv-x="710" 
d="M229 0l252 1434h252l-252 -1434h-252zM692 1681q0 55 42.5 89t103.5 34t101 -33t40 -88q0 -56 -38.5 -92.5t-102.5 -36.5q-65 0 -105.5 34.5t-40.5 92.5zM319 1681q0 55 42.5 89t103.5 34t102 -33.5t41 -87.5q0 -56 -39.5 -92.5t-103.5 -36.5q-65 0 -105.5 34.5
t-40.5 92.5z" />
    <glyph glyph-name="uni0408" unicode="&#x408;" horiz-adv-x="800" 
d="M852 1434l-188 -1076q-69 -381 -418 -381q-77 0 -142 27t-90 62l117 190q50 -43 125 -43q130 0 162 168l184 1053h250z" />
    <glyph glyph-name="uni0409" unicode="&#x409;" horiz-adv-x="2082" 
d="M1053 0l211 1198h-418l-72 -270q-65 -240 -130 -409t-130 -277.5t-139.5 -166.5t-151 -74t-172.5 -1l49 250q15 -5 33.5 -1.5t37 6.5t40 19t43 36.5t46.5 58.5t50 85t53 115.5t56.5 151t59.5 191t63 235.5l71 287h903l-86 -492q105 10 154 10q229 0 345 -106.5
t116 -284.5q0 -263 -174 -414t-488 -151q-85 0 -211 2t-159 2zM1563 717q-57 0 -136 -12l-81 -467q11 0 55.5 -3.5t71.5 -3.5q162 0 250.5 80.5t88.5 214.5q0 94 -65 142.5t-184 48.5z" />
    <glyph glyph-name="uni040A" unicode="&#x40a;" horiz-adv-x="2111" 
d="M199 0l252 1434h251l-94 -539h635l94 539h250l-92 -527q88 8 154 8q227 0 346 -101t119 -279q0 -249 -173.5 -394t-482.5 -145q-69 0 -175.5 2t-141.5 2h-56l117 659h-635l-116 -659h-252zM1454 670l-76 -432q13 -1 38.5 -3t49 -3t45.5 -1q145 0 237.5 71.5t92.5 191.5
q0 90 -64 138t-182 48q-46 0 -141 -10z" />
    <glyph glyph-name="uni040B" unicode="&#x40b;" horiz-adv-x="1566" 
d="M227 1198l41 236h1184l-41 -236h-467l-74 -412q141 80 320 80q192 0 291 -126t59 -353l-70 -387h-249l59 336q26 155 -19 225t-176 70q-121 0 -254 -78l-98 -553h-250l211 1198h-467z" />
    <glyph glyph-name="uni040C" unicode="&#x40c;" horiz-adv-x="1370" 
d="M199 0l252 1434h251l-118 -678l667 678h316l-705 -705l473 -729h-291l-464 739l-129 -739h-252zM1380 1663l-460 -166l-66 141l438 228z" />
    <glyph glyph-name="uni040E" unicode="&#x40e;" horiz-adv-x="1378" 
d="M1616 1434l-682 -1100q-54 -87 -95 -141t-93.5 -102t-111.5 -69.5t-132 -21.5q-58 0 -112.5 17t-84.5 46l117 199q50 -29 106 -29q52 0 90 30t74 85l25 39l-451 1047h271l325 -799l481 799h273zM602 1782h236q0 -57 33.5 -88t117.5 -31q144 0 197 119h225
q-37 -131 -157.5 -212t-282.5 -81q-190 0 -283.5 78.5t-85.5 214.5z" />
    <glyph glyph-name="uni040F" unicode="&#x40f;" horiz-adv-x="1540" 
d="M199 0l252 1434h251l-210 -1198h638l211 1198h252l-252 -1434h-454l-56 -313h-235l55 313h-452z" />
    <glyph glyph-name="uni0410" unicode="&#x410;" horiz-adv-x="1443" 
d="M14 0l850 1438h219l344 -1438h-251l-89 367h-589l-213 -367h-271zM920 1112l-287 -510h399z" />
    <glyph glyph-name="uni0411" unicode="&#x411;" horiz-adv-x="1263" 
d="M199 0l252 1434h864l-41 -236h-612l-58 -319q86 12 197 12q199 0 315.5 -101t116.5 -278q0 -228 -139 -361.5t-396 -152.5q-104 -9 -204 -6q-68 0 -167.5 4t-127.5 4zM750 657q-92 0 -187 -12l-71 -414q64 -5 135 -8q32 0 86 4q126 13 192 80.5t66 169.5q0 180 -221 180z
" />
    <glyph glyph-name="uni0412" unicode="&#x412;" horiz-adv-x="1286" 
d="M199 2l252 1428q200 10 446 10q408 0 408 -320q0 -137 -77.5 -237t-211.5 -140l-2 -4q103 -26 162 -96.5t59 -171.5q0 -97 -31 -177t-85.5 -135.5t-130.5 -93.5t-165 -55.5t-190 -17.5q-294 0 -434 10zM748 621h-189l-67 -388q56 -10 182 -10q141 0 218 60.5t77 165.5
q0 172 -221 172zM838 1210q-90 0 -176 -8l-66 -371h180q112 0 187 60.5t75 165.5q0 73 -51 113t-149 40z" />
    <glyph glyph-name="uni0413" unicode="&#x413;" horiz-adv-x="1058" 
d="M199 0l252 1434h829l-41 -236h-577l-211 -1198h-252z" />
    <glyph glyph-name="uni0414" unicode="&#x414;" horiz-adv-x="1558" 
d="M-12 -256l86 492h153q93 96 203.5 352.5t179.5 558.5l64 287h889l-211 -1198h194l-86 -492h-235l45 256h-1002l-45 -256h-235zM809 948q-57 -230 -145 -433t-154 -279h592l168 962h-396z" />
    <glyph glyph-name="uni0415" unicode="&#x415;" horiz-adv-x="1177" 
d="M199 0l252 1434h839l-41 -236h-587l-64 -358h526l-41 -236h-526l-65 -368h608l-41 -236h-860z" />
    <glyph glyph-name="uni0416" unicode="&#x416;" horiz-adv-x="1964" 
d="M715 756l-416 678h283l405 -682l121 682h250l-121 -684l635 684h305l-664 -693l426 -741h-280l-422 743l-131 -743h-250l129 741l-661 -741h-297z" />
    <glyph glyph-name="uni0417" unicode="&#x417;" horiz-adv-x="1183" 
d="M588 -23q-164 0 -289.5 59.5t-198.5 168.5l164 162q120 -154 338 -154q124 0 199.5 61t75.5 168q0 78 -57.5 125t-176.5 47h-129l41 236h129q110 0 182 62t72 157q0 74 -53.5 113t-151.5 39q-141 0 -297 -107l-114 176q200 166 454 166q210 0 317 -90t107 -246
q0 -123 -69.5 -224t-206.5 -153l-2 -6q105 -27 161 -109.5t56 -195.5q0 -201 -149 -328t-402 -127z" />
    <glyph glyph-name="uni0418" unicode="&#x418;" horiz-adv-x="1626" 
d="M420 0h-221l252 1434h251l-174 -994l930 994h221l-252 -1434h-251l176 995z" />
    <glyph glyph-name="uni0419" unicode="&#x419;" horiz-adv-x="1626" 
d="M420 0h-221l252 1434h251l-174 -994l930 994h221l-252 -1434h-251l176 995zM729 1782h236q0 -57 33.5 -88t117.5 -31q144 0 197 119h225q-37 -131 -157.5 -212t-282.5 -81q-190 0 -283.5 78.5t-85.5 214.5z" />
    <glyph glyph-name="uni041A" unicode="&#x41a;" horiz-adv-x="1370" 
d="M199 0l252 1434h251l-118 -678l667 678h316l-705 -705l473 -729h-291l-464 739l-129 -739h-252z" />
    <glyph glyph-name="uni041B" unicode="&#x41b;" horiz-adv-x="1503" 
d="M1053 0l211 1198h-418l-72 -270q-65 -236 -128 -402.5t-128 -276.5t-139 -169.5t-152 -77t-176 -2.5l49 250q15 -5 33.5 -1.5t37 6.5t40 19t43 36.5t46.5 58.5t50 85t53 115.5t56.5 151t59.5 191t63 235.5l71 287h903l-251 -1434h-252z" />
    <glyph glyph-name="uni041C" unicode="&#x41c;" horiz-adv-x="1826" 
d="M199 0l252 1434h231l360 -668l566 668h270l-252 -1434h-250l180 1030l-555 -635h-36l-336 629l-178 -1024h-252z" />
    <glyph glyph-name="uni041D" unicode="&#x41d;" horiz-adv-x="1566" 
d="M1116 0l109 612h-666l-108 -612h-252l252 1434h251l-102 -586h666l102 586h250l-252 -1434h-250z" />
    <glyph glyph-name="uni041E" unicode="&#x41e;" horiz-adv-x="1687" 
d="M209 645q0 169 59.5 317.5t165.5 258t263 172.5t343 63q201 0 357.5 -79.5t245 -229.5t88.5 -348q0 -172 -57.5 -322t-161 -261t-257.5 -175t-337 -64q-169 0 -305 52t-223.5 143t-134 212t-46.5 261zM481 659q0 -203 124.5 -324.5t322.5 -121.5q236 0 383 157t147 408
q0 199 -119.5 321t-320.5 122q-156 0 -279.5 -74t-190.5 -202t-67 -286z" />
    <glyph glyph-name="uni041F" unicode="&#x41f;" horiz-adv-x="1554" 
d="M1104 0l211 1198h-653l-211 -1198h-252l252 1434h1157l-252 -1434h-252z" />
    <glyph glyph-name="uni0420" unicode="&#x420;" horiz-adv-x="1255" 
d="M451 0h-252l252 1434q37 0 197 2t212 2q128 0 224 -32t150.5 -87.5t80.5 -122.5t26 -145q0 -115 -39 -213t-113.5 -171t-190.5 -114t-261 -41q-135 0 -196 6zM842 1202q-44 0 -180 -4l-78 -440q95 -10 178 -10q143 0 226 73.5t83 194.5q0 186 -229 186z" />
    <glyph glyph-name="uni0421" unicode="&#x421;" horiz-adv-x="1357" 
d="M1286 319l96 -192q-80 -70 -207 -110t-257 -40q-317 0 -513 184t-196 488q0 128 36 247t108 220.5t172.5 177.5t239 119t298.5 43q144 0 262 -35.5t182 -95.5l-129 -188q-128 84 -323 84q-127 0 -235 -43t-182 -117t-115.5 -174t-41.5 -213q0 -207 122.5 -334t336.5 -127
q201 0 346 106z" />
    <glyph glyph-name="uni0422" unicode="&#x422;" horiz-adv-x="1222" 
d="M227 1198l41 236h1192l-41 -236h-471l-211 -1198h-250l211 1198h-471z" />
    <glyph glyph-name="uni0423" unicode="&#x423;" horiz-adv-x="1378" 
d="M1616 1434l-682 -1100q-54 -87 -95 -141t-93.5 -102t-111.5 -69.5t-132 -21.5q-58 0 -112.5 17t-84.5 46l117 199q50 -29 106 -29q52 0 90 30t74 85l25 39l-451 1047h271l325 -799l481 799h273z" />
    <glyph glyph-name="uni0424" unicode="&#x424;" horiz-adv-x="1730" 
d="M731 -16l35 190q-267 0 -419 134t-152 364q0 195 98 337.5t271 215.5t401 75l26 150h250l-24 -150q271 -4 422 -135.5t151 -349.5q0 -304 -207.5 -472.5t-566.5 -168.5l-33 -190h-252zM1526 782q0 136 -86.5 212t-263.5 79l-119 -674q213 0 341 103t128 280zM459 688
q0 -141 88.5 -215t257.5 -74l119 674q-219 -3 -342 -109t-123 -276z" />
    <glyph glyph-name="uni0425" unicode="&#x425;" horiz-adv-x="1378" 
d="M1587 1434l-612 -713l379 -721h-281l-278 537l-463 -537h-307l637 739l-363 695h283l264 -510l436 510h305z" />
    <glyph glyph-name="uni0426" unicode="&#x426;" horiz-adv-x="1589" 
d="M199 0l252 1434h251l-210 -1198h643l211 1198h251l-211 -1198h195l-86 -492h-235l45 256h-1106z" />
    <glyph glyph-name="uni0427" unicode="&#x427;" horiz-adv-x="1374" 
d="M1425 1434l-251 -1434h-250l102 588q-63 -42 -153 -70.5t-185 -28.5q-188 0 -293.5 94t-105.5 265q4 72 10 110l84 476h252l-74 -414q-10 -49 -10 -109q-2 -91 51 -138.5t166 -47.5q160 0 299 92l109 617h249z" />
    <glyph glyph-name="uni0428" unicode="&#x428;" horiz-adv-x="2041" 
d="M199 0l252 1434h251l-210 -1198h444l211 1198h252l-211 -1198h444l211 1198h252l-252 -1434h-1644z" />
    <glyph glyph-name="uni0429" unicode="&#x429;" horiz-adv-x="2086" 
d="M199 0l252 1434h251l-210 -1198h444l211 1198h252l-211 -1198h444l211 1198h252l-211 -1198h195l-86 -492h-236l45 256h-1603z" />
    <glyph glyph-name="uni042A" unicode="&#x42a;" horiz-adv-x="1386" 
d="M219 1198l41 236h576l-86 -492q102 10 163 10q232 0 352.5 -101t120.5 -282q0 -272 -169.5 -422.5t-497.5 -150.5q-89 0 -222 2t-165 2l211 1198h-324zM856 717q-60 0 -149 -12l-82 -467q15 -1 45 -2.5t56.5 -3t49.5 -1.5q162 0 251 78.5t89 212.5q0 97 -69 146t-191 49z
" />
    <glyph glyph-name="uni042B" unicode="&#x42b;" horiz-adv-x="1771" 
d="M1321 0l252 1434h250l-252 -1434h-250zM715 717q-53 0 -142 -12l-81 -467q12 -1 59 -4t74 -3q159 0 246 81t87 212q0 92 -63 142.5t-180 50.5zM702 1434l-86 -492q110 10 152 10q226 0 344.5 -104t118.5 -283q0 -123 -38.5 -224t-116.5 -179.5t-206.5 -122t-298.5 -43.5
q-85 0 -212 2t-160 2l252 1434h251z" />
    <glyph glyph-name="uni042C" unicode="&#x42c;" horiz-adv-x="1253" 
d="M723 717q-61 0 -150 -12l-81 -467q4 0 59.5 -3.5t87.5 -3.5q160 0 252 78t92 213q0 195 -260 195zM702 1434l-86 -492q110 10 162 10q238 0 357.5 -101.5t119.5 -287.5q0 -268 -175 -417.5t-496 -149.5q-87 0 -219.5 2t-165.5 2l252 1434h251z" />
    <glyph glyph-name="uni042D" unicode="&#x42d;" horiz-adv-x="1409" 
d="M514 612l41 236h637q-6 177 -117 275t-295 98q-203 0 -385 -115l-96 192q94 77 233.5 117.5t301.5 40.5q151 0 270 -48t194.5 -134t114.5 -202t39 -255q0 -256 -103.5 -447t-291 -292t-434.5 -101q-165 0 -297.5 51.5t-221.5 143.5l142 186q71 -66 169.5 -106t215.5 -39
q207 0 353.5 110t180.5 289h-651z" />
    <glyph glyph-name="uni042E" unicode="&#x42e;" horiz-adv-x="2201" 
d="M199 0l252 1434h251l-102 -586h215q66 277 276.5 442.5t503.5 165.5q294 0 471 -172.5t177 -460.5q0 -243 -97 -434.5t-281 -301.5t-425 -110q-156 0 -280 49t-203.5 135.5t-121.5 201t-44 249.5h-232l-108 -612h-252zM1055 649q0 -197 109 -316.5t300 -119.5
q154 0 270.5 77.5t177 209.5t60.5 297q0 193 -107 308.5t-292 115.5q-226 0 -372 -162.5t-146 -409.5z" />
    <glyph glyph-name="uni042F" unicode="&#x42f;" horiz-adv-x="1325" 
d="M874 0l89 496h-213l-408 -496h-299l481 567q-200 108 -200 344q0 84 23 160.5t73.5 144t125 117t184 78.5t243.5 29q68 0 218 -3t187 -3l-252 -1434h-252zM758 731h246l81 467q-99 6 -170 6q-155 0 -237 -81.5t-82 -196.5q0 -73 43 -125.5t119 -69.5z" />
    <glyph glyph-name="uni0430" unicode="&#x430;" horiz-adv-x="1077" 
d="M942 0h-231l45 260q-177 -283 -383 -283q-122 0 -184 87t-62 231q0 183 81 331.5t225 233t321 84.5q99 0 190.5 -23t138.5 -51zM485 188q55 0 124 68t121 156t75 161l29 146q-47 12 -103 12q-160 0 -261 -110t-101 -271q0 -77 29.5 -119.5t86.5 -42.5z" />
    <glyph glyph-name="uni0431" unicode="&#x431;" horiz-adv-x="1110" 
d="M1126 1456l48 -205q-42 -41 -106.5 -67.5t-124 -37t-138.5 -30.5t-137 -47q-87 -40 -147 -108.5t-90.5 -147.5t-47.5 -182h2q66 115 185.5 203t244.5 88q142 0 215.5 -88t73.5 -254q0 -165 -71.5 -302.5t-200 -219t-287.5 -81.5q-192 0 -298 124t-106 329q0 305 123 531
t330 311q83 34 196 61t196.5 53t139.5 70zM377 387q8 -82 50 -133.5t114 -58.5q31 -5 75 2q107 20 175.5 116.5t68.5 218.5q0 80 -40 128.5t-107 48.5q-65 0 -137 -54t-124 -127t-75 -141z" />
    <glyph glyph-name="uni0432" unicode="&#x432;" horiz-adv-x="1011" 
d="M1014 711q-3 -144 -164 -228q61 -16 98 -54t37 -95q0 -148 -133 -252.5t-326 -104.5t-296 104t-103 271q0 114 40 220.5t111 189t180 132.5t238 50q156 0 237 -59t81 -174zM764 332q0 64 -68 94q-132 -38 -342 -55q3 -94 56 -144.5t145 -50.5q83 0 146 45.5t63 110.5z
M668 743q-110 0 -190 -72.5t-109 -181.5q406 51 409 175q0 37 -30.5 58t-79.5 21z" />
    <glyph glyph-name="uni0433" unicode="&#x433;" horiz-adv-x="872" 
d="M76 229q0 67 31.5 120t82 86.5t111.5 60t122 46.5t112 39t83 45.5t33 59.5q0 30 -27.5 48t-80.5 18q-113 0 -250 -70l-72 154q156 108 363 108q149 0 229 -62.5t80 -166.5q0 -69 -32 -123.5t-82.5 -89t-112 -61.5t-123 -47t-112 -39t-82.5 -44t-32 -55q0 -40 36 -64
t100 -24q137 0 274 102l100 -127q-73 -76 -179 -121t-224 -45q-170 0 -259 69.5t-89 182.5z" />
    <glyph glyph-name="uni0434" unicode="&#x434;" horiz-adv-x="1079" 
d="M438 1253l35 203q310 0 466.5 -157.5t156.5 -458.5q0 -137 -21.5 -261.5t-68.5 -235t-115 -191.5t-167.5 -128t-219.5 -47q-179 0 -278 102t-99 283q0 148 61.5 277.5t181 212t271.5 82.5q121 0 215 -76q-2 88 -23 154.5t-67 121.5t-128.5 85t-199.5 34zM639 721
q-121 0 -195.5 -95t-74.5 -239q0 -155 106 -184q58 -13 113 8q95 29 160.5 147.5t91.5 282.5q-93 80 -201 80z" />
    <glyph glyph-name="uni0435" unicode="&#x435;" horiz-adv-x="983" 
d="M825 276l99 -131q-74 -74 -176.5 -121t-223.5 -47q-191 0 -294 103.5t-103 267.5q0 116 40 223t111.5 190t180 133t237.5 50q154 0 233 -62.5t77 -179.5q0 -159 -169 -249.5t-475 -104.5q6 -86 59.5 -129t145.5 -43q118 0 258 100zM674 743q-109 0 -189.5 -70
t-107.5 -175q192 12 292.5 54.5t100.5 111.5q1 37 -25.5 58t-70.5 21z" />
    <glyph glyph-name="uni0436" unicode="&#x436;" horiz-adv-x="1404" 
d="M1522 922l-373 -451l240 -471h-259l-235 475l348 447h279zM571 0l160 922h232l-160 -922h-232zM391 483l-225 439h258l221 -445l-373 -477h-278z" />
    <glyph glyph-name="uni0437" unicode="&#x437;" horiz-adv-x="894" 
d="M416 -23q-124 0 -224 36.5t-151 99.5l125 147q45 -41 112.5 -63.5t137.5 -22.5q86 0 142 32.5t56 88.5q0 82 -143 82h-131l29 168h118q75 0 118.5 31.5t43.5 82.5q0 43 -37.5 66t-105.5 23q-135 0 -254 -68l-80 154q168 110 393 110q166 0 251 -59.5t85 -165.5
q0 -86 -49.5 -152t-146.5 -94v-4q80 -21 115.5 -65t35.5 -113q0 -142 -127 -228t-313 -86z" />
    <glyph glyph-name="uni0438" unicode="&#x438;" horiz-adv-x="1056" 
d="M1065 922l-162 -922h-231l43 248q-179 -271 -387 -271q-104 0 -150.5 62.5t-46.5 159.5q0 73 19 166l116 557h234l-109 -508q-18 -93 -16 -129q0 -88 63 -88q56 0 128 65t127 149.5t77 153.5l61 357h234z" />
    <glyph glyph-name="uni0439" unicode="&#x439;" horiz-adv-x="1056" 
d="M1065 922l-162 -922h-231l43 248q-179 -271 -387 -271q-104 0 -150.5 62.5t-46.5 159.5q0 73 19 166l116 557h234l-109 -508q-18 -93 -16 -129q0 -88 63 -88q56 0 128 65t127 149.5t77 153.5l61 357h234zM416 1397h207q-23 -142 98 -142q53 0 94 37.5t53 104.5h195
q-24 -130 -119.5 -221t-249.5 -91q-155 0 -226 85.5t-52 226.5z" />
    <glyph glyph-name="uni043A" unicode="&#x43a;" horiz-adv-x="1024" 
d="M1124 922l-417 -455l299 -467h-269l-301 465l398 457h290zM117 0l157 922h234l-160 -922h-231z" />
    <glyph glyph-name="uni043B" unicode="&#x43b;" horiz-adv-x="1067" 
d="M682 0l119 686h-232l-24 -98q-40 -150 -82 -256t-86 -174.5t-98.5 -107t-112.5 -53.5t-135 -15l20 229q25 -3 51 6t57.5 37.5t61 74.5t59 125t52.5 181l63 287h678l-158 -922h-233z" />
    <glyph glyph-name="uni043C" unicode="&#x43c;" horiz-adv-x="1265" 
d="M117 0l157 922h189l235 -394l353 394h221l-158 -922h-233l96 553l-315 -336h-7l-211 342l-96 -559h-231z" />
    <glyph glyph-name="uni043D" unicode="&#x43d;" horiz-adv-x="1099" 
d="M721 0l57 352h-370l-60 -352h-231l155 922h232l-58 -349h371l60 349h229l-154 -922h-231z" />
    <glyph glyph-name="uni043E" unicode="&#x43e;" horiz-adv-x="1071" 
d="M127 362q0 118 37 222.5t106 185t176.5 127.5t239.5 47q181 0 281 -105.5t100 -275.5q0 -169 -63.5 -301t-188 -208.5t-291.5 -76.5q-185 0 -291 107t-106 278zM369 406q0 -100 52 -159t142 -59q121 0 191.5 93t70.5 237q0 98 -46 155.5t-136 57.5q-123 0 -198.5 -91
t-75.5 -234z" />
    <glyph glyph-name="uni043F" unicode="&#x43f;" horiz-adv-x="1089" 
d="M410 352l-62 -352h-231l157 922h234l-45 -250q38 54 79 98.5t92.5 85.5t111.5 64.5t122 23.5q99 0 148 -61.5t49 -153.5q0 -93 -18 -192l-101 -537h-231l94 502q14 82 14 131q-2 43 -16.5 66.5t-52.5 23.5q-58 0 -132 -65t-129.5 -149.5t-82.5 -156.5z" />
    <glyph glyph-name="uni0440" unicode="&#x440;" horiz-adv-x="1095" 
d="M344 -4l-70 -406h-233l82 469l149 863h232l-43 -252q48 73 102.5 130.5t133 100.5t159.5 43q82 0 137 -48.5t77 -117.5t22 -153q0 -103 -28 -200t-81 -178t-125.5 -141.5t-167 -94.5t-198.5 -34q-70 0 -148 19zM735 731q-55 0 -126.5 -70t-124.5 -156t-76 -153l-25 -131
q57 -33 127 -33q148 0 246 112t98 271q0 71 -30.5 115.5t-88.5 44.5z" />
    <glyph glyph-name="uni0441" unicode="&#x441;" horiz-adv-x="925" 
d="M791 289l102 -144q-69 -75 -170.5 -121.5t-218.5 -46.5q-183 0 -280 102.5t-97 266.5q0 115 38 221.5t108 191t180.5 135t244.5 50.5q173 0 258 -55l-77 -187q-79 29 -191 29q-146 0 -231.5 -101.5t-85.5 -248.5q0 -89 47 -141t133 -52q109 0 240 101z" />
    <glyph glyph-name="uni0442" unicode="&#x442;" horiz-adv-x="1564" 
d="M1522 567l-107 -567h-235l98 510q16 93 14 127q0 88 -63 88q-44 0 -90 -39.5t-83.5 -103t-66 -126t-49.5 -124.5l-59 -332h-236l96 512q17 84 15 123q0 90 -60 90q-56 0 -120 -76t-106.5 -163.5t-66.5 -163.5l-55 -322h-231l157 922h234l-43 -246q26 49 59.5 93.5
t78.5 85.5t103 65t119 24q85 0 127.5 -50.5t42.5 -127.5q0 -40 -4 -94q27 52 60 96t78 86t103 66t122 24q95 0 140.5 -51.5t45.5 -136.5q0 -100 -18 -189z" />
    <glyph glyph-name="uni0443" unicode="&#x443;" horiz-adv-x="907" 
d="M727 922h248q-66 -277 -152 -515t-188 -422t-221 -289.5t-238 -105.5q-117 0 -199 72l107 178q52 -33 94 -33q111 0 209 189q-32 182 -113.5 432.5t-183.5 493.5h264q51 -120 109.5 -309t87.5 -328q56 137 105 310.5t71 326.5z" />
    <glyph glyph-name="uni0444" unicode="&#x444;" horiz-adv-x="1384" 
d="M487 -410l72 408q-28 -21 -80 -21q-168 0 -260 110.5t-92 285.5q0 159 64 288t186 206t280 77q34 0 62 -8l86 498h231l-88 -510q33 20 88 20q170 0 257 -104.5t87 -270.5q0 -268 -147 -430t-389 -162q-37 0 -58 9l-67 -396h-232zM377 395q-1 -83 33 -133.5t96 -58.5
q44 -3 88 4l88 516q-24 4 -47 4q-120 0 -189 -87t-69 -245zM975 723q-45 0 -62 -10l-90 -516q36 -3 72 0q115 11 174 97t59 245q0 88 -38 136t-115 48z" />
    <glyph glyph-name="uni0445" unicode="&#x445;" horiz-adv-x="954" 
d="M1075 922l-370 -447l231 -475h-260l-146 315l-251 -315h-287l387 471l-215 451h264l129 -297l231 297h287z" />
    <glyph glyph-name="uni0446" unicode="&#x446;" horiz-adv-x="1099" 
d="M1069 922l-123 -703h156l-92 -444h-211l53 223q-74 0 -109.5 21t-35.5 83q0 78 12 144q-178 -269 -389 -269q-104 0 -149.5 64t-45.5 162q0 78 17 162l118 557h234l-113 -508q-15 -76 -12 -127q0 -90 61 -90q66 0 149 87t144 195q31 61 49 131l54 312h233z" />
    <glyph glyph-name="uni0447" unicode="&#x447;" horiz-adv-x="976" 
d="M983 922l-160 -922h-231l76 446q-62 -89 -143 -140.5t-167 -51.5q-107 0 -156.5 59t-47.5 160q0 70 18 162l64 287h241l-59 -267q-10 -55 -10 -96q0 -84 65 -84q73 0 142 74.5t100 163.5l37 209h231z" />
    <glyph glyph-name="uni0448" unicode="&#x448;" horiz-adv-x="1521" 
d="M440 197q54 0 109.5 61.5t95.5 145.5t70 182l73 336h236l-109 -502q-20 -92 -20 -139q0 -84 57 -84q54 0 115.5 70t104 156t67.5 167l57 332h232l-158 -922h-233l45 260q-24 -44 -45.5 -77.5t-56 -75t-69.5 -68.5t-83.5 -45.5t-100.5 -18.5q-82 0 -126 54.5t-44 136.5
q0 40 9 92q-151 -283 -349 -283q-90 0 -136 58.5t-46 152.5q0 64 29 203l115 533h235l-102 -459q-2 -8 -9 -38.5t-10.5 -49.5t-7.5 -45.5t-4 -44.5q0 -88 59 -88z" />
    <glyph glyph-name="uni0449" unicode="&#x449;" horiz-adv-x="1560" 
d="M715 586l73 336h236l-96 -451q-2 -7 -9 -40t-11.5 -53t-8.5 -48.5t-4 -46.5q0 -86 59 -86q51 0 109 64.5t100 145t70 162.5l61 353h236l-123 -703h156l-93 -444h-210l53 225h-35q-67 0 -101.5 33.5t-21.5 103.5l21 109q-35 -59 -67.5 -102t-75.5 -84.5t-95 -63
t-111 -21.5q-82 0 -126 55.5t-44 137.5q0 38 9 90q-151 -283 -353 -283q-87 0 -132.5 61t-45.5 148q0 14 0.5 27.5t1.5 24t3 25t3 22t4 24.5t4.5 24t6 28.5t6.5 29.5l115 533h235l-100 -451q-2 -7 -9 -40t-11.5 -53t-8.5 -48.5t-4 -46.5q0 -86 59 -86q54 0 109.5 61.5
t95.5 145.5t70 182z" />
    <glyph glyph-name="uni044A" unicode="&#x44a;" horiz-adv-x="1040" 
d="M522 188q65 0 133 29t114 79t46 103q0 36 -24 56t-68 20q-78 0 -168.5 -62t-140.5 -149q16 -76 108 -76zM686 811q-153 -204 -209 -319q77 83 172 139.5t185 56.5q98 0 158.5 -63.5t60.5 -169.5q0 -122 -80.5 -228t-204 -168.5t-258.5 -74.5q-77 -7 -129 2
q-106 11 -154.5 72t-48.5 153q0 199 209 489h-258l37 222h541z" />
    <glyph glyph-name="uni044B" unicode="&#x44b;" horiz-adv-x="1366" 
d="M160 389l139 533h236l-103 -377q164 164 307 164q87 0 148 -61t61 -171q0 -99 -50 -193t-129 -160.5t-179 -106.5t-197 -40q-130 0 -194 63t-64 169q0 80 25 180zM1141 922h231l-158 -922h-233zM375 289q-2 -8 -2 -23q0 -35 21.5 -56.5t66.5 -21.5q85 0 167.5 67
t82.5 153q0 41 -24.5 64.5t-61.5 23.5q-62 0 -144.5 -68.5t-105.5 -138.5z" />
    <glyph glyph-name="uni044C" unicode="&#x44c;" horiz-adv-x="960" 
d="M467 188q94 0 179 68t85 152q0 39 -25 63.5t-61 24.5q-68 0 -155 -68t-115 -139q-2 -6 -2 -21q4 -80 94 -80zM754 709q96 0 155.5 -63t59.5 -169q0 -134 -83.5 -250.5t-214.5 -183t-272 -66.5q-135 0 -199.5 64t-64.5 170q0 84 19 154l145 557h236l-103 -377
q69 72 153.5 118t168.5 46z" />
    <glyph glyph-name="uni044D" unicode="&#x44d;" horiz-adv-x="919" 
d="M334 379l31 170h309q1 96 -56.5 143t-148.5 47q-124 0 -229 -65l-86 151q156 119 370 119q193 0 292 -104t99 -287q0 -258 -144 -417t-382 -159q-207 0 -332 125l129 154q80 -74 209 -74q99 0 169.5 49.5t94.5 147.5h-325z" />
    <glyph glyph-name="uni044E" unicode="&#x44e;" horiz-adv-x="1456" 
d="M117 0l155 922h240l-57 -338h147q51 160 174.5 260t313.5 100q177 0 269.5 -103.5t92.5 -279.5q0 -161 -59.5 -292.5t-176 -211.5t-270.5 -80q-177 0 -274 99.5t-105 275.5h-151l-60 -352h-239zM801 408q0 -99 45 -159.5t127 -60.5q115 0 178 93t63 235q0 99 -40 157
t-125 58q-114 0 -181 -90t-67 -233z" />
    <glyph glyph-name="uni044F" unicode="&#x44f;" horiz-adv-x="968" 
d="M666 922h311l-160 -922h-231l45 270h-109l-227 -270h-277l295 334q-59 30 -95 87t-36 128q0 77 28.5 143t86 118.5t152 82t217.5 29.5zM422 573q0 -112 137 -112h107l43 250h-109q-87 0 -132.5 -40t-45.5 -98z" />
    <glyph glyph-name="uni0451" unicode="&#x451;" horiz-adv-x="983" 
d="M825 276l99 -131q-74 -74 -176.5 -121t-223.5 -47q-191 0 -294 103.5t-103 267.5q0 116 40 223t111.5 190t180 133t237.5 50q154 0 233 -62.5t77 -179.5q0 -159 -169 -249.5t-475 -104.5q6 -86 59.5 -129t145.5 -43q118 0 258 100zM674 743q-109 0 -189.5 -70
t-107.5 -175q192 12 292.5 54.5t100.5 111.5q1 37 -25.5 58t-70.5 21zM401 1239q0 51 36.5 87t90.5 36q53 0 89 -34t36 -87q0 -58 -35.5 -95.5t-89.5 -37.5q-57 0 -92 35.5t-35 95.5zM815 1239q0 50 37 86.5t92 36.5q53 0 89 -34t36 -87q0 -58 -35.5 -95.5t-89.5 -37.5
q-58 0 -93.5 36t-35.5 95z" />
    <glyph glyph-name="uni0452" unicode="&#x452;" horiz-adv-x="1157" 
d="M117 885l33 190h235l61 359h232l-62 -359h318l-33 -190h-319l-72 -393q173 251 377 251q67 0 115.5 -26.5t75 -73.5t38.5 -101t12 -118q0 -238 -130.5 -471.5t-335.5 -362.5h-252q150 105 258.5 239t161.5 269.5t53 263.5q0 70 -25.5 115t-85.5 45q-36 0 -80 -30.5
t-85.5 -80.5t-75.5 -98.5t-64 -99.5l-35 -213h-231l151 885h-235z" />
    <glyph glyph-name="uni0453" unicode="&#x453;" horiz-adv-x="872" 
d="M76 229q0 67 31.5 120t82 86.5t111.5 60t122 46.5t112 39t83 45.5t33 59.5q0 30 -27.5 48t-80.5 18q-113 0 -250 -70l-72 154q156 108 363 108q149 0 229 -62.5t80 -166.5q0 -69 -32 -123.5t-82.5 -89t-112 -61.5t-123 -47t-112 -39t-82.5 -44t-32 -55q0 -40 36 -64
t100 -24q137 0 274 102l100 -127q-73 -76 -179 -121t-224 -45q-170 0 -259 69.5t-89 182.5zM924 1378l-260 -299l-140 99l215 342z" />
    <glyph glyph-name="uni0454" unicode="&#x454;" horiz-adv-x="997" 
d="M780 551l-28 -170h-385q-2 -98 48.5 -147.5t155.5 -49.5q147 0 267 84l61 -176q-159 -115 -377 -115q-192 0 -293.5 99t-101.5 272q0 114 38 219.5t108 190t181 135.5t246 51q221 0 328 -121l-117 -164q-93 78 -233 78q-199 0 -277 -186h379z" />
    <glyph glyph-name="uni0455" unicode="&#x455;" horiz-adv-x="796" 
d="M516 266q0 32 -25 60.5t-62 49t-81 48.5t-81 57.5t-62 77t-25 105.5q0 124 97 202t262 78q194 0 299 -67l-103 -172q-69 38 -174 38q-65 0 -102 -21t-37 -58q0 -27 25 -53t62 -46t81 -49t81 -60.5t62 -83.5t25 -114q0 -135 -106 -208t-273 -73q-102 0 -189.5 26
t-132.5 71l109 159q92 -57 201 -57q71 0 110 23t39 67z" />
    <glyph glyph-name="uni0456" unicode="&#x456;" horiz-adv-x="542" 
d="M135 0l158 922h233l-159 -922h-232zM328 1274q0 61 41.5 98t101.5 37q54 0 96.5 -37.5t42.5 -97.5q0 -67 -42 -107.5t-97 -40.5q-61 0 -102 40t-41 108z" />
    <glyph glyph-name="uni0457" unicode="&#x457;" horiz-adv-x="542" 
d="M135 0l158 922h231l-157 -922h-232zM188 1237q0 48 35 83.5t88 35.5q50 0 84.5 -33.5t34.5 -83.5q0 -54 -34 -90.5t-85 -36.5q-55 0 -89 34.5t-34 90.5zM510 1237q0 48 35 83.5t88 35.5q50 0 83.5 -33t33.5 -84q0 -54 -33.5 -90.5t-85.5 -36.5q-54 0 -87.5 34.5
t-33.5 90.5z" />
    <glyph glyph-name="uni0458" unicode="&#x458;" horiz-adv-x="536" 
d="M541 922l-174 -990q-28 -164 -118 -261t-251 -97q-69 0 -129 18t-94 48l96 186q53 -33 109 -33q126 0 153 160l172 969h236zM340 1274q0 61 40 98t99 37q55 0 97 -37.5t42 -97.5q0 -67 -41.5 -107.5t-97.5 -40.5q-59 0 -99 40t-40 108z" />
    <glyph glyph-name="uni0459" unicode="&#x459;" horiz-adv-x="1538" 
d="M1083 922l-82 -383q69 72 158.5 121t173.5 49q96 0 154.5 -63t58.5 -169q0 -134 -83 -250.5t-213.5 -183t-270.5 -66.5q-135 0 -200.5 64.5t-65.5 169.5q0 70 20 154l72 321h-236l-24 -98q-40 -150 -82 -256t-86 -174.5t-98.5 -107t-112.5 -53.5t-135 -15l20 229
q25 -3 51.5 6t58 37.5t60.5 74.5t58.5 125t52.5 181l63 287h688zM1044 188q94 0 179.5 68t85.5 152q0 39 -24 63.5t-60 24.5q-67 0 -155 -68t-118 -139v-21q0 -36 22.5 -58t69.5 -22z" />
    <glyph glyph-name="uni045A" unicode="&#x45a;" horiz-adv-x="1581" 
d="M1042 530q70 78 158 128.5t176 50.5q96 0 154.5 -63t58.5 -169q0 -134 -83 -250.5t-213.5 -183t-270.5 -66.5q-117 0 -179 50t-77 131q-8 51 4 147q0 2 2 23.5t4 33.5h-366l-62 -362h-231l155 922h234l-60 -338h373l68 338h229zM1087 188q94 0 179.5 68t85.5 152
q0 39 -24 63.5t-60 24.5q-67 0 -155 -68t-118 -139v-21q0 -36 22.5 -58t69.5 -22z" />
    <glyph glyph-name="uni045B" unicode="&#x45b;" horiz-adv-x="1155" 
d="M117 885l30 190h236l63 359h232l-62 -359h316l-33 -190h-317l-72 -391q183 249 393 249q91 0 143.5 -49t61.5 -141q8 -76 -12 -203l-66 -350h-231l57 309q10 35 10 82q15 131 -67 131q-46 0 -93 -27.5t-91.5 -78.5t-76.5 -96t-71 -107l-37 -213h-231l151 885h-233z" />
    <glyph glyph-name="uni045C" unicode="&#x45c;" horiz-adv-x="1024" 
d="M1124 922l-417 -455l299 -467h-269l-301 465l398 457h290zM117 0l157 922h234l-160 -922h-231zM1012 1378l-260 -299l-140 99l215 342z" />
    <glyph glyph-name="uni045E" unicode="&#x45e;" horiz-adv-x="907" 
d="M727 922h248q-66 -277 -152 -515t-188 -422t-221 -289.5t-238 -105.5q-117 0 -199 72l107 178q52 -33 94 -33q111 0 209 189q-32 182 -113.5 432.5t-183.5 493.5h264q51 -120 109.5 -309t87.5 -328q56 137 105 310.5t71 326.5zM303 1397h207q-23 -142 98 -142
q53 0 94.5 37.5t53.5 104.5h194q-24 -130 -119 -221t-249 -91q-155 0 -226.5 85.5t-52.5 226.5z" />
    <glyph glyph-name="uni045F" unicode="&#x45f;" horiz-adv-x="1097" 
d="M117 0l157 922h234l-121 -703h365l118 703h234l-160 -922h-305l-41 -242h-217l41 242h-305z" />
    <glyph glyph-name="uni0462" unicode="&#x462;" horiz-adv-x="1331" 
d="M782 1434l-30 -164h301l-41 -236h-299l-29 -153q113 10 178 10q227 0 348 -93t121 -276q0 -247 -175.5 -386.5t-479.5 -139.5q-98 0 -232 2t-165 2l182 1034h-248l41 236h248l28 164h252zM805 655q-77 0 -162 -12l-72 -405l158 -7q92 0 165 27t119 85t46 140
q0 88 -67 130t-187 42z" />
    <glyph glyph-name="uni0463" unicode="&#x463;" horiz-adv-x="1019" 
d="M119 721l35 201h235l98 512h232l-98 -512h272l-33 -201h-274l-43 -213q134 117 264 117q96 0 156.5 -59.5t60.5 -157.5q0 -110 -70 -210t-187 -160.5t-247 -60.5q-141 0 -204.5 65.5t-63.5 178.5q0 19 3 46.5t10.5 66.5t13.5 70t18 83l18 78t19.5 83t17.5 73h-233z
M698 424q-62 0 -135.5 -56t-73.5 -116q2 -35 23.5 -55.5t62.5 -20.5q80 0 145.5 53t65.5 111q0 38 -25.5 61t-62.5 23z" />
    <glyph glyph-name="uni0472" unicode="&#x472;" horiz-adv-x="1687" 
d="M209 645q0 169 59.5 317.5t165.5 258t263 172.5t343 63q201 0 357.5 -79.5t245 -229.5t88.5 -348q0 -172 -57.5 -322t-161 -261t-257.5 -175t-337 -64q-169 0 -305 52t-223.5 143t-134 212t-46.5 261zM743 692q-121 0 -258 -102q21 -175 142.5 -276t300.5 -101
q194 0 332.5 111t179.5 299q-143 -80 -246 -80q-72 0 -137.5 23.5t-106 51t-96 51t-111.5 23.5zM1225 762q52 0 115.5 25.5t111.5 60.5q-20 171 -136 272t-298 101q-192 0 -331.5 -109t-180.5 -289q149 90 260 90q58 0 109.5 -15.5t91 -37.5t77.5 -44.5t84.5 -38t96.5 -15.5
z" />
    <glyph glyph-name="uni0473" unicode="&#x473;" horiz-adv-x="1071" 
d="M127 362q0 118 37 222.5t106 185t176.5 127.5t239.5 47q181 0 281 -105.5t100 -275.5q0 -169 -63.5 -301t-188 -208.5t-291.5 -76.5q-185 0 -291 107t-106 278zM465 440q-46 0 -94 -30q10 -222 192 -222q86 0 148 48.5t90 132.5q-52 -25 -92 -25q-37 0 -72.5 15t-58.5 33
t-53.5 33t-59.5 15zM745 485q39 0 76 21q0 33 -2 49q-6 85 -51.5 130.5t-124.5 45.5q-88 0 -153.5 -47.5t-94.5 -130.5q56 29 99 29q39 0 77 -15t62.5 -33.5t55 -33.5t56.5 -15z" />
    <glyph glyph-name="uni0474" unicode="&#x474;" horiz-adv-x="1380" 
d="M1343 1022l-571 -1026h-190l-336 1438h256l233 -1063l420 776q108 207 218 269.5t278 8.5l-72 -215q-27 10 -49 12t-42.5 -8t-35.5 -22.5t-35 -42t-34.5 -55t-39.5 -72.5z" />
    <glyph glyph-name="uni0475" unicode="&#x475;" horiz-adv-x="987" 
d="M862 549l-307 -553h-180l-258 926h256l104 -396q22 -87 29 -207q32 77 100 211l86 162q35 64 66 107t70.5 77t83 48t100.5 12t127 -23l-70 -213q-21 10 -39 11.5t-35.5 -6t-32 -19t-32 -34.5t-32 -45t-36.5 -58z" />
    <glyph glyph-name="uni0490" unicode="&#x490;" horiz-adv-x="1058" 
d="M199 0l252 1434h573l43 239h236l-84 -475h-557l-211 -1198h-252z" />
    <glyph glyph-name="uni0491" unicode="&#x491;" horiz-adv-x="788" 
d="M125 0l160 922h391l35 198h217l-74 -420h-375l-121 -700h-233z" />
    <glyph glyph-name="uni0492" unicode="&#x492;" horiz-adv-x="1056" 
d="M111 608l39 221h192l107 605h829l-41 -236h-578l-65 -369h362l-38 -221h-363l-106 -608h-252l106 608h-192z" />
    <glyph glyph-name="uni0493" unicode="&#x493;" horiz-adv-x="819" 
d="M154 0l57 326h-150l33 190h150l71 406h619l-39 -222h-383l-33 -184h262l-32 -190h-263l-57 -326h-235z" />
    <glyph glyph-name="uni0494" unicode="&#x494;" horiz-adv-x="1288" 
d="M199 0l252 1434h829l-41 -236h-577l-72 -410q145 78 317 78q62 0 117.5 -16t107 -50.5t83.5 -89t45.5 -132.5t-5.5 -181l-67 -385q-76 -438 -445 -438q-77 0 -137 29t-86 67l111 183q50 -43 121 -43q72 0 118.5 45.5t65.5 150.5l59 338q26 144 -20.5 215.5t-155.5 71.5
q-63 0 -117.5 -13t-81 -25.5t-71.5 -37.5l-98 -555h-252z" />
    <glyph glyph-name="uni0495" unicode="&#x495;" horiz-adv-x="1052" 
d="M117 0l162 922h618l-39 -222h-383l-35 -196q128 88 275 88q131 0 219 -79t88 -224q0 -196 -109 -385.5t-284 -313.5h-254q72 55 138 121.5t126.5 147.5t96.5 174t36 182q0 72 -47 115t-119 43q-47 0 -90 -13.5t-64 -26.5t-49 -34l-51 -299h-235z" />
    <glyph glyph-name="uni0496" unicode="&#x496;" horiz-adv-x="1980" 
d="M715 756l-416 678h283l405 -682l121 682h250l-121 -684l635 684h305l-664 -693l291 -505h185l-86 -492h-236l45 256h-53l-422 743l-131 -743h-250l129 741l-661 -741h-297z" />
    <glyph glyph-name="uni0497" unicode="&#x497;" horiz-adv-x="1419" 
d="M1522 922l-373 -451l131 -252h156l-93 -444h-210l53 225q-42 0 -62.5 22.5t-50.5 86.5l-178 366l348 447h279zM391 483l-225 439h258l221 -445l-373 -477h-278zM571 0l160 922h232l-160 -922h-232z" />
    <glyph glyph-name="uni0498" unicode="&#x498;" horiz-adv-x="1183" 
d="M629 -313h-236l53 303q-234 44 -346 215l164 162q120 -154 338 -154q124 0 199.5 61t75.5 168q0 78 -57.5 125t-176.5 47h-129l41 236h129q110 0 182 62t72 157q0 74 -53.5 113t-151.5 39q-141 0 -297 -107l-114 176q200 166 454 166q210 0 317 -90t107 -246
q0 -123 -69.5 -224t-206.5 -153l-2 -6q105 -27 161 -109.5t56 -195.5q0 -181 -122.5 -303t-336.5 -145z" />
    <glyph glyph-name="uni0499" unicode="&#x499;" horiz-adv-x="894" 
d="M489 -242h-217l37 228q-90 12 -160 45t-108 82l125 147q45 -41 112.5 -63.5t137.5 -22.5q86 0 142 32.5t56 88.5q0 82 -143 82h-131l29 168h118q75 0 118.5 31.5t43.5 82.5q0 43 -37.5 66t-105.5 23q-135 0 -254 -68l-80 154q168 110 393 110q166 0 251 -59.5t85 -165.5
q0 -86 -49.5 -152t-146.5 -94v-4q80 -21 115.5 -65t35.5 -113q0 -119 -91.5 -199.5t-236.5 -103.5z" />
    <glyph glyph-name="uni049A" unicode="&#x49a;" horiz-adv-x="1370" 
d="M1368 236l-86 -492h-235l45 256h-48l-464 739l-129 -739h-252l252 1434h251l-118 -678l667 678h316l-705 -705l320 -493h186z" />
    <glyph glyph-name="uni049B" unicode="&#x49b;" horiz-adv-x="1030" 
d="M1124 922l-417 -455l157 -248h156l-92 -444h-211l53 225q-37 0 -59.5 21t-63.5 90l-211 354l398 457h290zM117 0l157 922h234l-160 -922h-231z" />
    <glyph glyph-name="uni049C" unicode="&#x49c;" horiz-adv-x="1460" 
d="M578 319l145 820h209l-33 -187l442 482h316l-668 -691l449 -743h-291l-322 559l-39 -240h-208zM702 1434l-251 -1434h-252l252 1434h251z" />
    <glyph glyph-name="uni049D" unicode="&#x49d;" horiz-adv-x="1128" 
d="M440 158l105 594h184l-22 -127l243 297h279l-410 -461l266 -461h-266l-168 311l-26 -153h-185zM117 0l157 922h234l-160 -922h-231z" />
    <glyph glyph-name="uni04A0" unicode="&#x4a0;" horiz-adv-x="1536" 
d="M365 0l210 1198h-356l41 236h608l-118 -678l667 678h316l-705 -705l473 -729h-291l-465 739l-129 -739h-251z" />
    <glyph glyph-name="uni04A1" unicode="&#x4a1;" horiz-adv-x="1177" 
d="M270 0l119 700h-260l37 222h496l-160 -922h-232zM1278 922l-418 -455l299 -467h-268l-301 465l397 457h291z" />
    <glyph glyph-name="uni04A2" unicode="&#x4a2;" horiz-adv-x="1609" 
d="M1116 0l109 612h-666l-108 -612h-252l252 1434h251l-102 -586h666l102 586h250l-211 -1198h195l-86 -492h-236l45 256h-209z" />
    <glyph glyph-name="uni04A3" unicode="&#x4a3;" horiz-adv-x="1140" 
d="M768 289l10 63h-370l-60 -352h-231l155 922h232l-58 -349h371l60 349h229l-119 -703h156l-92 -444h-211l53 223q-71 0 -108 22.5t-37 83.5q0 68 20 185z" />
    <glyph glyph-name="uni04A4" unicode="&#x4a4;" horiz-adv-x="1945" 
d="M1096 0l106 612h-643l-108 -612h-252l252 1434h251l-102 -586h643l105 586h819l-41 -236h-567l-211 -1198h-252z" />
    <glyph glyph-name="uni04A5" unicode="&#x4a5;" horiz-adv-x="1099" 
d="M700 0l58 352h-350l-60 -352h-231l155 922h232l-58 -349h349l59 349h606l-39 -222h-372l-117 -700h-232z" />
    <glyph glyph-name="uni04AA" unicode="&#x4aa;" horiz-adv-x="1357" 
d="M1286 319l96 -192q-131 -116 -364 -143l-51 -297h-236l53 301q-262 37 -418.5 214.5t-156.5 446.5q0 128 36 247t108 220.5t172.5 177.5t239 119t298.5 43q144 0 262 -35.5t182 -95.5l-129 -188q-128 84 -323 84q-127 0 -235 -43t-182 -117t-115.5 -174t-41.5 -213
q0 -207 122.5 -334t336.5 -127q201 0 346 106z" />
    <glyph glyph-name="uni04AB" unicode="&#x4ab;" horiz-adv-x="925" 
d="M791 289l102 -144q-115 -125 -293 -159l-39 -228h-217l39 234q-126 31 -191 125.5t-65 228.5q0 115 38 221.5t108 191t180.5 135t244.5 50.5q173 0 258 -55l-77 -187q-79 29 -191 29q-146 0 -231.5 -101.5t-85.5 -248.5q0 -89 47 -141t133 -52q109 0 240 101z" />
    <glyph glyph-name="uni04AE" unicode="&#x4ae;" horiz-adv-x="1257" 
d="M1503 1434l-647 -836l-104 -598h-252l104 598l-348 836h266l240 -594l448 594h293z" />
    <glyph glyph-name="uni04AF" unicode="&#x4af;" horiz-adv-x="884" 
d="M463 -410h-234l70 412q-2 11 -16.5 99t-17.5 106t-16.5 95.5t-19 105.5t-18 95.5t-21 107t-21 98t-25.5 109.5t-27 104h256q37 -144 65.5 -334t36.5 -322q99 134 162 316t74 340h252q-29 -253 -147.5 -505t-280.5 -417z" />
    <glyph glyph-name="uni04B0" unicode="&#x4b0;" horiz-adv-x="1257" 
d="M1503 1434l-569 -723h231l-39 -219h-288l-86 -492h-252l86 492h-295l39 219h235l-309 723h266l240 -594l448 594h293z" />
    <glyph glyph-name="uni04B1" unicode="&#x4b1;" horiz-adv-x="884" 
d="M463 -410h-234l70 410h-233l34 209h168q-74 423 -151 713h256q37 -144 65.5 -334t36.5 -322q99 134 162 316t74 340h252q-22 -192 -96.5 -383.5t-184.5 -329.5h166l-35 -209h-278z" />
    <glyph glyph-name="uni04B2" unicode="&#x4b2;" horiz-adv-x="1390" 
d="M1587 1434l-612 -713l254 -485h186l-86 -492h-235l45 256h-66l-278 537l-463 -537h-307l637 739l-363 695h283l264 -510l436 510h305z" />
    <glyph glyph-name="uni04B3" unicode="&#x4b3;" horiz-adv-x="968" 
d="M1075 922l-370 -447l124 -256h158l-92 -444h-211l53 225q-39 0 -63.5 18t-52.5 84l-91 213l-251 -315h-287l387 471l-215 451h264l129 -297l231 297h287z" />
    <glyph glyph-name="uni04B6" unicode="&#x4b6;" horiz-adv-x="1417" 
d="M1425 1434l-211 -1198h195l-86 -492h-236l46 256h-209l102 588q-63 -42 -153 -70.5t-185 -28.5q-188 0 -293.5 94t-105.5 265q4 72 10 110l84 476h252l-74 -414q-10 -65 -10 -109q-2 -91 51 -138.5t166 -47.5q160 0 299 92l109 617h249z" />
    <glyph glyph-name="uni04B7" unicode="&#x4b7;" horiz-adv-x="1013" 
d="M641 289l27 157q-62 -89 -143 -140.5t-167 -51.5q-107 0 -156.5 59t-47.5 160q0 85 18 162l64 287h241l-59 -267q-10 -41 -10 -96q0 -84 65 -84q73 0 142 74.5t100 163.5l37 209h231l-123 -703h156l-92 -444h-211l53 223q-71 0 -108 22.5t-37 83.5q0 68 20 185z" />
    <glyph glyph-name="uni04B8" unicode="&#x4b8;" horiz-adv-x="1374" 
d="M1425 1434l-251 -1434h-250l102 588q-68 -46 -170 -70l-37 -209h-225l33 191q-161 15 -249.5 104.5t-88.5 243.5q0 45 10 110l84 476h252l-74 -414q-10 -49 -10 -109q-3 -139 119 -168l51 283h225l-49 -281q100 22 170 72l109 617h249z" />
    <glyph glyph-name="uni04B9" unicode="&#x4b9;" horiz-adv-x="1013" 
d="M1020 922l-160 -922h-231l76 446q-38 -52 -91 -92l-39 -217h-196l24 142h-24q-105 0 -166 56t-61 150q0 58 30 205l49 232h234l-59 -267q-13 -71 -13 -96q0 -59 47 -78l41 230h197l-29 -160q74 74 103 162l36 209h232z" />
    <glyph glyph-name="uni04BA" unicode="&#x4ba;" horiz-adv-x="1335" 
d="M453 1434h249l-112 -648q141 80 356 80q94 0 169 -31t126 -92t69.5 -150t-1.5 -206l-70 -387h-250l60 336q26 153 -24 224t-183 71q-101 0 -165.5 -20t-129.5 -58l-98 -553h-250z" />
    <glyph glyph-name="uni04BB" unicode="&#x4bb;" horiz-adv-x="1091" 
d="M117 0l245 1434h234l-133 -762q74 114 177.5 193t215.5 79q110 0 160.5 -64t50.5 -169q0 -72 -18 -174l-101 -537h-231l94 502q14 82 14 123q-2 48 -17.5 73t-55.5 25q-58 0 -131 -65t-128.5 -149.5t-82.5 -156.5l-62 -352h-231z" />
    <glyph glyph-name="uni04C0" unicode="&#x4c0;" horiz-adv-x="499" 
d="M590 1436l-242 -1436h-231l241 1436h232z" />
    <glyph glyph-name="uni04CB" unicode="&#x4cb;" horiz-adv-x="1374" 
d="M1425 1434l-251 -1434h-209l-45 -256h-236l86 492h195l61 352q-63 -42 -153 -70.5t-185 -28.5q-188 0 -293.5 94t-105.5 265q4 72 10 110l84 476h252l-74 -414q-10 -49 -10 -109q-2 -91 51 -138.5t166 -47.5q160 0 299 92l109 617h249z" />
    <glyph glyph-name="uni04CC" unicode="&#x4cc;" horiz-adv-x="976" 
d="M983 922l-121 -686q-1 -4 -3 -13q-24 -108 -48 -147q-45 -72 -161 -78h-5l-24 -223h-211l63 444h156l43 248q-62 -89 -143 -141t-167 -52q-107 0 -156.5 59t-47.5 161q0 69 18 161l60 267h241l-55 -246q-10 -55 -10 -96q0 -84 65 -84q73 0 142 74t100 163l33 189h231z
" />
    <glyph glyph-name="uni04CF" unicode="&#x4cf;" horiz-adv-x="710" 
d="M229 0l252 1434h252l-252 -1434h-252z" />
    <glyph glyph-name="uni04D0" unicode="&#x4d0;" horiz-adv-x="1443" 
d="M14 0l850 1438h219l344 -1438h-251l-89 367h-589l-213 -367h-271zM920 1112l-287 -510h399zM614 1782h236q0 -57 33.5 -88t117.5 -31q144 0 197 119h225q-37 -131 -157.5 -212t-282.5 -81q-190 0 -283.5 78.5t-85.5 214.5z" />
    <glyph glyph-name="uni04D1" unicode="&#x4d1;" horiz-adv-x="1077" 
d="M942 0h-231l45 260q-177 -283 -383 -283q-122 0 -184 87t-62 231q0 183 81 331.5t225 233t321 84.5q99 0 190.5 -23t138.5 -51zM485 188q55 0 124 68t121 156t75 161l29 146q-47 12 -103 12q-160 0 -261 -110t-101 -271q0 -77 29.5 -119.5t86.5 -42.5zM504 1397h207
q-23 -142 98 -142q53 0 94 37.5t53 104.5h195q-24 -130 -119.5 -221t-249.5 -91q-155 0 -226 85.5t-52 226.5z" />
    <glyph glyph-name="uni04D2" unicode="&#x4d2;" horiz-adv-x="1443" 
d="M14 0l850 1438h219l344 -1438h-251l-89 367h-589l-213 -367h-271zM920 1112l-287 -510h399zM1094 1681q0 55 42 89t103 34q60 0 100.5 -33.5t40.5 -87.5q0 -56 -38.5 -92.5t-102.5 -36.5q-65 0 -105 34.5t-40 92.5zM604 1681q0 55 42.5 89t103.5 34t101 -33t40 -88
q0 -56 -38.5 -92.5t-102.5 -36.5q-65 0 -105.5 34.5t-40.5 92.5z" />
    <glyph glyph-name="uni04D3" unicode="&#x4d3;" horiz-adv-x="1077" 
d="M942 0h-231l45 260q-177 -283 -383 -283q-122 0 -184 87t-62 231q0 183 81 331.5t225 233t321 84.5q99 0 190.5 -23t138.5 -51zM485 188q55 0 124 68t121 156t75 161l29 146q-47 12 -103 12q-160 0 -261 -110t-101 -271q0 -77 29.5 -119.5t86.5 -42.5zM420 1198
q0 50 36 86.5t91 36.5q53 0 89 -34t36 -87q0 -58 -35.5 -95.5t-89.5 -37.5q-57 0 -92 35.5t-35 95.5zM834 1198q0 50 37 86.5t92 36.5q53 0 88.5 -34t35.5 -87q0 -58 -35 -95.5t-89 -37.5q-57 0 -93 35.5t-36 95.5z" />
    <glyph glyph-name="uni04D4" unicode="&#x4d4;" horiz-adv-x="1988" 
d="M2101 1434l-41 -236h-587l-64 -358h526l-41 -236h-526l-65 -368h608l-41 -236h-860l65 371h-452l-326 -371h-313l1280 1434h837zM1188 1014l-352 -408h280z" />
    <glyph glyph-name="uni04D5" unicode="&#x4d5;" horiz-adv-x="1622" 
d="M778 272q-31 -48 -58.5 -84t-68 -78t-80 -69t-92 -45.5t-108.5 -18.5q-120 0 -182 87.5t-62 234.5q0 179 80.5 326.5t224.5 233t322 85.5q168 0 295 -78q71 42 139 60t155 18q161 0 232.5 -68.5t69.5 -173.5q-1 -107 -79.5 -183.5t-220.5 -118.5t-344 -52q6 -86 61 -129
t144 -43q118 0 258 100l99 -131q-73 -74 -177 -121t-223 -47q-167 0 -264.5 80t-120.5 215zM485 188q54 0 121.5 66t119.5 151.5t79 161.5q28 95 53 138q-53 26 -143 26q-147 0 -246.5 -111.5t-99.5 -269.5q0 -77 29.5 -119.5t86.5 -42.5zM1313 743q-110 0 -189.5 -70
t-107.5 -175q390 26 393 166q2 35 -23 57t-73 22z" />
    <glyph glyph-name="uni04D6" unicode="&#x4d6;" horiz-adv-x="1177" 
d="M199 0l252 1434h839l-41 -236h-587l-64 -358h526l-41 -236h-526l-65 -368h608l-41 -236h-860zM530 1782h236q0 -57 34 -88t118 -31q143 0 196 119h225q-37 -131 -157.5 -212t-282.5 -81q-190 0 -283.5 78.5t-85.5 214.5z" />
    <glyph glyph-name="uni04D7" unicode="&#x4d7;" horiz-adv-x="983" 
d="M825 276l99 -131q-74 -74 -176.5 -121t-223.5 -47q-191 0 -294 103.5t-103 267.5q0 116 40 223t111.5 190t180 133t237.5 50q154 0 233 -62.5t77 -179.5q0 -159 -169 -249.5t-475 -104.5q6 -86 59.5 -129t145.5 -43q118 0 258 100zM674 743q-109 0 -189.5 -70
t-107.5 -175q192 12 292.5 54.5t100.5 111.5q1 37 -25.5 58t-70.5 21zM430 1397h207q-23 -142 98 -142q53 0 94.5 37.5t53.5 104.5h194q-24 -130 -119 -221t-249 -91q-155 0 -226.5 85.5t-52.5 226.5z" />
    <glyph glyph-name="uni04D8" unicode="&#x4d8;" horiz-adv-x="1611" 
d="M252 848h1126q-15 175 -129 274t-301 99q-202 0 -370 -111l-91 195q199 151 500 151q304 0 486 -174.5t182 -486.5q0 -162 -55.5 -308.5t-159 -260.5t-265.5 -181.5t-360 -67.5q-235 0 -389 106t-200.5 299.5t26.5 465.5zM838 213q206 0 345.5 111t180.5 288h-885
q-16 -174 76.5 -286.5t282.5 -112.5z" />
    <glyph glyph-name="uni04D9" unicode="&#x4d9;" horiz-adv-x="1007" 
d="M297 649l-64 164q68 59 168.5 95t202.5 36t180.5 -30.5t125.5 -83t70.5 -119t23.5 -144.5q0 -114 -36 -218.5t-103.5 -188t-176 -133.5t-242.5 -50q-149 0 -234.5 64.5t-105.5 171.5q-9 52 -4 100q11 97 78 174q236 57 582 66q-9 85 -53.5 135.5t-145.5 50.5
q-130 0 -266 -90zM469 182q100 0 172.5 58t101.5 151q-244 -11 -378 -51q-26 -45 -11 -90q12 -68 115 -68z" />
    <glyph glyph-name="uni04DC" unicode="&#x4dc;" horiz-adv-x="1964" 
d="M715 756l-416 678h283l405 -682l121 682h250l-121 -684l635 684h305l-664 -693l426 -741h-280l-422 743l-131 -743h-250l129 741l-661 -741h-297zM1354 1681q0 55 42 89t103 34q60 0 100.5 -33.5t40.5 -87.5q0 -56 -38.5 -92.5t-102.5 -36.5q-65 0 -105 34.5t-40 92.5z
M864 1681q0 55 42.5 89t103.5 34t101 -33t40 -88q0 -56 -38.5 -92.5t-102.5 -36.5q-65 0 -105.5 34.5t-40.5 92.5z" />
    <glyph glyph-name="uni04DD" unicode="&#x4dd;" horiz-adv-x="1404" 
d="M1522 922l-373 -451l240 -471h-259l-235 475l348 447h279zM571 0l160 922h232l-160 -922h-232zM391 483l-225 439h258l221 -445l-373 -477h-278zM543 1198q0 50 36.5 86.5t90.5 36.5q53 0 89 -34t36 -87q0 -58 -35.5 -95.5t-89.5 -37.5q-57 0 -92 35.5t-35 95.5z
M956 1198q0 50 37 86.5t92 36.5q53 0 89 -34t36 -87q0 -58 -35.5 -95.5t-89.5 -37.5q-57 0 -93 35.5t-36 95.5z" />
    <glyph glyph-name="uni04DE" unicode="&#x4de;" horiz-adv-x="1183" 
d="M588 -23q-164 0 -289.5 59.5t-198.5 168.5l164 162q120 -154 338 -154q124 0 199.5 61t75.5 168q0 78 -57.5 125t-176.5 47h-129l41 236h129q110 0 182 62t72 157q0 74 -53.5 113t-151.5 39q-141 0 -297 -107l-114 176q200 166 454 166q210 0 317 -90t107 -246
q0 -123 -69.5 -224t-206.5 -153l-2 -6q105 -27 161 -109.5t56 -195.5q0 -201 -149 -328t-402 -127zM924 1681q0 55 42 89t103 34q60 0 100.5 -33.5t40.5 -87.5q0 -56 -38.5 -92.5t-102.5 -36.5q-65 0 -105 34.5t-40 92.5zM434 1681q0 55 42.5 89t103.5 34t101 -33t40 -88
q0 -56 -38.5 -92.5t-102.5 -36.5q-65 0 -105.5 34.5t-40.5 92.5z" />
    <glyph glyph-name="uni04DF" unicode="&#x4df;" horiz-adv-x="894" 
d="M416 -23q-124 0 -224 36.5t-151 99.5l125 147q45 -41 112.5 -63.5t137.5 -22.5q86 0 142 32.5t56 88.5q0 82 -143 82h-131l29 168h118q75 0 118.5 31.5t43.5 82.5q0 43 -37.5 66t-105.5 23q-135 0 -254 -68l-80 154q168 110 393 110q166 0 251 -59.5t85 -165.5
q0 -86 -49.5 -152t-146.5 -94v-4q80 -21 115.5 -65t35.5 -113q0 -142 -127 -228t-313 -86zM270 1198q0 50 36 86.5t91 36.5q53 0 89 -34t36 -87q0 -58 -35.5 -95.5t-89.5 -37.5q-57 0 -92 35.5t-35 95.5zM684 1198q0 50 37 86.5t92 36.5q53 0 89 -34t36 -87
q0 -58 -35.5 -95.5t-89.5 -37.5q-57 0 -93 35.5t-36 95.5z" />
    <glyph glyph-name="uni04E2" unicode="&#x4e2;" horiz-adv-x="1626" 
d="M420 0h-221l252 1434h251l-174 -994l930 994h221l-252 -1434h-251l176 995zM788 1556l33 189h633l-33 -189h-633z" />
    <glyph glyph-name="uni04E3" unicode="&#x4e3;" horiz-adv-x="1056" 
d="M1065 922l-162 -922h-231l43 248q-179 -271 -387 -271q-104 0 -150.5 62.5t-46.5 159.5q0 73 19 166l116 557h234l-109 -508q-18 -93 -16 -129q0 -88 63 -88q56 0 128 65t127 149.5t77 153.5l61 357h234zM442 1147l33 188h572l-33 -188h-572z" />
    <glyph glyph-name="uni04E4" unicode="&#x4e4;" horiz-adv-x="1626" 
d="M420 0h-221l252 1434h251l-174 -994l930 994h221l-252 -1434h-251l176 995zM1206 1681q0 55 42.5 89t103.5 34q60 0 100.5 -33.5t40.5 -87.5q0 -56 -38.5 -92.5t-102.5 -36.5q-65 0 -105.5 34.5t-40.5 92.5zM717 1681q0 55 42 89t103 34t101.5 -33.5t40.5 -87.5
q0 -56 -39 -92.5t-103 -36.5q-65 0 -105 34.5t-40 92.5z" />
    <glyph glyph-name="uni04E5" unicode="&#x4e5;" horiz-adv-x="1056" 
d="M1065 922l-162 -922h-231l43 248q-179 -271 -387 -271q-104 0 -150.5 62.5t-46.5 159.5q0 73 19 166l116 557h234l-109 -508q-18 -93 -16 -129q0 -88 63 -88q56 0 128 65t127 149.5t77 153.5l61 357h234zM369 1198q0 50 36.5 86.5t90.5 36.5q53 0 89 -34t36 -87
q0 -58 -35.5 -95.5t-89.5 -37.5q-57 0 -92 35.5t-35 95.5zM782 1198q0 50 37 86.5t92 36.5q53 0 89 -34t36 -87q0 -58 -35.5 -95.5t-89.5 -37.5q-57 0 -93 35.5t-36 95.5z" />
    <glyph glyph-name="uni04E6" unicode="&#x4e6;" horiz-adv-x="1687" 
d="M209 645q0 169 59.5 317.5t165.5 258t263 172.5t343 63q201 0 357.5 -79.5t245 -229.5t88.5 -348q0 -172 -57.5 -322t-161 -261t-257.5 -175t-337 -64q-169 0 -305 52t-223.5 143t-134 212t-46.5 261zM481 659q0 -203 124.5 -324.5t322.5 -121.5q236 0 383 157t147 408
q0 199 -119.5 321t-320.5 122q-156 0 -279.5 -74t-190.5 -202t-67 -286zM1237 1681q0 55 42 89t103 34q60 0 101 -33.5t41 -87.5q0 -56 -39 -92.5t-103 -36.5q-65 0 -105 34.5t-40 92.5zM748 1681q0 55 42 89t103 34t101 -33t40 -88q0 -56 -38.5 -92.5t-102.5 -36.5
q-65 0 -105 34.5t-40 92.5z" />
    <glyph glyph-name="uni04E7" unicode="&#x4e7;" horiz-adv-x="1071" 
d="M127 362q0 118 37 222.5t106 185t176.5 127.5t239.5 47q181 0 281 -105.5t100 -275.5q0 -169 -63.5 -301t-188 -208.5t-291.5 -76.5q-185 0 -291 107t-106 278zM369 406q0 -100 52 -159t142 -59q121 0 191.5 93t70.5 237q0 98 -46 155.5t-136 57.5q-123 0 -198.5 -91
t-75.5 -234zM395 1198q0 50 36.5 86.5t90.5 36.5q53 0 89 -34t36 -87q0 -58 -35.5 -95.5t-89.5 -37.5q-57 0 -92 35.5t-35 95.5zM809 1198q0 50 37 86.5t92 36.5q53 0 89 -34t36 -87q0 -58 -35.5 -95.5t-89.5 -37.5q-58 0 -93.5 35.5t-35.5 95.5z" />
    <glyph glyph-name="uni04E8" unicode="&#x4e8;" horiz-adv-x="1687" 
d="M209 645q0 169 59.5 317.5t165.5 258t263 172.5t343 63q201 0 357.5 -79.5t245 -229.5t88.5 -348q0 -172 -57.5 -322t-161 -261t-257.5 -175t-337 -64q-169 0 -305 52t-223.5 143t-134 212t-46.5 261zM928 213q194 0 329.5 107.5t180.5 291.5h-955q15 -184 137 -291.5
t308 -107.5zM1018 1221q-187 0 -322.5 -102.5t-187.5 -270.5h946q-22 171 -138 272t-298 101z" />
    <glyph glyph-name="uni04E9" unicode="&#x4e9;" horiz-adv-x="1071" 
d="M127 362q0 118 37 222.5t106 185t176.5 127.5t239.5 47q181 0 281 -105.5t100 -275.5q0 -169 -63.5 -301t-188 -208.5t-291.5 -76.5q-185 0 -291 107t-106 278zM563 180q88 0 151 48t95 132h-449q11 -84 63.5 -132t139.5 -48zM643 739q-89 0 -155 -47t-99 -127h442
q-9 80 -56.5 127t-131.5 47z" />
    <glyph glyph-name="uni04EE" unicode="&#x4ee;" horiz-adv-x="1378" 
d="M1616 1434l-682 -1100q-54 -87 -95 -141t-93.5 -102t-111.5 -69.5t-132 -21.5q-58 0 -112.5 17t-84.5 46l117 199q50 -29 106 -29q52 0 90 30t74 85l25 39l-451 1047h271l325 -799l481 799h273zM643 1556l33 189h633l-33 -189h-633z" />
    <glyph glyph-name="uni04EF" unicode="&#x4ef;" horiz-adv-x="907" 
d="M727 922h248q-66 -277 -152 -515t-188 -422t-221 -289.5t-238 -105.5q-117 0 -199 72l107 178q52 -33 94 -33q111 0 209 189q-32 182 -113.5 432.5t-183.5 493.5h264q51 -120 109.5 -309t87.5 -328q56 137 105 310.5t71 326.5zM264 1147l33 188h571l-32 -188h-572z" />
    <glyph glyph-name="uni04F0" unicode="&#x4f0;" horiz-adv-x="1378" 
d="M1616 1434l-682 -1100q-54 -87 -95 -141t-93.5 -102t-111.5 -69.5t-132 -21.5q-58 0 -112.5 17t-84.5 46l117 199q50 -29 106 -29q52 0 90 30t74 85l25 39l-451 1047h271l325 -799l481 799h273zM1071 1681q0 55 42.5 89t103.5 34q60 0 100.5 -33.5t40.5 -87.5
q0 -56 -38.5 -92.5t-102.5 -36.5q-65 0 -105.5 34.5t-40.5 92.5zM582 1681q0 55 42 89t103 34t101 -33t40 -88q0 -56 -38.5 -92.5t-102.5 -36.5q-65 0 -105 34.5t-40 92.5z" />
    <glyph glyph-name="uni04F1" unicode="&#x4f1;" horiz-adv-x="907" 
d="M727 922h248q-66 -277 -152 -515t-188 -422t-221 -289.5t-238 -105.5q-117 0 -199 72l107 178q52 -33 94 -33q111 0 209 189q-32 182 -113.5 432.5t-183.5 493.5h264q51 -120 109.5 -309t87.5 -328q56 137 105 310.5t71 326.5zM221 1198q0 50 36.5 86.5t90.5 36.5
q53 0 89 -34t36 -87q0 -58 -35.5 -95.5t-89.5 -37.5q-57 0 -92 35.5t-35 95.5zM635 1198q0 50 37 86.5t92 36.5q53 0 89 -34t36 -87q0 -58 -35.5 -95.5t-89.5 -37.5q-58 0 -93.5 35.5t-35.5 95.5z" />
    <glyph glyph-name="uni04F2" unicode="&#x4f2;" horiz-adv-x="1378" 
d="M1616 1434l-682 -1100q-54 -87 -95 -141t-93.5 -102t-111.5 -69.5t-132 -21.5q-58 0 -112.5 17t-84.5 46l117 199q50 -29 106 -29q52 0 90 30t74 85l25 39l-451 1047h271l325 -799l481 799h273zM1473 1716l-392 -219l-96 100l324 269zM1049 1761l-336 -264l-101 92
l234 277z" />
    <glyph glyph-name="uni04F3" unicode="&#x4f3;" horiz-adv-x="907" 
d="M727 922h248q-66 -277 -152 -515t-188 -422t-221 -289.5t-238 -105.5q-117 0 -199 72l107 178q52 -33 94 -33q111 0 209 189q-32 182 -113.5 432.5t-183.5 493.5h264q51 -120 109.5 -309t87.5 -328q56 137 105 310.5t71 326.5zM1004 1364l-271 -285l-141 99l237 319z
M639 1395l-240 -316l-143 97l209 342z" />
    <glyph glyph-name="uni04F4" unicode="&#x4f4;" horiz-adv-x="1374" 
d="M1425 1434l-251 -1434h-250l102 588q-63 -42 -153 -70.5t-185 -28.5q-188 0 -293.5 94t-105.5 265q4 72 10 110l84 476h252l-74 -414q-10 -49 -10 -109q-2 -91 51 -138.5t166 -47.5q160 0 299 92l109 617h249zM1038 1681q0 55 42.5 89t103.5 34q60 0 100.5 -33.5
t40.5 -87.5q0 -56 -38.5 -92.5t-102.5 -36.5q-65 0 -105.5 34.5t-40.5 92.5zM549 1681q0 55 42 89t103 34t101.5 -33.5t40.5 -87.5q0 -56 -39 -92.5t-103 -36.5q-65 0 -105 34.5t-40 92.5z" />
    <glyph glyph-name="uni04F5" unicode="&#x4f5;" horiz-adv-x="976" 
d="M983 922l-160 -922h-231l76 446q-62 -89 -143 -140.5t-167 -51.5q-107 0 -156.5 59t-47.5 160q0 70 18 162l64 287h241l-59 -267q-10 -55 -10 -96q0 -84 65 -84q73 0 142 74.5t100 163.5l37 209h231zM319 1198q0 50 36.5 86.5t90.5 36.5q53 0 89 -34t36 -87
q0 -58 -35.5 -95.5t-89.5 -37.5q-57 0 -92 35.5t-35 95.5zM733 1198q0 50 37 86.5t92 36.5q53 0 89 -34t36 -87q0 -58 -35.5 -95.5t-89.5 -37.5q-58 0 -93.5 35.5t-35.5 95.5z" />
    <glyph glyph-name="uni04F6" unicode="&#x4f6;" horiz-adv-x="1058" 
d="M199 0l252 1434h829l-41 -236h-577l-170 -962h194l-86 -492h-235l45 256h-211z" />
    <glyph glyph-name="uni04F7" unicode="&#x4f7;" horiz-adv-x="804" 
d="M174 287l111 635h622l-39 -222h-389l-84 -481h158l-92 -444h-211l53 223q-71 0 -108 22.5t-37 83.5q0 89 16 183z" />
    <glyph glyph-name="uni04F8" unicode="&#x4f8;" horiz-adv-x="1771" 
d="M1321 0l252 1434h250l-252 -1434h-250zM715 717q-53 0 -142 -12l-81 -467q12 -1 59 -4t74 -3q159 0 246 81t87 212q0 92 -63 142.5t-180 50.5zM702 1434l-86 -492q110 10 152 10q226 0 344.5 -104t118.5 -283q0 -123 -38.5 -224t-116.5 -179.5t-206.5 -122t-298.5 -43.5
q-85 0 -212 2t-160 2l252 1434h251zM1257 1681q0 55 42.5 89t103.5 34q60 0 100.5 -33.5t40.5 -87.5q0 -56 -38.5 -92.5t-102.5 -36.5q-65 0 -105.5 34.5t-40.5 92.5zM768 1681q0 55 42 89t103 34t101.5 -33.5t40.5 -87.5q0 -56 -39 -92.5t-103 -36.5q-65 0 -105 34.5
t-40 92.5z" />
    <glyph glyph-name="uni04F9" unicode="&#x4f9;" horiz-adv-x="1366" 
d="M160 389l139 533h236l-103 -377q164 164 307 164q87 0 148 -61t61 -171q0 -99 -50 -193t-129 -160.5t-179 -106.5t-197 -40q-130 0 -194 63t-64 169q0 80 25 180zM1141 922h231l-158 -922h-233zM375 289q-2 -8 -2 -23q0 -35 21.5 -56.5t66.5 -21.5q85 0 167.5 67
t82.5 153q0 41 -24.5 64.5t-61.5 23.5q-62 0 -144.5 -68.5t-105.5 -138.5zM543 1198q0 50 36.5 86.5t90.5 36.5q53 0 89 -34t36 -87q0 -58 -35.5 -95.5t-89.5 -37.5q-57 0 -92 35.5t-35 95.5zM956 1198q0 50 37 86.5t92 36.5q53 0 89 -34t36 -87q0 -58 -35.5 -95.5
t-89.5 -37.5q-57 0 -93 35.5t-36 95.5z" />
    <glyph glyph-name="uni1E9E" unicode="&#x1e9e;" horiz-adv-x="1363" 
d="M1075 399q0 50 -27.5 99t-85 100t-107.5 88t-134 92l328 371q-59 72 -164 72q-218 0 -267 -260l-167 -963h-252l170 958q43 251 169 375.5t369 124.5q110 0 202 -38.5t150 -95t99 -130.5l-328 -344q135 -90 222 -204t87 -247q0 -190 -124 -305t-316 -115q-205 0 -326 138
l136 184q86 -86 186 -86q83 0 131.5 50.5t48.5 135.5z" />
    <glyph glyph-name="uni2010" unicode="&#x2010;" horiz-adv-x="819" 
d="M231 451l25 219h516l-27 -219h-514z" />
    <glyph glyph-name="uni2011" unicode="&#x2011;" horiz-adv-x="819" 
d="M231 451l25 219h516l-27 -219h-514z" />
    <glyph glyph-name="figuredash" unicode="&#x2012;" horiz-adv-x="1153" 
d="M272 623l37 204h826l-37 -204h-826z" />
    <glyph glyph-name="endash" unicode="&#x2013;" horiz-adv-x="1236" 
d="M262 451l37 204h879l-37 -204h-879z" />
    <glyph glyph-name="emdash" unicode="&#x2014;" horiz-adv-x="1677" 
d="M262 451l37 204h1319l-37 -204h-1319z" />
    <glyph glyph-name="uni2015" unicode="&#x2015;" horiz-adv-x="1634" 
d="M238 451l34 204h1319l-35 -204h-1318z" />
    <glyph glyph-name="quoteleft" unicode="&#x2018;" horiz-adv-x="493" 
d="M561 1124l-215 -112q-41 50 -41 147q0 133 69.5 236.5t207.5 158.5l90 -108q-65 -40 -101 -98.5t-36 -124.5q0 -62 26 -99z" />
    <glyph glyph-name="quoteright" unicode="&#x2019;" horiz-adv-x="493" 
d="M385 1432l215 112q39 -51 39 -147q0 -133 -69.5 -236t-207.5 -157l-90 106q65 40 101.5 98.5t36.5 124.5q0 68 -25 99z" />
    <glyph glyph-name="quotesinglbase" unicode="&#x201a;" horiz-adv-x="493" 
d="M145 70l215 112q39 -51 39 -147q0 -134 -69 -236.5t-207 -156.5l-90 106q65 40 101 98.5t36 124.5q0 68 -25 99z" />
    <glyph glyph-name="quotedblleft" unicode="&#x201c;" horiz-adv-x="845" 
d="M895 1124l-215 -112q-41 50 -41 147q0 134 69 237t207 158l91 -108q-65 -40 -101.5 -98.5t-36.5 -124.5q0 -60 27 -99zM565 1124l-215 -112q-41 50 -41 147q0 133 69.5 236.5t207.5 158.5l90 -108q-65 -40 -101 -98.5t-36 -124.5q0 -62 26 -99z" />
    <glyph glyph-name="quotedblright" unicode="&#x201d;" horiz-adv-x="845" 
d="M733 1432l215 112q39 -51 39 -147q0 -134 -69 -236.5t-207 -156.5l-90 106q65 40 101 98.5t36 124.5q0 68 -25 99zM389 1432l215 112q41 -50 41 -147q0 -133 -69.5 -236t-206.5 -157l-90 106q63 40 99 98.5t36 124.5q0 68 -25 99z" />
    <glyph glyph-name="quotedblbase" unicode="&#x201e;" horiz-adv-x="823" 
d="M145 70l215 112q39 -51 39 -147q0 -134 -69 -236.5t-207 -156.5l-90 106q65 40 101 98.5t36 124.5q0 68 -25 99zM475 70l215 112q39 -51 39 -147q0 -134 -69 -236.5t-207 -156.5l-91 106q65 40 101.5 98.5t36.5 124.5q0 68 -25 99z" />
    <glyph glyph-name="dagger" unicode="&#x2020;" horiz-adv-x="1005" 
d="M215 809v205h311v420h219v-420h312v-205h-312v-1014h-219v1014h-311z" />
    <glyph glyph-name="daggerdbl" unicode="&#x2021;" horiz-adv-x="1026" 
d="M215 809v205h311v420h219v-420h312v-205h-312v-328h312v-205h-312v-481h-219v481h-311v205h311v328h-311z" />
    <glyph glyph-name="bullet" unicode="&#x2022;" horiz-adv-x="583" 
d="M147 541q0 98 70.5 169.5t167.5 71.5q100 0 172 -71.5t72 -169.5q0 -97 -72.5 -168.5t-171.5 -71.5q-97 0 -167.5 71.5t-70.5 168.5z" />
    <glyph glyph-name="ellipsis" unicode="&#x2026;" horiz-adv-x="1763" 
d="M119 154q0 58 44.5 103.5t117.5 45.5q67 0 112 -45t45 -104q0 -67 -44 -115.5t-115 -48.5q-75 0 -117.5 48t-42.5 116zM754 154q0 58 44 103.5t117 45.5q67 0 112.5 -45t45.5 -104q0 -67 -44.5 -115.5t-115.5 -48.5q-75 0 -117 48t-42 116zM1389 154q0 58 44 103.5
t117 45.5q67 0 112.5 -45t45.5 -104q0 -67 -44.5 -115.5t-115.5 -48.5q-75 0 -117 48t-42 116z" />
    <glyph glyph-name="perthousand" unicode="&#x2030;" horiz-adv-x="2781" 
d="M479 72l1034 1384l134 -100l-1033 -1379zM215 1075q0 158 109.5 266.5t273.5 108.5q176 0 283.5 -101t107.5 -262q0 -99 -47.5 -185t-138.5 -139.5t-205 -53.5q-170 0 -276.5 102t-106.5 264zM424 1079q0 -78 49.5 -128t128.5 -50q78 0 127 50t49 128q0 75 -49 125.5
t-127 50.5q-81 0 -129.5 -51t-48.5 -125zM2048 350q0 158 109.5 266.5t273.5 108.5q176 0 283.5 -101t107.5 -262q0 -99 -47.5 -185t-138.5 -139.5t-205 -53.5q-170 0 -276.5 102t-106.5 264zM2257 354q0 -78 49.5 -128t128.5 -50q78 0 127 50t49 128q0 75 -49 125.5
t-127 50.5q-81 0 -129.5 -51t-48.5 -125zM1153 350q0 158 109.5 266.5t273.5 108.5q176 0 283.5 -101t107.5 -262q0 -99 -47.5 -185t-138.5 -139.5t-205 -53.5q-170 0 -276.5 102t-106.5 264zM1362 354q0 -78 49.5 -128t128.5 -50q78 0 127 50t49 128q0 75 -49 125.5
t-127 50.5q-81 0 -129.5 -51t-48.5 -125z" />
    <glyph glyph-name="guilsinglleft" unicode="&#x2039;" horiz-adv-x="718" 
d="M479 43l-315 473l2 8l463 453l135 -146l-340 -331l225 -334z" />
    <glyph glyph-name="guilsinglright" unicode="&#x203a;" horiz-adv-x="718" 
d="M414 977l319 -471l-2 -8l-461 -457l-135 143l338 336l-229 332z" />
    <glyph glyph-name="fraction" unicode="&#x2044;" horiz-adv-x="430" 
d="M-307 72l1034 1384l133 -100l-1032 -1379z" />
    <glyph glyph-name="zerosuperior" unicode="&#x2070;" horiz-adv-x="815" 
d="M252 1018q0 61 12.5 119t42 114t72.5 98t109.5 67.5t148.5 25.5t143 -27t95 -72.5t50.5 -99t16.5 -113.5q0 -84 -23.5 -158.5t-69.5 -134t-122 -94t-172 -34.5q-145 0 -224 84t-79 225zM473 1038q0 -79 25 -117t80 -38q68 0 105.5 64.5t37.5 158.5q0 82 -23.5 122
t-76.5 40q-41 0 -71.5 -21t-46 -56t-23 -73t-7.5 -80z" />
    <glyph glyph-name="foursuperior" unicode="&#x2074;" horiz-adv-x="770" 
d="M545 717l26 143h-395l25 135l393 439h201l-377 -416h182l27 160h190l-29 -160h115l-29 -158h-114l-25 -143h-190z" />
    <glyph glyph-name="fivesuperior" unicode="&#x2075;" horiz-adv-x="710" 
d="M299 1020l115 414h463l-29 -160h-318l-36 -111q45 15 96 15q103 0 164 -55.5t61 -147.5q0 -125 -98 -199t-260 -74q-95 0 -167.5 30.5t-109.5 90.5l119 107q52 -68 160 -68q63 0 98 26.5t35 69.5q0 76 -137 76q-105 0 -156 -14z" />
    <glyph glyph-name="sixsuperior" unicode="&#x2076;" horiz-adv-x="808" 
d="M231 952q0 131 80.5 244t222.5 181t312 69l14 -141q-269 -27 -379 -199q78 59 195 59q113 0 176 -51t63 -141q0 -126 -98.5 -198.5t-257.5 -72.5t-243.5 65.5t-84.5 184.5zM451 961q-5 -43 26.5 -71t95.5 -28q58 0 88.5 26t30.5 64q0 32 -24 51t-72 19q-80 0 -145 -61z
" />
    <glyph glyph-name="sevensuperior" unicode="&#x2077;" horiz-adv-x="673" 
d="M250 1260l31 174h618l-22 -125l-416 -592h-230l394 543h-375z" />
    <glyph glyph-name="eightsuperior" unicode="&#x2078;" horiz-adv-x="841" 
d="M618 1157h19q50 0 78 20.5t28 51.5q0 57 -96 57q-52 0 -84.5 -20t-32.5 -52q0 -25 23 -41t65 -16zM610 1014h-14q-60 0 -99.5 -23.5t-39.5 -62.5q0 -66 121 -66q63 0 102 24t39 62q0 30 -30.5 48t-78.5 18zM555 702q-138 0 -224.5 47.5t-86.5 147.5q0 66 47.5 116.5
t122.5 69.5v4q-40 19 -63 55t-23 81q0 104 94 163.5t248 59.5q128 0 207 -46.5t79 -129.5q0 -64 -41 -112t-116 -71v-2q59 -13 90 -51t31 -90q0 -116 -98 -179t-267 -63z" />
    <glyph glyph-name="ninesuperior" unicode="&#x2079;" horiz-adv-x="808" 
d="M952 1186q0 -144 -80 -254.5t-219.5 -169.5t-316.5 -60l-4 144q135 11 245 66.5t132 138.5q-82 -82 -203 -82q-106 0 -172 55t-66 143q0 128 98 203.5t265 75.5q159 0 240 -68t81 -192zM731 1174q6 51 -23 81.5t-92 30.5q-54 0 -88 -26.5t-34 -69.5q0 -35 24.5 -56.5
t69.5 -21.5q85 0 143 62z" />
    <glyph glyph-name="uni207A" unicode="&#x207a;" horiz-adv-x="737" 
d="M276 1006v157h203v195h158v-195h203v-157h-203v-197h-158v197h-203z" />
    <glyph glyph-name="uni207B" unicode="&#x207b;" horiz-adv-x="737" 
d="M276 1006v157h564v-157h-564z" />
    <glyph glyph-name="uni207C" unicode="&#x207c;" horiz-adv-x="737" 
d="M276 879v157h564v-157h-564zM276 1124v158h564v-158h-564z" />
    <glyph glyph-name="uni207D" unicode="&#x207d;" horiz-adv-x="479" 
d="M584 743l-129 -112q-104 61 -158.5 158.5t-54.5 207.5q0 167 94.5 297.5t271.5 216.5l88 -125q-125 -68 -186 -158.5t-61 -213.5q0 -162 135 -271z" />
    <glyph glyph-name="uni207E" unicode="&#x207e;" horiz-adv-x="479" 
d="M276 1393l125 116q104 -61 158.5 -159.5t54.5 -208.5q0 -168 -98.5 -299t-267.5 -211l-86 117q127 73 186.5 165t59.5 211q0 160 -132 269z" />
    <glyph glyph-name="zeroinferior" unicode="&#x2080;" horiz-adv-x="815" 
d="M125 301q0 61 12.5 119t42 114t72.5 98t109.5 67.5t148.5 25.5t143 -26.5t95 -72.5t50.5 -99t16.5 -113q0 -84 -23.5 -158.5t-69.5 -134t-122 -94.5t-172 -35q-145 0 -224 84t-79 225zM346 322q0 -79 25 -117.5t80 -38.5q68 0 105.5 64.5t37.5 158.5q0 82 -23.5 122
t-76.5 40q-54 0 -89 -37.5t-47 -86t-12 -105.5z" />
    <glyph glyph-name="oneinferior" unicode="&#x2081;" horiz-adv-x="548" 
d="M131 561l258 154h148l-125 -715h-205l82 475l-105 -57z" />
    <glyph glyph-name="twoinferior" unicode="&#x2082;" horiz-adv-x="741" 
d="M61 0l27 147q15 9 47 26q59 32 90.5 50t84.5 50t83 55t62.5 52t47.5 55.5t15 51.5q0 29 -20.5 46.5t-55.5 17.5q-48 0 -81 -29.5t-46 -75.5l-168 66q29 101 114.5 157t207.5 56q124 0 199 -53.5t75 -145.5q0 -214 -385 -352h359l-31 -174h-625z" />
    <glyph glyph-name="threeinferior" unicode="&#x2083;" horiz-adv-x="739" 
d="M360 -14q-98 0 -177.5 36t-119.5 113l125 109q58 -90 179 -90q54 0 87 20.5t33 56.5q0 27 -30 42.5t-78 15.5h-62l23 143h57q54 0 84.5 22t30.5 56q0 24 -23 38.5t-63 14.5q-110 0 -184 -80l-88 117q109 129 319 129q127 0 197.5 -46.5t70.5 -129.5q0 -67 -54.5 -115.5
t-135.5 -60.5v-2q71 -6 113.5 -45t42.5 -99q0 -118 -97 -181.5t-250 -63.5z" />
    <glyph glyph-name="fourinferior" unicode="&#x2084;" horiz-adv-x="763" 
d="M420 0l26 143h-395l25 136l393 438h201l-377 -416h182l27 160h190l-28 -160h114l-28 -158h-115l-25 -143h-190z" />
    <glyph glyph-name="fiveinferior" unicode="&#x2085;" horiz-adv-x="710" 
d="M172 303l115 414h463l-29 -160h-318l-36 -111q45 15 96 15q103 0 164 -55.5t61 -147.5q0 -125 -98 -198.5t-260 -73.5q-202 0 -277 120l119 107q52 -68 160 -68q63 0 98 27t35 70q0 75 -137 75q-105 0 -156 -14z" />
    <glyph glyph-name="sixinferior" unicode="&#x2086;" horiz-adv-x="808" 
d="M106 236q0 131 80.5 243.5t222.5 180.5t312 69l14 -141q-269 -27 -379 -199q79 60 195 60q113 0 176.5 -51.5t63.5 -141.5q0 -126 -99 -198t-258 -72t-243.5 65.5t-84.5 184.5zM326 244q-5 -43 27 -71t96 -28q58 0 88 26.5t30 64.5q0 32 -24 50.5t-72 18.5
q-80 0 -145 -61z" />
    <glyph glyph-name="seveninferior" unicode="&#x2087;" horiz-adv-x="673" 
d="M123 543l31 174h618l-22 -125l-416 -592h-230l394 543h-375z" />
    <glyph glyph-name="eightinferior" unicode="&#x2088;" horiz-adv-x="841" 
d="M492 440h18q50 0 78 20.5t28 51.5q0 57 -96 57q-53 0 -85 -19.5t-32 -51.5q0 -26 23.5 -42t65.5 -16zM483 297h-14q-60 0 -99.5 -23.5t-39.5 -62.5q0 -66 121 -66q63 0 102 24t39 62q0 30 -30.5 48t-78.5 18zM428 -14q-89 0 -156.5 18.5t-111 63t-43.5 112.5
q0 66 47.5 117t122.5 70v4q-86 41 -86 135q0 104 94 163.5t248 59.5q128 0 207 -46.5t79 -129.5q0 -64 -41 -111.5t-116 -70.5v-2q59 -13 90 -51.5t31 -90.5q0 -116 -98 -178.5t-267 -62.5z" />
    <glyph glyph-name="nineinferior" unicode="&#x2089;" horiz-adv-x="808" 
d="M825 469q0 -144 -80 -254t-219.5 -169t-316.5 -60l-4 143q135 11 245 66.5t132 138.5q-82 -82 -203 -82q-106 0 -172 55.5t-66 143.5q0 128 98 203t265 75q159 0 240 -68t81 -192zM604 457q6 51 -23 81.5t-92 30.5q-54 0 -88 -26.5t-34 -69.5q0 -35 24.5 -56.5
t69.5 -21.5q85 0 143 62z" />
    <glyph glyph-name="uni208A" unicode="&#x208a;" horiz-adv-x="737" 
d="M143 289v157h203v195h158v-195h203v-157h-203v-197h-158v197h-203z" />
    <glyph glyph-name="uni208B" unicode="&#x208b;" horiz-adv-x="737" 
d="M143 289v157h564v-157h-564z" />
    <glyph glyph-name="uni208C" unicode="&#x208c;" horiz-adv-x="737" 
d="M143 166v158h564v-158h-564zM143 412v157h564v-157h-564z" />
    <glyph glyph-name="uni208D" unicode="&#x208d;" horiz-adv-x="479" 
d="M459 27l-129 -113q-104 61 -158.5 159t-54.5 208q0 167 94.5 297.5t271.5 216.5l88 -125q-125 -68 -186 -159t-61 -214q0 -161 135 -270z" />
    <glyph glyph-name="uni208E" unicode="&#x208e;" horiz-adv-x="479" 
d="M150 676l124 117q104 -61 158.5 -160t54.5 -209q0 -168 -98.5 -299t-267.5 -211l-86 117q127 73 186.5 165.5t59.5 211.5q0 159 -131 268z" />
    <glyph glyph-name="Euro" unicode="&#x20ac;" 
d="M178 813l107 191h116q224 452 779 452q73 0 144.5 -16.5t117.5 -42.5l-125 -207q-76 31 -180 31q-123 0 -240 -55t-188 -162h524l-103 -191h-516q-11 -43 -14 -92q-2 -27 -2 -76h453l-95 -190h-309q44 -110 147.5 -176t229.5 -66q99 0 166 23v-232q-79 -27 -197 -27
q-128 0 -240.5 40t-192.5 107t-133.5 152t-74.5 179h-233l104 190h103q0 45 4 72q4 62 12 96h-164z" />
    <glyph glyph-name="uni20AE" unicode="&#x20ae;" horiz-adv-x="1206" 
d="M264 1198l41 236h1100l-41 -236h-424l-45 -252l274 117l-32 -191l-275 -118l-31 -168l275 116l-33 -190l-274 -119l-70 -393h-252l49 276l-276 -116l35 192l274 117l31 168l-277 -117l35 193l275 116l65 369h-424z" />
    <glyph glyph-name="uni20B4" unicode="&#x20b4;" horiz-adv-x="1228" 
d="M285 821l32 189h594q37 43 37 100q-4 111 -139 111q-122 0 -240 -93l-92 185q140 143 375 143q167 0 258.5 -76.5t91.5 -197.5q0 -50 -16.5 -99.5t-38.5 -72.5h121l-33 -189h-238q-48 -41 -127 -97.5t-100 -72.5h434l-33 -188h-604q-53 -57 -53 -127q0 -57 45.5 -90
t136.5 -33q149 0 281 111l102 -170q-74 -84 -182 -130.5t-240 -46.5q-175 0 -283 77.5t-108 219.5q0 99 68 189h-113l33 188h244q46 40 128.5 97.5t102.5 72.5h-444z" />
    <glyph glyph-name="uni20B8" unicode="&#x20b8;" horiz-adv-x="1206" 
d="M221 840l41 235h1059l-41 -235h-403l-148 -840h-252l148 840h-404zM293 1243l33 191h1058l-32 -191h-1059z" />
    <glyph glyph-name="uni20BA" unicode="&#x20ba;" horiz-adv-x="1206" 
d="M150 776l34 193l189 80l67 385h252l-47 -269l361 154l-33 -191l-363 -155l-28 -168l360 153l-33 -190l-362 -156l-66 -376q85 -5 109 -5q101 0 177 33.5t128 101.5t85.5 155.5t57.5 209.5l2 10h267l-2 -10q-20 -102 -43.5 -183.5t-57.5 -160t-76.5 -136.5t-100.5 -108
t-130 -81t-164 -48.5t-203 -17.5q-42 0 -155 2t-158 2h-29l86 496l-188 -80l35 192l188 80l29 168z" />
    <glyph glyph-name="uni20BD" unicode="&#x20bd;" horiz-adv-x="1228" 
d="M133 608l33 191h201l112 635q37 0 196 2t212 2q244 0 366.5 -101.5t122.5 -275.5q0 -210 -150.5 -331.5t-453.5 -121.5h-186l-31 -168h334l-33 -190h-334l-45 -250h-250l43 250h-200l32 190h201l31 168h-201zM868 1202q-44 0 -180 -4l-70 -399h179q305 0 305 237
q0 87 -58.5 126.5t-175.5 39.5z" />
    <glyph glyph-name="uni20BF" unicode="&#x20bf;" horiz-adv-x="1206" 
d="M162 2l252 1428q19 0 125 4l32 184h191l-33 -180q45 2 131 2q6 0 18.5 -1t18.5 -1l33 180h190l-37 -213q185 -68 185 -285q0 -137 -77.5 -237t-211.5 -140l-2 -4q103 -26 162 -96.5t59 -171.5q0 -177 -97 -290t-263 -158l-39 -228h-191l35 199q-16 -2 -47 -2h-121
l-35 -197h-190l35 201zM711 621h-189l-67 -388q56 -10 182 -10q141 0 218 60.5t77 165.5q0 172 -221 172zM801 1210q-90 0 -176 -8l-66 -371h180q112 0 187 60.5t75 165.5q0 73 -51 113t-149 40z" />
    <glyph glyph-name="uni20C0" unicode="&#x20c0;" horiz-adv-x="1206" 
d="M82 0l33 190h1059l-33 -190h-1059zM1100 623l92 -189q-152 -137 -434 -137q-160 0 -287.5 63t-200.5 178.5t-73 262.5q0 134 54 254.5t148 209t228 140t288 51.5q133 0 237.5 -36t158.5 -95l-131 -190q-61 45 -125 65.5t-166 20.5q-180 0 -302 -110t-122 -284
q0 -127 83.5 -211t235.5 -84q96 0 166 19t150 72z" />
    <glyph glyph-name="uni2116" unicode="&#x2116;" horiz-adv-x="2435" 
d="M1382 0h-200l-570 1004l-178 -1004h-235l252 1434h200l570 -1010l178 1010h235zM1665 948q0 79 28 150t81.5 127.5t140.5 89.5t196 33q165 0 266 -90.5t101 -239.5q0 -178 -123.5 -290t-318.5 -112q-169 0 -270 91t-101 241zM1884 958q0 -70 43.5 -110.5t120.5 -40.5
q97 0 153 57.5t56 145.5q0 64 -43.5 105.5t-116.5 41.5q-98 0 -155.5 -57t-57.5 -142zM1624 297l39 221h653l-39 -221h-653z" />
    <glyph glyph-name="trademark" unicode="&#x2122;" horiz-adv-x="1771" 
d="M946 788l58 646h194l219 -224l256 224h197l-58 -646h-221l41 367l-229 -199h-4l-191 199l-39 -367h-223zM252 1221l12 213h662l-13 -213h-221l-45 -433h-219l43 433h-219z" />
    <glyph glyph-name="arrowleft" unicode="&#x2190;" horiz-adv-x="1316" 
d="M702 1137l166 -166l-295 -295h703v-236h-705l297 -295l-166 -165l-579 579z" />
    <glyph glyph-name="arrowup" unicode="&#x2191;" horiz-adv-x="1320" 
d="M299 406l-166 167l578 580l579 -580l-166 -167l-295 296v-702h-235v700z" />
    <glyph glyph-name="arrowright" unicode="&#x2192;" horiz-adv-x="1316" 
d="M539 971l168 166l579 -578l-579 -579l-168 165l297 295h-703v236h701z" />
    <glyph glyph-name="arrowdown" unicode="&#x2193;" horiz-adv-x="1320" 
d="M133 539l166 166l295 -295v702h235v-704l295 297l166 -166l-579 -580z" />
    <glyph glyph-name="partialdiff" unicode="&#x2202;" horiz-adv-x="1200" 
d="M166 412q0 143 62 263.5t181.5 194.5t272.5 74q108 0 185.5 -39t115.5 -96q0 201 -122.5 312.5t-362.5 123.5l34 211q334 -6 518.5 -177t184.5 -482q0 -135 -23.5 -256t-73.5 -224.5t-121 -179t-171.5 -118t-220.5 -42.5q-104 0 -191.5 34t-145.5 93t-90 138t-32 170z
M416 432q0 -99 64 -167t171 -68q129 0 211.5 112.5t102.5 280.5q-107 133 -273 133q-119 0 -197.5 -84.5t-78.5 -206.5z" />
    <glyph glyph-name="product" unicode="&#x220f;" horiz-adv-x="1806" 
d="M1477 -410v1608h-908v-1608h-250v1844h1407v-1844h-249z" />
    <glyph glyph-name="summation" unicode="&#x2211;" horiz-adv-x="1314" 
d="M803 512l-580 748v174h1151v-236h-801l519 -686l-533 -686h815v-236h-1151v172z" />
    <glyph glyph-name="minus" unicode="&#x2212;" 
d="M260 635v205h950v-205h-950z" />
    <glyph glyph-name="uni2215" unicode="&#x2215;" horiz-adv-x="733" 
d="M-31 -358l676 1814l180 -67l-673 -1815z" />
    <glyph glyph-name="radical" unicode="&#x221a;" horiz-adv-x="1275" 
d="M66 686v236h366l309 -525l252 1037h600v-236h-395l-299 -1202h-205l-424 690h-204z" />
    <glyph glyph-name="infinity" unicode="&#x221e;" horiz-adv-x="1548" 
d="M1253 344q-113 0 -198.5 50t-159.5 138q-69 -88 -149 -138t-189 -50q-136 0 -239 98.5t-103 255.5q0 146 97 252.5t251 106.5q102 0 179 -52.5t153 -146.5q45 60 87.5 99.5t113 69.5t155.5 30q148 0 238 -103t90 -264q0 -141 -91 -243.5t-235 -102.5zM582 549
q62 0 108 35t92 100q-31 44 -49 67t-44.5 50t-52 39t-52.5 12q-69 0 -109.5 -44t-40.5 -110q0 -69 42.5 -109t105.5 -40zM1210 852q-58 0 -104 -39t-96 -113q54 -72 105 -111.5t110 -39.5q60 0 96.5 43t36.5 106q0 64 -39.5 109t-108.5 45z" />
    <glyph glyph-name="integral" unicode="&#x222b;" horiz-adv-x="665" 
d="M528 -18q0 -198 -58.5 -299t-209.5 -107q-43 -3 -98 4q-100 15 -150 58l64 188q54 -33 104 -33q36 0 59.5 15t34.5 46t15 63.5t4 80.5v1073q0 180 80.5 277.5t224.5 103.5q52 3 104 -6q115 -14 177 -76l-80 -180q-44 35 -90 39q-52 7 -86 -4q-41 -10 -68 -54t-27 -118
v-1071z" />
    <glyph glyph-name="approxequal" unicode="&#x2248;" 
d="M313 395l-102 150q67 76 146 121t153 45q56 0 123 -22t118.5 -48t117 -48t118.5 -22q46 0 95.5 26.5t84.5 66.5l93 -162q-142 -135 -275 -135q-55 0 -121 21.5t-117.5 48t-113.5 48t-109 21.5q-95 0 -211 -111zM313 784l-102 150q67 76 146 121t153 45q56 0 123 -21.5
t118.5 -48t117 -48t118.5 -21.5q46 0 95.5 26t84.5 66l93 -162q-142 -135 -275 -135q-55 0 -121 21.5t-117.5 48t-113.5 48t-109 21.5q-95 0 -211 -111z" />
    <glyph glyph-name="notequal" unicode="&#x2260;" 
d="M260 829v205h481l158 422l180 -67l-131 -355h262v-205h-340l-67 -184h407v-205h-485l-172 -463l-182 68l147 395h-258v205h334l70 184h-404z" />
    <glyph glyph-name="lessequal" unicode="&#x2264;" 
d="M219 496l12 215l906 -545l-15 -225zM1155 330l-903 555l6 100l999 551l-16 -254l-661 -346l591 -350z" />
    <glyph glyph-name="greaterequal" unicode="&#x2265;" 
d="M1231 711l-14 -215l-1000 -555l14 225zM1249 885l-999 -555l16 256l664 350l-594 346l16 254l903 -551z" />
    <glyph glyph-name="angleleft" unicode="&#x2329;" horiz-adv-x="942" 
d="M766 1434h278l-579 -740l307 -694h-258l-309 713l2 8z" />
    <glyph glyph-name="angleright" unicode="&#x232a;" horiz-adv-x="942" 
d="M401 0h-278l579 739l-307 695h258l310 -713l-2 -8z" />
    <glyph glyph-name="lozenge" unicode="&#x25ca;" horiz-adv-x="999" 
d="M512 -4l-342 514l344 545h191l342 -523l-345 -536h-190zM408 512l200 -301l201 321l-201 295z" />
    <glyph glyph-name="spade" unicode="&#x2660;" horiz-adv-x="1294" 
d="M688 1044q112 -70 230.5 -181.5t206 -239t87.5 -215.5q0 -87 -60.5 -150t-178.5 -63q-163 0 -268 147q28 -119 79 -203.5t140 -138.5h-471q150 107 215 336q-103 -141 -265 -141q-118 0 -178.5 63.5t-60.5 151.5q0 66 51.5 157t130 179t169.5 167.5t173 130.5z" />
    <glyph glyph-name="club" unicode="&#x2663;" horiz-adv-x="1253" 
d="M414 780q0 109 77.5 186.5t186.5 77.5t186.5 -77.5t77.5 -186.5q0 -15 -4 -39q102 -8 173 -84t71 -178q0 -109 -77.5 -186.5t-186.5 -77.5q-65 0 -121 29.5t-92 79.5q64 -236 208 -324h-471q130 92 205 319q-37 -46 -93 -75t-116 -29q-109 0 -186.5 77.5t-77.5 186.5
q0 103 70.5 178.5t171.5 83.5q-2 12 -2 39z" />
    <glyph glyph-name="heart" unicode="&#x2665;" horiz-adv-x="1329" 
d="M731 0q-86 65 -179 158.5t-175.5 197.5t-135.5 212.5t-53 189.5q0 51 14.5 97t43.5 84.5t78 61.5t112 23q182 0 295 -213q109 213 293 213q83 0 141 -40t82.5 -98t24.5 -126q0 -82 -53 -191t-135 -213t-174.5 -197.5t-178.5 -158.5z" />
    <glyph glyph-name="diamond" unicode="&#x2666;" horiz-adv-x="1193" 
d="M1112 510q-222 -222 -475 -549q-213 280 -473 549q221 231 473 551q256 -324 475 -551z" />
    <glyph glyph-name="uniF350" unicode="&#xf350;" horiz-adv-x="1257" 
d="M14 0l693 1077h223l311 -1077h-256l-59 219h-496l-137 -219h-279zM772 782l-197 -327h285z" />
    <glyph glyph-name="uniF351" unicode="&#xf351;" horiz-adv-x="1103" 
d="M160 0l190 1075h762l-43 -231h-510l-29 -168q90 8 158 8q176 0 276.5 -77t100.5 -224q0 -194 -129.5 -293.5t-378.5 -99.5q-104 0 -240 5t-157 5zM643 453q-99 0 -154 -7l-36 -219q129 -6 135 -6q106 0 159.5 30.5t53.5 104.5q0 50 -43 73.5t-115 23.5z" />
    <glyph glyph-name="uniF352" unicode="&#xf352;" horiz-adv-x="1107" 
d="M160 2l188 1069q165 10 395 10q185 0 277 -67.5t92 -186.5q0 -98 -66.5 -168.5t-183.5 -95.5v-2q92 -13 145.5 -77t53.5 -154q0 -87 -35.5 -153t-99 -105.5t-145 -59.5t-179.5 -20q-325 0 -442 10zM653 432h-166l-34 -201q50 -10 161 -10q185 0 185 121q0 90 -146 90z
M709 852q-51 0 -150 -6l-35 -199h156q71 0 118.5 31.5t47.5 89.5q0 84 -137 84z" />
    <glyph glyph-name="uniF353" unicode="&#xf353;" horiz-adv-x="903" 
d="M160 0l190 1075h713l-43 -235h-461l-147 -840h-252z" />
    <glyph glyph-name="uniF354" unicode="&#xf354;" horiz-adv-x="1306" 
d="M-14 -184l73 420h129q61 57 148 226t139 398l49 215h770l-147 -839h162l-74 -420h-238l33 184h-774l-33 -184h-237zM682 686q-47 -164 -109.5 -287.5t-105.5 -162.5h428l106 604h-274z" />
    <glyph glyph-name="uniF355" unicode="&#xf355;" horiz-adv-x="1019" 
d="M160 0l190 1075h735l-43 -231h-481l-33 -189h433l-41 -231h-433l-34 -193h499l-41 -231h-751z" />
    <glyph glyph-name="uniF356" unicode="&#xf356;" horiz-adv-x="1708" 
d="M563 578l-319 497h282l305 -483l87 483h251l-86 -485l455 485h313l-512 -532l338 -543h-280l-324 528l-94 -528h-252l92 526l-481 -526h-315z" />
    <glyph glyph-name="uniF357" unicode="&#xf357;" horiz-adv-x="1050" 
d="M539 -23q-163 0 -282.5 49.5t-166.5 137.5l158 158q98 -113 287 -113q100 0 160.5 31.5t60.5 91.5q0 98 -176 98h-158l41 232h149q75 0 125.5 30.5t50.5 77.5q0 42 -43.5 65t-115.5 23q-175 0 -271 -86l-114 168q147 150 428 150q172 0 273.5 -72.5t101.5 -198.5
q0 -92 -50.5 -161t-150.5 -99v-6q76 -26 118 -82t42 -133q0 -168 -122.5 -264.5t-344.5 -96.5z" />
    <glyph glyph-name="uniF358" unicode="&#xf358;" horiz-adv-x="1361" 
d="M379 0h-219l190 1075h252l-115 -651l682 651h220l-191 -1075h-252l117 655z" />
    <glyph glyph-name="uniF359" unicode="&#xf359;" horiz-adv-x="1361" 
d="M379 0h-219l190 1075h252l-115 -651l682 651h220l-191 -1075h-252l117 655zM592 1434h219q-14 -109 102 -109q114 0 144 109h209q-27 -127 -123.5 -205t-249.5 -78q-169 0 -243 74.5t-58 208.5z" />
    <glyph glyph-name="uniF35A" unicode="&#xf35a;" horiz-adv-x="1198" 
d="M160 0l190 1075h252l-84 -473l494 473h329l-550 -518l393 -557h-305l-373 537l-94 -537h-252z" />
    <glyph glyph-name="uniF35B" unicode="&#xf35b;" horiz-adv-x="1255" 
d="M844 0l147 840h-299l-57 -203q-60 -209 -123 -342.5t-137 -203.5t-153.5 -89.5t-184.5 -1.5l45 242q33 -6 60 0.5t64.5 40.5t73 98.5t80 186t89.5 292.5l55 215h782l-190 -1075h-252z" />
    <glyph glyph-name="uniF35C" unicode="&#xf35c;" horiz-adv-x="1562" 
d="M160 0l190 1075h248l295 -450l453 450h243l-190 -1075h-252l121 680l-412 -401h-35l-284 423l-127 -702h-250z" />
    <glyph glyph-name="uniF35D" unicode="&#xf35d;" horiz-adv-x="1333" 
d="M918 0l75 430h-506l-75 -430h-252l190 1075h252l-74 -409h506l74 409h252l-191 -1075h-251z" />
    <glyph glyph-name="uniF35E" unicode="&#xf35e;" horiz-adv-x="1349" 
d="M156 481q0 127 45 237.5t128 193.5t210.5 130.5t283.5 47.5q244 0 401.5 -137t157.5 -359q0 -178 -80.5 -318t-231.5 -219.5t-349 -79.5q-254 0 -409.5 138.5t-155.5 365.5zM428 494q0 -125 81.5 -203t229.5 -78q90 0 162 30t117 81.5t68.5 116.5t23.5 139q0 122 -83 198
t-222 76q-176 0 -276.5 -100.5t-100.5 -259.5z" />
    <glyph glyph-name="uniF35F" unicode="&#xf35f;" horiz-adv-x="1333" 
d="M915 0l148 840h-504l-147 -840h-252l190 1075h1010l-191 -1075h-254z" />
    <glyph glyph-name="uniF360" unicode="&#xf360;" horiz-adv-x="1067" 
d="M410 0h-250l190 1075q31 0 169 2t181 2q201 0 312.5 -90.5t111.5 -236.5q0 -202 -135.5 -321.5t-374.5 -119.5q-78 0 -149 6zM692 844q-49 0 -135 -4l-49 -285q111 -6 115 -6q43 0 61 2q87 7 128.5 51t41.5 117q0 61 -42 93t-120 32z" />
    <glyph glyph-name="uniF361" unicode="&#xf361;" horiz-adv-x="1124" 
d="M1036 291l80 -197q-69 -54 -174.5 -85.5t-216.5 -31.5q-140 0 -250 39t-179 107.5t-104.5 159t-35.5 196.5q0 99 26.5 188.5t82 167t136 134t194 89t249.5 32.5q253 0 375 -113l-142 -184q-95 61 -260 61q-174 0 -281.5 -96t-107.5 -260q0 -130 82.5 -207.5t241.5 -77.5
q157 0 284 78z" />
    <glyph glyph-name="uniF362" unicode="&#xf362;" horiz-adv-x="1028" 
d="M164 840l41 235h997l-41 -235h-373l-147 -840h-254l148 840h-371z" />
    <glyph glyph-name="uniF363" unicode="&#xf363;" horiz-adv-x="1142" 
d="M1315 1075l-543 -813q-34 -51 -57 -83t-58.5 -70t-69 -59t-79.5 -35.5t-98 -14.5q-106 0 -179 59l117 199q38 -25 80 -25q59 0 107 66l20 29l-367 747h279l238 -504l329 504h281z" />
    <glyph glyph-name="uniF364" unicode="&#xf364;" horiz-adv-x="1443" 
d="M590 -12l22 114q-208 2 -338.5 109.5t-130.5 290.5q0 232 165 366.5t462 135.5l14 83h252l-14 -83q220 -4 345.5 -112.5t125.5 -289.5q0 -235 -170.5 -367.5t-460.5 -132.5l-20 -114h-252zM1221 575q0 89 -60.5 142.5t-179.5 56.5l-80 -444q147 3 233.5 71t86.5 174z
M414 526q0 -88 58.5 -140.5t178.5 -55.5l78 444q-146 -1 -230.5 -72t-84.5 -176z" />
    <glyph glyph-name="uniF365" unicode="&#xf365;" horiz-adv-x="1153" 
d="M1321 1075l-487 -526l313 -549h-285l-203 356l-329 -356h-324l504 545l-295 530h287l184 -340l311 340h324z" />
    <glyph glyph-name="uniF366" unicode="&#xf366;" horiz-adv-x="1347" 
d="M160 0l190 1075h252l-149 -839h481l149 839h252l-149 -839h164l-74 -420h-238l33 184h-911z" />
    <glyph glyph-name="uniF367" unicode="&#xf367;" horiz-adv-x="1183" 
d="M1210 1075l-190 -1075h-252l76 426q-128 -80 -299 -80q-146 0 -230.5 70.5t-83.5 195.5q0 15 9 76l67 387h252l-53 -303q-6 -35 -6 -74q0 -59 34 -87.5t107 -28.5q76 0 131.5 15t112.5 48l73 430h252z" />
    <glyph glyph-name="uniF368" unicode="&#xf368;" horiz-adv-x="1718" 
d="M160 0l190 1075h252l-149 -839h317l150 839h254l-150 -839h317l150 839h254l-191 -1075h-1394z" />
    <glyph glyph-name="uniF369" unicode="&#xf369;" horiz-adv-x="1755" 
d="M160 0l190 1075h252l-149 -839h317l150 839h254l-150 -839h317l150 839h254l-150 -839h164l-73 -420h-236l33 184h-1323z" />
    <glyph glyph-name="uniF36A" unicode="&#xf36a;" horiz-adv-x="1157" 
d="M162 840l41 235h499l-57 -334q82 7 111 7q183 0 293 -86t110 -238q0 -192 -137.5 -310t-382.5 -118q-105 0 -230 2t-147 2l148 840h-248zM711 512q-48 0 -107 -6l-49 -270q44 -5 111 -5q104 0 163.5 41t59.5 123q0 59 -47.5 88t-130.5 29z" />
    <glyph glyph-name="uniF36B" unicode="&#xf36b;" horiz-adv-x="1511" 
d="M1094 0l190 1075h254l-190 -1075h-254zM594 512q-14 0 -92 -4l-49 -272q41 -5 94 -5q106 0 162.5 43t56.5 123q0 57 -45 86t-127 29zM602 1075l-59 -334q82 7 110 7q171 0 278 -89.5t107 -232.5q0 -205 -144.5 -317.5t-377.5 -112.5q-94 0 -213.5 2t-142.5 2l190 1075
h252z" />
    <glyph glyph-name="uniF36C" unicode="&#xf36c;" horiz-adv-x="1054" 
d="M614 512q-32 0 -114 -4l-47 -272q82 -5 100 -5q109 0 170 41t61 125q0 58 -46 86.5t-124 28.5zM602 1075l-59 -334q82 7 114 7q189 0 294.5 -90t105.5 -234q0 -195 -140.5 -311.5t-390.5 -116.5q-99 0 -221.5 2t-144.5 2l190 1075h252z" />
    <glyph glyph-name="uniF36D" unicode="&#xf36d;" horiz-adv-x="1150" 
d="M385 432l41 232h467q-22 95 -95 145.5t-194 50.5q-170 0 -289 -69l-84 180q81 58 188 89.5t220 31.5q130 0 235.5 -39t172 -106.5t102 -154t35.5 -184.5q0 -288 -183 -457t-497 -169q-286 0 -432 137l145 188q121 -94 305 -94q280 0 357 219h-494z" />
    <glyph glyph-name="uniF36E" unicode="&#xf36e;" horiz-adv-x="1798" 
d="M160 0l190 1075h252l-74 -409h154q36 133 129 231t218.5 146.5t268.5 48.5q128 0 232 -42t168 -112t98.5 -157t34.5 -181q0 -133 -43.5 -246t-125 -196.5t-206 -130.5t-278.5 -47q-118 0 -215.5 36.5t-162 99.5t-102 143.5t-43.5 170.5h-168l-75 -430h-252zM924 487
q0 -122 73 -197t205 -75q87 0 157 31t112.5 83.5t65 117t22.5 135.5q0 126 -76.5 200t-200.5 74q-157 0 -257.5 -102.5t-100.5 -266.5z" />
    <glyph glyph-name="uniF36F" unicode="&#xf36f;" horiz-adv-x="1153" 
d="M737 0l58 328h-168l-273 -328h-313l342 393q-68 41 -106.5 107t-38.5 141q0 94 32.5 173t96.5 139t166 94t233 34q101 0 246 -3t168 -3l-191 -1075h-252zM627 563h209l49 277q-99 6 -156 6q-101 0 -160 -45t-59 -115q0 -103 117 -123z" />
    </font>
</defs>
</svg>
