<?xml version="1.0" standalone="no"?>
<!DOCTYPE svg PUBLIC "-//W3C//DTD SVG 1.1//EN" "http://www.w3.org/Graphics/SVG/1.1/DTD/svg11.dtd" >
<svg xmlns="http://www.w3.org/2000/svg" xmlns:xlink="http://www.w3.org/1999/xlink" version="1.1">
<metadata>
Created by FontForge 20170731 at Wed Mar 15 10:29:17 2023
 By Aleksey,,,
Copyright (c) 2011 Paratype, Inc., ParaType Ltd. All rights reserved.
</metadata>
<defs>
<font id="Circe-Bold" horiz-adv-x="1220" >
  <font-face 
    font-family="Circe Bold"
    font-weight="700"
    font-stretch="normal"
    units-per-em="2048"
    panose-1="2 11 6 2 2 2 3 2 2 3"
    ascent="1583"
    descent="-465"
    x-height="922"
    cap-height="1434"
    bbox="-1049 -866 3432 2073"
    underline-thickness="102"
    underline-position="-307"
    unicode-range="U+0020-FEFF"
  />
<missing-glyph horiz-adv-x="434" 
 />
    <glyph glyph-name="uniF350.var.accented" unicode="&#xf350;`" horiz-adv-x="1251" 
d="M12 0l502 1077h223l502 -1077h-268l-101 221h-505l-101 -221h-252zM618 784l-149 -329h297zM885 1409l-305 -242l-113 131l272 291z" />
    <glyph glyph-name="uniF355.var.accented" unicode="&#xf355;`" horiz-adv-x="1019" 
d="M160 0v1075h735v-235h-485v-181h436v-235h-436v-188h503v-236h-753zM774 1409l-305 -242l-113 131l273 291z" />
    <glyph glyph-name="uniF358.var.accented" unicode="&#xf358;`" horiz-adv-x="1357" 
d="M379 0h-219v1075h250v-676l569 676h219v-1075h-250v676zM928 1409l-305 -242l-113 131l272 291z" />
    <glyph glyph-name="uniF35E.var.accented" unicode="&#xf35e;`" horiz-adv-x="1349" 
d="M72 535q0 116 44 218t121.5 176.5t191 117.5t245.5 43q174 0 310.5 -66.5t215 -193.5t78.5 -295q0 -161 -78 -288.5t-216 -198.5t-310 -71q-173 0 -309 67t-214.5 194.5t-78.5 296.5zM338 535q0 -136 97.5 -229t238.5 -93q160 0 249 90.5t89 231.5q0 144 -96.5 231.5
t-241.5 87.5q-148 0 -242 -87t-94 -232zM948 1409l-305 -242l-113 131l273 291z" />
    <glyph glyph-name="uniF363.var.accented" unicode="&#xf363;`" horiz-adv-x="1161" 
d="M1147 1075l-406 -813q-62 -129 -146 -195.5t-200 -66.5q-92 0 -159 47l88 213q44 -24 84 -24q58 0 92 61l18 29l-500 749h316l311 -502l244 502h258zM866 1409l-305 -242l-112 131l272 291z" />
    <glyph glyph-name="uniF36B.var.accented" unicode="&#xf36b;`" horiz-adv-x="1507" 
d="M1096 0v1075h252v-1075h-252zM506 512q-57 0 -96 -4v-272q44 -5 94 -5q194 0 194 146q0 67 -51 101t-141 34zM410 1075v-334q55 7 116 7q217 0 328 -97t111 -268q0 -175 -130.5 -281t-361.5 -106q-67 0 -175.5 2t-137.5 2v1075h250zM989 1409l-305 -242l-113 131l273 291
z" />
    <glyph glyph-name="uniF36D.var.accented" unicode="&#xf36d;`" horiz-adv-x="1150" 
d="M315 430v236h492q-68 192 -342 192q-199 0 -320 -78l-96 189q71 53 180.5 89t245.5 36q264 0 434 -154t170 -403q0 -258 -172 -406.5t-465 -148.5q-123 0 -233 32t-170 80l106 211q133 -88 328 -88q285 0 342 213h-500zM743 1409l-305 -242l-112 131l272 291z" />
    <glyph glyph-name="uniF36E.var.accented" unicode="&#xf36e;`" horiz-adv-x="1796" 
d="M160 0v1075h250v-409h170q38 192 185 310t374 118q271 0 428 -149t157 -406q0 -249 -158.5 -403t-426.5 -154q-223 0 -375.5 119.5t-185.5 328.5h-168v-430h-250zM836 539q0 -140 86 -231t225 -91q151 0 231 90t80 232q0 145 -84.5 232t-226.5 87q-139 0 -225 -87.5
t-86 -231.5zM1114 1409l-305 -242l-113 131l273 291z" />
    <glyph glyph-name="uniF36F.var.accented" unicode="&#xf36f;`" horiz-adv-x="1144" 
d="M733 0v328h-188l-226 -328h-296l278 383q-182 104 -182 301q0 79 28.5 148t85 126t154 90t223.5 33q77 0 212 -3t163 -3v-1075h-252zM524 563h209v277q-69 6 -147 6q-95 0 -148 -39.5t-53 -106.5q0 -55 40.5 -91t98.5 -46zM825 1409l-305 -242l-112 131l272 291z" />
    <glyph glyph-name="uniF371.var.accented" unicode="&#xf371;`" horiz-adv-x="1019" 
d="M182 1321q0 56 38 89.5t95 33.5q46 0 82.5 -34.5t36.5 -88.5q0 -58 -36.5 -92.5t-82.5 -34.5q-58 0 -95.5 33.5t-37.5 93.5zM631 1321q0 55 38.5 89t92.5 34q48 0 85.5 -34t37.5 -89q0 -58 -37 -92.5t-86 -34.5q-55 0 -93 34t-38 93zM160 0v1075h735v-235h-485v-181h436
v-235h-436v-188h503v-236h-753zM825 1593l-305 -241l-112 131l272 291z" />
    <glyph glyph-name="uni0410.var.accented" unicode="&#x410;`" horiz-adv-x="1464" 
d="M14 0l607 1438h221l606 -1438h-268l-150 367h-612l-150 -367h-254zM725 1112l-211 -510h420zM1083 1663l-460 -166l-66 141l438 228z" />
    <glyph glyph-name="uni0415.var.accented" unicode="&#x415;`" horiz-adv-x="1177" 
d="M199 0v1434h829v-236h-577v-356h516v-236h-516v-370h598v-236h-850zM1001 1663l-460 -166l-66 141l438 228z" />
    <glyph glyph-name="uni0418.var.accented" unicode="&#x418;`" horiz-adv-x="1622" 
d="M420 0h-221v1434h252v-1020l751 1020h221v-1434h-252v1018zM1186 1663l-461 -166l-66 141l439 228z" />
    <glyph glyph-name="uni041E.var.accented" unicode="&#x41e;`" horiz-adv-x="1677" 
d="M92 717q0 154 55 290.5t152.5 235.5t237 156t301.5 57q212 0 381.5 -91t267.5 -260t98 -388q0 -212 -97.5 -381.5t-268 -264t-381.5 -94.5q-212 0 -381.5 91t-267 260.5t-97.5 388.5zM358 717q0 -214 139 -359t341 -145q220 0 350.5 143t130.5 361q0 220 -138 362
t-343 142q-207 0 -343.5 -141.5t-136.5 -362.5zM1206 1663l-461 -166l-65 141l438 228z" />
    <glyph glyph-name="uni0423.var.accented" unicode="&#x423;`" horiz-adv-x="1398" 
d="M1374 1434l-487 -1100q-76 -170 -167.5 -252t-221.5 -82q-54 0 -110.5 16.5t-86.5 40.5l88 213q49 -34 107 -34q93 0 141 100l20 49l-632 1049h284l469 -801l342 801h254zM1100 1663l-461 -166l-66 141l439 228z" />
    <glyph glyph-name="uni042B.var.accented" unicode="&#x42b;`" horiz-adv-x="1769" 
d="M1321 0v1434h250v-1434h-250zM590 717q-44 0 -139 -10v-469q11 0 58.5 -3.5t76.5 -3.5q139 0 210.5 63.5t71.5 188.5q0 114 -72.5 174t-205.5 60zM451 1434v-492q79 10 159 10q259 0 392 -123t133 -340q0 -229 -153.5 -361t-426.5 -132q-74 0 -197 2t-159 2v1434h252z
M1217 1663l-461 -166l-66 141l438 228z" />
    <glyph glyph-name="uni042D.var.accented" unicode="&#x42d;`" horiz-adv-x="1378" 
d="M383 612v236h639q-36 178 -173.5 275.5t-342.5 97.5q-190 0 -336 -111l-98 188q81 70 209 114t284 44q157 0 290.5 -53t228.5 -148t148.5 -233t53.5 -303q0 -338 -203 -540t-546 -202q-145 0 -275 41.5t-207 108.5l109 211q161 -125 368 -125q125 0 228 44t175 135.5
t93 219.5h-645zM940 1663l-461 -166l-65 141l438 228z" />
    <glyph glyph-name="uni042E.var.accented" unicode="&#x42e;`" horiz-adv-x="2213" 
d="M199 0v1434h252v-586h243q41 268 231 438t470 170q158 0 293 -53t230.5 -148.5t149.5 -234t54 -303.5q0 -213 -92.5 -381.5t-258.5 -263.5t-376 -95q-182 0 -334 77.5t-250.5 222.5t-120.5 335h-239v-612h-252zM950 717q0 -214 131.5 -359t321.5 -145q146 0 250 68
t153 180t49 256q0 223 -125 363.5t-327 140.5q-195 0 -324 -141.5t-129 -362.5zM1513 1663l-460 -166l-66 141l438 228z" />
    <glyph glyph-name="uni042F.var.accented" unicode="&#x42f;`" horiz-adv-x="1296" 
d="M846 0v496h-207l-322 -496h-282l366 547q-110 56 -180.5 156.5t-70.5 240.5q0 102 34 189.5t103 157t184.5 109.5t267.5 40q47 0 181.5 -3t175.5 -3v-1434h-250zM616 731h230v467q-105 6 -158 6q-123 0 -197.5 -67.5t-74.5 -175.5q0 -91 58.5 -152.5t141.5 -77.5z
M1100 1663l-461 -166l-66 141l439 228z" />
    <glyph glyph-name="uni0401.var.accented" unicode="&#x401;`" horiz-adv-x="1177" 
d="M199 1688q0 59 34 94t86 35q44 0 78.5 -36t34.5 -93q0 -63 -34.5 -100.5t-78.5 -37.5q-53 0 -86.5 37t-33.5 101zM817 1688q0 58 36 93.5t87 35.5q45 0 78 -35.5t33 -93.5q0 -63 -33 -100.5t-78 -37.5q-52 0 -87.5 37t-35.5 101zM821 1810l-272 -294l-84 38l153 312z
M199 0v1434h829v-236h-577v-356h516v-236h-516v-370h598v-236h-850z" />
    <glyph glyph-name="uni0430.var.accented" unicode="&#x430;`" horiz-adv-x="948" 
d="M203 684l-60 172q64 38 152 63t174 25q197 0 283 -96t86 -287v-561h-205v106q-38 -54 -109.5 -86t-163.5 -32q-129 0 -208.5 75.5t-79.5 206.5q0 146 94.5 222.5t241.5 76.5q60 0 116.5 -16.5t91.5 -42.5q5 121 -34 179.5t-138 58.5q-49 0 -97.5 -11.5t-71 -20.5
t-72.5 -32zM438 186q119 0 178 84v95q-60 45 -161 45q-63 0 -105.5 -29.5t-42.5 -85.5q0 -51 37 -80t94 -29zM758 1356l-258 -297l-142 98l215 338z" />
    <glyph glyph-name="uni0435.var.accented" unicode="&#x435;`" horiz-adv-x="1056" 
d="M854 258l68 -166q-67 -57 -160 -86t-193 -29q-223 0 -359 133t-136 351q0 100 34 188.5t95.5 153.5t154 103t203.5 38q183 0 309.5 -119.5t126.5 -308.5q0 -78 -14 -127h-666q15 -102 90.5 -158.5t186.5 -56.5q79 0 147.5 24t112.5 60zM551 748q-102 0 -162 -53t-80 -148
h453q2 87 -55 144t-156 57zM813 1356l-258 -297l-141 98l215 338z" />
    <glyph glyph-name="uni0438.var.accented" unicode="&#x438;`" horiz-adv-x="1163" 
d="M367 0h-236v922h236v-584l430 584h235v-922h-235v584zM831 1356l-258 -297l-141 98l215 338z" />
    <glyph glyph-name="uni043E.var.accented" unicode="&#x43e;`" horiz-adv-x="1150" 
d="M74 461q0 210 138 346.5t363 136.5q226 0 364 -136.5t138 -346.5t-138.5 -347t-363.5 -137t-363 137t-138 347zM326 461q0 -115 70.5 -189.5t178.5 -74.5q110 0 181 72.5t71 191.5q0 116 -71.5 189t-180.5 73q-107 0 -178 -72t-71 -190zM842 1356l-258 -297l-142 98
l215 338z" />
    <glyph glyph-name="uni0443.var.accented" unicode="&#x443;`" horiz-adv-x="1030" 
d="M1020 922l-363 -922q-67 -164 -123.5 -253.5t-109 -123t-123.5 -33.5q-101 0 -199 72l76 178q59 -33 96 -33q84 0 142 144l20 49l-426 922h283l215 -504q16 -41 45 -133q16 84 33 135l166 502h268zM782 1356l-258 -297l-141 98l215 338z" />
    <glyph glyph-name="uni044B.var.accented" unicode="&#x44b;`" horiz-adv-x="1384" 
d="M131 0v922h236v-252h114q113 0 195 -26.5t126.5 -73t64.5 -101t20 -119.5q0 -69 -23 -129.5t-71 -111t-132.5 -80t-197.5 -29.5h-332zM1018 0v922h235v-922h-235zM461 481h-94v-276h92q178 0 178 137q0 139 -176 139zM905 1356l-258 -297l-141 98l215 338z" />
    <glyph glyph-name="uni044D.var.accented" unicode="&#x44d;`" horiz-adv-x="1015" 
d="M287 387v158h409q-22 96 -93.5 145t-170.5 49q-133 0 -264 -96l-96 164q62 67 161.5 102t194.5 35q236 0 375 -131t139 -352q0 -208 -132.5 -346t-358.5 -138q-248 0 -383 138l110 155q42 -37 110.5 -62.5t147.5 -25.5q106 0 175 52.5t87 152.5h-411zM705 1356l-259 -297
l-141 98l215 338z" />
    <glyph glyph-name="uni044E.var.accented" unicode="&#x44e;`" horiz-adv-x="1581" 
d="M131 0v922h250v-334h164q36 161 160 258.5t307 97.5q221 0 358 -136.5t137 -346.5q0 -209 -138 -346.5t-357 -137.5q-188 0 -313 103t-158 272h-160v-352h-250zM797 461q0 -116 61.5 -182t159.5 -66q100 0 161.5 66.5t61.5 181.5q0 114 -60 181t-163 67
q-98 0 -159.5 -67.5t-61.5 -180.5zM1063 1356l-258 -297l-141 98l215 338z" />
    <glyph glyph-name="uni044F.var.accented" unicode="&#x44f;`" horiz-adv-x="1013" 
d="M582 922h301v-922h-236v276h-131l-190 -276h-271l246 328q-71 26 -124.5 94t-53.5 172q0 69 25.5 126.5t78.5 103.5t143.5 72t211.5 26zM375 578q0 -55 45.5 -91t103.5 -36h123v266h-104q-81 0 -124.5 -41t-43.5 -98zM825 1356l-258 -297l-141 98l215 338z" />
    <glyph glyph-name="uni0451.var.accented" unicode="&#x451;`" horiz-adv-x="1056" 
d="M147 1204q0 49 31.5 79t77.5 30q41 0 71.5 -30t30.5 -79q0 -53 -30.5 -83.5t-71.5 -30.5q-46 0 -77.5 30.5t-31.5 83.5zM739 1204q0 49 31.5 79t77.5 30q42 0 72 -30t30 -79q0 -53 -30 -83.5t-72 -30.5q-46 0 -77.5 30.5t-31.5 83.5zM766 1356l-258 -297l-109 78l213 336
zM854 258l68 -166q-67 -57 -160 -86t-193 -29q-223 0 -359 133t-136 351q0 100 34 188.5t95.5 153.5t154 103t203.5 38q183 0 309.5 -119.5t126.5 -308.5q0 -78 -14 -127h-666q15 -102 90.5 -158.5t186.5 -56.5q79 0 147.5 24t112.5 60zM551 748q-102 0 -162 -53t-80 -148
h453q2 87 -55 144t-156 57z" />
    <glyph glyph-name="fi" unicode="fi" horiz-adv-x="1085" 
d="M741 0v700h-364v-700h-236v1036q0 211 109.5 315.5t300.5 104.5q273 0 395 -192l-170 -134q-67 105 -182 105q-110 0 -163.5 -50t-53.5 -169v-94h600v-922h-236z" />
    <glyph glyph-name="fl" unicode="fl" horiz-adv-x="1167" 
d="M684 254v932q-69 49 -145 49q-162 0 -162 -182v-131h166v-222h-166v-700h-236v1071q0 189 86 287t242 98q147 0 242 -61h209v-1045q0 -149 79 -149q45 0 99 37l49 -181q-95 -77 -244 -77q-219 0 -219 274z" />
    <glyph glyph-name=".notdef" horiz-adv-x="434" 
 />
    <glyph glyph-name=".null" horiz-adv-x="0" 
 />
    <glyph glyph-name="nonmarkingreturn" horiz-adv-x="682" 
 />
    <glyph glyph-name="space" unicode=" " horiz-adv-x="434" 
 />
    <glyph glyph-name="exclam" unicode="!" horiz-adv-x="634" 
d="M193 496v938h249v-938h-249zM160 154q0 58 45.5 104.5t118.5 46.5q63 0 106 -47t43 -104q0 -65 -42.5 -114.5t-106.5 -49.5q-73 0 -118.5 49t-45.5 115z" />
    <glyph glyph-name="quotedbl" unicode="&#x22;" horiz-adv-x="884" 
d="M510 940v494h235v-494h-235zM137 940v494h236v-494h-236z" />
    <glyph glyph-name="numbersign" unicode="#" horiz-adv-x="1482" 
d="M641 43l121 326h-313l-146 -392l-182 64l121 328h-160v204h235l107 287h-342v205h420l145 391l182 -65l-120 -326h309l145 391l183 -63l-121 -328h176v-205h-252l-107 -287h359v-204h-434l-144 -392zM631 860l-107 -287h314l104 287h-311z" />
    <glyph glyph-name="dollar" unicode="$" 
d="M815 381q0 50 -28 91t-73.5 68.5t-104 57t-119 54.5t-119 63t-104 82t-73.5 112t-28 152q0 137 92 243.5t246 139.5v174h235v-170q194 -31 299 -145l-135 -189q-56 55 -114 81t-140 26q-106 0 -161.5 -42.5t-55.5 -115.5q0 -60 36 -105.5t93 -76.5t126 -59.5t138.5 -64.5
t126.5 -82t93 -120.5t36 -171.5q0 -151 -93.5 -256.5t-248.5 -136.5v-195h-235v193q-121 20 -218 75.5t-136 139.5l143 172q60 -78 151 -120t179 -42q90 0 141 43.5t51 124.5z" />
    <glyph glyph-name="percent" unicode="%" horiz-adv-x="1865" 
d="M348 72l1034 1384l134 -100l-1033 -1379zM76 1087q0 164 113 264.5t290 100.5t290.5 -100.5t113.5 -264.5q0 -163 -114 -264.5t-290 -101.5t-289.5 101.5t-113.5 264.5zM297 1087q0 -80 52.5 -128t129.5 -48q81 0 133 48t52 128q0 78 -53 126.5t-132 48.5
q-78 0 -130 -48.5t-52 -126.5zM981 346q0 164 113 264.5t290 100.5t290.5 -100.5t113.5 -264.5q0 -163 -114 -264.5t-290 -101.5t-289.5 101.5t-113.5 264.5zM1202 346q0 -80 52.5 -128t129.5 -48q81 0 133 48t52 128q0 78 -52.5 126t-132.5 48q-78 0 -130 -48t-52 -126z
" />
    <glyph glyph-name="ampersand" unicode="&#x26;" horiz-adv-x="1542" 
d="M1147 0l-121 150q-157 -173 -422 -173q-216 0 -348.5 115.5t-132.5 296.5q0 70 17.5 131.5t44 107t71.5 91.5t84.5 77.5t99.5 73.5q-76 37 -120 107t-44 168q0 141 100 226t240 85t240 -85t100 -226q0 -94 -54 -173t-130 -104l279 -362q96 188 96 416h233
q0 -169 -50 -328t-138 -277l248 -317h-293zM612 213q182 0 273 125l-291 397q-109 -89 -157 -155t-48 -144q0 -94 64.5 -158.5t158.5 -64.5zM496 1145q0 -48 34.5 -83.5t85.5 -35.5t86 35.5t35 83.5q0 51 -35.5 86t-85.5 35q-51 0 -85.5 -34.5t-34.5 -86.5z" />
    <glyph glyph-name="quotesingle" unicode="'" horiz-adv-x="512" 
d="M137 940v494h236v-494h-236z" />
    <glyph glyph-name="parenleft" unicode="(" horiz-adv-x="645" 
d="M645 -293l-149 -129q-414 357 -414 883q0 242 96.5 461t319.5 421l145 -129q-168 -167 -247 -348t-79 -405q0 -219 89 -417.5t239 -336.5z" />
    <glyph glyph-name="parenright" unicode=")" horiz-adv-x="645" 
d="M150 -422l-150 129q150 138 239 336.5t89 417.5q0 224 -79 405t-247 348l145 129q223 -202 319.5 -421t96.5 -461q0 -527 -413 -883z" />
    <glyph glyph-name="asterisk" unicode="*" horiz-adv-x="1105" 
d="M408 1307q0 61 43 104t106 43q60 0 104 -43.5t44 -103.5q0 -63 -43.5 -106.5t-104.5 -43.5q-63 0 -106 43.5t-43 106.5zM403 680q0 62 43.5 106.5t104.5 44.5q60 0 103.5 -44.5t43.5 -106.5q0 -60 -43.5 -102.5t-103.5 -42.5q-61 0 -104.5 42.5t-43.5 102.5zM694 1163
q0 60 45 105t105 45q61 0 105 -45t44 -105q0 -61 -43.5 -104t-105.5 -43q-61 0 -105.5 43t-44.5 104zM694 829q0 61 45 106.5t105 45.5q61 0 105 -45t44 -107q0 -60 -43.5 -102.5t-105.5 -42.5q-60 0 -105 42.5t-45 102.5zM113 829q0 62 43.5 107t103.5 45q63 0 107.5 -45
t44.5 -107q0 -60 -44.5 -102.5t-107.5 -42.5q-60 0 -103.5 42.5t-43.5 102.5zM113 1163q0 60 43.5 105t103.5 45q62 0 107 -44.5t45 -105.5t-44.5 -104t-107.5 -43q-60 0 -103.5 43t-43.5 104z" />
    <glyph glyph-name="plus" unicode="+" 
d="M135 635v205h363v370h221v-370h366v-205h-366v-375h-221v375h-363z" />
    <glyph glyph-name="comma" unicode="," horiz-adv-x="516" 
d="M96 131q0 67 42 108.5t116 41.5q82 0 131 -64.5t49 -165.5q0 -130 -69 -221.5t-191 -126.5l-63 111q90 32 125 108q30 65 18 94q-12 -16 -53 -16t-73 38t-32 93z" />
    <glyph glyph-name="hyphen" unicode="-" horiz-adv-x="770" 
d="M127 451v219h516v-219h-516z" />
    <glyph glyph-name="period" unicode="." horiz-adv-x="497" 
d="M92 154q0 58 45.5 104.5t118.5 46.5q63 0 106.5 -47t43.5 -104q0 -65 -43 -114.5t-107 -49.5q-73 0 -118.5 49t-45.5 115z" />
    <glyph glyph-name="slash" unicode="/" horiz-adv-x="735" 
d="M-61 -358l675 1814l183 -67l-676 -1815z" />
    <glyph glyph-name="zero" unicode="0" horiz-adv-x="1134" 
d="M86 717q0 223 50.5 385t160 255t270.5 93q160 0 269.5 -93t160 -255t50.5 -385q0 -224 -49.5 -385.5t-158 -254.5t-268.5 -93q-161 0 -271.5 93t-162 255t-51.5 385zM338 717q0 -514 233 -514q121 0 173.5 122.5t52.5 391.5q0 268 -54 390t-176 122q-120 0 -174.5 -124.5
t-54.5 -387.5z" />
    <glyph glyph-name="one" unicode="1" horiz-adv-x="796" 
d="M45 1163l367 275h170v-1438h-236v1102l-176 -133z" />
    <glyph glyph-name="two" unicode="2" horiz-adv-x="1073" 
d="M76 0v188q17 17 53 52q68 66 104.5 102.5t103 106t105 116.5t88 114t76.5 120.5t46.5 114t19.5 114.5q0 87 -47.5 136.5t-135.5 49.5q-76 0 -129.5 -50.5t-76.5 -141.5l-197 88q29 157 144.5 248.5t285.5 91.5q98 0 177.5 -31.5t128 -85t74.5 -119.5t26 -139
q0 -82 -25 -169t-62 -159.5t-91 -148t-102 -130t-105 -110t-89.5 -83.5t-66.5 -56h596v-219h-901z" />
    <glyph glyph-name="three" unicode="3" horiz-adv-x="1085" 
d="M500 -23q-160 0 -278 65t-177 177l133 172q56 -82 136 -130t171 -48q111 0 171.5 56.5t60.5 142.5q0 97 -70 149.5t-196 52.5h-103v236h92q92 0 157 54t65 143q0 79 -47 126.5t-136 47.5q-85 0 -150 -37.5t-120 -116.5l-131 166q58 109 167 166t257 57q186 0 298.5 -98.5
t112.5 -265.5q0 -245 -219 -340v-7q130 -23 202.5 -117t72.5 -225q0 -194 -133 -310t-336 -116z" />
    <glyph glyph-name="four" unicode="4" horiz-adv-x="1157" 
d="M686 0v332h-655v174l553 928h270l-518 -867h350v355h236v-355h184v-235h-184v-332h-236z" />
    <glyph glyph-name="five" unicode="5" horiz-adv-x="1052" 
d="M166 672l94 762h678v-236h-471l-41 -285q52 9 82 9q195 0 322.5 -124.5t127.5 -332.5q0 -150 -67 -262.5t-178 -169t-248 -56.5q-122 0 -239.5 54t-180.5 151l135 178q45 -66 126.5 -106.5t164.5 -40.5q103 0 169.5 68t66.5 174q0 110 -82.5 182t-223.5 72
q-66 0 -133 -11.5t-102 -25.5z" />
    <glyph glyph-name="six" unicode="6" horiz-adv-x="1144" 
d="M92 508q0 152 43.5 292.5t114.5 247t163.5 192t190 139t193.5 77.5l96 -178q-185 -56 -327 -191t-195 -333q96 133 295 133q168 0 284.5 -122.5t116.5 -315.5q0 -109 -40 -200t-106 -149.5t-148 -90.5t-169 -32q-155 0 -273 73t-178.5 192.5t-60.5 265.5zM342 506
q0 -128 69.5 -210.5t194.5 -82.5q95 0 153 64.5t58 154.5q0 103 -60.5 169.5t-170.5 66.5q-89 0 -150.5 -47t-93.5 -115z" />
    <glyph glyph-name="seven" unicode="7" horiz-adv-x="1017" 
d="M51 1198v236h901v-158l-508 -1276h-258l484 1198h-619z" />
    <glyph glyph-name="eight" unicode="8" horiz-adv-x="1228" 
d="M596 854h39q80 0 132 55t52 129q0 86 -57.5 134.5t-151.5 48.5q-91 0 -146.5 -51.5t-55.5 -131.5q0 -75 53 -129.5t135 -54.5zM635 618h-35q-95 0 -163 -55t-68 -147q0 -88 65.5 -145.5t177.5 -57.5q123 0 186.5 56.5t61.5 146.5q-1 96 -64 149t-161 53zM614 -23
q-214 0 -355.5 107.5t-141.5 286.5q0 134 68.5 229.5t176.5 132.5v6q-88 37 -146 128t-58 212q0 166 131 271.5t323 105.5q194 0 326.5 -105.5t132.5 -271.5q0 -107 -59.5 -201t-161.5 -137v-6q110 -23 185 -116t75 -228q0 -129 -66 -224t-177.5 -142.5t-252.5 -47.5z" />
    <glyph glyph-name="nine" unicode="9" horiz-adv-x="1136" 
d="M1044 909q0 -202 -57 -370.5t-157 -284.5t-233 -187t-288 -90l-78 187q220 44 356 172t179 328q-93 -129 -272 -129q-182 0 -307.5 127.5t-125.5 316.5q0 109 42 201t110.5 151t152.5 92t171 33q235 0 371 -151.5t136 -395.5zM795 911q0 131 -67.5 220.5t-190.5 89.5
q-97 0 -161.5 -68.5t-64.5 -157.5q0 -99 65 -169t175 -70q90 0 151.5 44.5t92.5 110.5z" />
    <glyph glyph-name="colon" unicode=":" horiz-adv-x="651" 
d="M168 793q0 58 45.5 104.5t118.5 46.5q63 0 106 -47t43 -104q0 -65 -42.5 -114.5t-106.5 -49.5q-73 0 -118.5 49t-45.5 115zM168 154q0 58 45.5 104.5t118.5 46.5q63 0 106 -47t43 -104q0 -65 -42.5 -114.5t-106.5 -49.5q-73 0 -118.5 49t-45.5 115z" />
    <glyph glyph-name="semicolon" unicode=";" horiz-adv-x="663" 
d="M168 793q0 58 45.5 104.5t118.5 46.5q63 0 106 -47t43 -104q0 -65 -42.5 -114.5t-106.5 -49.5q-73 0 -118.5 49t-45.5 115zM170 131q0 67 42 108.5t116 41.5q82 0 131 -64.5t49 -165.5q0 -130 -69 -221.5t-191 -126.5l-64 111q90 32 125 108q30 66 19 94q-12 -16 -54 -16
q-41 0 -72.5 38t-31.5 93z" />
    <glyph glyph-name="less" unicode="&#x3c;" 
d="M1051 135l-951 555v101l951 550v-254l-627 -346l627 -350v-256z" />
    <glyph glyph-name="equal" unicode="=" 
d="M135 829v205h950v-205h-950zM135 440v205h950v-205h-950z" />
    <glyph glyph-name="greater" unicode="&#x3e;" 
d="M1120 690l-952 -555v256l629 350l-629 346v254l952 -550v-101z" />
    <glyph glyph-name="question" unicode="?" horiz-adv-x="968" 
d="M666 1044q0 73 -55.5 125t-137.5 52t-141.5 -32t-110.5 -99l-139 157q58 93 165 151t240 58q198 0 314.5 -103.5t116.5 -256.5q0 -81 -22.5 -148t-58.5 -111.5t-78.5 -83t-83.5 -70.5t-73 -65t-48 -76.5t-7 -95.5l-215 -2q-11 65 -2.5 118t30 89.5t52.5 69.5t65 57
t68 52.5t60.5 56.5t43.5 68.5t17 88.5zM287 154q0 58 45.5 104.5t116.5 46.5q65 0 108 -47t43 -104q0 -65 -43 -114.5t-108 -49.5q-72 0 -117 49t-45 115z" />
    <glyph glyph-name="at" unicode="@" horiz-adv-x="2039" 
d="M1227 0v74q-104 -97 -254 -97q-206 0 -329.5 133t-123.5 351q0 204 149.5 343.5t379.5 139.5q114 0 225 -31t188 -79v-615h41q86 0 142.5 93t56.5 247q0 119 -46.5 225t-130 186t-209.5 126.5t-276 46.5q-144 0 -272 -47.5t-223.5 -134t-151 -216t-55.5 -284.5
q0 -195 94.5 -352t255 -243.5t352.5 -86.5q117 0 222 24l10 -219q-120 -26 -232 -26q-196 0 -367.5 68t-293.5 186.5t-192 287t-70 361.5q0 186 70.5 352.5t192 287t293.5 191t367 70.5q249 0 449 -98.5t316 -282.5t116 -422q0 -85 -18.5 -164.5t-56.5 -150t-91.5 -124
t-129 -85.5t-163.5 -35h-235zM1016 197q60 0 116.5 27.5t94.5 68.5v385q-92 45 -180 45q-129 0 -202 -78.5t-73 -193.5q0 -119 67 -186.5t177 -67.5z" />
    <glyph glyph-name="A" unicode="A" horiz-adv-x="1464" 
d="M14 0l607 1438h221l606 -1438h-268l-150 367h-612l-150 -367h-254zM725 1112l-211 -510h420z" />
    <glyph glyph-name="B" unicode="B" horiz-adv-x="1263" 
d="M199 2v1428q200 10 413 10q125 0 217.5 -27t147 -76t80.5 -112t26 -140q0 -230 -204 -325v-4q112 -28 181.5 -113t69.5 -221q0 -108 -40 -191t-112.5 -135t-168 -78t-211.5 -26q-259 0 -399 10zM629 616h-178v-378q96 -11 165 -11q128 0 195.5 53t67.5 154q0 90 -65 136
t-185 46zM608 1204q-90 0 -157 -6v-362h170q93 0 153 48t60 142q0 86 -61 132t-165 46z" />
    <glyph glyph-name="C" unicode="C" horiz-adv-x="1341" 
d="M1194 328l96 -189q-68 -72 -194 -117t-265 -45q-217 0 -385 91.5t-261 260t-93 388.5q0 155 48.5 289t139.5 234.5t231.5 158t313.5 57.5q136 0 250 -39t187 -106l-113 -187q-146 97 -324 97q-204 0 -335.5 -137.5t-131.5 -366.5q0 -224 138 -364t358 -140q192 0 340 115
z" />
    <glyph glyph-name="D" unicode="D" horiz-adv-x="1517" 
d="M199 0v1434h26q41 0 191.5 3t204.5 3q167 0 303 -37.5t228 -102.5t154.5 -155.5t90.5 -194t28 -219.5q0 -122 -32.5 -231t-99.5 -201.5t-163 -159.5t-231 -105t-295 -38q-37 0 -171.5 2t-205.5 2h-28zM616 1204q-80 0 -165 -6v-962q88 -5 161 -5q257 0 402 135t145 365
q0 218 -144 345.5t-399 127.5z" />
    <glyph glyph-name="E" unicode="E" horiz-adv-x="1177" 
d="M199 0v1434h829v-236h-577v-356h516v-236h-516v-370h598v-236h-850z" />
    <glyph glyph-name="F" unicode="F" horiz-adv-x="1099" 
d="M199 0v1434h819v-236h-567v-405h505v-236h-505v-557h-252z" />
    <glyph glyph-name="G" unicode="G" horiz-adv-x="1488" 
d="M795 537v235h581v-594q-92 -92 -244 -146.5t-292 -54.5q-348 0 -548 201t-200 539q0 154 50.5 289t142 235t226.5 157.5t296 57.5q277 0 461 -145l-107 -201q-54 51 -141.5 81t-181.5 30q-212 0 -346 -135t-134 -369q0 -228 133.5 -366t352.5 -138q82 0 169 29.5
t128 68.5v226h-346z" />
    <glyph glyph-name="H" unicode="H" horiz-adv-x="1554" 
d="M1106 0v612h-655v-612h-252v1434h252v-586h655v586h250v-1434h-250z" />
    <glyph glyph-name="I" unicode="I" horiz-adv-x="710" 
d="M229 0v1434h252v-1434h-252z" />
    <glyph glyph-name="J" unicode="J" horiz-adv-x="798" 
d="M600 1434v-1096q0 -174 -87 -267.5t-259 -93.5q-77 0 -145.5 27t-98.5 62l82 192q59 -45 127 -45q129 0 129 168v1053h252z" />
    <glyph glyph-name="K" unicode="K" horiz-adv-x="1376" 
d="M199 0v1434h252v-680l565 680h303l-590 -668l627 -766h-320l-585 739v-739h-252z" />
    <glyph glyph-name="L" unicode="L" horiz-adv-x="1120" 
d="M199 0v1434h252v-1198h645v-236h-897z" />
    <glyph glyph-name="M" unicode="M" horiz-adv-x="1845" 
d="M199 0v1434h254l489 -670l467 670h238v-1434h-250v1036l-453 -637h-37l-456 631v-1030h-252z" />
    <glyph glyph-name="N" unicode="N" horiz-adv-x="1622" 
d="M1423 0h-200l-789 993v-993h-235v1434h200l789 -998v998h235v-1434z" />
    <glyph glyph-name="O" unicode="O" horiz-adv-x="1677" 
d="M92 717q0 154 55 290.5t152.5 235.5t237 156t301.5 57q212 0 381.5 -91t267.5 -260t98 -388q0 -212 -97.5 -381.5t-268 -264t-381.5 -94.5q-212 0 -381.5 91t-267 260.5t-97.5 388.5zM358 717q0 -214 139 -359t341 -145q220 0 350.5 143t130.5 361q0 220 -138 362
t-343 142q-207 0 -343.5 -141.5t-136.5 -362.5z" />
    <glyph glyph-name="P" unicode="P" horiz-adv-x="1253" 
d="M451 0h-252v1434q38 0 196.5 2t210.5 2q123 0 219.5 -25.5t158.5 -68.5t102.5 -103t57.5 -125t17 -139q0 -93 -34.5 -176t-98.5 -148t-165.5 -103t-225.5 -38q-125 0 -186 6v-518zM631 1202q-44 0 -180 -4v-440q98 -10 178 -10q119 0 192.5 58t73.5 173q0 223 -264 223z
" />
    <glyph glyph-name="Q" unicode="Q" horiz-adv-x="1677" 
d="M92 717q0 154 55 290.5t152.5 235.5t237 156t301.5 57q212 0 381.5 -91t267.5 -260t98 -388q0 -151 -51 -282.5t-145 -229.5l176 -205h-293l-60 68q-168 -91 -374 -91q-212 0 -381.5 91t-267 260.5t-97.5 388.5zM358 717q0 -214 139 -359t341 -145q117 0 215 45l-121 141
l164 148l127 -150q96 135 96 320q0 220 -138 362t-343 142q-207 0 -343.5 -141.5t-136.5 -362.5z" />
    <glyph glyph-name="R" unicode="R" horiz-adv-x="1347" 
d="M451 0h-252v1434q45 0 232.5 2t203.5 2q114 0 203.5 -22.5t148.5 -61.5t97 -96t54.5 -121.5t16.5 -141.5q0 -88 -25.5 -161t-68.5 -121.5t-88 -79t-94 -47.5l448 -586h-305l-395 537h-176v-537zM623 1202q-36 0 -172 -4v-426h163q116 0 195.5 58t79.5 163q0 209 -266 209
z" />
    <glyph glyph-name="S" unicode="S" horiz-adv-x="1132" 
d="M774 381q0 50 -28 91t-73.5 68.5t-104 57t-119 54.5t-119 63t-104 82t-73.5 112t-28 152q0 167 121.5 281t324.5 114q130 0 237.5 -40.5t172.5 -112.5l-135 -189q-56 55 -114 81t-140 26q-93 0 -147 -43.5t-54 -114.5q0 -60 36 -105.5t93 -76.5t126 -59.5t138.5 -64.5
t126.5 -82t93 -120.5t36 -171.5q0 -179 -137.5 -292.5t-341.5 -113.5q-147 0 -283 61t-186 165l144 172q60 -78 150.5 -120t178.5 -42q92 0 150.5 44.5t58.5 123.5z" />
    <glyph glyph-name="T" unicode="T" horiz-adv-x="1222" 
d="M20 1198v236h1182v-236h-465v-1198h-252v1198h-465z" />
    <glyph glyph-name="U" unicode="U" horiz-adv-x="1538" 
d="M1358 1434v-840q0 -128 -30.5 -232t-83.5 -175t-125.5 -119t-155.5 -69.5t-175 -21.5q-135 0 -246 40t-192.5 117.5t-126.5 198.5t-45 275v826h252v-772q0 -209 89 -329t269 -120q320 0 320 432v789h250z" />
    <glyph glyph-name="V" unicode="V" horiz-adv-x="1343" 
d="M1348 1434l-574 -1438h-190l-590 1438h268l426 -1063l408 1063h252z" />
    <glyph glyph-name="W" unicode="W" horiz-adv-x="2017" 
d="M2007 1434l-410 -1434h-235l-346 1036l-340 -1036h-238l-428 1434h283l289 -1022l319 1022h250l328 -1024l286 1024h242z" />
    <glyph glyph-name="X" unicode="X" horiz-adv-x="1370" 
d="M1331 1434l-483 -703l502 -731h-295l-371 539l-369 -539h-295l502 731l-479 703h295l352 -519l346 519h295z" />
    <glyph glyph-name="Y" unicode="Y" horiz-adv-x="1288" 
d="M1278 1434l-510 -836v-598h-252v598l-506 836h287l356 -600l353 600h272z" />
    <glyph glyph-name="Z" unicode="Z" horiz-adv-x="1314" 
d="M123 1198v236h1089v-174l-794 -1024h815v-236h-1151v172l792 1026h-751z" />
    <glyph glyph-name="bracketleft" unicode="[" horiz-adv-x="716" 
d="M123 -410v1741h563v-221h-328v-1300h328v-220h-563z" />
    <glyph glyph-name="backslash" unicode="\" horiz-adv-x="735" 
d="M119 1456l678 -1814l-185 -68l-673 1815z" />
    <glyph glyph-name="bracketright" unicode="]" horiz-adv-x="716" 
d="M594 1331v-1741h-563v220h327v1300h-327v221h563z" />
    <glyph glyph-name="asciicircum" unicode="^" horiz-adv-x="1038" 
d="M61 922l379 528h162l375 -528h-256l-201 292l-205 -292h-254z" />
    <glyph glyph-name="underscore" unicode="_" horiz-adv-x="704" 
d="M0 -410v236h705v-236h-705z" />
    <glyph glyph-name="grave" unicode="`" horiz-adv-x="645" 
d="M383 1059l-260 293l186 139l213 -334z" />
    <glyph glyph-name="a" unicode="a" horiz-adv-x="948" 
d="M203 684l-60 172q64 38 152 63t174 25q197 0 283 -96t86 -287v-561h-205v106q-38 -54 -109.5 -86t-163.5 -32q-129 0 -208.5 75.5t-79.5 206.5q0 146 94.5 222.5t241.5 76.5q60 0 116.5 -16.5t91.5 -42.5q5 121 -34 179.5t-138 58.5q-49 0 -97.5 -11.5t-71 -20.5
t-72.5 -32zM438 186q119 0 178 84v95q-60 45 -161 45q-63 0 -105.5 -29.5t-42.5 -85.5q0 -51 37 -80t94 -29z" />
    <glyph glyph-name="b" unicode="b" horiz-adv-x="1122" 
d="M131 80v1354h236v-570q101 80 243 80q202 0 320.5 -130.5t118.5 -338.5q0 -228 -142.5 -363t-384.5 -135q-108 0 -215.5 30t-175.5 73zM555 723q-57 0 -106 -25t-82 -63v-391q73 -47 168 -47q114 0 188 70.5t74 191.5q0 127 -68.5 195.5t-173.5 68.5z" />
    <glyph glyph-name="c" unicode="c" horiz-adv-x="997" 
d="M829 309l111 -172q-58 -77 -155.5 -118.5t-211.5 -41.5q-224 0 -361.5 133t-137.5 351q0 133 60 243.5t170 175t247 64.5q246 0 371 -125l-111 -186q-93 90 -229 90q-103 0 -179.5 -72.5t-76.5 -189.5q0 -119 78.5 -191.5t187.5 -72.5q137 0 237 112z" />
    <glyph glyph-name="d" unicode="d" horiz-adv-x="1138" 
d="M772 0v96q-104 -112 -264 -112q-197 0 -315.5 128t-118.5 339q0 218 141.5 355.5t364.5 137.5q118 0 192 -45v535h236v-1434h-236zM557 203q121 0 215 94v371q-88 55 -182 55q-110 0 -187 -71t-77 -193q0 -119 66.5 -187.5t164.5 -68.5z" />
    <glyph glyph-name="e" unicode="e" horiz-adv-x="1056" 
d="M854 258l68 -166q-67 -57 -160 -86t-193 -29q-223 0 -359 133t-136 351q0 100 34 188.5t95.5 153.5t154 103t203.5 38q183 0 309.5 -119.5t126.5 -308.5q0 -78 -14 -127h-666q15 -102 90.5 -158.5t186.5 -56.5q79 0 147.5 24t112.5 60zM551 748q-102 0 -162 -53t-80 -148
h453q2 87 -55 144t-156 57z" />
    <glyph glyph-name="f" unicode="f" horiz-adv-x="665" 
d="M141 0v1071q0 189 86 287t242 98q81 0 151.5 -24t106.5 -62l-80 -180q-45 45 -135 45q-63 0 -99 -45t-36 -137v-131h250v-222h-250v-700h-236z" />
    <glyph glyph-name="g" unicode="g" horiz-adv-x="1021" 
d="M10 -125q0 111 80.5 183.5t218.5 101.5q-16 29 -16 63q0 40 20 66q-103 41 -161 124t-58 185q0 144 108 245t285 101q136 0 236 -65l278 61l9 -188l-154 -35q23 -61 23 -119q0 -142 -109 -241t-283 -99h-16q-4 -12 -4 -35q0 -26 12 -47h10q138 0 244 -31.5t171 -100.5
t65 -169t-65 -169t-171 -100.5t-244 -31.5q-139 0 -244 30.5t-170 99.5t-65 171zM229 -125q0 -54 69.5 -83.5t190.5 -29.5q122 0 190.5 29t68.5 84q0 52 -67 82.5t-192 30.5q-124 0 -192 -30.5t-68 -82.5zM315 598q0 -66 47 -107.5t125 -41.5q76 0 124 40.5t48 108.5
q0 67 -46 111.5t-126 44.5q-77 0 -124.5 -45.5t-47.5 -110.5z" />
    <glyph glyph-name="h" unicode="h" horiz-adv-x="1118" 
d="M131 0v1434h236v-596q46 44 116.5 72t147.5 28q178 0 278.5 -97.5t100.5 -305.5v-535h-236v504q0 102 -54 157.5t-151 55.5q-118 0 -202 -84v-633h-236z" />
    <glyph glyph-name="i" unicode="i" horiz-adv-x="567" 
d="M166 0v922h235v-922h-235zM141 1253q0 61 43 99.5t105 38.5q54 0 94.5 -38.5t40.5 -99.5q0 -67 -40.5 -107t-94.5 -40q-63 0 -105.5 39.5t-42.5 107.5z" />
    <glyph glyph-name="j" unicode="j" horiz-adv-x="581" 
d="M414 922v-990q0 -358 -289 -358q-70 0 -132 19t-93 47l63 186q54 -33 105 -33q110 0 110 160v969h236zM156 1253q0 61 42.5 99.5t104.5 38.5q54 0 94.5 -38.5t40.5 -99.5q0 -67 -40.5 -107t-94.5 -40q-63 0 -105 39.5t-42 107.5z" />
    <glyph glyph-name="k" unicode="k" horiz-adv-x="1052" 
d="M997 922l-346 -422l387 -500h-303l-364 481l329 441h297zM131 0v1434h236v-1434h-236z" />
    <glyph glyph-name="l" unicode="l" horiz-adv-x="612" 
d="M131 254v1180h236v-1084q0 -78 19 -113.5t60 -35.5q43 0 97 37l49 -181q-95 -77 -244 -77q-217 0 -217 274z" />
    <glyph glyph-name="m" unicode="m" horiz-adv-x="1638" 
d="M1530 602v-602h-236v541q0 88 -37.5 132t-119.5 44q-64 0 -115 -29t-76 -78q0 -6 1 -31t1 -36v-543h-235v557q0 73 -40 116.5t-114 43.5q-125 0 -192 -99v-618h-236v922h236v-103q50 56 126 87.5t162 31.5q102 0 172.5 -40.5t96.5 -106.5q113 147 311 147q295 0 295 -336
z" />
    <glyph glyph-name="n" unicode="n" horiz-adv-x="1118" 
d="M131 0v922h236v-93q44 47 114.5 78t149.5 31q379 0 379 -397v-541h-236v500q0 108 -53.5 162.5t-153.5 54.5q-112 0 -200 -88v-629h-236z" />
    <glyph glyph-name="o" unicode="o" horiz-adv-x="1150" 
d="M74 461q0 210 138 346.5t363 136.5q226 0 364 -136.5t138 -346.5t-138.5 -347t-363.5 -137t-363 137t-138 347zM326 461q0 -115 70.5 -189.5t178.5 -74.5q110 0 181 72.5t71 191.5q0 116 -71.5 189t-180.5 73q-107 0 -178 -72t-71 -190z" />
    <glyph glyph-name="p" unicode="p" horiz-adv-x="1142" 
d="M131 -410v1332h236v-88q45 48 121.5 79t162.5 31q188 0 303 -131.5t115 -337.5q0 -214 -134.5 -356t-352.5 -142q-136 0 -215 46v-433h-236zM578 723q-121 0 -211 -100v-373q81 -53 194 -53q120 0 189 76.5t69 195.5q0 113 -63.5 183.5t-177.5 70.5z" />
    <glyph glyph-name="q" unicode="q" horiz-adv-x="1144" 
d="M780 -410v457q-109 -70 -227 -70q-220 0 -349.5 132t-129.5 352q0 204 149 343.5t379 139.5q114 0 225.5 -31t188.5 -79v-1244h-236zM584 197q55 0 108.5 23.5t87.5 60.5v397q-92 45 -180 45q-129 0 -201.5 -78.5t-72.5 -193.5q0 -111 70.5 -182.5t187.5 -71.5z" />
    <glyph glyph-name="r" unicode="r" horiz-adv-x="724" 
d="M131 0v922h236v-91q37 51 85.5 79t125.5 28q96 0 143 -35l-84 -221q-34 21 -58.5 28t-60.5 7q-101 0 -151 -99v-618h-236z" />
    <glyph glyph-name="s" unicode="s" horiz-adv-x="909" 
d="M598 260q0 30 -27.5 51.5t-71.5 36t-97 28.5t-106 35.5t-97 51.5t-71.5 81.5t-27.5 119.5q0 131 95 205.5t243 74.5q121 0 209.5 -34.5t140.5 -82.5l-88 -168q-47 36 -114 62.5t-135 26.5q-52 0 -83.5 -24t-31.5 -56q0 -31 27.5 -53t71.5 -36t97 -28t106 -35t97 -49.5
t71.5 -78.5t27.5 -116q0 -136 -101.5 -215.5t-271.5 -79.5q-119 0 -234 51.5t-151 106.5l114 154q41 -44 129.5 -79.5t157.5 -35.5q53 0 87 22.5t34 63.5z" />
    <glyph glyph-name="t" unicode="t" horiz-adv-x="737" 
d="M111 350v828h235v-256h297v-222h-297v-335q0 -166 111 -166q71 0 141 53l72 -182q-46 -38 -118 -64t-155 -26q-152 0 -219 93t-67 277z" />
    <glyph glyph-name="u" unicode="u" horiz-adv-x="1095" 
d="M965 922v-922h-236v113q-47 -59 -121.5 -97.5t-173.5 -38.5q-143 0 -233 96t-90 285v564h235v-514q0 -211 176 -211q58 0 112.5 29.5t94.5 82.5v613h236z" />
    <glyph glyph-name="v" unicode="v" horiz-adv-x="985" 
d="M989 922l-397 -926h-174l-424 926h280l170 -396q46 -101 70 -209q26 114 68 213l159 392h248z" />
    <glyph glyph-name="w" unicode="w" horiz-adv-x="1476" 
d="M1466 922l-290 -926h-211l-197 512q-6 16 -11.5 34t-11 40.5t-8.5 33.5q-11 -57 -32 -112l-195 -508h-201l-299 926h252l148 -502q8 -25 26 -123q22 87 35 123l172 502h209l178 -500q17 -50 35 -127q3 15 29 133l135 494h237z" />
    <glyph glyph-name="x" unicode="x" horiz-adv-x="1069" 
d="M1012 922l-307 -441l327 -481h-287l-215 332l-223 -332h-272l327 469l-307 453h289l195 -306l200 306h273z" />
    <glyph glyph-name="y" unicode="y" horiz-adv-x="1030" 
d="M1020 922l-363 -922q-67 -164 -123.5 -253.5t-109 -123t-123.5 -33.5q-101 0 -199 72l76 178q59 -33 96 -33q84 0 142 144l20 49l-426 922h283l215 -504q16 -41 45 -133q16 84 33 135l166 502h268z" />
    <glyph glyph-name="z" unicode="z" horiz-adv-x="1003" 
d="M117 700v222h798v-170l-499 -533h489v-219h-819v170l500 530h-469z" />
    <glyph glyph-name="braceleft" unicode="{" horiz-adv-x="741" 
d="M225 -111v269q0 58 -16.5 99.5t-45 62.5t-58.5 30t-64 8v205q31 0 60.5 10t58.5 33.5t47 70t18 111.5v230q0 162 73.5 237.5t248.5 75.5h153v-221h-94q-82 0 -113.5 -37t-31.5 -137v-240q0 -99 -42 -161.5t-112 -71.5q70 -8 112 -65t42 -169v-243q0 -95 35.5 -135.5
t121.5 -40.5h82v-220h-168q-153 0 -230 70t-77 229z" />
    <glyph glyph-name="bar" unicode="|" horiz-adv-x="696" 
d="M229 0v1434h236v-1434h-236z" />
    <glyph glyph-name="braceright" unicode="}" horiz-adv-x="741" 
d="M516 158v-269q0 -159 -76.5 -229t-228.5 -70h-170v220h82q86 0 122 41t36 135v243q0 112 41.5 169t111.5 65q-70 9 -111.5 71.5t-41.5 161.5v240q0 100 -31.5 137t-114.5 37h-94v221h154q176 0 248.5 -75.5t72.5 -237.5v-230q0 -65 18 -111.5t47 -70t58.5 -33.5t60.5 -10
v-205q-34 1 -64 -8t-58.5 -30t-45 -62.5t-16.5 -99.5z" />
    <glyph glyph-name="asciitilde" unicode="~" 
d="M188 590l-102 151q66 75 145 119.5t154 44.5q56 0 123 -21.5t118.5 -48t117 -48t118.5 -21.5q46 0 95.5 26t84.5 66l93 -162q-63 -60 -135.5 -97.5t-139.5 -37.5q-55 0 -121 21.5t-117.5 48t-113.5 48t-109 21.5q-101 0 -211 -110z" />
    <glyph glyph-name="uni00A0" unicode="&#xa0;" horiz-adv-x="434" 
 />
    <glyph glyph-name="exclamdown" unicode="&#xa1;" horiz-adv-x="634" 
d="M442 438v-938h-249v938h249zM475 780q0 -58 -45.5 -104.5t-118.5 -46.5q-63 0 -106 47t-43 104q0 65 42.5 114.5t106.5 49.5q73 0 118.5 -49t45.5 -115z" />
    <glyph glyph-name="cent" unicode="&#xa2;" 
d="M934 309l110 -172q-91 -122 -270 -151v-232h-235v240q-167 37 -264 161t-97 306q0 172 99.5 302t261.5 167v225h235v-219q157 -25 252 -117l-111 -186q-93 90 -229 90q-103 0 -179.5 -72.5t-76.5 -189.5q0 -119 78.5 -191.5t187.5 -72.5q138 0 238 112z" />
    <glyph glyph-name="sterling" unicode="&#xa3;" 
d="M139 543v188h164q-7 15 -34 68.5t-38.5 80t-23.5 76.5t-12 99q0 169 129.5 282t332.5 113q253 0 402 -162l-129 -184q-62 57 -124 83.5t-138 26.5q-91 0 -149 -51t-58 -127q0 -55 20 -104t51.5 -104.5t45.5 -96.5h307v-188h-287q-14 -107 -113 -221q26 -6 158 -50.5
t203 -44.5q63 0 114 19.5t107 72.5l104 -184q-67 -68 -152 -105.5t-177 -37.5q-79 0 -233.5 53t-233.5 53q-105 0 -217 -112l-95 188q81 97 193 137q94 124 96 232h-213z" />
    <glyph glyph-name="currency" unicode="&#xa4;" 
d="M139 700q0 143 72 256l-158 162l144 144l159 -162q111 65 254 65q141 0 252 -65l166 164l143 -144l-161 -162q73 -118 73 -258q0 -142 -71 -254l157 -155l-145 -146l-158 158q-109 -67 -256 -67t-256 67l-161 -164l-146 146l162 161q-70 113 -70 254zM358 700
q0 -110 68.5 -185t183.5 -75q119 0 185.5 74.5t66.5 185.5q0 117 -67.5 189t-184.5 72q-115 0 -183.5 -72.5t-68.5 -188.5z" />
    <glyph glyph-name="yen" unicode="&#xa5;" 
d="M135 598v190h242l-354 646h286l309 -600l308 600h272l-360 -646h247v-190h-352v-168h352v-190h-352v-240h-250v240h-348v190h348v168h-348z" />
    <glyph glyph-name="brokenbar" unicode="&#xa6;" horiz-adv-x="696" 
d="M465 901h-236v533h236v-533zM229 532h236v-532h-236v532z" />
    <glyph glyph-name="section" unicode="&#xa7;" horiz-adv-x="1073" 
d="M117 510q0 124 65.5 218.5t184.5 135.5q-67 42 -107.5 114t-40.5 163q0 124 93 208.5t257 84.5q95 0 170.5 -39.5t124.5 -104.5l-141 -157q-24 26 -40 40.5t-44 26.5t-61 12q-50 0 -86.5 -34.5t-36.5 -83.5q0 -122 147 -207q167 -20 259.5 -123t92.5 -254
q0 -124 -64 -219t-183 -135q64 -43 102.5 -113.5t38.5 -159.5q0 -125 -92.5 -209t-257.5 -84q-93 0 -168.5 40t-124.5 104l141 157q25 -27 40.5 -41t43 -27t59.5 -13q51 0 87 35t36 85q0 67 -36.5 114.5t-108.5 88.5q-166 20 -258 124t-92 253zM352 510q0 -69 50 -122.5
t135 -53.5q89 0 135.5 52t46.5 124q0 70 -48.5 123t-133.5 53t-135 -53t-50 -123z" />
    <glyph glyph-name="dieresis" unicode="&#xa8;" horiz-adv-x="907" 
d="M123 1227q0 60 38.5 95.5t94.5 35.5q49 0 86 -36t37 -95q0 -63 -37 -100t-86 -37q-56 0 -94.5 36.5t-38.5 100.5zM530 1227q0 59 38.5 95t93.5 36q50 0 86 -36t36 -95q0 -63 -36 -100t-86 -37q-55 0 -93.5 37t-38.5 100z" />
    <glyph glyph-name="copyright" unicode="&#xa9;" horiz-adv-x="2084" 
d="M147 453q0 185 69 350t188 284.5t285.5 189t352.5 69.5t352 -69.5t284.5 -189t187.5 -284.5t69 -350q0 -248 -117 -453t-322 -323.5t-454 -118.5t-454.5 118.5t-323 323.5t-117.5 453zM352 451q0 -187 89 -344.5t248.5 -251t354.5 -93.5q193 0 351.5 93.5t247 251
t88.5 344.5q0 141 -52.5 268t-142.5 220t-218.5 147.5t-273.5 54.5q-147 0 -276 -54.5t-220 -147.5t-143.5 -220t-52.5 -268zM1313 309l110 -172q-58 -77 -155 -118.5t-211 -41.5q-225 0 -362.5 133t-137.5 351q0 133 60 243.5t170 175t247 64.5q246 0 371 -125l-111 -186
q-93 90 -229 90q-103 0 -179.5 -72.5t-76.5 -189.5q0 -119 78.5 -191.5t187.5 -72.5q138 0 238 112z" />
    <glyph glyph-name="ordfeminine" unicode="&#xaa;" horiz-adv-x="911" 
d="M248 1133l-82 137q126 78 299 78q131 0 222 -71.5t91 -207.5v-440h-205v88q-41 -48 -99 -73.5t-155 -25.5q-101 0 -164 65t-63 159q0 116 69 176.5t195 60.5q130 0 217 -43q-8 138 -149 138q-106 0 -176 -41zM424 793q73 0 149 51v63q-78 29 -145 29q-57 0 -87 -20
t-30 -52t28.5 -51.5t84.5 -19.5z" />
    <glyph glyph-name="guillemotleft" unicode="&#xab;" horiz-adv-x="1148" 
d="M901 45l-395 463v8l403 463l154 -137l-285 -330l283 -334zM471 45l-395 463v8l403 463l154 -137l-285 -330l283 -334z" />
    <glyph glyph-name="logicalnot" unicode="&#xac;" 
d="M104 635v205h1012v-473h-205v268h-807z" />
    <glyph glyph-name="uni00AD" unicode="&#xad;" horiz-adv-x="770" 
d="M127 451v219h516v-219h-516z" />
    <glyph glyph-name="registered" unicode="&#xae;" horiz-adv-x="1357" 
d="M92 1018q0 160 78 294t214 212t298 78q159 0 293 -78t212.5 -212.5t78.5 -293.5q0 -162 -78.5 -298t-212.5 -214t-293 -78q-122 0 -231 46t-188 125t-125 188t-46 231zM281 1016q0 -164 116.5 -281t280.5 -117t280.5 117t116.5 281t-116.5 280.5t-280.5 116.5
t-280.5 -116.5t-116.5 -280.5zM610 737h-157v574h239q118 0 176 -51t58 -140q0 -59 -32 -104.5t-77 -61.5l119 -217h-182l-88 181h-56v-181zM670 1198h-60v-168h60q45 0 70.5 25.5t25.5 62.5q0 80 -96 80z" />
    <glyph glyph-name="macron" unicode="&#xaf;" horiz-adv-x="817" 
d="M123 1126v189h571v-189h-571z" />
    <glyph glyph-name="degree" unicode="&#xb0;" horiz-adv-x="870" 
d="M92 1163q0 148 99.5 247t240.5 99q145 0 245.5 -94t100.5 -239q0 -146 -101.5 -249.5t-244.5 -103.5q-141 0 -240.5 98t-99.5 242zM297 1167q0 -57 40.5 -98t96.5 -41q57 0 98 41t41 98t-41 97.5t-98 40.5q-56 0 -96.5 -40.5t-40.5 -97.5z" />
    <glyph glyph-name="plusminus" unicode="&#xb1;" 
d="M135 823v205h363v371h221v-371h366v-205h-366v-211h-221v211h-363zM135 317v205h950v-205h-950z" />
    <glyph glyph-name="twosuperior" unicode="&#xb2;" horiz-adv-x="743" 
d="M61 717v149q193 115 264 171q109 88 109 151q0 37 -24 58.5t-64 21.5q-41 0 -72.5 -32t-37.5 -71l-170 60q17 101 96.5 159t204.5 58q137 0 211.5 -62.5t74.5 -165.5q0 -187 -325 -323h358v-174h-625z" />
    <glyph glyph-name="threesuperior" unicode="&#xb3;" horiz-adv-x="739" 
d="M358 705q-107 0 -194.5 38.5t-128.5 112.5l119 109q21 -38 69.5 -66.5t100.5 -28.5q62 0 93.5 20t31.5 52q0 29 -29.5 47.5t-91.5 18.5h-62v143h58q45 0 71.5 19.5t26.5 50.5q0 27 -24.5 43t-67.5 16q-106 0 -174 -84l-99 113q39 60 117 98.5t197 38.5q120 0 196 -49.5
t76 -132.5q0 -65 -42.5 -109t-115.5 -59v-2q87 -6 135 -53.5t48 -116.5q0 -99 -91 -159t-219 -60z" />
    <glyph glyph-name="acute" unicode="&#xb4;" horiz-adv-x="645" 
d="M522 1356l-258 -297l-141 98l215 338z" />
    <glyph glyph-name="mu" unicode="&#xb5;" horiz-adv-x="1110" 
d="M979 922v-922h-236v113q-110 -136 -294 -136q-39 0 -89 11v-398h-235v1332h235v-533q7 -192 177 -192q58 0 112 29.5t94 82.5v613h236z" />
    <glyph glyph-name="mu" unicode="&#x3bc;" horiz-adv-x="1110" 
d="M979 922v-922h-236v113q-110 -136 -294 -136q-39 0 -89 11v-398h-235v1332h235v-533q7 -192 177 -192q58 0 112 29.5t94 82.5v613h236z" />
    <glyph glyph-name="paragraph" unicode="&#xb6;" horiz-adv-x="1005" 
d="M76 985q0 205 127.5 327t326.5 122h424v-222h-192v-1196q0 -219 -97 -330.5t-286 -111.5q-79 0 -152.5 29t-113.5 71l92 170q67 -51 157 -51q91 0 127.5 62t36.5 170v514q-88 1 -168.5 31.5t-143.5 86t-100.5 141t-37.5 187.5z" />
    <glyph glyph-name="periodcentered" unicode="&#xb7;" horiz-adv-x="434" 
d="M59 618q0 58 45.5 105t118.5 47q63 0 106.5 -47.5t43.5 -104.5q0 -65 -43 -114t-107 -49q-74 0 -119 48.5t-45 114.5z" />
    <glyph glyph-name="cedilla" unicode="&#xb8;" horiz-adv-x="774" 
d="M123 -340l70 111q69 -54 143 -54q35 0 57.5 14t22.5 38q0 57 -84 57h-13v174h119v-72q104 -6 158.5 -51t54.5 -123q0 -81 -73.5 -130.5t-208.5 -49.5q-60 0 -113 16t-76 30.5t-57 39.5z" />
    <glyph glyph-name="onesuperior" unicode="&#xb9;" horiz-adv-x="550" 
d="M33 1278l231 154h148v-715h-205v479l-98 -57z" />
    <glyph glyph-name="ordmasculine" unicode="&#xba;" horiz-adv-x="1021" 
d="M106 983q0 164 113.5 264.5t290.5 100.5t290 -100.5t113 -264.5q0 -163 -113.5 -265t-289.5 -102t-290 102t-114 265zM328 983q0 -80 52.5 -128t129.5 -48q81 0 132.5 48t51.5 128q0 78 -52.5 126t-131.5 48q-78 0 -130 -48t-52 -126z" />
    <glyph glyph-name="guillemotright" unicode="&#xbb;" horiz-adv-x="1148" 
d="M1073 508l-395 -463l-160 133l283 334l-285 330l154 137l403 -463v-8zM643 508l-395 -463l-160 133l283 334l-285 330l154 137l403 -463v-8z" />
    <glyph glyph-name="onequarter" unicode="&#xbc;" horiz-adv-x="1419" 
d="M43 1278l231 154h148v-715h-205v479l-98 -57zM92 72l1034 1384l134 -100l-1033 -1379zM1075 0v143h-395v138l317 436h195l-303 -414h186v158h189v-158h114v-160h-114v-143h-189z" />
    <glyph glyph-name="onehalf" unicode="&#xbd;" horiz-adv-x="1454" 
d="M43 1278l231 154h148v-715h-205v479l-98 -57zM72 72l1034 1384l133 -100l-1032 -1379zM748 0v150q192 114 261 169q111 88 111 152q0 37 -24 58.5t-64 21.5q-41 0 -72.5 -31.5t-37.5 -70.5l-170 59q17 101 96.5 159t204.5 58q137 0 211.5 -62t74.5 -165q0 -188 -325 -324
h358v-174h-624z" />
    <glyph glyph-name="threequarters" unicode="&#xbe;" horiz-adv-x="1542" 
d="M236 72l1034 1384l133 -100l-1032 -1379zM1198 0v143h-395v138l317 436h195l-303 -414h186v158h188v-158h115v-160h-115v-143h-188zM373 705q-107 0 -195 38.5t-129 112.5l119 109q21 -38 69.5 -66.5t100.5 -28.5q62 0 93.5 20t31.5 52q0 29 -29.5 47.5t-91.5 18.5h-61
v143h57q45 0 71.5 19.5t26.5 50.5q0 27 -24.5 43t-67.5 16q-106 0 -174 -84l-98 113q39 60 116.5 98.5t196.5 38.5q120 0 196 -49.5t76 -132.5q0 -65 -42 -109t-115 -59v-2q87 -6 134.5 -53.5t47.5 -116.5q0 -99 -90.5 -159t-218.5 -60z" />
    <glyph glyph-name="questiondown" unicode="&#xbf;" horiz-adv-x="968" 
d="M303 -111q0 -73 55.5 -124.5t137.5 -51.5t141.5 32t110.5 99l139 -157q-58 -93 -165.5 -151t-240.5 -58q-198 0 -314 103.5t-116 256.5q0 81 22.5 148t58.5 111.5t78.5 82.5t83.5 70t73 65t48 76.5t7 95.5l215 2q11 -65 2.5 -118t-30 -89.5t-52.5 -69.5t-65 -57
t-68 -52.5t-60.5 -56.5t-43.5 -68.5t-17 -88.5zM682 780q0 -58 -45.5 -104.5t-116.5 -46.5q-65 0 -108 47t-43 104q0 65 43 114.5t108 49.5q72 0 117 -49t45 -115z" />
    <glyph glyph-name="Agrave" unicode="&#xc0;" horiz-adv-x="1464" 
d="M14 0l607 1438h221l606 -1438h-268l-150 367h-612l-150 -367h-254zM725 1112l-211 -510h420zM840 1497l-461 166l88 203l438 -228z" />
    <glyph glyph-name="Aacute" unicode="&#xc1;" horiz-adv-x="1464" 
d="M14 0l607 1438h221l606 -1438h-268l-150 367h-612l-150 -367h-254zM725 1112l-211 -510h420zM1083 1663l-460 -166l-66 141l438 228z" />
    <glyph glyph-name="Acircumflex" unicode="&#xc2;" horiz-adv-x="1464" 
d="M14 0l607 1438h221l606 -1438h-268l-150 367h-612l-150 -367h-254zM725 1112l-211 -510h420zM365 1622l358 229h8l367 -227l-92 -133l-279 145l-278 -145z" />
    <glyph glyph-name="Atilde" unicode="&#xc3;" horiz-adv-x="1464" 
d="M14 0l607 1438h221l606 -1438h-268l-150 367h-612l-150 -367h-254zM725 1112l-211 -510h420zM434 1542l-74 150q44 51 106.5 80.5t123.5 29.5q63 0 151 -35.5t142 -35.5q95 0 155 65l64 -149q-84 -121 -236 -121q-50 0 -143.5 35.5t-153.5 35.5q-69 0 -135 -55z" />
    <glyph glyph-name="Adieresis" unicode="&#xc4;" horiz-adv-x="1464" 
d="M14 0l607 1438h221l606 -1438h-268l-150 367h-612l-150 -367h-254zM725 1112l-211 -510h420zM342 1690q0 58 45.5 92.5t112.5 34.5q59 0 102 -35t43 -92q0 -63 -43 -99.5t-102 -36.5q-68 0 -113 36t-45 100zM817 1690q0 58 45.5 92.5t112.5 34.5q60 0 102.5 -34.5
t42.5 -92.5q0 -63 -42.5 -99.5t-102.5 -36.5q-67 0 -112.5 36t-45.5 100z" />
    <glyph glyph-name="Aring" unicode="&#xc5;" horiz-adv-x="1464" 
d="M442 1638q0 110 79.5 166t205.5 56q129 0 211 -56t82 -166q0 -80 -47 -134t-127 -77l602 -1427h-268l-150 367h-612l-150 -367h-254l602 1427q-80 23 -127 76t-47 135zM725 1112l-211 -510h420zM616 1638q0 -47 31.5 -71.5t81.5 -24.5q52 0 84.5 24.5t32.5 71.5t-32 70
t-85 23q-51 0 -82 -23t-31 -70z" />
    <glyph glyph-name="AE" unicode="&#xc6;" horiz-adv-x="1947" 
d="M969 0v371h-477l-259 -371h-290l1030 1434h825v-236h-577v-356h516v-236h-516v-370h598v-236h-850zM969 1053l-312 -447h312v447z" />
    <glyph glyph-name="Ccedilla" unicode="&#xc7;" horiz-adv-x="1341" 
d="M520 -334l76 119q31 -26 74 -47t78 -21t57 14t22 38q0 57 -84 57h-12v158q-290 31 -464.5 228.5t-174.5 504.5q0 155 48.5 289t139.5 234.5t231.5 158t313.5 57.5q136 0 250 -39t187 -106l-113 -187q-146 97 -324 97q-204 0 -335.5 -137.5t-131.5 -366.5q0 -224 138 -364
t358 -140q192 0 340 115l96 -189q-66 -71 -185.5 -115t-254.5 -47v-49q227 -11 227 -174q0 -80 -72 -130t-200 -50q-167 0 -285 92z" />
    <glyph glyph-name="Egrave" unicode="&#xc8;" horiz-adv-x="1177" 
d="M199 0v1434h829v-236h-577v-356h516v-236h-516v-370h598v-236h-850zM741 1497l-460 166l88 203l438 -228z" />
    <glyph glyph-name="Eacute" unicode="&#xc9;" horiz-adv-x="1177" 
d="M199 0v1434h829v-236h-577v-356h516v-236h-516v-370h598v-236h-850zM971 1663l-461 -166l-66 141l439 228z" />
    <glyph glyph-name="Ecircumflex" unicode="&#xca;" horiz-adv-x="1177" 
d="M199 0v1434h829v-236h-577v-356h516v-236h-516v-370h598v-236h-850zM248 1622l358 229h8l367 -227l-92 -133l-279 145l-278 -145z" />
    <glyph glyph-name="Edieresis" unicode="&#xcb;" horiz-adv-x="1177" 
d="M199 0v1434h829v-236h-577v-356h516v-236h-516v-370h598v-236h-850zM231 1690q0 58 45.5 92.5t112.5 34.5q59 0 102.5 -35t43.5 -92q0 -63 -43.5 -99.5t-102.5 -36.5q-67 0 -112.5 36t-45.5 100zM707 1690q0 58 45 92.5t112 34.5q60 0 103 -34.5t43 -92.5
q0 -63 -43 -99.5t-103 -36.5q-67 0 -112 36t-45 100z" />
    <glyph glyph-name="Igrave" unicode="&#xcc;" horiz-adv-x="710" 
d="M229 0v1434h252v-1434h-252zM444 1497l-460 166l88 203l438 -228z" />
    <glyph glyph-name="Iacute" unicode="&#xcd;" horiz-adv-x="710" 
d="M229 0v1434h252v-1434h-252zM731 1663l-461 -166l-65 141l438 228z" />
    <glyph glyph-name="Icircumflex" unicode="&#xce;" horiz-adv-x="710" 
d="M229 0v1434h252v-1434h-252zM-12 1622l358 229h8l367 -227l-92 -133l-279 145l-278 -145z" />
    <glyph glyph-name="Idieresis" unicode="&#xcf;" horiz-adv-x="710" 
d="M229 0v1434h252v-1434h-252zM-35 1690q0 58 45.5 92.5t112.5 34.5q59 0 102 -35t43 -92q0 -63 -43 -99.5t-102 -36.5q-68 0 -113 36t-45 100zM440 1690q0 58 45.5 92.5t112.5 34.5q60 0 102.5 -34.5t42.5 -92.5q0 -63 -42.5 -99.5t-102.5 -36.5q-68 0 -113 36t-45 100z
" />
    <glyph glyph-name="Eth" unicode="&#xd0;" horiz-adv-x="1533" 
d="M20 608v221h195v605h27q40 0 190 3t205 3q167 0 303 -37.5t228.5 -102.5t155 -155.5t90.5 -194t28 -219.5q0 -122 -32.5 -231t-99.5 -201.5t-163 -159.5t-231 -105t-295 -38q-38 0 -172.5 2t-204.5 2h-29v608h-195zM633 1204q-83 0 -168 -6v-369h362v-221h-362v-372
q87 -5 164 -5q257 0 402 135t145 365q0 218 -144 345.5t-399 127.5z" />
    <glyph glyph-name="Ntilde" unicode="&#xd1;" horiz-adv-x="1622" 
d="M1423 0h-200l-789 993v-993h-235v1434h200l789 -998v998h235v-1434zM528 1542l-73 150q44 51 106.5 80.5t122.5 29.5q63 0 151 -35.5t142 -35.5q96 0 156 65l63 -149q-84 -121 -235 -121q-50 0 -143.5 35.5t-153.5 35.5q-70 0 -136 -55z" />
    <glyph glyph-name="Ograve" unicode="&#xd2;" horiz-adv-x="1677" 
d="M92 717q0 154 55 290.5t152.5 235.5t237 156t301.5 57q212 0 381.5 -91t267.5 -260t98 -388q0 -212 -97.5 -381.5t-268 -264t-381.5 -94.5q-212 0 -381.5 91t-267 260.5t-97.5 388.5zM358 717q0 -214 139 -359t341 -145q220 0 350.5 143t130.5 361q0 220 -138 362
t-343 142q-207 0 -343.5 -141.5t-136.5 -362.5zM987 1497l-461 166l88 203l439 -228z" />
    <glyph glyph-name="Oacute" unicode="&#xd3;" horiz-adv-x="1677" 
d="M92 717q0 154 55 290.5t152.5 235.5t237 156t301.5 57q212 0 381.5 -91t267.5 -260t98 -388q0 -212 -97.5 -381.5t-268 -264t-381.5 -94.5q-212 0 -381.5 91t-267 260.5t-97.5 388.5zM358 717q0 -214 139 -359t341 -145q220 0 350.5 143t130.5 361q0 220 -138 362
t-343 142q-207 0 -343.5 -141.5t-136.5 -362.5zM1206 1663l-461 -166l-65 141l438 228z" />
    <glyph glyph-name="Ocircumflex" unicode="&#xd4;" horiz-adv-x="1677" 
d="M92 717q0 154 55 290.5t152.5 235.5t237 156t301.5 57q212 0 381.5 -91t267.5 -260t98 -388q0 -212 -97.5 -381.5t-268 -264t-381.5 -94.5q-212 0 -381.5 91t-267 260.5t-97.5 388.5zM358 717q0 -214 139 -359t341 -145q220 0 350.5 143t130.5 361q0 220 -138 362
t-343 142q-207 0 -343.5 -141.5t-136.5 -362.5zM477 1622l359 229h8l366 -227l-92 -133l-278 145l-279 -145z" />
    <glyph glyph-name="Otilde" unicode="&#xd5;" horiz-adv-x="1677" 
d="M92 717q0 154 55 290.5t152.5 235.5t237 156t301.5 57q212 0 381.5 -91t267.5 -260t98 -388q0 -212 -97.5 -381.5t-268 -264t-381.5 -94.5q-212 0 -381.5 91t-267 260.5t-97.5 388.5zM358 717q0 -214 139 -359t341 -145q220 0 350.5 143t130.5 361q0 220 -138 362
t-343 142q-207 0 -343.5 -141.5t-136.5 -362.5zM532 1542l-73 150q44 51 106.5 80.5t122.5 29.5q63 0 151 -35.5t142 -35.5q96 0 156 65l63 -149q-84 -121 -235 -121q-50 0 -143.5 35.5t-153.5 35.5q-70 0 -136 -55z" />
    <glyph glyph-name="Odieresis" unicode="&#xd6;" horiz-adv-x="1677" 
d="M92 717q0 154 55 290.5t152.5 235.5t237 156t301.5 57q212 0 381.5 -91t267.5 -260t98 -388q0 -212 -97.5 -381.5t-268 -264t-381.5 -94.5q-212 0 -381.5 91t-267 260.5t-97.5 388.5zM358 717q0 -214 139 -359t341 -145q220 0 350.5 143t130.5 361q0 220 -138 362
t-343 142q-207 0 -343.5 -141.5t-136.5 -362.5zM442 1690q0 58 45.5 92.5t112.5 34.5q59 0 102 -35t43 -92q0 -63 -43 -99.5t-102 -36.5q-68 0 -113 36t-45 100zM918 1690q0 58 45 92.5t112 34.5q60 0 103 -34.5t43 -92.5q0 -63 -43 -99.5t-103 -36.5q-67 0 -112 36t-45 100
z" />
    <glyph glyph-name="multiply" unicode="&#xd7;" 
d="M203 999l145 146l262 -262l262 262l146 -146l-262 -262l264 -264l-146 -145l-264 264l-264 -264l-145 145l264 264z" />
    <glyph glyph-name="Oslash" unicode="&#xd8;" horiz-adv-x="1677" 
d="M92 717q0 154 55 290.5t152.5 235.5t237 156t301.5 57q257 0 454 -139l82 80l135 -137l-77 -76q153 -196 153 -467q0 -212 -97.5 -381.5t-268 -264t-381.5 -94.5q-282 0 -480 156l-86 -84l-137 139l88 86q-131 186 -131 443zM1319 717q0 154 -76 280l-698 -682
q124 -102 293 -102q220 0 350.5 143t130.5 361zM358 717q0 -138 60 -252l692 674q-125 82 -272 82q-207 0 -343.5 -141.5t-136.5 -362.5z" />
    <glyph glyph-name="Ugrave" unicode="&#xd9;" horiz-adv-x="1538" 
d="M1358 1434v-840q0 -128 -30.5 -232t-83.5 -175t-125.5 -119t-155.5 -69.5t-175 -21.5q-135 0 -246 40t-192.5 117.5t-126.5 198.5t-45 275v826h252v-772q0 -209 89 -329t269 -120q320 0 320 432v789h250zM891 1497l-461 166l88 203l438 -228z" />
    <glyph glyph-name="Uacute" unicode="&#xda;" horiz-adv-x="1538" 
d="M1358 1434v-840q0 -128 -30.5 -232t-83.5 -175t-125.5 -119t-155.5 -69.5t-175 -21.5q-135 0 -246 40t-192.5 117.5t-126.5 198.5t-45 275v826h252v-772q0 -209 89 -329t269 -120q320 0 320 432v789h250zM1130 1663l-460 -166l-66 141l438 228z" />
    <glyph glyph-name="Ucircumflex" unicode="&#xdb;" horiz-adv-x="1538" 
d="M1358 1434v-840q0 -128 -30.5 -232t-83.5 -175t-125.5 -119t-155.5 -69.5t-175 -21.5q-135 0 -246 40t-192.5 117.5t-126.5 198.5t-45 275v826h252v-772q0 -209 89 -329t269 -120q320 0 320 432v789h250zM399 1622l359 229h8l367 -227l-93 -133l-278 145l-279 -145z" />
    <glyph glyph-name="Udieresis" unicode="&#xdc;" horiz-adv-x="1538" 
d="M1358 1434v-840q0 -128 -30.5 -232t-83.5 -175t-125.5 -119t-155.5 -69.5t-175 -21.5q-135 0 -246 40t-192.5 117.5t-126.5 198.5t-45 275v826h252v-772q0 -209 89 -329t269 -120q320 0 320 432v789h250zM365 1690q0 58 45 92.5t112 34.5q59 0 102.5 -35t43.5 -92
q0 -63 -43.5 -99.5t-102.5 -36.5q-67 0 -112 36t-45 100zM840 1690q0 58 45 92.5t112 34.5q60 0 103 -34.5t43 -92.5q0 -63 -43 -99.5t-103 -36.5q-67 0 -112 36t-45 100z" />
    <glyph glyph-name="Yacute" unicode="&#xdd;" horiz-adv-x="1288" 
d="M1278 1434l-510 -836v-598h-252v598l-506 836h287l356 -600l353 600h272zM1008 1663l-461 -166l-66 141l439 228z" />
    <glyph glyph-name="Thorn" unicode="&#xde;" horiz-adv-x="1253" 
d="M451 0h-252v1434h252v-211q16 0 77.5 2t77.5 2q103 0 187.5 -17.5t144 -49.5t103.5 -74t70 -94.5t38 -107.5t12 -116q0 -93 -34.5 -176.5t-98.5 -148.5t-165.5 -103.5t-225.5 -38.5q-105 0 -186 8v-309zM610 991q-100 0 -159 -6v-438q98 -10 178 -10q119 0 192.5 59
t73.5 174q0 109 -73 165t-212 56z" />
    <glyph glyph-name="germandbls" unicode="&#xdf;" horiz-adv-x="1128" 
d="M815 328q0 37 -18.5 70t-48 58t-65 50t-71 51.5t-65 55.5t-48 69.5t-18.5 87.5q0 59 17.5 106.5t42 77.5t49 56t42 55.5t17.5 62.5q0 46 -38 76.5t-95 30.5q-80 0 -117 -55.5t-37 -175.5v-1006h-235v1026q0 221 110 326.5t314 105.5q149 0 248.5 -82t99.5 -200
q0 -57 -17 -101.5t-41.5 -72.5t-49 -53.5t-41.5 -58t-17 -71.5q0 -40 18.5 -72.5t48 -56.5t65 -47.5t71 -52t65 -63t48 -86.5t18.5 -117q0 -143 -92 -244t-234 -101q-100 0 -176.5 33.5t-122.5 87.5l76 181q82 -82 166 -82q58 0 94.5 34.5t36.5 96.5z" />
    <glyph glyph-name="agrave" unicode="&#xe0;" horiz-adv-x="948" 
d="M203 684l-60 172q64 38 152 63t174 25q197 0 283 -96t86 -287v-561h-205v106q-38 -54 -109.5 -86t-163.5 -32q-129 0 -208.5 75.5t-79.5 206.5q0 146 94.5 222.5t241.5 76.5q60 0 116.5 -16.5t91.5 -42.5q5 121 -34 179.5t-138 58.5q-49 0 -97.5 -11.5t-71 -20.5
t-72.5 -32zM438 186q119 0 178 84v95q-60 45 -161 45q-63 0 -105.5 -29.5t-42.5 -85.5q0 -51 37 -80t94 -29zM508 1059l-260 293l186 139l213 -334z" />
    <glyph glyph-name="aacute" unicode="&#xe1;" horiz-adv-x="948" 
d="M203 684l-60 172q64 38 152 63t174 25q197 0 283 -96t86 -287v-561h-205v106q-38 -54 -109.5 -86t-163.5 -32q-129 0 -208.5 75.5t-79.5 206.5q0 146 94.5 222.5t241.5 76.5q60 0 116.5 -16.5t91.5 -42.5q5 121 -34 179.5t-138 58.5q-49 0 -97.5 -11.5t-71 -20.5
t-72.5 -32zM438 186q119 0 178 84v95q-60 45 -161 45q-63 0 -105.5 -29.5t-42.5 -85.5q0 -51 37 -80t94 -29zM717 1356l-258 -297l-142 98l215 338z" />
    <glyph glyph-name="acircumflex" unicode="&#xe2;" horiz-adv-x="948" 
d="M203 684l-60 172q64 38 152 63t174 25q197 0 283 -96t86 -287v-561h-205v106q-38 -54 -109.5 -86t-163.5 -32q-129 0 -208.5 75.5t-79.5 206.5q0 146 94.5 222.5t241.5 76.5q60 0 116.5 -16.5t91.5 -42.5q5 121 -34 179.5t-138 58.5q-49 0 -97.5 -11.5t-71 -20.5
t-72.5 -32zM438 186q119 0 178 84v95q-60 45 -161 45q-63 0 -105.5 -29.5t-42.5 -85.5q0 -51 37 -80t94 -29zM477 1446l311 -275l-110 -139l-207 166l-209 -162l-106 138l313 272h8z" />
    <glyph glyph-name="atilde" unicode="&#xe3;" horiz-adv-x="948" 
d="M203 684l-60 172q64 38 152 63t174 25q197 0 283 -96t86 -287v-561h-205v106q-38 -54 -109.5 -86t-163.5 -32q-129 0 -208.5 75.5t-79.5 206.5q0 146 94.5 222.5t241.5 76.5q60 0 116.5 -16.5t91.5 -42.5q5 121 -34 179.5t-138 58.5q-49 0 -97.5 -11.5t-71 -20.5
t-72.5 -32zM438 186q119 0 178 84v95q-60 45 -161 45q-63 0 -105.5 -29.5t-42.5 -85.5q0 -51 37 -80t94 -29zM209 1102l-96 106q113 142 247 142q40 0 81.5 -21.5t80.5 -43t74 -21.5q29 0 53.5 8.5t39 18.5t48.5 36l80 -119q-120 -133 -239 -133q-45 0 -119.5 42t-120.5 42
q-48 0 -129 -57z" />
    <glyph glyph-name="adieresis" unicode="&#xe4;" horiz-adv-x="948" 
d="M203 684l-60 172q64 38 152 63t174 25q197 0 283 -96t86 -287v-561h-205v106q-38 -54 -109.5 -86t-163.5 -32q-129 0 -208.5 75.5t-79.5 206.5q0 146 94.5 222.5t241.5 76.5q60 0 116.5 -16.5t91.5 -42.5q5 121 -34 179.5t-138 58.5q-49 0 -97.5 -11.5t-71 -20.5
t-72.5 -32zM438 186q119 0 178 84v95q-60 45 -161 45q-63 0 -105.5 -29.5t-42.5 -85.5q0 -51 37 -80t94 -29zM152 1227q0 60 38.5 95.5t94.5 35.5q49 0 86 -36t37 -95q0 -63 -37 -100t-86 -37q-56 0 -94.5 36.5t-38.5 100.5zM559 1227q0 59 38 95t93 36q50 0 86.5 -36
t36.5 -95q0 -63 -36.5 -100t-86.5 -37q-55 0 -93 37t-38 100z" />
    <glyph glyph-name="aring" unicode="&#xe5;" horiz-adv-x="948" 
d="M203 684l-60 172q64 38 152 63t174 25q197 0 283 -96t86 -287v-561h-205v106q-38 -54 -109.5 -86t-163.5 -32q-129 0 -208.5 75.5t-79.5 206.5q0 146 94.5 222.5t241.5 76.5q60 0 116.5 -16.5t91.5 -42.5q5 121 -34 179.5t-138 58.5q-49 0 -97.5 -11.5t-71 -20.5
t-72.5 -32zM438 186q119 0 178 84v95q-60 45 -161 45q-63 0 -105.5 -29.5t-42.5 -85.5q0 -51 37 -80t94 -29zM227 1253q0 103 73.5 174.5t184.5 71.5q113 0 188 -71.5t75 -174.5q0 -101 -75 -171t-188 -70q-111 0 -184.5 70t-73.5 171zM379 1255q0 -48 31 -82t79 -34
q46 0 76.5 34t30.5 82t-30.5 81.5t-76.5 33.5q-49 0 -79.5 -33.5t-30.5 -81.5z" />
    <glyph glyph-name="ae" unicode="&#xe6;" horiz-adv-x="1554" 
d="M469 944q190 0 283 -96q130 96 307 96q183 0 309.5 -119.5t126.5 -308.5q0 -66 -14 -127h-643v-88q28 -58 95.5 -92.5t156.5 -34.5q79 0 147.5 24t114.5 60l65 -166q-69 -56 -160.5 -85.5t-185.5 -29.5q-221 0 -354 121q-148 -116 -316 -116q-160 0 -244.5 78.5
t-84.5 222.5q0 131 92.5 208.5t243.5 77.5q50 0 114.5 -14.5t93.5 -30.5q10 106 -33.5 165t-127.5 59q-55 0 -106.5 -11.5t-73 -20.5t-72.5 -32l-60 172q66 37 153.5 62.5t172.5 25.5zM838 561v-14h422q-3 90 -60.5 145.5t-159.5 55.5q-62 0 -117 -29t-89 -88q4 -46 4 -70z
M438 186q94 0 176 78l2 117q-76 29 -161 29q-63 0 -105.5 -32t-42.5 -83q0 -47 34.5 -78t96.5 -31z" />
    <glyph glyph-name="ccedilla" unicode="&#xe7;" horiz-adv-x="997" 
d="M285 -340l69 111q69 -54 144 -54q35 0 57.5 14t22.5 38q0 57 -84 57h-13v160q-187 26 -297 153.5t-110 321.5q0 133 60 243.5t170 175t247 64.5q246 0 371 -125l-111 -186q-93 90 -229 90q-103 0 -179.5 -72.5t-76.5 -189.5q0 -119 78.5 -191.5t187.5 -72.5
q137 0 237 112l111 -172q-55 -72 -144.5 -113.5t-195.5 -46.5v-49q104 -6 158.5 -51t54.5 -123q0 -81 -73.5 -130.5t-209.5 -49.5q-46 0 -85 7.5t-71 23.5t-48 26t-41 29z" />
    <glyph glyph-name="egrave" unicode="&#xe8;" horiz-adv-x="1056" 
d="M854 258l68 -166q-67 -57 -160 -86t-193 -29q-223 0 -359 133t-136 351q0 100 34 188.5t95.5 153.5t154 103t203.5 38q183 0 309.5 -119.5t126.5 -308.5q0 -78 -14 -127h-666q15 -102 90.5 -158.5t186.5 -56.5q79 0 147.5 24t112.5 60zM551 748q-102 0 -162 -53t-80 -148
h453q2 87 -55 144t-156 57zM590 1059l-260 293l186 139l213 -334z" />
    <glyph glyph-name="eacute" unicode="&#xe9;" horiz-adv-x="1056" 
d="M854 258l68 -166q-67 -57 -160 -86t-193 -29q-223 0 -359 133t-136 351q0 100 34 188.5t95.5 153.5t154 103t203.5 38q183 0 309.5 -119.5t126.5 -308.5q0 -78 -14 -127h-666q15 -102 90.5 -158.5t186.5 -56.5q79 0 147.5 24t112.5 60zM551 748q-102 0 -162 -53t-80 -148
h453q2 87 -55 144t-156 57zM819 1356l-258 -297l-141 98l215 338z" />
    <glyph glyph-name="ecircumflex" unicode="&#xea;" horiz-adv-x="1056" 
d="M854 258l68 -166q-67 -57 -160 -86t-193 -29q-223 0 -359 133t-136 351q0 100 34 188.5t95.5 153.5t154 103t203.5 38q183 0 309.5 -119.5t126.5 -308.5q0 -78 -14 -127h-666q15 -102 90.5 -158.5t186.5 -56.5q79 0 147.5 24t112.5 60zM551 748q-102 0 -162 -53t-80 -148
h453q2 87 -55 144t-156 57zM555 1446l311 -275l-110 -139l-207 166l-209 -162l-107 138l314 272h8z" />
    <glyph glyph-name="edieresis" unicode="&#xeb;" horiz-adv-x="1056" 
d="M854 258l68 -166q-67 -57 -160 -86t-193 -29q-223 0 -359 133t-136 351q0 100 34 188.5t95.5 153.5t154 103t203.5 38q183 0 309.5 -119.5t126.5 -308.5q0 -78 -14 -127h-666q15 -102 90.5 -158.5t186.5 -56.5q79 0 147.5 24t112.5 60zM551 748q-102 0 -162 -53t-80 -148
h453q2 87 -55 144t-156 57zM219 1227q0 60 38.5 95.5t94.5 35.5q49 0 86 -36t37 -95q0 -63 -37 -100t-86 -37q-56 0 -94.5 36.5t-38.5 100.5zM627 1227q0 59 38 95t93 36q50 0 86.5 -36t36.5 -95q0 -63 -36.5 -100t-86.5 -37q-55 0 -93 37t-38 100z" />
    <glyph glyph-name="igrave" unicode="&#xec;" horiz-adv-x="567" 
d="M166 0v922h235v-922h-235zM252 1059l-260 293l186 139l213 -334z" />
    <glyph glyph-name="iacute" unicode="&#xed;" horiz-adv-x="567" 
d="M166 0v922h235v-922h-235zM528 1356l-258 -297l-141 98l215 338z" />
    <glyph glyph-name="icircumflex" unicode="&#xee;" horiz-adv-x="567" 
d="M166 0v922h235v-922h-235zM289 1446l311 -275l-111 -139l-206 166l-209 -162l-107 138l314 272h8z" />
    <glyph glyph-name="idieresis" unicode="&#xef;" horiz-adv-x="567" 
d="M166 0v922h235v-922h-235zM-47 1227q0 60 38.5 95.5t94.5 35.5q49 0 86 -36t37 -95q0 -63 -37 -100t-86 -37q-56 0 -94.5 36.5t-38.5 100.5zM360 1227q0 59 38.5 95t93.5 36q50 0 86 -36t36 -95q0 -63 -36 -100t-86 -37q-55 0 -93.5 37t-38.5 100z" />
    <glyph glyph-name="eth" unicode="&#xf0;" horiz-adv-x="1150" 
d="M387 1010l-68 209l168 59q-82 77 -180 139l264 39q77 -46 138 -98l213 76l65 -209l-121 -43q101 -145 156 -315.5t55 -325.5q0 -263 -135.5 -413.5t-366.5 -150.5q-225 0 -363 137t-138 347t138 346.5t363 136.5q58 0 111 -25t84 -67q-42 132 -125 250zM326 461
q0 -115 70.5 -189.5t178.5 -74.5q121 0 191 95.5t61 258.5q-22 76 -90 124t-162 48q-107 0 -178 -72t-71 -190z" />
    <glyph glyph-name="ntilde" unicode="&#xf1;" horiz-adv-x="1118" 
d="M131 0v922h236v-93q44 47 114.5 78t149.5 31q379 0 379 -397v-541h-236v500q0 108 -53.5 162.5t-153.5 54.5q-112 0 -200 -88v-629h-236zM299 1102l-96 106q113 142 248 142q40 0 81.5 -21.5t80 -43t73.5 -21.5q29 0 53.5 8.5t39 18.5t48.5 36l80 -119
q-120 -133 -239 -133q-45 0 -119.5 42t-120.5 42q-48 0 -129 -57z" />
    <glyph glyph-name="ograve" unicode="&#xf2;" horiz-adv-x="1150" 
d="M74 461q0 210 138 346.5t363 136.5q226 0 364 -136.5t138 -346.5t-138.5 -347t-363.5 -137t-363 137t-138 347zM326 461q0 -115 70.5 -189.5t178.5 -74.5q110 0 181 72.5t71 191.5q0 116 -71.5 189t-180.5 73q-107 0 -178 -72t-71 -190zM582 1059l-260 293l186 139
l213 -334z" />
    <glyph glyph-name="oacute" unicode="&#xf3;" horiz-adv-x="1150" 
d="M74 461q0 210 138 346.5t363 136.5q226 0 364 -136.5t138 -346.5t-138.5 -347t-363.5 -137t-363 137t-138 347zM326 461q0 -115 70.5 -189.5t178.5 -74.5q110 0 181 72.5t71 191.5q0 116 -71.5 189t-180.5 73q-107 0 -178 -72t-71 -190zM831 1356l-258 -297l-141 98
l215 338z" />
    <glyph glyph-name="ocircumflex" unicode="&#xf4;" horiz-adv-x="1150" 
d="M74 461q0 210 138 346.5t363 136.5q226 0 364 -136.5t138 -346.5t-138.5 -347t-363.5 -137t-363 137t-138 347zM326 461q0 -115 70.5 -189.5t178.5 -74.5q110 0 181 72.5t71 191.5q0 116 -71.5 189t-180.5 73q-107 0 -178 -72t-71 -190zM584 1446l311 -275l-111 -139
l-206 166l-209 -162l-107 138l313 272h9z" />
    <glyph glyph-name="otilde" unicode="&#xf5;" horiz-adv-x="1150" 
d="M74 461q0 210 138 346.5t363 136.5q226 0 364 -136.5t138 -346.5t-138.5 -347t-363.5 -137t-363 137t-138 347zM326 461q0 -115 70.5 -189.5t178.5 -74.5q110 0 181 72.5t71 191.5q0 116 -71.5 189t-180.5 73q-107 0 -178 -72t-71 -190zM315 1102l-96 106
q113 142 248 142q40 0 81.5 -21.5t80 -43t73.5 -21.5q29 0 53.5 8.5t40 19t48.5 35.5l80 -119q-120 -133 -240 -133q-45 0 -119.5 42t-120.5 42q-48 0 -129 -57z" />
    <glyph glyph-name="odieresis" unicode="&#xf6;" horiz-adv-x="1150" 
d="M74 461q0 210 138 346.5t363 136.5q226 0 364 -136.5t138 -346.5t-138.5 -347t-363.5 -137t-363 137t-138 347zM326 461q0 -115 70.5 -189.5t178.5 -74.5q110 0 181 72.5t71 191.5q0 116 -71.5 189t-180.5 73q-107 0 -178 -72t-71 -190zM258 1227q0 60 38.5 95.5
t94.5 35.5q49 0 86 -36t37 -95q0 -63 -37 -100t-86 -37q-56 0 -94.5 36.5t-38.5 100.5zM666 1227q0 59 38 95t93 36q50 0 86.5 -36t36.5 -95q0 -63 -36.5 -100t-86.5 -37q-55 0 -93 37t-38 100z" />
    <glyph glyph-name="divide" unicode="&#xf7;" 
d="M471 1141q0 53 37.5 93t101.5 40q62 0 100 -40t38 -93q0 -57 -38 -100.5t-100 -43.5q-64 0 -101.5 43t-37.5 101zM471 336q0 52 38 93.5t101 41.5q60 0 99 -42t39 -93q0 -58 -38 -100.5t-100 -42.5q-64 0 -101.5 42t-37.5 101zM135 635v205h950v-205h-950z" />
    <glyph glyph-name="oslash" unicode="&#xf8;" horiz-adv-x="1181" 
d="M100 100l72 66q-98 124 -98 295q0 208 145.5 345.5t372.5 137.5q185 0 323 -98l80 74l84 -99l-71 -65q100 -127 100 -295q0 -209 -144.5 -346.5t-371.5 -137.5q-189 0 -326 97l-80 -74zM858 461q0 72 -31 129l-385 -354q64 -39 150 -39q120 0 193 72t73 192zM326 461
q0 -71 28 -129l385 352q-64 39 -147 39q-118 0 -192 -71.5t-74 -190.5z" />
    <glyph glyph-name="ugrave" unicode="&#xf9;" horiz-adv-x="1095" 
d="M965 922v-922h-236v113q-47 -59 -121.5 -97.5t-173.5 -38.5q-143 0 -233 96t-90 285v564h235v-514q0 -211 176 -211q58 0 112.5 29.5t94.5 82.5v613h236zM545 1059l-260 293l186 139l213 -334z" />
    <glyph glyph-name="uacute" unicode="&#xfa;" horiz-adv-x="1095" 
d="M965 922v-922h-236v113q-47 -59 -121.5 -97.5t-173.5 -38.5q-143 0 -233 96t-90 285v564h235v-514q0 -211 176 -211q58 0 112.5 29.5t94.5 82.5v613h236zM811 1356l-258 -297l-141 98l215 338z" />
    <glyph glyph-name="ucircumflex" unicode="&#xfb;" horiz-adv-x="1095" 
d="M965 922v-922h-236v113q-47 -59 -121.5 -97.5t-173.5 -38.5q-143 0 -233 96t-90 285v564h235v-514q0 -211 176 -211q58 0 112.5 29.5t94.5 82.5v613h236zM551 1446l311 -275l-110 -139l-207 166l-209 -162l-107 138l314 272h8z" />
    <glyph glyph-name="udieresis" unicode="&#xfc;" horiz-adv-x="1095" 
d="M965 922v-922h-236v113q-47 -59 -121.5 -97.5t-173.5 -38.5q-143 0 -233 96t-90 285v564h235v-514q0 -211 176 -211q58 0 112.5 29.5t94.5 82.5v613h236zM211 1227q0 60 38.5 95.5t94.5 35.5q49 0 86 -36t37 -95q0 -63 -37 -100t-86 -37q-56 0 -94.5 36.5t-38.5 100.5z
M618 1227q0 59 38.5 95t93.5 36q50 0 86 -36t36 -95q0 -63 -36 -100t-86 -37q-55 0 -93.5 37t-38.5 100z" />
    <glyph glyph-name="yacute" unicode="&#xfd;" horiz-adv-x="1030" 
d="M1020 922l-363 -922q-67 -164 -123.5 -253.5t-109 -123t-123.5 -33.5q-101 0 -199 72l76 178q59 -33 96 -33q84 0 142 144l20 49l-426 922h283l215 -504q16 -41 45 -133q16 84 33 135l166 502h268zM762 1356l-258 -297l-142 98l216 338z" />
    <glyph glyph-name="thorn" unicode="&#xfe;" horiz-adv-x="1142" 
d="M131 -410v1844h236v-586q110 96 284 96q188 0 303 -131.5t115 -337.5q0 -214 -134.5 -356t-352.5 -142q-136 0 -215 46v-433h-236zM578 723q-121 0 -211 -100v-373q81 -53 194 -53q120 0 189 76.5t69 195.5q0 113 -63.5 183.5t-177.5 70.5z" />
    <glyph glyph-name="ydieresis" unicode="&#xff;" horiz-adv-x="1030" 
d="M1020 922l-363 -922q-67 -164 -123.5 -253.5t-109 -123t-123.5 -33.5q-101 0 -199 72l76 178q59 -33 96 -33q84 0 142 144l20 49l-426 922h283l215 -504q16 -41 45 -133q16 84 33 135l166 502h268zM199 1227q0 60 38.5 95.5t94.5 35.5q49 0 86 -36t37 -95q0 -63 -37 -100
t-86 -37q-56 0 -94.5 36.5t-38.5 100.5zM606 1227q0 59 38 95t93 36q50 0 86.5 -36t36.5 -95q0 -63 -36.5 -100t-86.5 -37q-55 0 -93 37t-38 100z" />
    <glyph glyph-name="Amacron" unicode="&#x100;" horiz-adv-x="1464" 
d="M14 0l607 1438h221l606 -1438h-268l-150 367h-612l-150 -367h-254zM725 1112l-211 -510h420zM414 1556v189h633v-189h-633z" />
    <glyph glyph-name="amacron" unicode="&#x101;" horiz-adv-x="948" 
d="M203 684l-60 172q64 38 152 63t174 25q197 0 283 -96t86 -287v-561h-205v106q-38 -54 -109.5 -86t-163.5 -32q-129 0 -208.5 75.5t-79.5 206.5q0 146 94.5 222.5t241.5 76.5q60 0 116.5 -16.5t91.5 -42.5q5 121 -34 179.5t-138 58.5q-49 0 -97.5 -11.5t-71 -20.5
t-72.5 -32zM438 186q119 0 178 84v95q-60 45 -161 45q-63 0 -105.5 -29.5t-42.5 -85.5q0 -51 37 -80t94 -29zM197 1126v189h571v-189h-571z" />
    <glyph glyph-name="Abreve" unicode="&#x102;" horiz-adv-x="1464" 
d="M14 0l607 1438h221l606 -1438h-268l-150 367h-612l-150 -367h-254zM725 1112l-211 -510h420zM346 1722l103 121q115 -129 292 -129q93 0 166 37t121 92l88 -123q-55 -88 -156 -149.5t-219 -61.5q-130 0 -237 65t-158 148z" />
    <glyph glyph-name="abreve" unicode="&#x103;" horiz-adv-x="948" 
d="M203 684l-60 172q64 38 152 63t174 25q197 0 283 -96t86 -287v-561h-205v106q-38 -54 -109.5 -86t-163.5 -32q-129 0 -208.5 75.5t-79.5 206.5q0 146 94.5 222.5t241.5 76.5q60 0 116.5 -16.5t91.5 -42.5q5 121 -34 179.5t-138 58.5q-49 0 -97.5 -11.5t-71 -20.5
t-72.5 -32zM438 186q119 0 178 84v95q-60 45 -161 45q-63 0 -105.5 -29.5t-42.5 -85.5q0 -51 37 -80t94 -29zM141 1278l105 117q29 -32 52.5 -52.5t71.5 -41.5t101 -21q72 0 132 33t97 80l82 -115q-25 -37 -50 -65t-64 -58.5t-91.5 -47.5t-115.5 -17t-119 19.5t-95 51.5
t-64 60.5t-42 56.5z" />
    <glyph glyph-name="Aogonek" unicode="&#x104;" horiz-adv-x="1464" 
d="M1370 -201l72 -143q-27 -27 -87 -46.5t-124 -19.5q-116 0 -195.5 48t-79.5 145q0 80 60.5 135.5t161.5 87.5l-148 361h-612l-150 -367h-254l607 1438h221l606 -1438h-43q-87 -1 -150 -44t-63 -95q0 -42 28 -62t64 -20q42 0 86 20zM725 1112l-211 -510h420z" />
    <glyph glyph-name="aogonek" unicode="&#x105;" horiz-adv-x="948" 
d="M793 -201l71 -143q-27 -27 -87 -46.5t-124 -19.5q-116 0 -195 48t-79 145q0 86 70.5 144.5t183.5 86.5v92q-38 -54 -109.5 -86t-163.5 -32q-129 0 -208.5 75.5t-79.5 206.5q0 146 94.5 222.5t241.5 76.5q60 0 116.5 -16.5t91.5 -42.5q5 121 -34 179.5t-138 58.5
q-49 0 -97.5 -11.5t-71 -20.5t-72.5 -32l-60 172q64 38 152 63t174 25q197 0 283 -96t86 -287v-561q-91 0 -157.5 -42.5t-66.5 -96.5q0 -42 28.5 -62t64.5 -20q42 0 86 20zM438 186q119 0 178 84v95q-60 45 -161 45q-63 0 -105.5 -29.5t-42.5 -85.5q0 -51 37 -80t94 -29z
" />
    <glyph glyph-name="Cacute" unicode="&#x106;" horiz-adv-x="1341" 
d="M1194 328l96 -189q-68 -72 -194 -117t-265 -45q-217 0 -385 91.5t-261 260t-93 388.5q0 155 48.5 289t139.5 234.5t231.5 158t313.5 57.5q136 0 250 -39t187 -106l-113 -187q-146 97 -324 97q-204 0 -335.5 -137.5t-131.5 -366.5q0 -224 138 -364t358 -140q192 0 340 115
zM1141 1663l-461 -166l-66 141l439 228z" />
    <glyph glyph-name="cacute" unicode="&#x107;" horiz-adv-x="997" 
d="M829 309l111 -172q-58 -77 -155.5 -118.5t-211.5 -41.5q-224 0 -361.5 133t-137.5 351q0 133 60 243.5t170 175t247 64.5q246 0 371 -125l-111 -186q-93 90 -229 90q-103 0 -179.5 -72.5t-76.5 -189.5q0 -119 78.5 -191.5t187.5 -72.5q137 0 237 112zM801 1356l-258 -297
l-142 98l215 338z" />
    <glyph glyph-name="Ccircumflex" unicode="&#x108;" horiz-adv-x="1341" 
d="M1194 328l96 -189q-68 -72 -194 -117t-265 -45q-217 0 -385 91.5t-261 260t-93 388.5q0 155 48.5 289t139.5 234.5t231.5 158t313.5 57.5q136 0 250 -39t187 -106l-113 -187q-146 97 -324 97q-204 0 -335.5 -137.5t-131.5 -366.5q0 -224 138 -364t358 -140q192 0 340 115
zM426 1622l358 229h9l366 -227l-92 -133l-279 145l-278 -145z" />
    <glyph glyph-name="ccircumflex" unicode="&#x109;" horiz-adv-x="997" 
d="M829 309l111 -172q-58 -77 -155.5 -118.5t-211.5 -41.5q-224 0 -361.5 133t-137.5 351q0 133 60 243.5t170 175t247 64.5q246 0 371 -125l-111 -186q-93 90 -229 90q-103 0 -179.5 -72.5t-76.5 -189.5q0 -119 78.5 -191.5t187.5 -72.5q137 0 237 112zM571 1446l312 -275
l-111 -139l-207 166l-209 -162l-106 138l313 272h8z" />
    <glyph glyph-name="Cdotaccent" unicode="&#x10a;" horiz-adv-x="1341" 
d="M1194 328l96 -189q-68 -72 -194 -117t-265 -45q-217 0 -385 91.5t-261 260t-93 388.5q0 155 48.5 289t139.5 234.5t231.5 158t313.5 57.5q136 0 250 -39t187 -106l-113 -187q-146 97 -324 97q-204 0 -335.5 -137.5t-131.5 -366.5q0 -224 138 -364t358 -140q192 0 340 115
zM623 1702q0 65 47 105t114 40q62 0 108 -40t46 -105q0 -70 -46 -112t-108 -42q-68 0 -114.5 41.5t-46.5 112.5z" />
    <glyph glyph-name="cdotaccent" unicode="&#x10b;" horiz-adv-x="997" 
d="M829 309l111 -172q-58 -77 -155.5 -118.5t-211.5 -41.5q-224 0 -361.5 133t-137.5 351q0 133 60 243.5t170 175t247 64.5q246 0 371 -125l-111 -186q-93 90 -229 90q-103 0 -179.5 -72.5t-76.5 -189.5q0 -119 78.5 -191.5t187.5 -72.5q137 0 237 112zM416 1253
q0 61 42.5 99.5t104.5 38.5q54 0 94.5 -38.5t40.5 -99.5q0 -67 -40.5 -107t-94.5 -40q-63 0 -105 39.5t-42 107.5z" />
    <glyph glyph-name="Ccaron" unicode="&#x10c;" horiz-adv-x="1341" 
d="M1194 328l96 -189q-68 -72 -194 -117t-265 -45q-217 0 -385 91.5t-261 260t-93 388.5q0 155 48.5 289t139.5 234.5t231.5 158t313.5 57.5q136 0 250 -39t187 -106l-113 -187q-146 97 -324 97q-204 0 -335.5 -137.5t-131.5 -366.5q0 -224 138 -364t358 -140q192 0 340 115
zM793 1505l-367 228l92 133l279 -162l276 162l84 -131l-356 -230h-8z" />
    <glyph glyph-name="ccaron" unicode="&#x10d;" horiz-adv-x="997" 
d="M829 309l111 -172q-58 -77 -155.5 -118.5t-211.5 -41.5q-224 0 -361.5 133t-137.5 351q0 133 60 243.5t170 175t247 64.5q246 0 371 -125l-111 -186q-93 90 -229 90q-103 0 -179.5 -72.5t-76.5 -189.5q0 -119 78.5 -191.5t187.5 -72.5q137 0 237 112zM547 1042l-311 275
l110 139l207 -188l209 184l106 -137l-313 -273h-8z" />
    <glyph glyph-name="Dcaron" unicode="&#x10e;" horiz-adv-x="1517" 
d="M199 0v1434h26q41 0 191.5 3t204.5 3q167 0 303 -37.5t228 -102.5t154.5 -155.5t90.5 -194t28 -219.5q0 -122 -32.5 -231t-99.5 -201.5t-163 -159.5t-231 -105t-295 -38q-37 0 -171.5 2t-205.5 2h-28zM616 1204q-80 0 -165 -6v-962q88 -5 161 -5q257 0 402 135t145 365
q0 218 -144 345.5t-399 127.5zM686 1505l-367 228l93 133l278 -162l277 162l84 -131l-357 -230h-8z" />
    <glyph glyph-name="dcaron" unicode="&#x10f;" horiz-adv-x="1138" 
d="M772 0v96q-104 -112 -264 -112q-197 0 -315.5 128t-118.5 339q0 218 141.5 355.5t364.5 137.5q118 0 192 -45v535h236v-1434h-236zM557 203q121 0 215 94v371q-88 55 -182 55q-110 0 -187 -71t-77 -193q0 -119 66.5 -187.5t164.5 -68.5zM1153 1434h229q13 -26 13 -72
q0 -132 -59 -220.5t-144 -135.5l-109 102q93 90 93 225q0 50 -23 101z" />
    <glyph glyph-name="Dcroat" unicode="&#x110;" horiz-adv-x="1533" 
d="M20 608v221h195v605h27q40 0 190 3t205 3q167 0 303 -37.5t228.5 -102.5t155 -155.5t90.5 -194t28 -219.5q0 -122 -32.5 -231t-99.5 -201.5t-163 -159.5t-231 -105t-295 -38q-38 0 -172.5 2t-204.5 2h-29v608h-195zM633 1204q-83 0 -168 -6v-369h362v-221h-362v-372
q87 -5 164 -5q257 0 402 135t145 365q0 218 -144 345.5t-399 127.5z" />
    <glyph glyph-name="dcroat" unicode="&#x111;" horiz-adv-x="1138" 
d="M506 1065v190h266v179h236v-179h161v-190h-161v-1065h-236v96q-104 -112 -264 -112q-197 0 -315.5 128t-118.5 339q0 218 141.5 355.5t364.5 137.5q118 0 192 -45v166h-266zM557 203q121 0 215 94v371q-88 55 -182 55q-110 0 -187 -71t-77 -193q0 -119 66.5 -187.5
t164.5 -68.5z" />
    <glyph glyph-name="Emacron" unicode="&#x112;" horiz-adv-x="1177" 
d="M199 0v1434h829v-236h-577v-356h516v-236h-516v-370h598v-236h-850zM297 1556v189h633v-189h-633z" />
    <glyph glyph-name="emacron" unicode="&#x113;" horiz-adv-x="1056" 
d="M854 258l68 -166q-67 -57 -160 -86t-193 -29q-223 0 -359 133t-136 351q0 100 34 188.5t95.5 153.5t154 103t203.5 38q183 0 309.5 -119.5t126.5 -308.5q0 -78 -14 -127h-666q15 -102 90.5 -158.5t186.5 -56.5q79 0 147.5 24t112.5 60zM551 748q-102 0 -162 -53t-80 -148
h453q2 87 -55 144t-156 57zM256 1126v189h571v-189h-571z" />
    <glyph glyph-name="Edotaccent" unicode="&#x116;" horiz-adv-x="1177" 
d="M199 0v1434h829v-236h-577v-356h516v-236h-516v-370h598v-236h-850zM465 1702q0 65 47.5 105t114.5 40q62 0 107.5 -40t45.5 -105q0 -70 -45.5 -112t-107.5 -42q-68 0 -115 41.5t-47 112.5z" />
    <glyph glyph-name="edotaccent" unicode="&#x117;" horiz-adv-x="1056" 
d="M854 258l68 -166q-67 -57 -160 -86t-193 -29q-223 0 -359 133t-136 351q0 100 34 188.5t95.5 153.5t154 103t203.5 38q183 0 309.5 -119.5t126.5 -308.5q0 -78 -14 -127h-666q15 -102 90.5 -158.5t186.5 -56.5q79 0 147.5 24t112.5 60zM551 748q-102 0 -162 -53t-80 -148
h453q2 87 -55 144t-156 57zM403 1253q0 61 43 99.5t105 38.5q54 0 94.5 -38.5t40.5 -99.5q0 -67 -40.5 -107t-94.5 -40q-63 0 -105.5 39.5t-42.5 107.5z" />
    <glyph glyph-name="Eogonek" unicode="&#x118;" horiz-adv-x="1177" 
d="M199 0v1434h829v-236h-577v-356h516v-236h-516v-370h598v-236h-11q-87 -1 -150 -44t-63 -95q0 -42 28.5 -62t64.5 -20q42 0 86 20l71 -143q-27 -27 -87 -46.5t-124 -19.5q-116 0 -195 48t-79 145q0 76 55.5 131t147.5 86h-594z" />
    <glyph glyph-name="eogonek" unicode="&#x119;" horiz-adv-x="1056" 
d="M854 258l68 -166q-47 -42 -119 -72q-135 -82 -135 -159q0 -42 28 -62t64 -20q42 0 86 20l72 -143q-27 -27 -87 -46.5t-124 -19.5q-116 0 -195.5 48t-79.5 145q0 110 154 194h-17q-223 0 -359 133t-136 351q0 100 34 188.5t95.5 153.5t154 103t203.5 38
q183 0 309.5 -119.5t126.5 -308.5q0 -78 -14 -127h-666q15 -102 90.5 -158.5t186.5 -56.5q79 0 147.5 24t112.5 60zM551 748q-102 0 -162 -53t-80 -148h453q2 87 -55 144t-156 57z" />
    <glyph glyph-name="Ecaron" unicode="&#x11a;" horiz-adv-x="1177" 
d="M199 0v1434h829v-236h-577v-356h516v-236h-516v-370h598v-236h-850zM629 1505l-367 228l92 133l279 -162l276 162l84 -131l-356 -230h-8z" />
    <glyph glyph-name="ecaron" unicode="&#x11b;" horiz-adv-x="1056" 
d="M854 258l68 -166q-67 -57 -160 -86t-193 -29q-223 0 -359 133t-136 351q0 100 34 188.5t95.5 153.5t154 103t203.5 38q183 0 309.5 -119.5t126.5 -308.5q0 -78 -14 -127h-666q15 -102 90.5 -158.5t186.5 -56.5q79 0 147.5 24t112.5 60zM551 748q-102 0 -162 -53t-80 -148
h453q2 87 -55 144t-156 57zM555 1042l-311 275l110 139l207 -188l209 184l107 -137l-314 -273h-8z" />
    <glyph glyph-name="Gcircumflex" unicode="&#x11c;" horiz-adv-x="1488" 
d="M795 537v235h581v-594q-92 -92 -244 -146.5t-292 -54.5q-348 0 -548 201t-200 539q0 154 50.5 289t142 235t226.5 157.5t296 57.5q277 0 461 -145l-107 -201q-54 51 -141.5 81t-181.5 30q-212 0 -346 -135t-134 -369q0 -228 133.5 -366t352.5 -138q82 0 169 29.5
t128 68.5v226h-346zM426 1622l358 229h9l366 -227l-92 -133l-279 145l-278 -145z" />
    <glyph glyph-name="gcircumflex" unicode="&#x11d;" horiz-adv-x="1021" 
d="M10 -125q0 111 80.5 183.5t218.5 101.5q-16 29 -16 63q0 40 20 66q-103 41 -161 124t-58 185q0 144 108 245t285 101q136 0 236 -65l278 61l9 -188l-154 -35q23 -61 23 -119q0 -142 -109 -241t-283 -99h-16q-4 -12 -4 -35q0 -26 12 -47h10q138 0 244 -31.5t171 -100.5
t65 -169t-65 -169t-171 -100.5t-244 -31.5q-139 0 -244 30.5t-170 99.5t-65 171zM229 -125q0 -54 69.5 -83.5t190.5 -29.5q122 0 190.5 29t68.5 84q0 52 -67 82.5t-192 30.5q-124 0 -192 -30.5t-68 -82.5zM315 598q0 -66 47 -107.5t125 -41.5q76 0 124 40.5t48 108.5
q0 67 -46 111.5t-126 44.5q-77 0 -124.5 -45.5t-47.5 -110.5zM504 1446l311 -275l-110 -139l-207 166l-209 -162l-107 138l314 272h8z" />
    <glyph glyph-name="Gbreve" unicode="&#x11e;" horiz-adv-x="1488" 
d="M795 537v235h581v-594q-92 -92 -244 -146.5t-292 -54.5q-348 0 -548 201t-200 539q0 154 50.5 289t142 235t226.5 157.5t296 57.5q277 0 461 -145l-107 -201q-54 51 -141.5 81t-181.5 30q-212 0 -346 -135t-134 -369q0 -228 133.5 -366t352.5 -138q82 0 169 29.5
t128 68.5v226h-346zM438 1722l103 121q115 -129 293 -129q173 0 286 129l88 -123q-55 -89 -155.5 -150t-218.5 -61q-130 0 -237.5 65t-158.5 148z" />
    <glyph glyph-name="gbreve" unicode="&#x11f;" horiz-adv-x="1021" 
d="M10 -125q0 111 80.5 183.5t218.5 101.5q-16 29 -16 63q0 40 20 66q-103 41 -161 124t-58 185q0 144 108 245t285 101q136 0 236 -65l278 61l9 -188l-154 -35q23 -61 23 -119q0 -142 -109 -241t-283 -99h-16q-4 -12 -4 -35q0 -26 12 -47h10q138 0 244 -31.5t171 -100.5
t65 -169t-65 -169t-171 -100.5t-244 -31.5q-139 0 -244 30.5t-170 99.5t-65 171zM229 -125q0 -54 69.5 -83.5t190.5 -29.5q122 0 190.5 29t68.5 84q0 52 -67 82.5t-192 30.5q-124 0 -192 -30.5t-68 -82.5zM315 598q0 -66 47 -107.5t125 -41.5q76 0 124 40.5t48 108.5
q0 67 -46 111.5t-126 44.5q-77 0 -124.5 -45.5t-47.5 -110.5zM168 1278l104 117q29 -32 53 -52.5t72 -41.5t101 -21q72 0 132 33t97 80l82 -115q-25 -37 -50 -65t-64 -58.5t-92 -47.5t-116 -17q-51 0 -98 14t-80.5 34t-63 47t-47 49t-30.5 44z" />
    <glyph glyph-name="Gdotaccent" unicode="&#x120;" horiz-adv-x="1488" 
d="M795 537v235h581v-594q-92 -92 -244 -146.5t-292 -54.5q-348 0 -548 201t-200 539q0 154 50.5 289t142 235t226.5 157.5t296 57.5q277 0 461 -145l-107 -201q-54 51 -141.5 81t-181.5 30q-212 0 -346 -135t-134 -369q0 -228 133.5 -366t352.5 -138q82 0 169 29.5
t128 68.5v226h-346zM612 1702q0 65 47.5 105t114.5 40q62 0 108 -40t46 -105q0 -70 -46 -112t-108 -42q-68 0 -115 41.5t-47 112.5z" />
    <glyph glyph-name="gdotaccent" unicode="&#x121;" horiz-adv-x="1021" 
d="M10 -125q0 111 80.5 183.5t218.5 101.5q-16 29 -16 63q0 40 20 66q-103 41 -161 124t-58 185q0 144 108 245t285 101q136 0 236 -65l278 61l9 -188l-154 -35q23 -61 23 -119q0 -142 -109 -241t-283 -99h-16q-4 -12 -4 -35q0 -26 12 -47h10q138 0 244 -31.5t171 -100.5
t65 -169t-65 -169t-171 -100.5t-244 -31.5q-139 0 -244 30.5t-170 99.5t-65 171zM229 -125q0 -54 69.5 -83.5t190.5 -29.5q122 0 190.5 29t68.5 84q0 52 -67 82.5t-192 30.5q-124 0 -192 -30.5t-68 -82.5zM315 598q0 -66 47 -107.5t125 -41.5q76 0 124 40.5t48 108.5
q0 67 -46 111.5t-126 44.5q-77 0 -124.5 -45.5t-47.5 -110.5zM346 1253q0 61 43 99.5t105 38.5q54 0 94.5 -38.5t40.5 -99.5q0 -67 -40.5 -107t-94.5 -40q-63 0 -105.5 39.5t-42.5 107.5z" />
    <glyph glyph-name="uni0122" unicode="&#x122;" horiz-adv-x="1488" 
d="M795 537v235h581v-594q-92 -92 -244 -146.5t-292 -54.5q-348 0 -548 201t-200 539q0 154 50.5 289t142 235t226.5 157.5t296 57.5q277 0 461 -145l-107 -201q-54 51 -141.5 81t-181.5 30q-212 0 -346 -135t-134 -369q0 -228 133.5 -366t352.5 -138q82 0 169 29.5
t128 68.5v226h-346zM694 -119l230 51q41 -25 41 -100q0 -101 -78 -170t-176 -84l-70 103q50 21 69 50t19 72q0 53 -35 78z" />
    <glyph glyph-name="uni0123" unicode="&#x123;" horiz-adv-x="1021" 
d="M10 -125q0 111 80.5 183.5t218.5 101.5q-16 29 -16 63q0 40 20 66q-103 41 -161 124t-58 185q0 144 108 245t285 101q136 0 236 -65l278 61l9 -188l-154 -35q23 -61 23 -119q0 -142 -109 -241t-283 -99h-16q-4 -12 -4 -35q0 -26 12 -47h10q138 0 244 -31.5t171 -100.5
t65 -169t-65 -169t-171 -100.5t-244 -31.5q-139 0 -244 30.5t-170 99.5t-65 171zM229 -125q0 -54 69.5 -83.5t190.5 -29.5q122 0 190.5 29t68.5 84q0 52 -67 82.5t-192 30.5q-124 0 -192 -30.5t-68 -82.5zM315 598q0 -66 47 -107.5t125 -41.5q76 0 124 40.5t48 108.5
q0 67 -46 111.5t-126 44.5q-77 0 -124.5 -45.5t-47.5 -110.5zM621 1137l-230 -52q-41 25 -41 101q0 101 78 170t176 84l70 -103q-50 -21 -69 -50.5t-19 -72.5q0 -52 35 -77z" />
    <glyph glyph-name="Hcircumflex" unicode="&#x124;" horiz-adv-x="1556" 
d="M1106 0v612h-655v-612h-252v1434h252v-586h655v586h250v-1434h-250zM414 1622l358 229h8l367 -227l-92 -133l-279 145l-278 -145z" />
    <glyph glyph-name="hcircumflex" unicode="&#x125;" horiz-adv-x="1118" 
d="M131 0v1434h236v-596q46 44 116.5 72t147.5 28q178 0 278.5 -97.5t100.5 -305.5v-535h-236v504q0 102 -54 157.5t-151 55.5q-118 0 -202 -84v-633h-236zM-51 1622l358 229h8l367 -227l-92 -133l-279 145l-278 -145z" />
    <glyph glyph-name="Hbar" unicode="&#x126;" horiz-adv-x="1576" 
d="M45 1036v219h164v179h252v-179h655v179h250v-179h164v-219h-164v-1036h-250v612h-655v-612h-252v1036h-164zM461 848h655v188h-655v-188z" />
    <glyph glyph-name="hbar" unicode="&#x127;" horiz-adv-x="1193" 
d="M-10 1034v219h217v181h235v-181h303v-219h-303v-196q46 44 117 72t148 28q178 0 278 -97.5t100 -305.5v-535h-235v504q0 102 -54 157.5t-151 55.5q-119 0 -203 -84v-633h-235v1034h-217z" />
    <glyph glyph-name="Imacron" unicode="&#x12a;" horiz-adv-x="710" 
d="M229 0v1434h252v-1434h-252zM47 1556v189h633v-189h-633z" />
    <glyph glyph-name="imacron" unicode="&#x12b;" horiz-adv-x="567" 
d="M166 0v922h235v-922h-235zM-2 1126v189h571v-189h-571z" />
    <glyph glyph-name="Iogonek" unicode="&#x12e;" horiz-adv-x="710" 
d="M436 -201l72 -143q-27 -27 -87 -46.5t-124 -19.5q-116 0 -195 48t-79 145q0 76 56 131t150 86v1434h252v-1434q-90 0 -156.5 -42.5t-66.5 -96.5q0 -42 28 -62t64 -20q42 0 86 20z" />
    <glyph glyph-name="iogonek" unicode="&#x12f;" horiz-adv-x="567" 
d="M356 -201l72 -143q-27 -27 -87 -46.5t-124 -19.5q-116 0 -195 48t-79 145q0 80 61 136.5t162 86.5v916h235v-922h-10q-87 -1 -150 -44t-63 -95q0 -42 28 -62t64 -20q42 0 86 20zM135 1253q0 61 43 99.5t105 38.5q54 0 94.5 -38.5t40.5 -99.5q0 -67 -40.5 -107t-94.5 -40
q-63 0 -105.5 39.5t-42.5 107.5z" />
    <glyph glyph-name="Idotaccent" unicode="&#x130;" horiz-adv-x="710" 
d="M229 0v1434h252v-1434h-252zM199 1702q0 65 47 105t114 40q62 0 108 -40t46 -105q0 -70 -46 -112t-108 -42q-68 0 -114.5 41.5t-46.5 112.5z" />
    <glyph glyph-name="dotlessi" unicode="&#x131;" horiz-adv-x="567" 
d="M166 0v922h235v-922h-235z" />
    <glyph glyph-name="Jcircumflex" unicode="&#x134;" horiz-adv-x="798" 
d="M600 1434v-1096q0 -174 -87 -267.5t-259 -93.5q-77 0 -145.5 27t-98.5 62l82 192q59 -45 127 -45q129 0 129 168v1053h252zM104 1622l359 229h8l367 -227l-93 -133l-278 145l-279 -145z" />
    <glyph glyph-name="jcircumflex" unicode="&#x135;" horiz-adv-x="581" 
d="M414 922v-990q0 -358 -289 -358q-70 0 -132 19t-93 47l63 186q54 -33 105 -33q110 0 110 160v969h236zM301 1446l311 -275l-110 -139l-207 166l-209 -162l-106 138l313 272h8z" />
    <glyph glyph-name="uni0136" unicode="&#x136;" horiz-adv-x="1376" 
d="M199 0v1434h252v-680l565 680h303l-590 -668l627 -766h-320l-585 739v-739h-252zM551 -119l229 51q41 -25 41 -100q0 -101 -78 -170t-176 -84l-69 103q50 21 69 50t19 72q0 53 -35 78z" />
    <glyph glyph-name="uni0137" unicode="&#x137;" horiz-adv-x="1052" 
d="M997 922l-346 -422l387 -500h-303l-364 481l329 441h297zM131 0v1434h236v-1434h-236zM369 -119l229 51q41 -25 41 -100q0 -101 -78 -170t-176 -84l-70 103q50 21 69 50t19 72q0 54 -34 78z" />
    <glyph glyph-name="Lacute" unicode="&#x139;" horiz-adv-x="1120" 
d="M199 0v1434h252v-1198h645v-236h-897zM926 1663l-461 -166l-66 141l439 228z" />
    <glyph glyph-name="lacute" unicode="&#x13a;" horiz-adv-x="612" 
d="M131 254v1180h236v-1084q0 -78 19 -113.5t60 -35.5q43 0 97 37l49 -181q-95 -77 -244 -77q-217 0 -217 274zM672 1663l-461 -166l-66 141l439 228z" />
    <glyph glyph-name="uni013B" unicode="&#x13b;" horiz-adv-x="1120" 
d="M199 0v1434h252v-1198h645v-236h-897zM500 -119l229 51q41 -25 41 -100q0 -101 -78 -170t-176 -84l-70 103q50 21 69.5 50t19.5 72q0 53 -35 78z" />
    <glyph glyph-name="uni013C" unicode="&#x13c;" horiz-adv-x="612" 
d="M131 254v1180h236v-1084q0 -78 19 -113.5t60 -35.5q43 0 97 37l49 -181q-95 -77 -244 -77q-217 0 -217 274zM225 -119l230 51q41 -25 41 -100q0 -101 -78 -170t-176 -84l-70 103q50 21 69 50t19 72q0 53 -35 78z" />
    <glyph glyph-name="Lcaron" unicode="&#x13d;" horiz-adv-x="1120" 
d="M199 0v1434h252v-1198h645v-236h-897zM729 1434h229q13 -26 13 -72q0 -132 -59 -220.5t-144 -135.5l-109 102q93 90 93 225q0 50 -23 101z" />
    <glyph glyph-name="lcaron" unicode="&#x13e;" horiz-adv-x="612" 
d="M131 254v1180h236v-1084q0 -78 19 -113.5t60 -35.5q43 0 97 37l49 -181q-95 -77 -244 -77q-217 0 -217 274zM524 1434h230q12 -24 12 -72q0 -132 -59 -220.5t-144 -135.5l-108 102q92 89 92 225q0 50 -23 101z" />
    <glyph glyph-name="Ldot" unicode="&#x13f;" horiz-adv-x="1120" 
d="M199 0v1434h252v-1198h645v-236h-897zM729 768q0 58 45.5 105t118.5 47q63 0 106 -47.5t43 -104.5q0 -65 -42.5 -114.5t-106.5 -49.5q-73 0 -118.5 49t-45.5 115z" />
    <glyph glyph-name="ldot" unicode="&#x140;" horiz-adv-x="716" 
d="M131 254v1180h236v-1084q0 -78 19 -113.5t60 -35.5q43 0 97 37l49 -181q-95 -77 -244 -77q-217 0 -217 274zM467 692q0 61 42.5 99t104.5 38q54 0 95 -38.5t41 -98.5q0 -67 -41 -107t-95 -40q-63 0 -105 39.5t-42 107.5z" />
    <glyph glyph-name="Lslash" unicode="&#x141;" horiz-adv-x="1140" 
d="M45 418v241l174 80v695h252v-578l334 154v-240l-334 -156v-378h645v-236h-897v498z" />
    <glyph glyph-name="lslash" unicode="&#x142;" horiz-adv-x="673" 
d="M25 414v241l147 68v711h236v-603l192 89v-242l-192 -88v-240q0 -78 19 -113.5t60 -35.5q43 0 97 37l49 -181q-95 -77 -244 -77q-217 0 -217 274v227z" />
    <glyph glyph-name="Nacute" unicode="&#x143;" horiz-adv-x="1622" 
d="M1423 0h-200l-789 993v-993h-235v1434h200l789 -998v998h235v-1434zM1186 1663l-461 -166l-66 141l439 228z" />
    <glyph glyph-name="nacute" unicode="&#x144;" horiz-adv-x="1118" 
d="M131 0v922h236v-93q44 47 114.5 78t149.5 31q379 0 379 -397v-541h-236v500q0 108 -53.5 162.5t-153.5 54.5q-112 0 -200 -88v-629h-236zM829 1356l-258 -297l-141 98l215 338z" />
    <glyph glyph-name="uni0145" unicode="&#x145;" horiz-adv-x="1622" 
d="M1423 0h-200l-789 993v-993h-235v1434h200l789 -998v998h235v-1434zM678 -119l229 51q41 -25 41 -100q0 -101 -78 -170t-176 -84l-69 103q50 21 69 50t19 72q0 53 -35 78z" />
    <glyph glyph-name="uni0146" unicode="&#x146;" horiz-adv-x="1118" 
d="M131 0v922h236v-93q44 47 114.5 78t149.5 31q379 0 379 -397v-541h-236v500q0 108 -53.5 162.5t-153.5 54.5q-112 0 -200 -88v-629h-236zM422 -119l229 51q41 -25 41 -100q0 -101 -78 -170t-176 -84l-69 103q50 21 69 50t19 72q0 53 -35 78z" />
    <glyph glyph-name="Ncaron" unicode="&#x147;" horiz-adv-x="1622" 
d="M1423 0h-200l-789 993v-993h-235v1434h200l789 -998v998h235v-1434zM813 1505l-367 228l93 133l278 -162l277 162l84 -131l-357 -230h-8z" />
    <glyph glyph-name="ncaron" unicode="&#x148;" horiz-adv-x="1118" 
d="M131 0v922h236v-93q44 47 114.5 78t149.5 31q379 0 379 -397v-541h-236v500q0 108 -53.5 162.5t-153.5 54.5q-112 0 -200 -88v-629h-236zM553 1042l-311 275l110 139l207 -188l209 184l106 -137l-313 -273h-8z" />
    <glyph glyph-name="Eng" unicode="&#x14a;" horiz-adv-x="1622" 
d="M1423 -66q0 -177 -79.5 -268.5t-249.5 -91.5q-77 0 -145.5 26.5t-98.5 61.5l82 193q59 -45 127 -45q129 0 129 167v23l-754 993v-993h-235v1434h200l789 -1041v1041h235v-1500z" />
    <glyph glyph-name="eng" unicode="&#x14b;" horiz-adv-x="1118" 
d="M131 0v922h236v-93q44 47 114.5 78t149.5 31q379 0 379 -397v-609q0 -358 -289 -358q-70 0 -132 19t-93 47l63 186q54 -33 105 -33q110 0 110 160v547q0 108 -53.5 162.5t-153.5 54.5q-112 0 -200 -88v-629h-236z" />
    <glyph glyph-name="Omacron" unicode="&#x14c;" horiz-adv-x="1677" 
d="M92 717q0 154 55 290.5t152.5 235.5t237 156t301.5 57q212 0 381.5 -91t267.5 -260t98 -388q0 -212 -97.5 -381.5t-268 -264t-381.5 -94.5q-212 0 -381.5 91t-267 260.5t-97.5 388.5zM358 717q0 -214 139 -359t341 -145q220 0 350.5 143t130.5 361q0 220 -138 362
t-343 142q-207 0 -343.5 -141.5t-136.5 -362.5zM537 1556v189h632v-189h-632z" />
    <glyph glyph-name="omacron" unicode="&#x14d;" horiz-adv-x="1150" 
d="M74 461q0 210 138 346.5t363 136.5q226 0 364 -136.5t138 -346.5t-138.5 -347t-363.5 -137t-363 137t-138 347zM326 461q0 -115 70.5 -189.5t178.5 -74.5q110 0 181 72.5t71 191.5q0 116 -71.5 189t-180.5 73q-107 0 -178 -72t-71 -190zM305 1126v189h572v-189h-572z" />
    <glyph glyph-name="Ohungarumlaut" unicode="&#x150;" horiz-adv-x="1677" 
d="M92 717q0 154 55 290.5t152.5 235.5t237 156t301.5 57q212 0 381.5 -91t267.5 -260t98 -388q0 -212 -97.5 -381.5t-268 -264t-381.5 -94.5q-212 0 -381.5 91t-267 260.5t-97.5 388.5zM358 717q0 -214 139 -359t341 -145q220 0 350.5 143t130.5 361q0 220 -138 362
t-343 142q-207 0 -343.5 -141.5t-136.5 -362.5zM1389 1718l-392 -221l-96 100l324 269zM965 1761l-336 -264l-101 94l234 275z" />
    <glyph glyph-name="ohungarumlaut" unicode="&#x151;" horiz-adv-x="1150" 
d="M74 461q0 210 138 346.5t363 136.5q226 0 364 -136.5t138 -346.5t-138.5 -347t-363.5 -137t-363 137t-138 347zM326 461q0 -115 70.5 -189.5t178.5 -74.5q110 0 181 72.5t71 191.5q0 116 -71.5 189t-180.5 73q-107 0 -178 -72t-71 -190zM1022 1343l-270 -284l-142 98
l238 320zM651 1372l-233 -313l-142 98l207 340z" />
    <glyph glyph-name="OE" unicode="&#x152;" horiz-adv-x="2125" 
d="M1147 0v41q-148 -64 -316 -64q-217 0 -385 91.5t-261 260t-93 388.5q0 155 48.5 289t139.5 234.5t231.5 158t313.5 57.5q179 0 322 -70v48h829v-236h-577v-356h516v-236h-516v-370h598v-236h-850zM854 213q162 0 293 82v829q-146 97 -322 97q-204 0 -335.5 -137.5
t-131.5 -366.5q0 -224 138 -364t358 -140z" />
    <glyph glyph-name="oe" unicode="&#x153;" horiz-adv-x="1705" 
d="M1503 258l66 -166q-65 -57 -158.5 -86t-193.5 -29q-191 0 -320 99q-132 -99 -322 -99q-225 0 -363 137t-138 347t138 346.5t363 136.5q192 0 322 -102q130 102 313 102t310 -119.5t127 -308.5q0 -74 -15 -127h-665q15 -102 89 -158.5t185 -56.5q79 0 148.5 24t113.5 60z
M575 197q111 0 183 65q-35 90 -35 199q0 111 37 198q-79 64 -185 64q-107 0 -179 -72.5t-72 -189.5q0 -115 71 -189.5t180 -74.5zM1200 748q-102 0 -162 -53t-80 -148h453q2 87 -55.5 144t-155.5 57z" />
    <glyph glyph-name="Racute" unicode="&#x154;" horiz-adv-x="1347" 
d="M451 0h-252v1434q45 0 232.5 2t203.5 2q114 0 203.5 -22.5t148.5 -61.5t97 -96t54.5 -121.5t16.5 -141.5q0 -88 -25.5 -161t-68.5 -121.5t-88 -79t-94 -47.5l448 -586h-305l-395 537h-176v-537zM623 1202q-36 0 -172 -4v-426h163q116 0 195.5 58t79.5 163q0 209 -266 209
zM950 1663l-461 -166l-65 141l438 228z" />
    <glyph glyph-name="racute" unicode="&#x155;" horiz-adv-x="724" 
d="M131 0v922h236v-91q37 51 85.5 79t125.5 28q96 0 143 -35l-84 -221q-34 21 -58.5 28t-60.5 7q-101 0 -151 -99v-618h-236zM649 1356l-258 -297l-141 98l215 338z" />
    <glyph glyph-name="uni0156" unicode="&#x156;" horiz-adv-x="1347" 
d="M451 0h-252v1434q45 0 232.5 2t203.5 2q114 0 203.5 -22.5t148.5 -61.5t97 -96t54.5 -121.5t16.5 -141.5q0 -88 -25.5 -161t-68.5 -121.5t-88 -79t-94 -47.5l448 -586h-305l-395 537h-176v-537zM623 1202q-36 0 -172 -4v-426h163q116 0 195.5 58t79.5 163q0 209 -266 209
zM535 -119l229 51q41 -25 41 -100q0 -101 -78 -170t-176 -84l-70 103q50 21 69 50t19 72q0 54 -34 78z" />
    <glyph glyph-name="uni0157" unicode="&#x157;" horiz-adv-x="724" 
d="M131 0v922h236v-91q37 51 85.5 79t125.5 28q96 0 143 -35l-84 -221q-34 21 -58.5 28t-60.5 7q-101 0 -151 -99v-618h-236zM213 -119l229 51q41 -25 41 -100q0 -101 -78 -170t-176 -84l-69 103q50 21 69 50t19 72q0 53 -35 78z" />
    <glyph glyph-name="Rcaron" unicode="&#x158;" horiz-adv-x="1347" 
d="M451 0h-252v1434q45 0 232.5 2t203.5 2q114 0 203.5 -22.5t148.5 -61.5t97 -96t54.5 -121.5t16.5 -141.5q0 -88 -25.5 -161t-68.5 -121.5t-88 -79t-94 -47.5l448 -586h-305l-395 537h-176v-537zM623 1202q-36 0 -172 -4v-426h163q116 0 195.5 58t79.5 163q0 209 -266 209
zM618 1505l-366 228l92 133l279 -162l276 162l84 -131l-356 -230h-9z" />
    <glyph glyph-name="rcaron" unicode="&#x159;" horiz-adv-x="724" 
d="M131 0v922h236v-91q37 51 85.5 79t125.5 28q96 0 143 -35l-84 -221q-34 21 -58.5 28t-60.5 7q-101 0 -151 -99v-618h-236zM399 1042l-311 275l111 139l207 -188l208 184l107 -137l-313 -273h-9z" />
    <glyph glyph-name="Sacute" unicode="&#x15a;" horiz-adv-x="1132" 
d="M774 381q0 50 -28 91t-73.5 68.5t-104 57t-119 54.5t-119 63t-104 82t-73.5 112t-28 152q0 167 121.5 281t324.5 114q130 0 237.5 -40.5t172.5 -112.5l-135 -189q-56 55 -114 81t-140 26q-93 0 -147 -43.5t-54 -114.5q0 -60 36 -105.5t93 -76.5t126 -59.5t138.5 -64.5
t126.5 -82t93 -120.5t36 -171.5q0 -179 -137.5 -292.5t-341.5 -113.5q-147 0 -283 61t-186 165l144 172q60 -78 150.5 -120t178.5 -42q92 0 150.5 44.5t58.5 123.5zM954 1663l-460 -166l-66 141l438 228z" />
    <glyph glyph-name="sacute" unicode="&#x15b;" horiz-adv-x="909" 
d="M598 260q0 30 -27.5 51.5t-71.5 36t-97 28.5t-106 35.5t-97 51.5t-71.5 81.5t-27.5 119.5q0 131 95 205.5t243 74.5q121 0 209.5 -34.5t140.5 -82.5l-88 -168q-47 36 -114 62.5t-135 26.5q-52 0 -83.5 -24t-31.5 -56q0 -31 27.5 -53t71.5 -36t97 -28t106 -35t97 -49.5
t71.5 -78.5t27.5 -116q0 -136 -101.5 -215.5t-271.5 -79.5q-119 0 -234 51.5t-151 106.5l114 154q41 -44 129.5 -79.5t157.5 -35.5q53 0 87 22.5t34 63.5zM696 1356l-258 -297l-141 98l215 338z" />
    <glyph glyph-name="Scircumflex" unicode="&#x15c;" horiz-adv-x="1132" 
d="M774 381q0 50 -28 91t-73.5 68.5t-104 57t-119 54.5t-119 63t-104 82t-73.5 112t-28 152q0 167 121.5 281t324.5 114q130 0 237.5 -40.5t172.5 -112.5l-135 -189q-56 55 -114 81t-140 26q-93 0 -147 -43.5t-54 -114.5q0 -60 36 -105.5t93 -76.5t126 -59.5t138.5 -64.5
t126.5 -82t93 -120.5t36 -171.5q0 -179 -137.5 -292.5t-341.5 -113.5q-147 0 -283 61t-186 165l144 172q60 -78 150.5 -120t178.5 -42q92 0 150.5 44.5t58.5 123.5zM199 1622l358 229h8l367 -227l-92 -133l-279 145l-278 -145z" />
    <glyph glyph-name="scircumflex" unicode="&#x15d;" horiz-adv-x="909" 
d="M598 260q0 30 -27.5 51.5t-71.5 36t-97 28.5t-106 35.5t-97 51.5t-71.5 81.5t-27.5 119.5q0 131 95 205.5t243 74.5q121 0 209.5 -34.5t140.5 -82.5l-88 -168q-47 36 -114 62.5t-135 26.5q-52 0 -83.5 -24t-31.5 -56q0 -31 27.5 -53t71.5 -36t97 -28t106 -35t97 -49.5
t71.5 -78.5t27.5 -116q0 -136 -101.5 -215.5t-271.5 -79.5q-119 0 -234 51.5t-151 106.5l114 154q41 -44 129.5 -79.5t157.5 -35.5q53 0 87 22.5t34 63.5zM461 1446l311 -275l-110 -139l-207 166l-209 -162l-107 138l314 272h8z" />
    <glyph glyph-name="Scedilla" unicode="&#x15e;" horiz-adv-x="1132" 
d="M279 -334l75 119q31 -26 74 -47t78 -21t57.5 14t22.5 38q0 57 -84 57h-13v156q-133 14 -244 72t-153 149l144 172q60 -78 150.5 -120t178.5 -42q92 0 150.5 44.5t58.5 123.5q0 50 -28 91t-73.5 68.5t-104 57t-119 54.5t-119 63t-104 82t-73.5 112t-28 152
q0 167 121.5 281t324.5 114q130 0 237.5 -40.5t172.5 -112.5l-135 -189q-56 55 -114 81t-140 26q-93 0 -147 -43.5t-54 -114.5q0 -60 36 -105.5t93 -76.5t126 -59.5t138.5 -64.5t126.5 -82t93 -120.5t36 -171.5q0 -168 -122 -278.5t-310 -124.5v-52q228 -11 228 -174
q0 -80 -72.5 -130t-200.5 -50q-166 0 -284 92z" />
    <glyph glyph-name="scedilla" unicode="&#x15f;" horiz-adv-x="909" 
d="M172 -340l70 111q69 -54 143 -54q35 0 57.5 14t22.5 38q0 57 -84 57h-12v162q-98 16 -181.5 60t-111.5 87l114 154q41 -44 129.5 -79.5t157.5 -35.5q53 0 87 22.5t34 63.5q0 30 -27.5 51.5t-71.5 36t-97 28.5t-106 35.5t-97 51.5t-71.5 81.5t-27.5 119.5q0 131 95 205.5
t243 74.5q121 0 209.5 -34.5t140.5 -82.5l-88 -168q-47 36 -114 62.5t-135 26.5q-52 0 -83.5 -24t-31.5 -56q0 -31 27.5 -53t71.5 -36t97 -28t106 -35t97 -49.5t71.5 -78.5t27.5 -116q0 -131 -94 -208.5t-253 -83.5v-52q104 -6 158.5 -51t54.5 -123q0 -81 -73.5 -130.5
t-208.5 -49.5q-60 0 -113 16t-76 30.5t-57 39.5z" />
    <glyph glyph-name="Scaron" unicode="&#x160;" horiz-adv-x="1132" 
d="M774 381q0 50 -28 91t-73.5 68.5t-104 57t-119 54.5t-119 63t-104 82t-73.5 112t-28 152q0 167 121.5 281t324.5 114q130 0 237.5 -40.5t172.5 -112.5l-135 -189q-56 55 -114 81t-140 26q-93 0 -147 -43.5t-54 -114.5q0 -60 36 -105.5t93 -76.5t126 -59.5t138.5 -64.5
t126.5 -82t93 -120.5t36 -171.5q0 -179 -137.5 -292.5t-341.5 -113.5q-147 0 -283 61t-186 165l144 172q60 -78 150.5 -120t178.5 -42q92 0 150.5 44.5t58.5 123.5zM571 1505l-366 228l92 133l278 -162l277 162l84 -131l-356 -230h-9z" />
    <glyph glyph-name="scaron" unicode="&#x161;" horiz-adv-x="909" 
d="M598 260q0 30 -27.5 51.5t-71.5 36t-97 28.5t-106 35.5t-97 51.5t-71.5 81.5t-27.5 119.5q0 131 95 205.5t243 74.5q121 0 209.5 -34.5t140.5 -82.5l-88 -168q-47 36 -114 62.5t-135 26.5q-52 0 -83.5 -24t-31.5 -56q0 -31 27.5 -53t71.5 -36t97 -28t106 -35t97 -49.5
t71.5 -78.5t27.5 -116q0 -136 -101.5 -215.5t-271.5 -79.5q-119 0 -234 51.5t-151 106.5l114 154q41 -44 129.5 -79.5t157.5 -35.5q53 0 87 22.5t34 63.5zM449 1042l-312 275l111 139l207 -188l209 184l106 -137l-313 -273h-8z" />
    <glyph glyph-name="uni0162" unicode="&#x162;" horiz-adv-x="1222" 
d="M344 -334l76 119q31 -26 73.5 -47t77.5 -21t57.5 14t22.5 38q0 57 -84 57h-12v174h-70v1198h-465v236h1182v-236h-465v-1198h-63v-72q227 -11 227 -174q0 -80 -72 -130t-200 -50q-167 0 -285 92z" />
    <glyph glyph-name="uni0163" unicode="&#x163;" horiz-adv-x="737" 
d="M111 -340l69 111q69 -54 144 -54q35 0 57 14t22 38q0 57 -84 57h-12v168q-97 28 -140.5 117t-43.5 239v828h235v-256h297v-222h-297v-335q0 -166 111 -166q71 0 141 53l72 -182q-44 -36 -111 -61.5t-145 -28.5v-52q104 -6 158.5 -51t54.5 -123q0 -81 -73.5 -130.5
t-209.5 -49.5q-46 0 -85 7.5t-71 23.5t-48 26t-41 29z" />
    <glyph glyph-name="Tcaron" unicode="&#x164;" horiz-adv-x="1222" 
d="M20 1198v236h1182v-236h-465v-1198h-252v1198h-465zM602 1505l-366 228l92 133l278 -162l277 162l84 -131l-357 -230h-8z" />
    <glyph glyph-name="tcaron" unicode="&#x165;" horiz-adv-x="737" 
d="M111 350v828h235v-256h297v-222h-297v-335q0 -166 111 -166q71 0 141 53l72 -182q-46 -38 -118 -64t-155 -26q-152 0 -219 93t-67 277zM514 1434h229q13 -26 13 -72q0 -132 -59 -220.5t-144 -135.5l-109 102q93 90 93 225q0 50 -23 101z" />
    <glyph glyph-name="Umacron" unicode="&#x16a;" horiz-adv-x="1538" 
d="M1358 1434v-840q0 -128 -30.5 -232t-83.5 -175t-125.5 -119t-155.5 -69.5t-175 -21.5q-135 0 -246 40t-192.5 117.5t-126.5 198.5t-45 275v826h252v-772q0 -209 89 -329t269 -120q320 0 320 432v789h250zM467 1556v189h633v-189h-633z" />
    <glyph glyph-name="umacron" unicode="&#x16b;" horiz-adv-x="1095" 
d="M965 922v-922h-236v113q-47 -59 -121.5 -97.5t-173.5 -38.5q-143 0 -233 96t-90 285v564h235v-514q0 -211 176 -211q58 0 112.5 29.5t94.5 82.5v613h236zM254 1126v189h571v-189h-571z" />
    <glyph glyph-name="Ubreve" unicode="&#x16c;" horiz-adv-x="1538" 
d="M1358 1434v-840q0 -128 -30.5 -232t-83.5 -175t-125.5 -119t-155.5 -69.5t-175 -21.5q-135 0 -246 40t-192.5 117.5t-126.5 198.5t-45 275v826h252v-772q0 -209 89 -329t269 -120q320 0 320 432v789h250zM377 1722l102 121q115 -129 293 -129q93 0 166 37t121 92l88 -123
q-55 -88 -156 -149.5t-219 -61.5q-130 0 -237 65t-158 148z" />
    <glyph glyph-name="ubreve" unicode="&#x16d;" horiz-adv-x="1095" 
d="M965 922v-922h-236v113q-47 -59 -121.5 -97.5t-173.5 -38.5q-143 0 -233 96t-90 285v564h235v-514q0 -211 176 -211q58 0 112.5 29.5t94.5 82.5v613h236zM217 1278l105 117q29 -32 52.5 -52.5t71.5 -41.5t101 -21q72 0 132 33t97 80l82 -115q-25 -37 -50 -65t-64 -58.5
t-91.5 -47.5t-115.5 -17t-119 19.5t-95 51.5t-64 60.5t-42 56.5z" />
    <glyph glyph-name="Uring" unicode="&#x16e;" horiz-adv-x="1538" 
d="M1358 1434v-840q0 -128 -30.5 -232t-83.5 -175t-125.5 -119t-155.5 -69.5t-175 -21.5q-135 0 -246 40t-192.5 117.5t-126.5 198.5t-45 275v826h252v-772q0 -209 89 -329t269 -120q320 0 320 432v789h250zM483 1638q0 110 79.5 166t205.5 56q129 0 211 -56t82 -166
q0 -108 -82.5 -166.5t-210.5 -58.5q-124 0 -204.5 58.5t-80.5 166.5zM657 1638q0 -47 31.5 -71.5t81.5 -24.5q52 0 84.5 24.5t32.5 71.5t-32 70t-85 23q-51 0 -82 -23t-31 -70z" />
    <glyph glyph-name="uring" unicode="&#x16f;" horiz-adv-x="1095" 
d="M965 922v-922h-236v113q-47 -59 -121.5 -97.5t-173.5 -38.5q-143 0 -233 96t-90 285v564h235v-514q0 -211 176 -211q58 0 112.5 29.5t94.5 82.5v613h236zM281 1253q0 103 73.5 174.5t184.5 71.5q113 0 187.5 -71.5t74.5 -174.5q0 -101 -74.5 -171t-187.5 -70
q-111 0 -184.5 70t-73.5 171zM432 1255q0 -48 31 -82t80 -34q46 0 76 34t30 82t-30 81.5t-76 33.5q-49 0 -80 -33.5t-31 -81.5z" />
    <glyph glyph-name="Uhungarumlaut" unicode="&#x170;" horiz-adv-x="1538" 
d="M1358 1434v-840q0 -128 -30.5 -232t-83.5 -175t-125.5 -119t-155.5 -69.5t-175 -21.5q-135 0 -246 40t-192.5 117.5t-126.5 198.5t-45 275v826h252v-772q0 -209 89 -329t269 -120q320 0 320 432v789h250zM1290 1718l-391 -221l-96 100l323 269zM866 1761l-336 -264
l-100 94l234 275z" />
    <glyph glyph-name="uhungarumlaut" unicode="&#x171;" horiz-adv-x="1095" 
d="M965 922v-922h-236v113q-47 -59 -121.5 -97.5t-173.5 -38.5q-143 0 -233 96t-90 285v564h235v-514q0 -211 176 -211q58 0 112.5 29.5t94.5 82.5v613h236zM985 1343l-270 -284l-142 98l238 320zM614 1372l-233 -313l-141 98l206 340z" />
    <glyph glyph-name="Uogonek" unicode="&#x172;" horiz-adv-x="1538" 
d="M1358 1434v-840q0 -250 -107 -398.5t-284 -195.5q-140 -65 -140 -139q0 -42 28.5 -62t64.5 -20q42 0 86 20l71 -143q-27 -27 -87 -46.5t-124 -19.5q-116 0 -195 48t-79 145q0 120 162 194q-128 5 -233 47.5t-181.5 119.5t-119 195.5t-42.5 268.5v826h252v-772
q0 -209 89 -329t269 -120q320 0 320 432v789h250z" />
    <glyph glyph-name="uogonek" unicode="&#x173;" horiz-adv-x="1095" 
d="M920 -201l71 -143q-27 -27 -87 -46.5t-124 -19.5q-116 0 -195 48t-79 145q0 80 61 136.5t162 86.5v107q-47 -59 -121.5 -97.5t-173.5 -38.5q-143 0 -233 96t-90 285v564h235v-514q0 -211 176 -211q58 0 112.5 29.5t94.5 82.5v613h236v-922h-11q-87 -1 -150 -44t-63 -95
q0 -42 28.5 -62t64.5 -20q42 0 86 20z" />
    <glyph glyph-name="Ydieresis" unicode="&#x178;" horiz-adv-x="1288" 
d="M1278 1434l-510 -836v-598h-252v598l-506 836h287l356 -600l353 600h272zM254 1690q0 58 45.5 92.5t112.5 34.5q59 0 102 -35t43 -92q0 -63 -43 -99.5t-102 -36.5q-68 0 -113 36t-45 100zM729 1690q0 58 45.5 92.5t112.5 34.5q60 0 102.5 -34.5t42.5 -92.5
q0 -63 -42.5 -99.5t-102.5 -36.5q-67 0 -112.5 36t-45.5 100z" />
    <glyph glyph-name="Zacute" unicode="&#x179;" horiz-adv-x="1314" 
d="M123 1198v236h1089v-174l-794 -1024h815v-236h-1151v172l792 1026h-751zM1028 1663l-461 -166l-65 141l438 228z" />
    <glyph glyph-name="zacute" unicode="&#x17a;" horiz-adv-x="1003" 
d="M117 700v222h798v-170l-499 -533h489v-219h-819v170l500 530h-469zM760 1356l-258 -297l-142 98l215 338z" />
    <glyph glyph-name="Zdotaccent" unicode="&#x17b;" horiz-adv-x="1314" 
d="M123 1198v236h1089v-174l-794 -1024h815v-236h-1151v172l792 1026h-751zM506 1702q0 65 47.5 105t114.5 40q62 0 107.5 -40t45.5 -105q0 -70 -45.5 -112t-107.5 -42q-68 0 -115 41.5t-47 112.5z" />
    <glyph glyph-name="zdotaccent" unicode="&#x17c;" horiz-adv-x="1003" 
d="M117 700v222h798v-170l-499 -533h489v-219h-819v170l500 530h-469zM354 1253q0 61 43 99.5t105 38.5q54 0 94.5 -38.5t40.5 -99.5q0 -67 -40.5 -107t-94.5 -40q-63 0 -105.5 39.5t-42.5 107.5z" />
    <glyph glyph-name="Zcaron" unicode="&#x17d;" horiz-adv-x="1314" 
d="M123 1198v236h1089v-174l-794 -1024h815v-236h-1151v172l792 1026h-751zM670 1505l-367 228l92 133l279 -162l276 162l84 -131l-356 -230h-8z" />
    <glyph glyph-name="zcaron" unicode="&#x17e;" horiz-adv-x="1003" 
d="M117 700v222h798v-170l-499 -533h489v-219h-819v170l500 530h-469zM512 1042l-311 275l110 139l207 -188l209 184l107 -137l-314 -273h-8z" />
    <glyph glyph-name="longs" unicode="&#x17f;" horiz-adv-x="528" 
d="M141 0v1071q0 189 86 287t242 98q81 0 151.5 -24t106.5 -62l-80 -180q-45 45 -135 45q-63 0 -99 -45t-36 -137v-1053h-236z" />
    <glyph glyph-name="uni018F" unicode="&#x18f;" horiz-adv-x="1599" 
d="M96 848h1139q-37 176 -172 274.5t-336 98.5q-189 0 -338 -111l-96 188q81 70 209 114t284 44q157 0 290.5 -53t228.5 -148t148.5 -233t53.5 -303q0 -222 -89.5 -390.5t-254 -260t-381.5 -91.5q-164 0 -300 61t-229 171.5t-135.5 275.5t-21.5 363zM778 213
q191 0 313 103.5t154 295.5h-889q13 -168 126 -283.5t296 -115.5z" />
    <glyph glyph-name="florin" unicode="&#x192;" 
d="M825 1053l-22 -131h235v-222h-274l-135 -768q-17 -90 -39.5 -152t-59 -110.5t-91.5 -72t-130 -23.5q-70 0 -132 19t-93 47l63 186q54 -33 107 -33q109 0 139 162l131 745h-239v222h278l27 149q38 202 116 293.5t228 91.5q81 0 150.5 -24t105.5 -62l-80 -180
q-45 45 -135 45q-60 0 -96.5 -43.5t-53.5 -138.5z" />
    <glyph glyph-name="uni01DD" unicode="&#x1dd;" horiz-adv-x="1056" 
d="M211 664l-66 165q67 57 161.5 86t195.5 29q221 0 351 -131.5t130 -351.5q0 -137 -51.5 -244.5t-159 -173.5t-256.5 -66q-197 0 -327 119t-130 310q0 78 15 131h676q-17 97 -90.5 154t-182.5 57q-79 0 -150 -24t-116 -60zM518 174q102 0 162.5 54.5t75.5 150.5h-453
q-2 -91 56 -148t159 -57z" />
    <glyph glyph-name="uni0218" unicode="&#x218;" horiz-adv-x="1132" 
d="M774 381q0 50 -28 91t-73.5 68.5t-104 57t-119 54.5t-119 63t-104 82t-73.5 112t-28 152q0 167 121.5 281t324.5 114q130 0 237.5 -40.5t172.5 -112.5l-135 -189q-56 55 -114 81t-140 26q-93 0 -147 -43.5t-54 -114.5q0 -60 36 -105.5t93 -76.5t126 -59.5t138.5 -64.5
t126.5 -82t93 -120.5t36 -171.5q0 -179 -137.5 -292.5t-341.5 -113.5q-147 0 -283 61t-186 165l144 172q60 -78 150.5 -120t178.5 -42q92 0 150.5 44.5t58.5 123.5zM453 -119l229 51q41 -25 41 -100q0 -101 -78 -170t-176 -84l-70 103q50 21 69 50t19 72q0 54 -34 78z" />
    <glyph glyph-name="uni0219" unicode="&#x219;" horiz-adv-x="909" 
d="M598 260q0 30 -27.5 51.5t-71.5 36t-97 28.5t-106 35.5t-97 51.5t-71.5 81.5t-27.5 119.5q0 131 95 205.5t243 74.5q121 0 209.5 -34.5t140.5 -82.5l-88 -168q-47 36 -114 62.5t-135 26.5q-52 0 -83.5 -24t-31.5 -56q0 -31 27.5 -53t71.5 -36t97 -28t106 -35t97 -49.5
t71.5 -78.5t27.5 -116q0 -136 -101.5 -215.5t-271.5 -79.5q-119 0 -234 51.5t-151 106.5l114 154q41 -44 129.5 -79.5t157.5 -35.5q53 0 87 22.5t34 63.5zM332 -119l229 51q41 -25 41 -100q0 -101 -78 -170t-176 -84l-69 103q50 21 69 50t19 72q0 53 -35 78z" />
    <glyph glyph-name="uni021A" unicode="&#x21a;" horiz-adv-x="1222" 
d="M20 1198v236h1182v-236h-465v-1198h-252v1198h-465zM469 -119l229 51q41 -25 41 -100q0 -101 -78 -170t-176 -84l-69 103q50 21 69 50t19 72q0 53 -35 78z" />
    <glyph glyph-name="uni021B" unicode="&#x21b;" horiz-adv-x="737" 
d="M111 350v828h235v-256h297v-222h-297v-335q0 -166 111 -166q71 0 141 53l72 -182q-46 -38 -118 -64t-155 -26q-152 0 -219 93t-67 277zM225 -119l230 51q41 -25 41 -100q0 -101 -78 -170t-176 -84l-70 103q50 21 69 50t19 72q0 53 -35 78z" />
    <glyph glyph-name="uni0237" unicode="&#x237;" horiz-adv-x="581" 
d="M414 922v-990q0 -358 -289 -358q-70 0 -132 19t-93 47l63 186q54 -33 105 -33q110 0 110 160v969h236z" />
    <glyph glyph-name="uni0259" unicode="&#x259;" horiz-adv-x="1056" 
d="M211 664l-66 165q67 57 161.5 86t195.5 29q221 0 351 -131.5t130 -351.5q0 -137 -51.5 -244.5t-159 -173.5t-256.5 -66q-197 0 -327 119t-130 310q0 78 15 131h676q-17 97 -90.5 154t-182.5 57q-79 0 -150 -24t-116 -60zM518 174q102 0 162.5 54.5t75.5 150.5h-453
q-2 -91 56 -148t159 -57z" />
    <glyph glyph-name="uni02BC" unicode="&#x2bc;" horiz-adv-x="559" 
d="M168 1286l199 117q32 -33 50.5 -86t18.5 -105q0 -68 -19 -127.5t-51 -102.5t-65.5 -72.5t-69.5 -49.5l-108 101q44 37 68 89t24 109q0 80 -47 127z" />
    <glyph glyph-name="circumflex" unicode="&#x2c6;" horiz-adv-x="878" 
d="M444 1446l312 -275l-111 -139l-207 166l-209 -162l-106 138l313 272h8z" />
    <glyph glyph-name="caron" unicode="&#x2c7;" horiz-adv-x="878" 
d="M434 1042l-311 275l110 139l207 -188l209 184l107 -137l-314 -273h-8z" />
    <glyph glyph-name="breve" unicode="&#x2d8;" horiz-adv-x="886" 
d="M123 1278l104 117q29 -32 53 -52.5t72 -41.5t101 -21q72 0 132 33t97 80l82 -115q-25 -37 -50 -65t-64 -58.5t-92 -47.5t-116 -17q-51 0 -98 14t-80.5 34t-63 47t-47 49t-30.5 44z" />
    <glyph glyph-name="dotaccent" unicode="&#x2d9;" horiz-adv-x="528" 
d="M123 1253q0 61 42.5 99.5t104.5 38.5q54 0 95 -38.5t41 -99.5q0 -67 -41 -107t-95 -40q-63 0 -105 39.5t-42 107.5z" />
    <glyph glyph-name="ring" unicode="&#x2da;" horiz-adv-x="765" 
d="M123 1253q0 103 73.5 174.5t184.5 71.5q113 0 187.5 -71.5t74.5 -174.5q0 -101 -74.5 -171t-187.5 -70q-111 0 -184.5 70t-73.5 171zM274 1255q0 -48 31 -82t80 -34q46 0 76.5 34t30.5 82t-30.5 81.5t-76.5 33.5q-49 0 -80 -33.5t-31 -81.5z" />
    <glyph glyph-name="ogonek" unicode="&#x2db;" horiz-adv-x="731" 
d="M537 -201l71 -143q-27 -27 -87 -46.5t-124 -19.5q-116 0 -195 48t-79 145q0 64 42 115t110 81t147 46t160 16v-41q-91 0 -157.5 -42.5t-66.5 -96.5q0 -42 28.5 -62t64.5 -20q42 0 86 20z" />
    <glyph glyph-name="tilde" unicode="&#x2dc;" horiz-adv-x="950" 
d="M219 1102l-96 106q113 142 248 142q40 0 81.5 -21.5t80 -43t73.5 -21.5q29 0 53.5 8.5t40 19t48.5 35.5l79 -119q-120 -133 -239 -133q-45 0 -119.5 42t-120.5 42q-48 0 -129 -57z" />
    <glyph glyph-name="hungarumlaut" unicode="&#x2dd;" horiz-adv-x="991" 
d="M868 1343l-270 -284l-141 98l237 320zM498 1372l-234 -313l-141 98l207 340z" />
    <glyph glyph-name="gravecomb" unicode="&#x300;" horiz-adv-x="0" 
d="M-547 1059l-260 293l186 139l213 -334z" />
    <glyph glyph-name="acutecomb" unicode="&#x301;" horiz-adv-x="0" 
d="M-236 1356l-258 -297l-141 98l215 338z" />
    <glyph glyph-name="Delta" unicode="&#x394;" horiz-adv-x="1517" 
d="M51 0l621 1450h159l635 -1450h-1415zM745 1028l-329 -792h676z" />
    <glyph glyph-name="Delta" unicode="&#x2206;" horiz-adv-x="1517" 
d="M51 0l621 1450h159l635 -1450h-1415zM745 1028l-329 -792h676z" />
    <glyph glyph-name="uni03A9" unicode="&#x3a9;" horiz-adv-x="1685" 
d="M111 0v236h321q-76 24 -147.5 97t-121.5 192.5t-50 252.5q0 203 98 359t263.5 237.5t369.5 81.5q155 0 289.5 -48t232 -134.5t153.5 -214.5t56 -281q0 -107 -30 -203t-78.5 -163t-103.5 -112t-110 -64h320v-236h-641v236q113 31 200 108t132 179.5t45 213.5
q0 128 -54.5 237t-162.5 178t-248 69q-147 0 -254.5 -69.5t-159 -179t-51.5 -241.5q0 -100 42.5 -201t130.5 -184t202 -110v-236h-643z" />
    <glyph glyph-name="uni03A9" unicode="&#x2126;" horiz-adv-x="1685" 
d="M111 0v236h321q-76 24 -147.5 97t-121.5 192.5t-50 252.5q0 203 98 359t263.5 237.5t369.5 81.5q155 0 289.5 -48t232 -134.5t153.5 -214.5t56 -281q0 -107 -30 -203t-78.5 -163t-103.5 -112t-110 -64h320v-236h-641v236q113 31 200 108t132 179.5t45 213.5
q0 128 -54.5 237t-162.5 178t-248 69q-147 0 -254.5 -69.5t-159 -179t-51.5 -241.5q0 -100 42.5 -201t130.5 -184t202 -110v-236h-643z" />
    <glyph glyph-name="pi" unicode="&#x3c0;" horiz-adv-x="1284" 
d="M86 700v222h1094v-222h-158v-360q0 -73 16.5 -106t51.5 -33q37 0 94 37l49 -181q-95 -77 -242 -77q-205 0 -205 264v456h-297v-92q0 -150 -18 -259t-50 -180t-85 -112.5t-115.5 -58t-148.5 -16.5l-21 229q32 -2 59 5.5t53.5 31t45 63.5t31 106.5t14.5 155.5l2 127h-170z
" />
    <glyph glyph-name="uni0401" unicode="&#x401;" horiz-adv-x="1177" 
d="M199 0v1434h829v-236h-577v-356h516v-236h-516v-370h598v-236h-850zM244 1690q0 58 45 92.5t112 34.5q59 0 102.5 -35t43.5 -92q0 -63 -43.5 -99.5t-102.5 -36.5q-67 0 -112 36t-45 100zM719 1690q0 58 45.5 92.5t112.5 34.5q60 0 102.5 -34.5t42.5 -92.5
q0 -63 -42.5 -99.5t-102.5 -36.5q-67 0 -112.5 36t-45.5 100z" />
    <glyph glyph-name="uni0402" unicode="&#x402;" horiz-adv-x="1564" 
d="M1473 416q0 -218 -97.5 -328.5t-269.5 -110.5q-77 0 -146.5 28t-97.5 61l84 192q59 -45 127 -45q71 0 110.5 48.5t39.5 150.5q0 115 -58.5 167t-169.5 52q-133 0 -258 -76v-555h-252v1198h-465v236h1182v-236h-465v-414q136 82 305 82q74 0 136.5 -13.5t118 -46t93.5 -83
t60.5 -128.5t22.5 -179z" />
    <glyph glyph-name="uni0403" unicode="&#x403;" horiz-adv-x="1038" 
d="M199 0v1434h809v-236h-557v-1198h-252zM1042 1663l-460 -166l-66 141l438 228z" />
    <glyph glyph-name="uni0404" unicode="&#x404;" horiz-adv-x="1378" 
d="M995 848v-236h-645q16 -98 64.5 -175.5t118.5 -125.5t155 -73t180 -25q202 0 363 125l92 -211q-78 -67 -204 -108.5t-271 -41.5q-346 0 -551 199.5t-205 540.5q0 216 92 384.5t256 261.5t373 93q156 0 284.5 -44.5t209.5 -113.5l-113 -188q-146 111 -336 111
q-202 0 -334.5 -98t-169.5 -275h641z" />
    <glyph glyph-name="uni0405" unicode="&#x405;" horiz-adv-x="1132" 
d="M774 381q0 50 -28 91t-73.5 68.5t-104 57t-119 54.5t-119 63t-104 82t-73.5 112t-28 152q0 167 121.5 281t324.5 114q130 0 237.5 -40.5t172.5 -112.5l-135 -189q-56 55 -114 81t-140 26q-93 0 -147 -43.5t-54 -114.5q0 -60 36 -105.5t93 -76.5t126 -59.5t138.5 -64.5
t126.5 -82t93 -120.5t36 -171.5q0 -179 -137.5 -292.5t-341.5 -113.5q-147 0 -283 61t-186 165l144 172q60 -78 150.5 -120t178.5 -42q92 0 150.5 44.5t58.5 123.5z" />
    <glyph glyph-name="uni0406" unicode="&#x406;" horiz-adv-x="710" 
d="M229 0v1434h252v-1434h-252z" />
    <glyph glyph-name="uni0407" unicode="&#x407;" horiz-adv-x="710" 
d="M53 1690q0 57 39 92t96 35q53 0 91 -35t38 -92q0 -63 -37.5 -99.5t-91.5 -36.5q-58 0 -96.5 36t-38.5 100zM395 1690q0 57 39.5 92t97.5 35q52 0 89.5 -35.5t37.5 -91.5q0 -63 -37.5 -99.5t-89.5 -36.5q-59 0 -98 36t-39 100zM229 0v1434h252v-1434h-252z" />
    <glyph glyph-name="uni0408" unicode="&#x408;" horiz-adv-x="798" 
d="M600 1434v-1096q0 -174 -87 -267.5t-259 -93.5q-77 0 -145.5 27t-98.5 62l82 192q59 -45 127 -45q129 0 129 168v1053h252z" />
    <glyph glyph-name="uni0409" unicode="&#x409;" horiz-adv-x="2070" 
d="M1044 0v1198h-417l-29 -270q-25 -246 -63.5 -420.5t-85.5 -279t-112 -159.5t-133 -68.5t-159 -0.5l6 250q19 0 38 -1.5t39.5 9.5t40.5 26t40.5 49.5t39 79t36.5 114.5t33 156.5t29 204.5t24 259l20 287h903v-492q79 10 158 10q260 0 393 -123t133 -340
q0 -231 -152.5 -362t-426.5 -131q-75 0 -198 2t-157 2zM1432 717q-46 0 -138 -10v-469q11 -1 57.5 -4t75.5 -3q139 0 212 63.5t73 188.5q0 114 -73 174t-207 60z" />
    <glyph glyph-name="uni040A" unicode="&#x40a;" horiz-adv-x="2113" 
d="M199 0v1434h252v-537h634v537h250v-527q88 8 160 8q260 0 393 -119t133 -325q0 -219 -153 -347t-426 -128q-75 0 -198 2t-157 2h-2v662h-634v-662h-252zM1335 670v-432q13 -1 60 -4t75 -3q139 0 212 59.5t73 174.5q0 104 -73.5 159.5t-206.5 55.5q-69 0 -140 -10z" />
    <glyph glyph-name="uni040B" unicode="&#x40b;" horiz-adv-x="1566" 
d="M20 1198v236h1182v-236h-465v-414q130 82 307 82q68 0 128.5 -14.5t116.5 -48.5t97 -85.5t65 -130t24 -177.5v-410h-250v336q0 161 -65.5 228t-180.5 67q-122 0 -242 -78v-553h-252v1198h-465z" />
    <glyph glyph-name="uni040C" unicode="&#x40c;" horiz-adv-x="1376" 
d="M199 0v1434h252v-680l565 680h303l-590 -668l627 -766h-320l-585 739v-739h-252zM1135 1663l-461 -166l-66 141l439 228z" />
    <glyph glyph-name="uni040E" unicode="&#x40e;" horiz-adv-x="1398" 
d="M1374 1434l-487 -1100q-76 -170 -167.5 -252t-221.5 -82q-54 0 -110.5 16.5t-86.5 40.5l88 213q49 -34 107 -34q93 0 141 100l20 49l-632 1049h284l469 -801l342 801h254zM319 1782h236q24 -119 174 -119q153 0 164 119h235q-4 -131 -116.5 -212t-282.5 -81
q-182 0 -290.5 80t-119.5 213z" />
    <glyph glyph-name="uni040F" unicode="&#x40f;" horiz-adv-x="1519" 
d="M199 0v1434h252v-1198h618v1198h252v-1434h-444v-313h-236v313h-442z" />
    <glyph glyph-name="uni0410" unicode="&#x410;" horiz-adv-x="1464" 
d="M14 0l607 1438h221l606 -1438h-268l-150 367h-612l-150 -367h-254zM725 1112l-211 -510h420z" />
    <glyph glyph-name="uni0411" unicode="&#x411;" horiz-adv-x="1257" 
d="M199 0v1434h837v-236h-585v-319q83 12 192 12q223 0 352 -116.5t129 -315.5q0 -223 -144.5 -345t-408.5 -122q-93 0 -216.5 4t-155.5 4zM623 655q-77 0 -172 -12v-407q128 -9 159 -9q134 0 199 56.5t65 156.5q0 98 -62.5 156.5t-188.5 58.5z" />
    <glyph glyph-name="uni0412" unicode="&#x412;" horiz-adv-x="1263" 
d="M199 2v1428q200 10 413 10q125 0 217.5 -27t147 -76t80.5 -112t26 -140q0 -230 -204 -325v-4q112 -28 181.5 -113t69.5 -221q0 -108 -40 -191t-112.5 -135t-168 -78t-211.5 -26q-259 0 -399 10zM629 616h-178v-378q96 -11 165 -11q128 0 195.5 53t67.5 154q0 90 -65 136
t-185 46zM608 1204q-90 0 -157 -6v-362h170q93 0 153 48t60 142q0 86 -61 132t-165 46z" />
    <glyph glyph-name="uni0413" unicode="&#x413;" horiz-adv-x="1038" 
d="M199 0v1434h809v-236h-557v-1198h-252z" />
    <glyph glyph-name="uni0414" unicode="&#x414;" horiz-adv-x="1548" 
d="M25 -256v492h153q26 32 57 101t66 178.5t62 276.5t36 355l15 287h889v-1198h194v-492h-235v256h-1002v-256h-235zM635 948q-18 -251 -75.5 -452.5t-104.5 -259.5h598v962h-396z" />
    <glyph glyph-name="uni0415" unicode="&#x415;" horiz-adv-x="1177" 
d="M199 0v1434h829v-236h-577v-356h516v-236h-516v-370h598v-236h-850z" />
    <glyph glyph-name="uni0416" unicode="&#x416;" horiz-adv-x="1953" 
d="M582 748l-539 686h289l520 -684v684h250v-684l518 684h291l-539 -684l561 -750h-291l-540 743v-743h-250v743l-543 -743h-289z" />
    <glyph glyph-name="uni0417" unicode="&#x417;" horiz-adv-x="1198" 
d="M563 -23q-120 0 -222.5 38t-164.5 89.5t-104 114.5l137 170q68 -77 162 -126.5t180 -49.5q111 0 187.5 54.5t76.5 158.5q0 87 -65.5 137.5t-188.5 50.5h-147v236h139q84 0 145.5 51.5t61.5 136.5q0 89 -58 136t-151 47q-173 0 -291 -156l-145 168q72 101 196 162t269 61
q194 0 312 -103.5t118 -289.5q0 -89 -49 -174t-144 -141v-7q124 -31 186 -121t62 -219q0 -127 -72 -225.5t-185 -148.5t-245 -50z" />
    <glyph glyph-name="uni0418" unicode="&#x418;" horiz-adv-x="1622" 
d="M420 0h-221v1434h252v-1020l751 1020h221v-1434h-252v1018z" />
    <glyph glyph-name="uni0419" unicode="&#x419;" horiz-adv-x="1622" 
d="M420 0h-221v1434h252v-1020l751 1020h221v-1434h-252v1018zM426 1782h236q24 -119 174 -119q152 0 163 119h236q-4 -131 -116.5 -212t-282.5 -81q-182 0 -290.5 80t-119.5 213z" />
    <glyph glyph-name="uni041A" unicode="&#x41a;" horiz-adv-x="1376" 
d="M199 0v1434h252v-680l565 680h303l-590 -668l627 -766h-320l-585 739v-739h-252z" />
    <glyph glyph-name="uni041B" unicode="&#x41b;" horiz-adv-x="1492" 
d="M1044 0v1198h-417l-29 -270q-25 -246 -63.5 -420.5t-85.5 -279t-112 -159.5t-133 -68.5t-159 -0.5l6 250q19 0 38 -1.5t39.5 9.5t40.5 26t40.5 49.5t39 79t36.5 114.5t33 156.5t29 204.5t24 259l20 287h903v-1434h-250z" />
    <glyph glyph-name="uni041C" unicode="&#x41c;" horiz-adv-x="1845" 
d="M199 0v1434h254l489 -670l467 670h238v-1434h-250v1036l-453 -637h-37l-456 631v-1030h-252z" />
    <glyph glyph-name="uni041D" unicode="&#x41d;" horiz-adv-x="1554" 
d="M1106 0v612h-655v-612h-252v1434h252v-586h655v586h250v-1434h-250z" />
    <glyph glyph-name="uni041E" unicode="&#x41e;" horiz-adv-x="1677" 
d="M92 717q0 154 55 290.5t152.5 235.5t237 156t301.5 57q212 0 381.5 -91t267.5 -260t98 -388q0 -212 -97.5 -381.5t-268 -264t-381.5 -94.5q-212 0 -381.5 91t-267 260.5t-97.5 388.5zM358 717q0 -214 139 -359t341 -145q220 0 350.5 143t130.5 361q0 220 -138 362
t-343 142q-207 0 -343.5 -141.5t-136.5 -362.5z" />
    <glyph glyph-name="uni041F" unicode="&#x41f;" horiz-adv-x="1540" 
d="M1090 0v1198h-639v-1198h-252v1434h1142v-1434h-251z" />
    <glyph glyph-name="uni0420" unicode="&#x420;" horiz-adv-x="1253" 
d="M451 0h-252v1434q38 0 196.5 2t210.5 2q123 0 219.5 -25.5t158.5 -68.5t102.5 -103t57.5 -125t17 -139q0 -93 -34.5 -176t-98.5 -148t-165.5 -103t-225.5 -38q-125 0 -186 6v-518zM631 1202q-44 0 -180 -4v-440q98 -10 178 -10q119 0 192.5 58t73.5 173q0 223 -264 223z
" />
    <glyph glyph-name="uni0421" unicode="&#x421;" horiz-adv-x="1341" 
d="M1194 328l96 -189q-68 -72 -194 -117t-265 -45q-217 0 -385 91.5t-261 260t-93 388.5q0 155 48.5 289t139.5 234.5t231.5 158t313.5 57.5q136 0 250 -39t187 -106l-113 -187q-146 97 -324 97q-204 0 -335.5 -137.5t-131.5 -366.5q0 -224 138 -364t358 -140q192 0 340 115
z" />
    <glyph glyph-name="uni0422" unicode="&#x422;" horiz-adv-x="1222" 
d="M20 1198v236h1182v-236h-465v-1198h-252v1198h-465z" />
    <glyph glyph-name="uni0423" unicode="&#x423;" horiz-adv-x="1398" 
d="M1374 1434l-487 -1100q-76 -170 -167.5 -252t-221.5 -82q-54 0 -110.5 16.5t-86.5 40.5l88 213q49 -34 107 -34q93 0 141 100l20 49l-632 1049h284l469 -801l342 801h254z" />
    <glyph glyph-name="uni0424" unicode="&#x424;" horiz-adv-x="1718" 
d="M733 -16v190q-302 0 -481.5 148t-179.5 415q0 263 180 410.5t481 152.5v150h252v-150q299 -5 480.5 -154.5t181.5 -408.5q0 -176 -84.5 -304t-233 -193t-344.5 -66v-190h-252zM1380 737q0 150 -100 239.5t-295 92.5v-663q395 3 395 331zM338 737q0 -160 102.5 -244.5
t292.5 -86.5v663q-192 -1 -293.5 -91t-101.5 -241z" />
    <glyph glyph-name="uni0425" unicode="&#x425;" horiz-adv-x="1370" 
d="M1331 1434l-483 -703l502 -731h-295l-371 539l-369 -539h-295l502 731l-479 703h295l352 -519l346 519h295z" />
    <glyph glyph-name="uni0426" unicode="&#x426;" horiz-adv-x="1576" 
d="M199 0v1434h252v-1198h628v1198h252v-1198h195v-492h-236v256h-1091z" />
    <glyph glyph-name="uni0427" unicode="&#x427;" horiz-adv-x="1366" 
d="M1167 1434v-1434h-252v588q-58 -42 -146.5 -70.5t-195.5 -28.5q-86 0 -160.5 24.5t-138 76t-100.5 143.5t-37 215v486h252v-414q0 -295 252 -295q139 0 274 92v617h252z" />
    <glyph glyph-name="uni0428" unicode="&#x428;" horiz-adv-x="2041" 
d="M199 0v1434h252v-1198h444v1198h252v-1198h444v1198h252v-1434h-1644z" />
    <glyph glyph-name="uni0429" unicode="&#x429;" horiz-adv-x="2088" 
d="M199 0v1434h252v-1198h444v1198h252v-1198h444v1198h252v-1198h195v-492h-236v256h-1603z" />
    <glyph glyph-name="uni042A" unicode="&#x42a;" horiz-adv-x="1378" 
d="M14 1198v236h566v-492q82 10 165 10q271 0 406 -122.5t135 -340.5q0 -230 -156 -361.5t-440 -131.5q-74 0 -199 2t-161 2v1198h-316zM725 717q-50 0 -145 -10v-469q11 0 61.5 -3.5t79.5 -3.5q143 0 221 62t78 190q0 118 -79 176t-216 58z" />
    <glyph glyph-name="uni042B" unicode="&#x42b;" horiz-adv-x="1769" 
d="M1321 0v1434h250v-1434h-250zM590 717q-44 0 -139 -10v-469q11 0 58.5 -3.5t76.5 -3.5q139 0 210.5 63.5t71.5 188.5q0 114 -72.5 174t-205.5 60zM451 1434v-492q79 10 159 10q259 0 392 -123t133 -340q0 -229 -153.5 -361t-426.5 -132q-74 0 -197 2t-159 2v1434h252z
" />
    <glyph glyph-name="uni042C" unicode="&#x42c;" horiz-adv-x="1247" 
d="M594 717q-48 0 -143 -10v-469q9 0 59.5 -3.5t79.5 -3.5q143 0 221 62t78 190q0 118 -79 176t-216 58zM451 1434v-492q79 10 163 10q271 0 406 -122.5t135 -340.5q0 -230 -155.5 -361.5t-438.5 -131.5q-75 0 -201 2t-161 2v1434h252z" />
    <glyph glyph-name="uni042D" unicode="&#x42d;" horiz-adv-x="1378" 
d="M383 612v236h639q-36 178 -173.5 275.5t-342.5 97.5q-190 0 -336 -111l-98 188q81 70 209 114t284 44q157 0 290.5 -53t228.5 -148t148.5 -233t53.5 -303q0 -338 -203 -540t-546 -202q-145 0 -275 41.5t-207 108.5l109 211q161 -125 368 -125q125 0 228 44t175 135.5
t93 219.5h-645z" />
    <glyph glyph-name="uni042E" unicode="&#x42e;" horiz-adv-x="2213" 
d="M199 0v1434h252v-586h243q41 268 231 438t470 170q158 0 293 -53t230.5 -148.5t149.5 -234t54 -303.5q0 -213 -92.5 -381.5t-258.5 -263.5t-376 -95q-182 0 -334 77.5t-250.5 222.5t-120.5 335h-239v-612h-252zM950 717q0 -214 131.5 -359t321.5 -145q146 0 250 68
t153 180t49 256q0 223 -125 363.5t-327 140.5q-195 0 -324 -141.5t-129 -362.5z" />
    <glyph glyph-name="uni042F" unicode="&#x42f;" horiz-adv-x="1294" 
d="M846 0v496h-207l-322 -496h-282l366 547q-110 56 -180.5 156.5t-70.5 240.5q0 102 34 189.5t103 157t184.5 109.5t267.5 40q47 0 181.5 -3t175.5 -3v-1434h-250zM616 731h230v467q-105 6 -158 6q-123 0 -197.5 -67.5t-74.5 -175.5q0 -91 58.5 -152.5t141.5 -77.5z" />
    <glyph glyph-name="uni0430" unicode="&#x430;" horiz-adv-x="948" 
d="M203 684l-60 172q64 38 152 63t174 25q197 0 283 -96t86 -287v-561h-205v106q-38 -54 -109.5 -86t-163.5 -32q-129 0 -208.5 75.5t-79.5 206.5q0 146 94.5 222.5t241.5 76.5q60 0 116.5 -16.5t91.5 -42.5q5 121 -34 179.5t-138 58.5q-49 0 -97.5 -11.5t-71 -20.5
t-72.5 -32zM438 186q119 0 178 84v95q-60 45 -161 45q-63 0 -105.5 -29.5t-42.5 -85.5q0 -51 37 -80t94 -29z" />
    <glyph glyph-name="uni0431" unicode="&#x431;" horiz-adv-x="1122" 
d="M823 1456l123 -192q-42 -49 -97 -77t-103.5 -37t-119 -27t-126.5 -46q-173 -80 -199 -344h4q43 75 133 123.5t191 48.5q191 0 305.5 -122.5t114.5 -329.5q0 -129 -59.5 -237t-171 -173.5t-253.5 -65.5q-231 0 -365 157.5t-134 426.5q0 592 348 742q79 33 168.5 50.5
t144 35.5t96.5 67zM317 512q2 -137 67 -226t175 -89q109 0 173.5 70.5t64.5 174.5q0 107 -59.5 175.5t-168.5 68.5q-94 0 -160.5 -49.5t-91.5 -124.5z" />
    <glyph glyph-name="uni0432" unicode="&#x432;" horiz-adv-x="1028" 
d="M131 0v922q25 1 92 3.5t137.5 4.5t133.5 2q417 0 417 -242q0 -81 -50 -137.5t-122 -67.5v-4q96 -23 146.5 -78t50.5 -135q0 -278 -438 -278q-61 0 -195 5t-172 5zM514 391h-147v-205q140 -8 155 -8q77 0 121.5 29.5t44.5 77.5q0 52 -45 79t-129 27zM514 741
q-97 0 -147 -4v-202h153q62 0 102 27t40 79q0 49 -40 74.5t-108 25.5z" />
    <glyph glyph-name="uni0433" unicode="&#x433;" horiz-adv-x="765" 
d="M131 0v922h619v-222h-383v-700h-236z" />
    <glyph glyph-name="uni0434" unicode="&#x434;" horiz-adv-x="1138" 
d="M20 -215v434h117q50 65 85 195t44 286l15 222h680v-703h153v-434h-221v215h-653v-215h-220zM494 606q-12 -135 -44 -236.5t-67 -150.5h342v481h-225z" />
    <glyph glyph-name="uni0435" unicode="&#x435;" horiz-adv-x="1056" 
d="M854 258l68 -166q-67 -57 -160 -86t-193 -29q-223 0 -359 133t-136 351q0 100 34 188.5t95.5 153.5t154 103t203.5 38q183 0 309.5 -119.5t126.5 -308.5q0 -78 -14 -127h-666q15 -102 90.5 -158.5t186.5 -56.5q79 0 147.5 24t112.5 60zM551 748q-102 0 -162 -53t-80 -148
h453q2 87 -55 144t-156 57z" />
    <glyph glyph-name="uni0436" unicode="&#x436;" horiz-adv-x="1452" 
d="M1411 922l-305 -447l330 -475h-279l-307 475l283 447h278zM604 0v922h236v-922h-236zM340 475l-307 447h286l275 -447l-299 -475h-281z" />
    <glyph glyph-name="uni0437" unicode="&#x437;" horiz-adv-x="966" 
d="M457 -23q-122 0 -236 44.5t-166 109.5l121 148q42 -46 118 -79.5t142 -33.5q90 0 139.5 31t49.5 82q0 47 -37 75.5t-103 28.5h-172v158h162q56 0 89.5 33t33.5 79q0 47 -43 74t-119 27q-128 0 -252 -107l-98 141q134 156 395 156q180 0 274.5 -70t94.5 -192
q0 -67 -45 -122.5t-125 -82.5v-4q94 -18 144 -76.5t50 -140.5q0 -128 -114 -203.5t-303 -75.5z" />
    <glyph glyph-name="uni0438" unicode="&#x438;" horiz-adv-x="1163" 
d="M367 0h-236v922h236v-584l430 584h235v-922h-235v584z" />
    <glyph glyph-name="uni0439" unicode="&#x439;" horiz-adv-x="1163" 
d="M367 0h-236v922h236v-584l430 584h235v-922h-235v584zM268 1382h215q0 -63 26 -106t81 -43q49 0 73.5 43t24.5 106h215q0 -138 -81.5 -227.5t-231.5 -89.5q-163 0 -242.5 87t-79.5 230z" />
    <glyph glyph-name="uni043A" unicode="&#x43a;" horiz-adv-x="1054" 
d="M1004 922l-355 -439l398 -483h-308l-364 465l332 457h297zM131 0v922h236v-922h-236z" />
    <glyph glyph-name="uni043B" unicode="&#x43b;" horiz-adv-x="1103" 
d="M737 0v686h-243l-7 -98q-13 -150 -37 -256t-56.5 -174.5t-81.5 -107t-105 -53.5t-135 -15l-21 229q26 -3 50.5 6t51.5 37.5t48 74.5t37 125t22 181l14 287h699v-922h-236z" />
    <glyph glyph-name="uni043C" unicode="&#x43c;" horiz-adv-x="1292" 
d="M131 0v922h213l313 -385l297 385h207v-922h-235v563l-273 -344h-6l-280 344v-563h-236z" />
    <glyph glyph-name="uni043D" unicode="&#x43d;" horiz-adv-x="1136" 
d="M770 0v352h-403v-352h-236v922h236v-349h403v349h236v-922h-236z" />
    <glyph glyph-name="uni043E" unicode="&#x43e;" horiz-adv-x="1150" 
d="M74 461q0 210 138 346.5t363 136.5q226 0 364 -136.5t138 -346.5t-138.5 -347t-363.5 -137t-363 137t-138 347zM326 461q0 -115 70.5 -189.5t178.5 -74.5q110 0 181 72.5t71 191.5q0 116 -71.5 189t-180.5 73q-107 0 -178 -72t-71 -190z" />
    <glyph glyph-name="uni043F" unicode="&#x43f;" horiz-adv-x="1126" 
d="M760 0v700h-393v-700h-236v922h864v-922h-235z" />
    <glyph glyph-name="uni0440" unicode="&#x440;" horiz-adv-x="1142" 
d="M131 -410v1332h236v-88q45 48 121.5 79t162.5 31q188 0 303 -131.5t115 -337.5q0 -214 -134.5 -356t-352.5 -142q-136 0 -215 46v-433h-236zM578 723q-121 0 -211 -100v-373q81 -53 194 -53q120 0 189 76.5t69 195.5q0 113 -63.5 183.5t-177.5 70.5z" />
    <glyph glyph-name="uni0441" unicode="&#x441;" horiz-adv-x="997" 
d="M829 309l111 -172q-58 -77 -155.5 -118.5t-211.5 -41.5q-224 0 -361.5 133t-137.5 351q0 133 60 243.5t170 175t247 64.5q246 0 371 -125l-111 -186q-93 90 -229 90q-103 0 -179.5 -72.5t-76.5 -189.5q0 -119 78.5 -191.5t187.5 -72.5q137 0 237 112z" />
    <glyph glyph-name="uni0442" unicode="&#x442;" horiz-adv-x="911" 
d="M35 686v236h839v-236h-301v-686h-235v686h-303z" />
    <glyph glyph-name="uni0443" unicode="&#x443;" horiz-adv-x="1030" 
d="M1020 922l-363 -922q-67 -164 -123.5 -253.5t-109 -123t-123.5 -33.5q-101 0 -199 72l76 178q59 -33 96 -33q84 0 142 144l20 49l-426 922h283l215 -504q16 -41 45 -133q16 84 33 135l166 502h268z" />
    <glyph glyph-name="uni0444" unicode="&#x444;" horiz-adv-x="1406" 
d="M586 -410v387h-13q-157 0 -271.5 64.5t-171 172.5t-56.5 247q0 95 33 181t94 154t157 108t213 40h15v490h235v-490h17q154 0 268 -65t170.5 -173t56.5 -245q0 -215 -127 -349.5t-368 -134.5h-17v-387h-235zM838 723h-17v-526h8q124 0 188 71.5t64 192.5
q0 111 -62.5 186.5t-180.5 75.5zM326 461q0 -120 65 -192t189 -72h6v526h-17q-123 0 -183 -73.5t-60 -188.5z" />
    <glyph glyph-name="uni0445" unicode="&#x445;" horiz-adv-x="1069" 
d="M1012 922l-307 -441l327 -481h-287l-215 332l-223 -332h-272l327 469l-307 453h289l195 -306l200 306h273z" />
    <glyph glyph-name="uni0446" unicode="&#x446;" horiz-adv-x="1159" 
d="M131 0v922h236v-703h378v703h236v-703h154v-434h-222v215h-782z" />
    <glyph glyph-name="uni0447" unicode="&#x447;" horiz-adv-x="1005" 
d="M874 922v-922h-235v317q-97 -53 -229 -53q-174 0 -254 91.5t-80 271.5v295h252v-267q0 -85 38.5 -127.5t110.5 -42.5q43 0 89 11t73 26v400h235z" />
    <glyph glyph-name="uni0448" unicode="&#x448;" horiz-adv-x="1490" 
d="M131 0v922h236v-703h260v703h235v-703h262v703h236v-922h-1229z" />
    <glyph glyph-name="uni0449" unicode="&#x449;" horiz-adv-x="1538" 
d="M131 0v922h236v-703h260v703h235v-703h262v703h236v-703h153v-434h-221v215h-1161z" />
    <glyph glyph-name="uni044A" unicode="&#x44a;" horiz-adv-x="1097" 
d="M31 700v222h475v-252h129q113 0 194.5 -26.5t126 -73t64.5 -101t20 -119.5q0 -69 -23 -129.5t-71 -111t-132.5 -80t-197.5 -29.5h-346v700h-239zM614 481h-108v-276h106q176 0 176 137q0 139 -174 139z" />
    <glyph glyph-name="uni044B" unicode="&#x44b;" horiz-adv-x="1384" 
d="M131 0v922h236v-252h114q113 0 195 -26.5t126.5 -73t64.5 -101t20 -119.5q0 -69 -23 -129.5t-71 -111t-132.5 -80t-197.5 -29.5h-332zM1018 0v922h235v-922h-235zM461 481h-94v-276h92q178 0 178 137q0 139 -176 139z" />
    <glyph glyph-name="uni044C" unicode="&#x44c;" horiz-adv-x="956" 
d="M131 0v922h236v-252h127q113 0 194.5 -26.5t126 -73t64.5 -101t20 -119.5q0 -69 -23 -129.5t-71 -111t-132.5 -80t-197.5 -29.5h-344zM473 481h-106v-276h104q178 0 178 137q0 139 -176 139z" />
    <glyph glyph-name="uni044D" unicode="&#x44d;" horiz-adv-x="1015" 
d="M287 387v158h409q-22 96 -93.5 145t-170.5 49q-133 0 -264 -96l-96 164q62 67 161.5 102t194.5 35q236 0 375 -131t139 -352q0 -208 -132.5 -346t-358.5 -138q-248 0 -383 138l110 155q42 -37 110.5 -62.5t147.5 -25.5q106 0 175 52.5t87 152.5h-411z" />
    <glyph glyph-name="uni044E" unicode="&#x44e;" horiz-adv-x="1581" 
d="M131 0v922h250v-334h164q36 161 160 258.5t307 97.5q221 0 358 -136.5t137 -346.5q0 -209 -138 -346.5t-357 -137.5q-188 0 -313 103t-158 272h-160v-352h-250zM797 461q0 -116 61.5 -182t159.5 -66q100 0 161.5 66.5t61.5 181.5q0 114 -60 181t-163 67
q-98 0 -159.5 -67.5t-61.5 -180.5z" />
    <glyph glyph-name="uni044F" unicode="&#x44f;" horiz-adv-x="1013" 
d="M582 922h301v-922h-236v276h-131l-190 -276h-271l246 328q-71 26 -124.5 94t-53.5 172q0 69 25.5 126.5t78.5 103.5t143.5 72t211.5 26zM375 578q0 -55 45.5 -91t103.5 -36h123v266h-104q-81 0 -124.5 -41t-43.5 -98z" />
    <glyph glyph-name="uni0451" unicode="&#x451;" horiz-adv-x="1056" 
d="M854 258l68 -166q-67 -57 -160 -86t-193 -29q-223 0 -359 133t-136 351q0 100 34 188.5t95.5 153.5t154 103t203.5 38q183 0 309.5 -119.5t126.5 -308.5q0 -78 -14 -127h-666q15 -102 90.5 -158.5t186.5 -56.5q79 0 147.5 24t112.5 60zM551 748q-102 0 -162 -53t-80 -148
h453q2 87 -55 144t-156 57zM223 1227q0 60 38.5 95.5t94.5 35.5q49 0 86 -36t37 -95q0 -63 -37 -100t-86 -37q-56 0 -94.5 36.5t-38.5 100.5zM631 1227q0 59 38 95t93 36q50 0 86.5 -36t36.5 -95q0 -63 -36.5 -100t-86.5 -37q-55 0 -93 37t-38 100z" />
    <glyph glyph-name="uni0452" unicode="&#x452;" horiz-adv-x="1208" 
d="M14 885v190h242v359h236v-359h323v-190h-323v-242q46 44 116.5 72t147.5 28q177 0 278 -96.5t101 -298.5q0 -257 -94.5 -455.5t-243.5 -302.5h-252q170 137 261 322t91 379q0 115 -52 173t-149 58q-120 0 -204 -84v-438h-236v885h-242z" />
    <glyph glyph-name="uni0453" unicode="&#x453;" horiz-adv-x="765" 
d="M131 0v922h619v-222h-383v-700h-236zM739 1356l-258 -297l-141 98l215 338z" />
    <glyph glyph-name="uni0454" unicode="&#x454;" horiz-adv-x="1013" 
d="M729 545v-158h-414q21 -99 96.5 -152t184.5 -53q144 0 244 88l110 -155q-69 -69 -155 -103.5t-213 -34.5q-234 0 -371 138t-137 346q0 221 139 352t375 131q95 0 194.5 -35t161.5 -102l-96 -164q-111 96 -264 96q-99 0 -171 -49t-96 -145h412z" />
    <glyph glyph-name="uni0455" unicode="&#x455;" horiz-adv-x="909" 
d="M598 260q0 30 -27.5 51.5t-71.5 36t-97 28.5t-106 35.5t-97 51.5t-71.5 81.5t-27.5 119.5q0 131 95 205.5t243 74.5q121 0 209.5 -34.5t140.5 -82.5l-88 -168q-47 36 -114 62.5t-135 26.5q-52 0 -83.5 -24t-31.5 -56q0 -31 27.5 -53t71.5 -36t97 -28t106 -35t97 -49.5
t71.5 -78.5t27.5 -116q0 -136 -101.5 -215.5t-271.5 -79.5q-119 0 -234 51.5t-151 106.5l114 154q41 -44 129.5 -79.5t157.5 -35.5q53 0 87 22.5t34 63.5z" />
    <glyph glyph-name="uni0456" unicode="&#x456;" horiz-adv-x="567" 
d="M166 0v922h235v-922h-235zM141 1253q0 61 43 99.5t105 38.5q54 0 94.5 -38.5t40.5 -99.5q0 -67 -40.5 -107t-94.5 -40q-63 0 -105.5 39.5t-42.5 107.5z" />
    <glyph glyph-name="uni0457" unicode="&#x457;" horiz-adv-x="645" 
d="M51 1223q0 53 34 83.5t87 30.5q44 0 77.5 -31.5t33.5 -82.5q0 -56 -33.5 -88.5t-77.5 -32.5q-53 0 -87 32t-34 89zM362 1223q0 52 35 83t86 31q45 0 78 -31t33 -83q0 -56 -33 -88.5t-78 -32.5q-52 0 -86.5 32.5t-34.5 88.5zM231 0v922h236v-922h-236z" />
    <glyph glyph-name="uni0458" unicode="&#x458;" horiz-adv-x="581" 
d="M414 922v-990q0 -358 -289 -358q-70 0 -132 19t-93 47l63 186q54 -33 105 -33q110 0 110 160v969h236zM156 1253q0 61 42.5 99.5t104.5 38.5q54 0 94.5 -38.5t40.5 -99.5q0 -67 -40.5 -107t-94.5 -40q-63 0 -105 39.5t-42 107.5z" />
    <glyph glyph-name="uni0459" unicode="&#x459;" horiz-adv-x="1519" 
d="M737 0v686h-243l-7 -98q-13 -150 -37 -256t-56.5 -174.5t-81.5 -107t-105 -53.5t-135 -15l-21 229q26 -3 50.5 6t51.5 37.5t48 74.5t37 125t22 181l14 287h699v-252h86q113 0 194.5 -26.5t126 -73t64.5 -101t20 -119.5q0 -69 -23 -129.5t-71 -111t-132.5 -80
t-197.5 -29.5h-303zM1038 481h-65v-276h63q176 0 176 137q0 139 -174 139z" />
    <glyph glyph-name="uni045A" unicode="&#x45a;" horiz-adv-x="1554" 
d="M770 0v362h-403v-362h-236v922h236v-338h403v338h236v-263h86q113 0 194.5 -25t126 -70.5t64.5 -99t20 -118.5q0 -70 -23 -129.5t-71 -109.5t-132.5 -78.5t-197.5 -28.5h-303zM1071 471h-65v-266h63q93 0 135.5 33.5t42.5 99.5q0 133 -176 133z" />
    <glyph glyph-name="uni045B" unicode="&#x45b;" horiz-adv-x="1208" 
d="M14 885v190h242v359h236v-359h323v-190h-323v-242q46 44 116.5 72t147.5 28q178 0 278.5 -97.5t100.5 -305.5v-340h-236v309q0 102 -53.5 157.5t-149.5 55.5q-120 0 -204 -84v-438h-236v885h-242z" />
    <glyph glyph-name="uni045C" unicode="&#x45c;" horiz-adv-x="1054" 
d="M1004 922l-355 -439l398 -483h-308l-364 465l332 457h297zM131 0v922h236v-922h-236zM786 1356l-258 -297l-141 98l215 338z" />
    <glyph glyph-name="uni045E" unicode="&#x45e;" horiz-adv-x="1030" 
d="M1020 922l-363 -922q-67 -164 -123.5 -253.5t-109 -123t-123.5 -33.5q-101 0 -199 72l76 178q59 -33 96 -33q84 0 142 144l20 49l-426 922h283l215 -504q16 -41 45 -133q16 84 33 135l166 502h268zM211 1382h215q0 -64 26 -106.5t80 -42.5q49 0 74 43t25 106h215
q0 -138 -82 -227.5t-232 -89.5q-163 0 -242 87t-79 230z" />
    <glyph glyph-name="uni045F" unicode="&#x45f;" horiz-adv-x="1105" 
d="M131 0v922h236v-703h372v703h236v-922h-311v-242h-222v242h-311z" />
    <glyph glyph-name="uni0462" unicode="&#x462;" horiz-adv-x="1327" 
d="M528 1434v-164h303v-236h-303v-153q82 10 166 10q541 0 541 -432q0 -226 -153.5 -344.5t-442.5 -118.5q-74 0 -199 2t-161 2v1034h-248v236h248v164h249zM674 655q-51 0 -146 -10v-407q11 0 62 -3.5t80 -3.5q149 0 224 48.5t75 173.5q0 114 -75 158t-220 44z" />
    <glyph glyph-name="uni0463" unicode="&#x463;" horiz-adv-x="1058" 
d="M14 731v191h242v512h236v-512h278v-191h-278v-123h104q114 0 195 -21.5t125.5 -62t64.5 -90.5t20 -115q0 -69 -22.5 -124.5t-71 -100.5t-132 -69.5t-197.5 -24.5h-322v731h-242zM575 434h-83v-246h81q94 0 136.5 29.5t42.5 93.5t-41.5 93.5t-135.5 29.5z" />
    <glyph glyph-name="uni0472" unicode="&#x472;" horiz-adv-x="1677" 
d="M92 717q0 154 55 290.5t152.5 235.5t237 156t301.5 57q212 0 381.5 -91t267.5 -260t98 -388q0 -212 -97.5 -381.5t-268 -264t-381.5 -94.5q-212 0 -381.5 91t-267 260.5t-97.5 388.5zM623 694q-64 0 -131.5 -33t-118.5 -77q40 -165 168.5 -268t296.5 -103
q193 0 318 111.5t155 291.5q-129 -73 -238 -73q-63 0 -126 23.5t-106.5 52t-102.5 52t-115 23.5zM1092 764q50 0 110.5 25t102.5 59q-40 168 -168 270.5t-299 102.5q-178 0 -306.5 -107.5t-162.5 -284.5q132 84 254 84q64 0 129 -23.5t110 -51t107 -51t123 -23.5z" />
    <glyph glyph-name="uni0473" unicode="&#x473;" horiz-adv-x="1181" 
d="M74 461q0 211 140.5 347t377.5 136q235 0 375.5 -136t140.5 -347t-140.5 -347.5t-375.5 -136.5q-237 0 -377.5 136t-140.5 348zM444 432q-66 0 -125 -59q24 -101 99.5 -154t173.5 -53q101 0 176 55.5t96 165.5q-65 -57 -145 -57q-41 0 -81.5 16t-67.5 35t-61.5 35
t-64.5 16zM750 489q67 0 114 50q-22 104 -98.5 159.5t-173.5 55.5q-101 0 -178.5 -56.5t-98.5 -165.5q73 58 140 58q43 0 88 -16t75.5 -34.5t67 -34.5t64.5 -16z" />
    <glyph glyph-name="uni0474" unicode="&#x474;" horiz-adv-x="1353" 
d="M1153 1022l-379 -1026h-190l-590 1438h268l424 -1061l266 774q27 79 54 132.5t63.5 95t81.5 59.5t105.5 18t138.5 -20l-33 -220q-30 10 -53 11t-42 -8.5t-32.5 -23t-28.5 -42t-26 -55t-27 -72.5z" />
    <glyph glyph-name="uni0475" unicode="&#x475;" horiz-adv-x="1007" 
d="M823 549l-225 -553h-176l-428 926h280l175 -396q42 -86 69 -207q26 113 64 211l61 162q24 65 46 107t54.5 77t73.5 49t98.5 13.5t133.5 -20.5l-35 -222q-31 12 -55 11.5t-41.5 -9t-34.5 -33t-29.5 -48.5t-30.5 -68z" />
    <glyph glyph-name="uni0490" unicode="&#x490;" horiz-adv-x="1038" 
d="M199 0v1434h573v239h236v-475h-557v-1198h-252z" />
    <glyph glyph-name="uni0491" unicode="&#x491;" horiz-adv-x="765" 
d="M131 0v922h399v198h220v-420h-383v-700h-236z" />
    <glyph glyph-name="uni0492" unicode="&#x492;" horiz-adv-x="1052" 
d="M20 608v221h193v605h809v-236h-557v-369h383v-221h-383v-608h-252v608h-193z" />
    <glyph glyph-name="uni0493" unicode="&#x493;" horiz-adv-x="788" 
d="M154 0v326h-140v190h140v406h618v-222h-383v-184h262v-190h-262v-326h-235z" />
    <glyph glyph-name="uni0494" unicode="&#x494;" horiz-adv-x="1277" 
d="M199 0v1434h809v-236h-557v-414q136 82 305 82q93 0 168.5 -25.5t135.5 -79.5t93 -146.5t33 -217.5v-385q0 -218 -97.5 -328t-269.5 -110q-77 0 -146.5 27.5t-97.5 60.5l84 193q59 -45 127 -45q150 0 150 196v356q0 121 -60.5 195t-166.5 74q-133 0 -258 -76v-555h-252z
" />
    <glyph glyph-name="uni0495" unicode="&#x495;" horiz-adv-x="1064" 
d="M131 0v922h619v-222h-383v-196q93 88 260 88q74 0 137.5 -21.5t115.5 -65.5t81.5 -119t29.5 -173q0 -186 -76 -359.5t-198 -263.5h-254q147 126 219 274t72 300q0 106 -55.5 157.5t-143.5 51.5q-114 0 -188 -74v-299h-236z" />
    <glyph glyph-name="uni0496" unicode="&#x496;" horiz-adv-x="1984" 
d="M582 748l-539 686h289l520 -684v684h250v-684l518 684h291l-539 -684l385 -514h195v-492h-236v256h-74l-540 743v-743h-250v743l-543 -743h-289z" />
    <glyph glyph-name="uni0497" unicode="&#x497;" horiz-adv-x="1462" 
d="M1411 922l-305 -447l178 -258v2h154v-434h-221v215h-60l-307 475l283 447h278zM340 475l-307 447h286l275 -447l-299 -475h-281zM604 0v922h236v-922h-236z" />
    <glyph glyph-name="uni0498" unicode="&#x498;" horiz-adv-x="1198" 
d="M690 -313h-235v299q-134 20 -232 85t-151 148l137 170q68 -77 162 -126.5t180 -49.5q111 0 187.5 54.5t76.5 158.5q0 87 -65.5 137.5t-188.5 50.5h-147v236h139q84 0 145.5 51.5t61.5 136.5q0 89 -58 136t-151 47q-173 0 -291 -156l-145 168q72 101 196 162t269 61
q194 0 312 -103.5t118 -289.5q0 -89 -49 -174t-144 -141v-7q124 -31 186 -121t62 -219q0 -159 -106 -268t-269 -141v-305z" />
    <glyph glyph-name="uni0499" unicode="&#x499;" horiz-adv-x="966" 
d="M592 -242h-221v226q-102 14 -188.5 53.5t-127.5 93.5l121 148q42 -46 118 -79.5t142 -33.5q90 0 139.5 31t49.5 82q0 47 -37 75.5t-103 28.5h-172v158h162q56 0 89.5 33t33.5 79q0 47 -43 74t-119 27q-128 0 -252 -107l-98 141q134 156 395 156q180 0 274.5 -70
t94.5 -192q0 -67 -45 -122.5t-125 -82.5v-4q94 -18 144 -76.5t50 -140.5q0 -103 -75.5 -172.5t-206.5 -93.5v-232z" />
    <glyph glyph-name="uni049A" unicode="&#x49a;" horiz-adv-x="1390" 
d="M199 0v1434h252v-680l565 680h303l-590 -668l434 -530h195v-492h-236v256h-86l-585 739v-739h-252z" />
    <glyph glyph-name="uni049B" unicode="&#x49b;" horiz-adv-x="1054" 
d="M1004 922l-355 -439l228 -264h153v-434h-221v215h-59l-375 465l332 457h297zM131 0v922h236v-922h-236z" />
    <glyph glyph-name="uni049C" unicode="&#x49c;" horiz-adv-x="1458" 
d="M522 319v820h209v-176l367 471h303l-551 -674l588 -760h-314l-393 520v-201h-209zM451 1434v-1434h-252v1434h252z" />
    <glyph glyph-name="uni049D" unicode="&#x49d;" horiz-adv-x="1110" 
d="M428 158v594h184v-107l185 277h274l-323 -449l354 -473h-293l-197 283v-125h-184zM131 0v922h236v-922h-236z" />
    <glyph glyph-name="uni04A0" unicode="&#x4a0;" horiz-adv-x="1548" 
d="M371 0v1198h-357v236h609v-680l565 680h303l-590 -668l627 -766h-320l-585 739v-739h-252z" />
    <glyph glyph-name="uni04A1" unicode="&#x4a1;" horiz-adv-x="1214" 
d="M291 0v700h-260v222h495v-922h-235zM1163 922l-354 -439l397 -483h-307l-364 465l331 457h297z" />
    <glyph glyph-name="uni04A2" unicode="&#x4a2;" horiz-adv-x="1601" 
d="M1106 0v612h-655v-612h-252v1434h252v-586h655v586h250v-1198h194v-492h-235v256h-209z" />
    <glyph glyph-name="uni04A3" unicode="&#x4a3;" horiz-adv-x="1183" 
d="M770 0v352h-403v-352h-236v922h236v-349h403v349h236v-703h153v-434h-221v215h-168z" />
    <glyph glyph-name="uni04A4" unicode="&#x4a4;" horiz-adv-x="1912" 
d="M1083 0v612h-632v-612h-252v1434h252v-586h632v586h799v-236h-547v-1198h-252z" />
    <glyph glyph-name="uni04A5" unicode="&#x4a5;" horiz-adv-x="1374" 
d="M750 0v352h-383v-352h-236v922h236v-349h383v349h608v-222h-373v-700h-235z" />
    <glyph glyph-name="uni04AA" unicode="&#x4aa;" horiz-adv-x="1341" 
d="M1194 328l96 -189q-52 -56 -141 -96t-195 -55v-301h-235v299q-285 34 -456 230.5t-171 500.5q0 155 48.5 289t139.5 234.5t231.5 158t313.5 57.5q136 0 250 -39t187 -106l-113 -187q-146 97 -324 97q-204 0 -335.5 -137.5t-131.5 -366.5q0 -224 138 -364t358 -140
q192 0 340 115z" />
    <glyph glyph-name="uni04AB" unicode="&#x4ab;" horiz-adv-x="997" 
d="M829 309l111 -172q-88 -120 -260 -149v-230h-221v230q-178 32 -281.5 158.5t-103.5 314.5q0 133 60 243.5t170 175t247 64.5q246 0 371 -125l-111 -186q-93 90 -229 90q-103 0 -179.5 -72.5t-76.5 -189.5q0 -119 78.5 -191.5t187.5 -72.5q137 0 237 112z" />
    <glyph glyph-name="uni04AE" unicode="&#x4ae;" horiz-adv-x="1288" 
d="M1278 1434l-510 -836v-598h-252v598l-506 836h287l356 -600l353 600h272z" />
    <glyph glyph-name="uni04AF" unicode="&#x4af;" horiz-adv-x="989" 
d="M993 922l-370 -922v-410h-236v410l-393 922h278l189 -482q24 -57 49 -168q31 118 53 177l176 473h254z" />
    <glyph glyph-name="uni04B0" unicode="&#x4b0;" horiz-adv-x="1288" 
d="M1278 1434l-449 -723h236v-219h-297v-492h-252v492h-297v219h234l-443 723h287l356 -600l353 600h272z" />
    <glyph glyph-name="uni04B1" unicode="&#x4b1;" horiz-adv-x="989" 
d="M993 922l-301 -713h197v-209h-266v-410h-236v410h-266v209h192l-319 713h278l189 -480q24 -57 49 -168q31 118 53 177l176 471h254z" />
    <glyph glyph-name="uni04B2" unicode="&#x4b2;" horiz-adv-x="1402" 
d="M1331 1434l-483 -703l340 -495h194v-492h-235v256h-92l-371 539l-369 -539h-295l502 731l-479 703h295l352 -519l346 519h295z" />
    <glyph glyph-name="uni04B3" unicode="&#x4b3;" horiz-adv-x="1077" 
d="M1012 922l-307 -441l178 -262h153v-434h-221v215h-70l-215 332l-223 -332h-272l327 469l-307 453h289l195 -306l200 306h273z" />
    <glyph glyph-name="uni04B6" unicode="&#x4b6;" horiz-adv-x="1413" 
d="M1167 1434v-1198h195v-492h-236v256h-211v588q-58 -42 -146.5 -70.5t-195.5 -28.5q-86 0 -160.5 24.5t-138 76t-100.5 143.5t-37 215v486h252v-414q0 -295 252 -295q139 0 274 92v617h252z" />
    <glyph glyph-name="uni04B7" unicode="&#x4b7;" horiz-adv-x="1052" 
d="M874 922v-703h154v-434h-221v215h-168v317q-97 -53 -229 -53q-174 0 -254 91.5t-80 271.5v295h252v-267q0 -85 38.5 -127.5t110.5 -42.5q43 0 89 11t73 26v400h235z" />
    <glyph glyph-name="uni04B8" unicode="&#x4b8;" horiz-adv-x="1366" 
d="M1167 1434v-1434h-252v588q-55 -40 -153 -62v-217h-225v199q-63 4 -118.5 19.5t-108 48.5t-90 81.5t-60.5 123.5t-23 169v484h252v-414q0 -124 37.5 -188t110.5 -87v281h225v-278q90 21 153 69v617h252z" />
    <glyph glyph-name="uni04B9" unicode="&#x4b9;" horiz-adv-x="1034" 
d="M903 922v-922h-235v324q-23 -13 -66 -23v-164h-205v148q-163 8 -242 91.5t-79 250.5v295h243v-267q0 -114 78 -151v207h205v-213q43 10 66 24v400h235z" />
    <glyph glyph-name="uni04BA" unicode="&#x4ba;" horiz-adv-x="1300" 
d="M199 1434h252v-650q130 82 319 82q69 0 130.5 -14.5t119 -48.5t98.5 -85.5t65.5 -130t24.5 -177.5v-410h-250v336q0 161 -67 228t-186 67q-140 0 -254 -78v-553h-252v1434z" />
    <glyph glyph-name="uni04BB" unicode="&#x4bb;" horiz-adv-x="1118" 
d="M131 0v1434h236v-596q46 44 116.5 72t147.5 28q178 0 278.5 -97.5t100.5 -305.5v-535h-236v504q0 102 -54 157.5t-151 55.5q-118 0 -202 -84v-633h-236z" />
    <glyph glyph-name="uni04C0" unicode="&#x4c0;" horiz-adv-x="497" 
d="M367 1434v-1434h-236v1434h236z" />
    <glyph glyph-name="uni04CB" unicode="&#x4cb;" horiz-adv-x="1366" 
d="M1167 1434v-1434h-211v-256h-235v492h194v352q-58 -42 -146.5 -70.5t-195.5 -28.5q-86 0 -160.5 24.5t-138 76t-100.5 143.5t-37 215v486h252v-414q0 -295 252 -295q139 0 274 92v617h252z" />
    <glyph glyph-name="uni04CC" unicode="&#x4cc;" horiz-adv-x="1005" 
d="M874 922v-922h-167v-215h-222v434h154v123q-97 -53 -229 -53q-175 0 -254.5 89.5t-79.5 268.5v275h252v-246q0 -85 38.5 -127.5t110.5 -42.5q43 0 89 11t73 26v379h235z" />
    <glyph glyph-name="uni04CF" unicode="&#x4cf;" horiz-adv-x="710" 
d="M229 0v1434h252v-1434h-252z" />
    <glyph glyph-name="uni04D0" unicode="&#x4d0;" horiz-adv-x="1464" 
d="M14 0l607 1438h221l606 -1438h-268l-150 367h-612l-150 -367h-254zM725 1112l-211 -510h420zM328 1782h235q24 -119 174 -119q153 0 164 119h236q-4 -131 -117 -212t-283 -81q-181 0 -289.5 80t-119.5 213z" />
    <glyph glyph-name="uni04D1" unicode="&#x4d1;" horiz-adv-x="948" 
d="M203 684l-60 172q64 38 152 63t174 25q197 0 283 -96t86 -287v-561h-205v106q-38 -54 -109.5 -86t-163.5 -32q-129 0 -208.5 75.5t-79.5 206.5q0 146 94.5 222.5t241.5 76.5q60 0 116.5 -16.5t91.5 -42.5q5 121 -34 179.5t-138 58.5q-49 0 -97.5 -11.5t-71 -20.5
t-72.5 -32zM438 186q119 0 178 84v95q-60 45 -161 45q-63 0 -105.5 -29.5t-42.5 -85.5q0 -51 37 -80t94 -29zM160 1382h215q0 -64 26 -106.5t80 -42.5q49 0 74 43t25 106h215q0 -138 -82 -227.5t-232 -89.5q-163 0 -242 87t-79 230z" />
    <glyph glyph-name="uni04D2" unicode="&#x4d2;" horiz-adv-x="1464" 
d="M14 0l607 1438h221l606 -1438h-268l-150 367h-612l-150 -367h-254zM725 1112l-211 -510h420zM342 1690q0 58 45.5 92.5t112.5 34.5q59 0 102 -35t43 -92q0 -63 -43 -99.5t-102 -36.5q-68 0 -113 36t-45 100zM817 1690q0 58 45.5 92.5t112.5 34.5q60 0 102.5 -34.5
t42.5 -92.5q0 -63 -42.5 -99.5t-102.5 -36.5q-67 0 -112.5 36t-45.5 100z" />
    <glyph glyph-name="uni04D3" unicode="&#x4d3;" horiz-adv-x="948" 
d="M203 684l-60 172q64 38 152 63t174 25q197 0 283 -96t86 -287v-561h-205v106q-38 -54 -109.5 -86t-163.5 -32q-129 0 -208.5 75.5t-79.5 206.5q0 146 94.5 222.5t241.5 76.5q60 0 116.5 -16.5t91.5 -42.5q5 121 -34 179.5t-138 58.5q-49 0 -97.5 -11.5t-71 -20.5
t-72.5 -32zM438 186q119 0 178 84v95q-60 45 -161 45q-63 0 -105.5 -29.5t-42.5 -85.5q0 -51 37 -80t94 -29zM152 1186q0 60 38.5 95.5t94.5 35.5q49 0 86 -36t37 -95q0 -63 -37 -100t-86 -37q-56 0 -94.5 36.5t-38.5 100.5zM559 1186q0 59 38 95t93 36q50 0 86.5 -36
t36.5 -95q0 -63 -36.5 -100t-86.5 -37q-55 0 -93 37t-38 100z" />
    <glyph glyph-name="uni04D4" unicode="&#x4d4;" horiz-adv-x="1947" 
d="M969 0v371h-477l-259 -371h-290l1030 1434h825v-236h-577v-356h516v-236h-516v-370h598v-236h-850zM969 1053l-312 -447h312v447z" />
    <glyph glyph-name="uni04D5" unicode="&#x4d5;" horiz-adv-x="1554" 
d="M469 944q190 0 283 -96q130 96 307 96q183 0 309.5 -119.5t126.5 -308.5q0 -66 -14 -127h-643v-88q28 -58 95.5 -92.5t156.5 -34.5q79 0 147.5 24t114.5 60l65 -166q-69 -56 -160.5 -85.5t-185.5 -29.5q-221 0 -354 121q-148 -116 -316 -116q-160 0 -244.5 78.5
t-84.5 222.5q0 131 92.5 208.5t243.5 77.5q50 0 114.5 -14.5t93.5 -30.5q10 106 -33.5 165t-127.5 59q-55 0 -106.5 -11.5t-73 -20.5t-72.5 -32l-60 172q66 37 153.5 62.5t172.5 25.5zM838 561v-14h422q-3 90 -60.5 145.5t-159.5 55.5q-62 0 -117 -29t-89 -88q4 -46 4 -70z
M438 186q94 0 176 78l2 117q-76 29 -161 29q-63 0 -105.5 -32t-42.5 -83q0 -47 34.5 -78t96.5 -31z" />
    <glyph glyph-name="uni04D6" unicode="&#x4d6;" horiz-adv-x="1177" 
d="M199 0v1434h829v-236h-577v-356h516v-236h-516v-370h598v-236h-850zM213 1782h236q24 -119 174 -119q152 0 163 119h236q-4 -131 -116.5 -212t-282.5 -81q-182 0 -290.5 80t-119.5 213z" />
    <glyph glyph-name="uni04D7" unicode="&#x4d7;" horiz-adv-x="1056" 
d="M854 258l68 -166q-67 -57 -160 -86t-193 -29q-223 0 -359 133t-136 351q0 100 34 188.5t95.5 153.5t154 103t203.5 38q183 0 309.5 -119.5t126.5 -308.5q0 -78 -14 -127h-666q15 -102 90.5 -158.5t186.5 -56.5q79 0 147.5 24t112.5 60zM551 748q-102 0 -162 -53t-80 -148
h453q2 87 -55 144t-156 57zM233 1382h216q0 -64 26 -106.5t80 -42.5q49 0 73.5 43t24.5 106h215q0 -138 -81.5 -227.5t-231.5 -89.5q-163 0 -242.5 87t-79.5 230z" />
    <glyph glyph-name="uni04D8" unicode="&#x4d8;" horiz-adv-x="1599" 
d="M96 848h1139q-37 176 -172 274.5t-336 98.5q-189 0 -338 -111l-96 188q81 70 209 114t284 44q157 0 290.5 -53t228.5 -148t148.5 -233t53.5 -303q0 -222 -89.5 -390.5t-254 -260t-381.5 -91.5q-164 0 -300 61t-229 171.5t-135.5 275.5t-21.5 363zM778 213
q191 0 313 103.5t154 295.5h-889q13 -168 126 -283.5t296 -115.5z" />
    <glyph glyph-name="uni04D9" unicode="&#x4d9;" horiz-adv-x="1056" 
d="M211 664l-66 165q67 57 161.5 86t195.5 29q221 0 351 -131.5t130 -351.5q0 -137 -51.5 -244.5t-159 -173.5t-256.5 -66q-197 0 -327 119t-130 310q0 78 15 131h676q-17 97 -90.5 154t-182.5 57q-79 0 -150 -24t-116 -60zM518 174q102 0 162.5 54.5t75.5 150.5h-453
q-2 -91 56 -148t159 -57z" />
    <glyph glyph-name="uni04DC" unicode="&#x4dc;" horiz-adv-x="1953" 
d="M582 748l-539 686h289l520 -684v684h250v-684l518 684h291l-539 -684l561 -750h-291l-540 743v-743h-250v743l-543 -743h-289zM588 1690q0 58 45 92.5t112 34.5q59 0 102.5 -35t43.5 -92q0 -63 -43.5 -99.5t-102.5 -36.5q-67 0 -112 36t-45 100zM1063 1690
q0 58 45.5 92.5t112.5 34.5q60 0 102.5 -34.5t42.5 -92.5q0 -63 -42.5 -99.5t-102.5 -36.5q-67 0 -112.5 36t-45.5 100z" />
    <glyph glyph-name="uni04DD" unicode="&#x4dd;" horiz-adv-x="1452" 
d="M1411 922l-305 -447l330 -475h-279l-307 475l283 447h278zM604 0v922h236v-922h-236zM340 475l-307 447h286l275 -447l-299 -475h-281zM395 1186q0 60 38.5 95.5t94.5 35.5q49 0 86 -36t37 -95q0 -63 -37 -100t-86 -37q-56 0 -94.5 36.5t-38.5 100.5zM803 1186
q0 59 38 95t93 36q50 0 86.5 -36t36.5 -95q0 -63 -36.5 -100t-86.5 -37q-55 0 -93 37t-38 100z" />
    <glyph glyph-name="uni04DE" unicode="&#x4de;" horiz-adv-x="1198" 
d="M563 -23q-120 0 -222.5 38t-164.5 89.5t-104 114.5l137 170q68 -77 162 -126.5t180 -49.5q111 0 187.5 54.5t76.5 158.5q0 87 -65.5 137.5t-188.5 50.5h-147v236h139q84 0 145.5 51.5t61.5 136.5q0 89 -58 136t-151 47q-173 0 -291 -156l-145 168q72 101 196 162t269 61
q194 0 312 -103.5t118 -289.5q0 -89 -49 -174t-144 -141v-7q124 -31 186 -121t62 -219q0 -127 -72 -225.5t-185 -148.5t-245 -50zM178 1690q0 58 45.5 92.5t112.5 34.5q59 0 102 -35t43 -92q0 -63 -43 -99.5t-102 -36.5q-68 0 -113 36t-45 100zM653 1690q0 58 45.5 92.5
t112.5 34.5q60 0 102.5 -34.5t42.5 -92.5q0 -63 -42.5 -99.5t-102.5 -36.5q-67 0 -112.5 36t-45.5 100z" />
    <glyph glyph-name="uni04DF" unicode="&#x4df;" horiz-adv-x="966" 
d="M457 -23q-122 0 -236 44.5t-166 109.5l121 148q42 -46 118 -79.5t142 -33.5q90 0 139.5 31t49.5 82q0 47 -37 75.5t-103 28.5h-172v158h162q56 0 89.5 33t33.5 79q0 47 -43 74t-119 27q-128 0 -252 -107l-98 141q134 156 395 156q180 0 274.5 -70t94.5 -192
q0 -67 -45 -122.5t-125 -82.5v-4q94 -18 144 -76.5t50 -140.5q0 -128 -114 -203.5t-303 -75.5zM141 1186q0 60 38.5 95.5t94.5 35.5q49 0 86 -36t37 -95q0 -63 -37 -100t-86 -37q-56 0 -94.5 36.5t-38.5 100.5zM549 1186q0 59 38 95t93 36q50 0 86.5 -36t36.5 -95
q0 -63 -36.5 -100t-86.5 -37q-55 0 -93 37t-38 100z" />
    <glyph glyph-name="uni04E2" unicode="&#x4e2;" horiz-adv-x="1622" 
d="M420 0h-221v1434h252v-1020l751 1020h221v-1434h-252v1018zM496 1556v189h632v-189h-632z" />
    <glyph glyph-name="uni04E3" unicode="&#x4e3;" horiz-adv-x="1163" 
d="M367 0h-236v922h236v-584l430 584h235v-922h-235v584zM297 1126v189h571v-189h-571z" />
    <glyph glyph-name="uni04E4" unicode="&#x4e4;" horiz-adv-x="1622" 
d="M420 0h-221v1434h252v-1020l751 1020h221v-1434h-252v1018zM422 1690q0 58 45.5 92.5t112.5 34.5q59 0 102 -35t43 -92q0 -63 -43 -99.5t-102 -36.5q-68 0 -113 36t-45 100zM897 1690q0 58 45.5 92.5t112.5 34.5q60 0 102.5 -34.5t42.5 -92.5q0 -63 -42.5 -99.5
t-102.5 -36.5q-67 0 -112.5 36t-45.5 100z" />
    <glyph glyph-name="uni04E5" unicode="&#x4e5;" horiz-adv-x="1163" 
d="M367 0h-236v922h236v-584l430 584h235v-922h-235v584zM252 1186q0 60 38.5 95.5t94.5 35.5q49 0 86 -36t37 -95q0 -63 -37 -100t-86 -37q-56 0 -94.5 36.5t-38.5 100.5zM659 1186q0 59 38.5 95t93.5 36q50 0 86 -36t36 -95q0 -63 -36 -100t-86 -37q-55 0 -93.5 37
t-38.5 100z" />
    <glyph glyph-name="uni04E6" unicode="&#x4e6;" horiz-adv-x="1677" 
d="M92 717q0 154 55 290.5t152.5 235.5t237 156t301.5 57q212 0 381.5 -91t267.5 -260t98 -388q0 -212 -97.5 -381.5t-268 -264t-381.5 -94.5q-212 0 -381.5 91t-267 260.5t-97.5 388.5zM358 717q0 -214 139 -359t341 -145q220 0 350.5 143t130.5 361q0 220 -138 362
t-343 142q-207 0 -343.5 -141.5t-136.5 -362.5zM449 1690q0 58 45 92.5t112 34.5q59 0 102.5 -35t43.5 -92q0 -63 -43.5 -99.5t-102.5 -36.5q-67 0 -112 36t-45 100zM924 1690q0 58 45 92.5t112 34.5q60 0 103 -34.5t43 -92.5q0 -63 -43 -99.5t-103 -36.5q-67 0 -112 36
t-45 100z" />
    <glyph glyph-name="uni04E7" unicode="&#x4e7;" horiz-adv-x="1150" 
d="M74 461q0 210 138 346.5t363 136.5q226 0 364 -136.5t138 -346.5t-138.5 -347t-363.5 -137t-363 137t-138 347zM326 461q0 -115 70.5 -189.5t178.5 -74.5q110 0 181 72.5t71 191.5q0 116 -71.5 189t-180.5 73q-107 0 -178 -72t-71 -190zM246 1186q0 60 38.5 95.5
t94.5 35.5q49 0 86 -36t37 -95q0 -63 -37 -100t-86 -37q-56 0 -94.5 36.5t-38.5 100.5zM653 1186q0 59 38 95t93 36q50 0 86.5 -36t36.5 -95q0 -63 -36.5 -100t-86.5 -37q-55 0 -93 37t-38 100z" />
    <glyph glyph-name="uni04E8" unicode="&#x4e8;" horiz-adv-x="1677" 
d="M92 717q0 154 55 290.5t152.5 235.5t237 156t301.5 57q212 0 381.5 -91t267.5 -260t98 -388q0 -212 -97.5 -381.5t-268 -264t-381.5 -94.5q-212 0 -381.5 91t-267 260.5t-97.5 388.5zM838 213q192 0 317.5 110.5t155.5 288.5h-944q34 -176 164.5 -287.5t306.5 -111.5z
M838 1221q-173 0 -300 -102t-165 -271h932q-40 168 -168 270.5t-299 102.5z" />
    <glyph glyph-name="uni04E9" unicode="&#x4e9;" horiz-adv-x="1150" 
d="M74 461q0 210 138 346.5t363 136.5q226 0 364 -136.5t138 -346.5t-138.5 -347t-363.5 -137t-363 137t-138 347zM575 184q90 0 155 48.5t89 127.5h-485q24 -78 88.5 -127t152.5 -49zM575 735q-86 0 -150.5 -47.5t-88.5 -122.5h479q-24 74 -88.5 122t-151.5 48z" />
    <glyph glyph-name="uni04EE" unicode="&#x4ee;" horiz-adv-x="1398" 
d="M1374 1434l-487 -1100q-76 -170 -167.5 -252t-221.5 -82q-54 0 -110.5 16.5t-86.5 40.5l88 213q49 -34 107 -34q93 0 141 100l20 49l-632 1049h284l469 -801l342 801h254zM412 1556v189h632v-189h-632z" />
    <glyph glyph-name="uni04EF" unicode="&#x4ef;" horiz-adv-x="1030" 
d="M1020 922l-363 -922q-67 -164 -123.5 -253.5t-109 -123t-123.5 -33.5q-101 0 -199 72l76 178q59 -33 96 -33q84 0 142 144l20 49l-426 922h283l215 -504q16 -41 45 -133q16 84 33 135l166 502h268zM231 1126v189h572v-189h-572z" />
    <glyph glyph-name="uni04F0" unicode="&#x4f0;" horiz-adv-x="1398" 
d="M1374 1434l-487 -1100q-76 -170 -167.5 -252t-221.5 -82q-54 0 -110.5 16.5t-86.5 40.5l88 213q49 -34 107 -34q93 0 141 100l20 49l-632 1049h284l469 -801l342 801h254zM322 1690q0 58 45 92.5t112 34.5q59 0 102.5 -35t43.5 -92q0 -63 -43.5 -99.5t-102.5 -36.5
q-67 0 -112 36t-45 100zM797 1690q0 58 45 92.5t112 34.5q60 0 103 -34.5t43 -92.5q0 -63 -43 -99.5t-103 -36.5q-67 0 -112 36t-45 100z" />
    <glyph glyph-name="uni04F1" unicode="&#x4f1;" horiz-adv-x="1030" 
d="M1020 922l-363 -922q-67 -164 -123.5 -253.5t-109 -123t-123.5 -33.5q-101 0 -199 72l76 178q59 -33 96 -33q84 0 142 144l20 49l-426 922h283l215 -504q16 -41 45 -133q16 84 33 135l166 502h268zM193 1186q0 60 38.5 95.5t94.5 35.5q49 0 86 -36t37 -95q0 -63 -37 -100
t-86 -37q-56 0 -94.5 36.5t-38.5 100.5zM600 1186q0 59 38 95t93 36q50 0 86.5 -36t36.5 -95q0 -63 -36.5 -100t-86.5 -37q-55 0 -93 37t-38 100z" />
    <glyph glyph-name="uni04F2" unicode="&#x4f2;" horiz-adv-x="1398" 
d="M1374 1434l-487 -1100q-76 -170 -167.5 -252t-221.5 -82q-54 0 -110.5 16.5t-86.5 40.5l88 213q49 -34 107 -34q93 0 141 100l20 49l-632 1049h284l469 -801l342 801h254zM1247 1718l-391 -221l-96 100l323 269zM823 1761l-336 -264l-100 94l234 275z" />
    <glyph glyph-name="uni04F3" unicode="&#x4f3;" horiz-adv-x="1030" 
d="M1020 922l-363 -922q-67 -164 -123.5 -253.5t-109 -123t-123.5 -33.5q-101 0 -199 72l76 178q59 -33 96 -33q84 0 142 144l20 49l-426 922h283l215 -504q16 -41 45 -133q16 84 33 135l166 502h268zM942 1343l-270 -284l-142 98l238 320zM571 1372l-233 -313l-141 98
l206 340z" />
    <glyph glyph-name="uni04F4" unicode="&#x4f4;" horiz-adv-x="1366" 
d="M1167 1434v-1434h-252v588q-58 -42 -146.5 -70.5t-195.5 -28.5q-86 0 -160.5 24.5t-138 76t-100.5 143.5t-37 215v486h252v-414q0 -295 252 -295q139 0 274 92v617h252zM268 1690q0 58 45.5 92.5t112.5 34.5q59 0 102 -35t43 -92q0 -63 -43 -99.5t-102 -36.5
q-68 0 -113 36t-45 100zM743 1690q0 58 45.5 92.5t112.5 34.5q60 0 103 -34.5t43 -92.5q0 -63 -43 -99.5t-103 -36.5q-67 0 -112.5 36t-45.5 100z" />
    <glyph glyph-name="uni04F5" unicode="&#x4f5;" horiz-adv-x="1005" 
d="M874 922v-922h-235v317q-97 -53 -229 -53q-174 0 -254 91.5t-80 271.5v295h252v-267q0 -85 38.5 -127.5t110.5 -42.5q43 0 89 11t73 26v400h235zM156 1186q0 60 38.5 95.5t94.5 35.5q49 0 86 -36t37 -95q0 -63 -37 -100t-86 -37q-56 0 -94.5 36.5t-38.5 100.5zM563 1186
q0 59 38 95t93 36q50 0 86.5 -36t36.5 -95q0 -63 -36.5 -100t-86.5 -37q-55 0 -93 37t-38 100z" />
    <glyph glyph-name="uni04F6" unicode="&#x4f6;" horiz-adv-x="1038" 
d="M199 0v1434h809v-236h-557v-962h194v-492h-235v256h-211z" />
    <glyph glyph-name="uni04F7" unicode="&#x4f7;" horiz-adv-x="765" 
d="M131 0v922h619v-222h-383v-481h153v-434h-221v215h-168z" />
    <glyph glyph-name="uni04F8" unicode="&#x4f8;" horiz-adv-x="1769" 
d="M1321 0v1434h250v-1434h-250zM590 717q-44 0 -139 -10v-469q11 0 58.5 -3.5t76.5 -3.5q139 0 210.5 63.5t71.5 188.5q0 114 -72.5 174t-205.5 60zM451 1434v-492q79 10 159 10q259 0 392 -123t133 -340q0 -229 -153.5 -361t-426.5 -132q-74 0 -197 2t-159 2v1434h252z
M496 1690q0 58 45 92.5t112 34.5q59 0 102.5 -35t43.5 -92q0 -63 -43.5 -99.5t-102.5 -36.5q-67 0 -112 36t-45 100zM971 1690q0 58 45 92.5t112 34.5q60 0 103 -34.5t43 -92.5q0 -63 -43 -99.5t-103 -36.5q-67 0 -112 36t-45 100z" />
    <glyph glyph-name="uni04F9" unicode="&#x4f9;" horiz-adv-x="1384" 
d="M131 0v922h236v-252h114q113 0 195 -26.5t126.5 -73t64.5 -101t20 -119.5q0 -69 -23 -129.5t-71 -111t-132.5 -80t-197.5 -29.5h-332zM1018 0v922h235v-922h-235zM461 481h-94v-276h92q178 0 178 137q0 139 -176 139zM362 1186q0 60 39 95.5t95 35.5q49 0 85.5 -36
t36.5 -95q0 -63 -36.5 -100t-85.5 -37q-57 0 -95.5 36.5t-38.5 100.5zM770 1186q0 59 38 95t93 36q50 0 86.5 -36t36.5 -95q0 -63 -36.5 -100t-86.5 -37q-55 0 -93 37t-38 100z" />
    <glyph glyph-name="uni1E9E" unicode="&#x1e9e;" horiz-adv-x="1380" 
d="M1006 377q0 42 -23 84.5t-58 78t-92 76.5t-108 73t-122 74q-13 7 -19 11l270 371q-24 33 -74.5 54.5t-109.5 21.5q-100 0 -159.5 -61.5t-59.5 -186.5v-975h-252v958q0 130 35 227t100.5 156t151.5 88t194 29q131 0 259.5 -65.5t217.5 -188.5l-276 -352q61 -33 115.5 -71
t106 -87.5t88.5 -102.5t59 -118t22 -133q0 -106 -56.5 -191t-139.5 -127.5t-171 -42.5q-123 0 -205.5 36.5t-148.5 95.5l108 196q57 -48 97.5 -70t93.5 -22q65 0 110.5 45t45.5 119z" />
    <glyph glyph-name="uni2010" unicode="&#x2010;" horiz-adv-x="770" 
d="M127 451v219h516v-219h-516z" />
    <glyph glyph-name="uni2011" unicode="&#x2011;" horiz-adv-x="770" 
d="M127 451v219h516v-219h-516z" />
    <glyph glyph-name="figuredash" unicode="&#x2012;" horiz-adv-x="1226" 
d="M174 623v204h879v-204h-879z" />
    <glyph glyph-name="endash" unicode="&#x2013;" horiz-adv-x="1226" 
d="M174 451v204h879v-204h-879z" />
    <glyph glyph-name="emdash" unicode="&#x2014;" horiz-adv-x="1667" 
d="M174 451v204h1319v-204h-1319z" />
    <glyph glyph-name="uni2015" unicode="&#x2015;" horiz-adv-x="1667" 
d="M174 451v204h1319v-204h-1319z" />
    <glyph glyph-name="quoteleft" unicode="&#x2018;" horiz-adv-x="493" 
d="M365 1126l-199 -114q-32 33 -51 85.5t-19 104.5q0 68 19 127t51 102t65 72.5t70 50.5l109 -100q-44 -36 -68.5 -90t-24.5 -111q0 -79 48 -127z" />
    <glyph glyph-name="quoteright" unicode="&#x2019;" horiz-adv-x="493" 
d="M129 1430l199 116q32 -33 50.5 -85.5t18.5 -104.5q0 -89 -34.5 -164.5t-77 -117.5t-92.5 -70l-109 100q44 36 68 89t24 110q0 80 -47 127z" />
    <glyph glyph-name="quotesinglbase" unicode="&#x201a;" horiz-adv-x="493" 
d="M129 68l199 116q32 -33 50.5 -85.5t18.5 -104.5q0 -89 -34.5 -164.5t-77 -117.5t-92.5 -70l-109 100q44 36 68 89t24 110q0 80 -47 127z" />
    <glyph glyph-name="quotedblleft" unicode="&#x201c;" horiz-adv-x="827" 
d="M696 1126l-198 -114q-32 33 -51 85.5t-19 104.5q0 68 19 127t51 102t65 72.5t70 50.5l108 -100q-44 -36 -68 -89.5t-24 -111.5q0 -80 47 -127zM365 1126l-199 -114q-32 33 -51 85.5t-19 104.5q0 68 19 127t51 102t65 72.5t70 50.5l109 -100q-44 -36 -68.5 -90t-24.5 -111
q0 -79 48 -127z" />
    <glyph glyph-name="quotedblright" unicode="&#x201d;" horiz-adv-x="827" 
d="M461 1430l198 116q32 -33 51 -85.5t19 -104.5q0 -68 -19 -127.5t-51 -102.5t-65.5 -72.5t-69.5 -49.5l-108 100q44 36 68 89t24 110q0 80 -47 127zM129 1430l199 116q32 -33 50.5 -85.5t18.5 -104.5q0 -89 -34.5 -164.5t-77 -117.5t-92.5 -70l-109 100q44 36 68 89
t24 110q0 80 -47 127z" />
    <glyph glyph-name="quotedblbase" unicode="&#x201e;" horiz-adv-x="827" 
d="M461 68l198 116q32 -33 51 -85.5t19 -104.5q0 -68 -19 -127.5t-51 -102.5t-65.5 -72.5t-69.5 -49.5l-108 100q44 36 68 89t24 110q0 80 -47 127zM129 68l199 116q32 -33 50.5 -85.5t18.5 -104.5q0 -89 -34.5 -164.5t-77 -117.5t-92.5 -70l-109 100q44 36 68 89t24 110
q0 80 -47 127z" />
    <glyph glyph-name="dagger" unicode="&#x2020;" horiz-adv-x="1005" 
d="M82 809v205h311v420h219v-420h312v-205h-312v-1014h-219v1014h-311z" />
    <glyph glyph-name="daggerdbl" unicode="&#x2021;" horiz-adv-x="1005" 
d="M82 809v205h311v420h219v-420h312v-205h-312v-328h312v-205h-312v-481h-219v481h-311v205h311v328h-311z" />
    <glyph glyph-name="bullet" unicode="&#x2022;" horiz-adv-x="583" 
d="M51 541q0 99 70.5 170t169.5 71t170 -71t71 -170q0 -97 -71.5 -168.5t-169.5 -71.5t-169 71.5t-71 168.5z" />
    <glyph glyph-name="ellipsis" unicode="&#x2026;" horiz-adv-x="1767" 
d="M1341 154q0 58 45.5 104.5t118.5 46.5q63 0 106.5 -47t43.5 -104q0 -65 -43 -114.5t-107 -49.5q-73 0 -118.5 49t-45.5 115zM727 154q0 58 45.5 104.5t118.5 46.5q63 0 106 -47t43 -104q0 -65 -42.5 -114.5t-106.5 -49.5q-73 0 -118.5 49t-45.5 115zM113 154
q0 58 45 104.5t118 46.5q63 0 106.5 -47t43.5 -104q0 -65 -43 -114.5t-107 -49.5q-73 0 -118 49t-45 115z" />
    <glyph glyph-name="perthousand" unicode="&#x2030;" horiz-adv-x="2754" 
d="M1870 346q0 164 113 264.5t290 100.5t290.5 -100.5t113.5 -264.5q0 -163 -114 -264.5t-290 -101.5t-289.5 101.5t-113.5 264.5zM2091 346q0 -80 52.5 -128t129.5 -48q81 0 133 48t52 128q0 78 -52.5 126t-132.5 48q-78 0 -130 -48t-52 -126zM348 72l1034 1384l134 -100
l-1033 -1379zM76 1087q0 164 113 264.5t290 100.5t290.5 -100.5t113.5 -264.5q0 -163 -114 -264.5t-290 -101.5t-289.5 101.5t-113.5 264.5zM297 1087q0 -80 52.5 -128t129.5 -48q81 0 133 48t52 128q0 78 -53 126.5t-132 48.5q-78 0 -130 -48.5t-52 -126.5zM981 346
q0 164 113 264.5t290 100.5t290.5 -100.5t113.5 -264.5q0 -163 -114 -264.5t-290 -101.5t-289.5 101.5t-113.5 264.5zM1202 346q0 -80 52.5 -128t129.5 -48q81 0 133 48t52 128q0 78 -52.5 126t-132.5 48q-78 0 -130 -48t-52 -126z" />
    <glyph glyph-name="guilsinglleft" unicode="&#x2039;" horiz-adv-x="718" 
d="M471 45l-395 463v8l403 463l154 -137l-285 -330l283 -334z" />
    <glyph glyph-name="guilsinglright" unicode="&#x203a;" horiz-adv-x="718" 
d="M643 508l-395 -463l-160 133l283 334l-285 330l154 137l403 -463v-8z" />
    <glyph glyph-name="fraction" unicode="&#x2044;" horiz-adv-x="430" 
d="M-369 72l1035 1384l133 -100l-1032 -1379z" />
    <glyph glyph-name="zerosuperior" unicode="&#x2070;" horiz-adv-x="815" 
d="M72 1075q0 161 88 264t248 103q159 0 247 -105t88 -262q0 -159 -87 -262.5t-246 -103.5q-163 0 -250.5 100.5t-87.5 265.5zM291 1075q0 -192 119 -192q59 0 85.5 44.5t26.5 147.5t-28 148t-86 45q-117 0 -117 -193z" />
    <glyph glyph-name="foursuperior" unicode="&#x2074;" horiz-adv-x="763" 
d="M420 717v143h-395v137l317 437h195l-304 -414h187v158h188v-158h115v-160h-115v-143h-188z" />
    <glyph glyph-name="fivesuperior" unicode="&#x2075;" horiz-adv-x="710" 
d="M119 1020l41 414h463v-160h-320l-16 -111q45 17 98 17q118 0 188 -59t70 -160q0 -121 -86 -188.5t-225 -67.5q-221 0 -299 116l104 111q26 -31 69 -50.5t91 -19.5q127 0 127 88q0 39 -39.5 62.5t-116.5 23.5q-95 0 -149 -16z" />
    <glyph glyph-name="sixsuperior" unicode="&#x2076;" horiz-adv-x="808" 
d="M63 991q0 121 69 223.5t190.5 164.5t269.5 67l41 -139q-130 -13 -219.5 -67.5t-128.5 -139.5q33 28 85 46.5t111 18.5q120 0 193.5 -60t73.5 -159q0 -106 -93 -173.5t-233 -67.5q-173 0 -266 77.5t-93 208.5zM285 961q2 -40 38.5 -69.5t98.5 -29.5q49 0 77.5 23t28.5 57
q0 35 -28.5 57.5t-81.5 22.5q-84 0 -133 -61z" />
    <glyph glyph-name="sevensuperior" unicode="&#x2077;" horiz-adv-x="673" 
d="M29 1260v174h618v-125l-313 -592h-223l299 543h-381z" />
    <glyph glyph-name="eightsuperior" unicode="&#x2078;" horiz-adv-x="843" 
d="M414 1157h18q45 0 70.5 19t25.5 47q0 30 -29 47.5t-79 17.5q-47 0 -76 -18t-29 -49q0 -28 27.5 -46t71.5 -18zM432 1014h-16q-54 0 -89.5 -21t-35.5 -55t33 -55t98 -21q59 0 94 21t35 55q0 36 -33 56t-86 20zM422 705q-152 0 -244 53.5t-92 144.5q0 133 135 180v4
q-110 47 -110 170q0 84 87 136.5t224 52.5q136 0 223.5 -52.5t87.5 -136.5q0 -55 -32 -100.5t-95 -69.5v-2q67 -14 108.5 -57t41.5 -110q0 -101 -90 -157t-244 -56z" />
    <glyph glyph-name="ninesuperior" unicode="&#x2079;" horiz-adv-x="808" 
d="M745 1133q0 -193 -147.5 -308t-384.5 -120l-33 143q144 12 240.5 68t103.5 135q-31 -37 -83.5 -59.5t-112.5 -22.5q-118 0 -192.5 65.5t-74.5 159.5q0 113 92.5 182.5t233.5 69.5q175 0 266.5 -82.5t91.5 -230.5zM524 1174q-3 53 -38 83.5t-99 30.5q-49 0 -77.5 -23
t-28.5 -57q0 -37 29 -66.5t81 -29.5q83 0 133 62z" />
    <glyph glyph-name="uni207A" unicode="&#x207a;" horiz-adv-x="737" 
d="M86 1006v159h201v193h159v-193h203v-159h-203v-197h-159v197h-201z" />
    <glyph glyph-name="uni207B" unicode="&#x207b;" horiz-adv-x="737" 
d="M86 1006v159h563v-159h-563z" />
    <glyph glyph-name="uni207C" unicode="&#x207c;" horiz-adv-x="737" 
d="M86 852v160h563v-160h-563zM86 1159v160h563v-160h-563z" />
    <glyph glyph-name="uni207D" unicode="&#x207d;" horiz-adv-x="481" 
d="M461 748l-121 -119q-146 74 -212.5 193.5t-66.5 248.5q0 121 68.5 237t212.5 203l107 -116q-94 -64 -138.5 -139.5t-44.5 -184.5q0 -192 195 -323z" />
    <glyph glyph-name="uni207E" unicode="&#x207e;" horiz-adv-x="481" 
d="M20 1391l121 120q75 -38 131 -91.5t87.5 -113t46 -118.5t14.5 -119q0 -121 -68.5 -237t-212.5 -203l-108 116q94 64 139 139.5t45 184.5q0 195 -195 322z" />
    <glyph glyph-name="zeroinferior" unicode="&#x2080;" horiz-adv-x="815" 
d="M72 358q0 161 88 264t248 103q159 0 247 -105t88 -262q0 -159 -87 -262.5t-246 -103.5q-163 0 -250.5 100.5t-87.5 265.5zM291 358q0 -192 119 -192q59 0 85.5 44.5t26.5 147.5t-28 148t-86 45q-117 0 -117 -193z" />
    <glyph glyph-name="oneinferior" unicode="&#x2081;" horiz-adv-x="550" 
d="M33 561l231 154h148v-715h-205v479l-98 -57z" />
    <glyph glyph-name="twoinferior" unicode="&#x2082;" horiz-adv-x="743" 
d="M61 0v150q191 114 259 167q114 89 114 154q0 37 -24 58.5t-64 21.5q-41 0 -72.5 -31.5t-37.5 -70.5l-170 59q17 101 96.5 159t204.5 58q137 0 211.5 -62t74.5 -165q0 -188 -325 -324h358v-174h-625z" />
    <glyph glyph-name="threeinferior" unicode="&#x2083;" horiz-adv-x="739" 
d="M358 -12q-107 0 -194.5 38.5t-128.5 112.5l119 109q21 -38 69.5 -66t100.5 -28q62 0 93.5 19.5t31.5 51.5q0 29 -29.5 47.5t-91.5 18.5h-62v143h58q45 0 71.5 19.5t26.5 50.5q0 27 -24.5 43t-67.5 16q-106 0 -174 -84l-99 113q39 60 117 98.5t197 38.5q120 0 196 -49.5
t76 -132.5q0 -65 -42.5 -109t-115.5 -59v-2q87 -6 135 -53.5t48 -116.5q0 -99 -91 -159t-219 -60z" />
    <glyph glyph-name="fourinferior" unicode="&#x2084;" horiz-adv-x="763" 
d="M420 0v143h-395v138l317 436h195l-304 -414h187v158h188v-158h115v-160h-115v-143h-188z" />
    <glyph glyph-name="fiveinferior" unicode="&#x2085;" horiz-adv-x="710" 
d="M119 303l41 414h463v-160h-320l-16 -111q45 17 98 17q118 0 188 -59t70 -160q0 -121 -86 -188.5t-225 -67.5q-221 0 -299 116l104 111q26 -31 69 -50.5t91 -19.5q127 0 127 88q0 39 -39.5 62.5t-116.5 23.5q-95 0 -149 -16z" />
    <glyph glyph-name="sixinferior" unicode="&#x2086;" horiz-adv-x="808" 
d="M63 274q0 121 69 223.5t190.5 164.5t269.5 67l41 -139q-130 -13 -219.5 -67.5t-128.5 -139.5q33 28 85.5 47t110.5 19q120 0 193.5 -60t73.5 -160q0 -106 -93 -173.5t-233 -67.5q-173 0 -266 77.5t-93 208.5zM285 244q2 -40 38.5 -69.5t98.5 -29.5q49 0 77.5 23t28.5 57
q0 35 -28.5 57.5t-81.5 22.5q-84 0 -133 -61z" />
    <glyph glyph-name="seveninferior" unicode="&#x2087;" horiz-adv-x="673" 
d="M29 543v174h618v-125l-313 -592h-223l299 543h-381z" />
    <glyph glyph-name="eightinferior" unicode="&#x2088;" horiz-adv-x="843" 
d="M414 440h18q45 0 70.5 19t25.5 47q0 30 -29 47.5t-79 17.5q-47 0 -76 -18t-29 -49q0 -28 27.5 -46t71.5 -18zM432 297h-16q-54 0 -89.5 -21t-35.5 -55t33 -55t98 -21q59 0 94 21t35 55q0 36 -33 56t-86 20zM422 -12q-152 0 -244 53.5t-92 144.5q0 134 135 181v4
q-110 47 -110 170q0 84 87 136t224 52q136 0 223.5 -52t87.5 -136q0 -55 -32 -100.5t-95 -69.5v-2q67 -14 108.5 -57.5t41.5 -110.5q0 -101 -90 -157t-244 -56z" />
    <glyph glyph-name="nineinferior" unicode="&#x2089;" horiz-adv-x="808" 
d="M745 416q0 -193 -147.5 -308t-384.5 -120l-33 143q144 12 240.5 68t103.5 135q-31 -37 -83.5 -59.5t-112.5 -22.5q-118 0 -192.5 65.5t-74.5 159.5q0 113 92.5 182.5t233.5 69.5q175 0 266.5 -82.5t91.5 -230.5zM524 457q-3 53 -38 83.5t-99 30.5q-49 0 -77.5 -22.5
t-28.5 -56.5q0 -38 29 -67.5t81 -29.5q83 0 133 62z" />
    <glyph glyph-name="uni208A" unicode="&#x208a;" horiz-adv-x="737" 
d="M86 289v160h201v192h159v-192h203v-160h-203v-197h-159v197h-201z" />
    <glyph glyph-name="uni208B" unicode="&#x208b;" horiz-adv-x="737" 
d="M86 289v160h563v-160h-563z" />
    <glyph glyph-name="uni208C" unicode="&#x208c;" horiz-adv-x="737" 
d="M86 135v160h563v-160h-563zM86 442v160h563v-160h-563z" />
    <glyph glyph-name="uni208D" unicode="&#x208d;" horiz-adv-x="481" 
d="M461 31l-121 -119q-146 74 -212.5 193.5t-66.5 248.5q0 121 68.5 237.5t212.5 203.5l107 -117q-94 -64 -138.5 -139.5t-44.5 -184.5q0 -192 195 -323z" />
    <glyph glyph-name="uni208E" unicode="&#x208e;" horiz-adv-x="481" 
d="M20 674l121 121q75 -38 131 -91.5t87.5 -113.5t46 -119t14.5 -119q0 -121 -68.5 -237t-212.5 -203l-108 117q94 64 139 139t45 184q0 194 -195 322z" />
    <glyph glyph-name="Euro" unicode="&#x20ac;" 
d="M37 813l72 191h153q71 206 243.5 329t418.5 123q75 0 150 -16t120 -41l-88 -217q-73 39 -184 39q-118 0 -217 -56t-158 -161h512l-72 -191h-500q-6 -47 -6 -96t4 -72h455l-63 -190h-334q60 -115 167.5 -178.5t243.5 -63.5q112 0 179 31l38 -228q-92 -39 -237 -39
q-247 0 -428 127.5t-252 350.5h-215l72 190h106q-2 23 -2 72q0 30 4 96h-182z" />
    <glyph glyph-name="uni20AE" unicode="&#x20ae;" 
d="M61 1198v236h1100v-236h-424v-252l254 117v-191l-254 -118v-168l254 116v-190l-254 -119v-393h-252v276l-254 -116v192l254 117v168l-254 -117v193l254 116v369h-424z" />
    <glyph glyph-name="uni20B4" unicode="&#x20b4;" horiz-adv-x="1228" 
d="M139 821v191h598q6 30 6 57q-1 81 -40 116.5t-97 35.5q-131 0 -235 -91l-121 177q64 74 161 111.5t210 37.5q170 0 273 -89.5t103 -231.5q0 -31 -9.5 -68.5t-22.5 -54.5h125v-191h-240q-39 -40 -108.5 -95.5t-88.5 -72.5h437v-190h-605q-34 -46 -34 -98q0 -69 55 -110.5
t145 -41.5q150 0 269 119l122 -162q-68 -92 -178 -142.5t-246 -50.5q-102 0 -192.5 39t-150.5 119.5t-60 186.5q0 80 39 141h-115v190h250q33 33 103.5 89t97.5 79h-451z" />
    <glyph glyph-name="uni20B8" unicode="&#x20b8;" 
d="M82 840v235h1059v-235h-404v-840h-252v840h-403zM82 1243v191h1059v-191h-1059z" />
    <glyph glyph-name="uni20BA" unicode="&#x20ba;" 
d="M20 776v193l175 80v385h251v-269l334 154v-191l-334 -155v-168l334 153v-190l-334 -156v-376q87 -5 121 -5q101 0 172.5 34.5t112.5 102.5t59.5 156.5t18.5 206.5v10h266v-10q0 -128 -17.5 -232t-63 -200t-118.5 -161t-189 -103.5t-269 -38.5q-43 0 -157 2t-159 2h-28
v496l-175 -80v192l175 80v168z" />
    <glyph glyph-name="uni20BD" unicode="&#x20bd;" horiz-adv-x="1228" 
d="M27 610v189h200v635q37 0 195 2t211 2q555 0 555 -420q0 -188 -136 -298t-386 -110h-189v-170h336v-188h-336v-252h-250v252h-200v188h200v170h-200zM659 1202q-46 0 -182 -4v-399h180q120 0 192.5 47t72.5 149q0 110 -65.5 158.5t-197.5 48.5z" />
    <glyph glyph-name="uni20BF" unicode="&#x20bf;" 
d="M176 2v1428q23 0 125 4v184h191v-178h98q13 0 35.5 -1t33.5 -1v180h191v-221q211 -83 211 -312q0 -230 -205 -325v-4q113 -28 182.5 -113t69.5 -221q0 -143 -68 -239t-190 -144v-244h-191v201q-58 -4 -84 -4h-83v-197h-191v201zM606 616h-178v-378q96 -11 166 -11
q128 0 195 53t67 154q0 90 -65 136t-185 46zM586 1204q-90 0 -158 -6v-362h170q93 0 153 48t60 142q0 86 -60.5 132t-164.5 46z" />
    <glyph glyph-name="uni20C0" unicode="&#x20c0;" 
d="M88 0v190h1083v-190h-1083zM1038 647l97 -188q-68 -72 -194 -117t-265 -45q-127 0 -239 40t-196 112.5t-133 183.5t-49 244q0 122 45.5 228.5t126.5 184t200 122t259 44.5q136 0 249.5 -39t186.5 -106l-112 -187q-146 97 -324 97q-158 0 -261 -90.5t-103 -253.5
q0 -165 97.5 -255t274.5 -90q192 0 340 115z" />
    <glyph glyph-name="uni2116" unicode="&#x2116;" horiz-adv-x="2435" 
d="M1382 0h-200l-748 993v-993h-235v1434h200l748 -998v998h235v-1434zM1495 983q0 164 113 264.5t290 100.5t290.5 -100.5t113.5 -264.5q0 -163 -114 -265t-290 -102t-289.5 102t-113.5 265zM1714 983q0 -79 53 -127.5t131 -48.5q80 0 131.5 48t51.5 128q0 78 -52.5 126
t-130.5 48t-131 -48t-53 -126zM1571 299v219h653v-219h-653z" />
    <glyph glyph-name="trademark" unicode="&#x2122;" horiz-adv-x="1771" 
d="M776 788v646h199l244 -222l231 222h192v-646h-223v367l-205 -199h-4l-213 199v-367h-221zM35 1221v213h661v-213h-219v-433h-221v433h-221z" />
    <glyph glyph-name="arrowleft" unicode="&#x2190;" horiz-adv-x="1316" 
d="M662 1139l165 -168l-295 -293h703v-236h-703l295 -297l-165 -165l-580 579z" />
    <glyph glyph-name="arrowup" unicode="&#x2191;" horiz-adv-x="1323" 
d="M248 408l-166 165l580 580l579 -580l-168 -165l-295 294v-702h-235v702z" />
    <glyph glyph-name="arrowright" unicode="&#x2192;" horiz-adv-x="1316" 
d="M489 971l166 168l580 -580l-580 -579l-166 165l295 297h-702v236h702z" />
    <glyph glyph-name="arrowdown" unicode="&#x2193;" horiz-adv-x="1323" 
d="M82 539l166 166l295 -295v702h235v-702l295 295l168 -166l-579 -580z" />
    <glyph glyph-name="partialdiff" unicode="&#x2202;" horiz-adv-x="1216" 
d="M74 412q0 143 62.5 263.5t182 194.5t271.5 74q109 0 186 -39t117 -96q0 201 -123.5 313.5t-361.5 122.5l34 211q334 -6 517.5 -176.5t183.5 -482.5q0 -135 -23.5 -256t-73 -224.5t-120 -179t-171 -118t-220.5 -42.5q-208 0 -334.5 125t-126.5 310zM326 432q0 -99 64 -167
t171 -68q128 0 210.5 112.5t102.5 280.5q-110 133 -274 133q-118 0 -196 -84.5t-78 -206.5z" />
    <glyph glyph-name="product" unicode="&#x220f;" horiz-adv-x="1806" 
d="M1356 -410v1608h-905v-1608h-252v1844h1409v-1844h-252z" />
    <glyph glyph-name="summation" unicode="&#x2211;" horiz-adv-x="1314" 
d="M662 512l-580 748v174h1151v-236h-799l518 -686l-534 -686h815v-236h-1151v172z" />
    <glyph glyph-name="minus" unicode="&#x2212;" 
d="M135 635v205h950v-205h-950z" />
    <glyph glyph-name="uni2215" unicode="&#x2215;" horiz-adv-x="735" 
d="M-61 -358l675 1814l183 -67l-676 -1815z" />
    <glyph glyph-name="radical" unicode="&#x221a;" horiz-adv-x="1275" 
d="M14 686v236h367l311 -525l250 1037h600v-236h-395l-299 -1202h-205l-424 690h-205z" />
    <glyph glyph-name="infinity" unicode="&#x221e;" horiz-adv-x="1548" 
d="M1130 344q-114 0 -200 50.5t-160 137.5q-67 -88 -147 -138t-189 -50q-136 0 -239 98.5t-103 255.5q0 146 97 252.5t251 106.5q103 0 181.5 -53t150.5 -146q31 44 63 76.5t75 62t98 45t120 15.5q148 0 238 -103t90 -264q0 -141 -91 -243.5t-235 -102.5zM459 549
q62 0 107 34.5t91 100.5q-58 84 -101 126t-95 42q-68 0 -109 -44t-41 -110q0 -69 42.5 -109t105.5 -40zM1087 852q-58 0 -103 -39t-95 -113q55 -73 104.5 -112t108.5 -39q60 0 96.5 43t36.5 106q0 64 -39 109t-109 45z" />
    <glyph glyph-name="integral" unicode="&#x222b;" horiz-adv-x="665" 
d="M377 -16q0 -199 -58.5 -300.5t-209.5 -107.5q-49 -3 -101 6q-98 12 -147 58l63 186q54 -33 105 -33q29 0 50 11t33 28t18.5 45.5t8.5 55.5t2 65v1073q0 181 80 278t225 105q58 0 105 -8q115 -15 176 -76l-80 -180q-39 34 -90 39q-43 8 -86 -2q-41 -11 -67.5 -55.5
t-26.5 -118.5v-1069z" />
    <glyph glyph-name="approxequal" unicode="&#x2248;" 
d="M188 395l-102 152q66 75 145 119.5t154 44.5q56 0 123 -22t118.5 -48t117 -48t118.5 -22q46 0 95.5 26.5t84.5 66.5l93 -162q-63 -60 -135.5 -97.5t-139.5 -37.5q-55 0 -121 21.5t-117.5 48t-113.5 48t-109 21.5q-100 0 -211 -111zM188 784l-102 152q66 75 145 119.5
t154 44.5q56 0 123 -21.5t118.5 -48t117 -48t118.5 -21.5q46 0 95.5 26t84.5 66l93 -162q-63 -60 -135.5 -97.5t-139.5 -37.5q-55 0 -121 21.5t-117.5 48t-113.5 48t-109 21.5q-100 0 -211 -111z" />
    <glyph glyph-name="notequal" unicode="&#x2260;" 
d="M135 829v205h479l160 422l180 -67l-133 -355h264v-205h-340l-67 -184h407v-205h-485l-172 -463l-184 68l147 395h-256v205h334l70 184h-404z" />
    <glyph glyph-name="lessequal" unicode="&#x2264;" 
d="M100 496v215l951 -545v-225zM1051 330l-951 555v100l951 551v-254l-627 -346l627 -350v-256z" />
    <glyph glyph-name="greaterequal" unicode="&#x2265;" 
d="M1120 711v-215l-952 -555v225zM1120 885l-952 -555v256l629 350l-629 346v254l952 -551v-100z" />
    <glyph glyph-name="angleleft" unicode="&#x2329;" horiz-adv-x="862" 
d="M776 1434l-434 -717l434 -717h-266l-434 713v8l434 713h266z" />
    <glyph glyph-name="angleright" unicode="&#x232a;" horiz-adv-x="862" 
d="M520 717l-434 717h266l434 -713v-8l-434 -713h-266z" />
    <glyph glyph-name="lozenge" unicode="&#x25ca;" horiz-adv-x="999" 
d="M403 -4l-342 514l345 547h190l342 -525l-344 -536h-191zM299 512l201 -301l200 321l-200 295z" />
    <glyph glyph-name="spade" unicode="&#x2660;" horiz-adv-x="1294" 
d="M647 1044q112 -70 230.5 -181.5t206 -239t87.5 -215.5q0 -87 -60.5 -150t-178.5 -63q-163 0 -268 147q28 -119 79 -203.5t140 -138.5h-471q150 107 215 336q-103 -141 -265 -141q-118 0 -178.5 63.5t-60.5 151.5q0 66 51.5 157t130 179t169.5 167.5t173 130.5z" />
    <glyph glyph-name="club" unicode="&#x2663;" horiz-adv-x="1253" 
d="M362 780q0 109 78 186.5t187 77.5t186.5 -77.5t77.5 -186.5q0 -15 -4 -39q102 -8 172.5 -83.5t70.5 -178.5q0 -109 -77.5 -186.5t-186.5 -77.5q-65 0 -121 29.5t-92 79.5q64 -236 209 -324h-471q130 92 205 319q-37 -46 -93 -75t-116 -29q-109 0 -186.5 77.5t-77.5 186.5
q0 103 70.5 178.5t171.5 83.5q-3 18 -3 39z" />
    <glyph glyph-name="heart" unicode="&#x2665;" horiz-adv-x="1329" 
d="M666 0q-86 65 -179 158.5t-175.5 197.5t-135.5 212.5t-53 189.5q0 51 14.5 97t43.5 84.5t78 61.5t112 23q182 0 295 -213q109 213 292 213q83 0 141 -40t82.5 -98t24.5 -126q0 -82 -53 -191t-135 -213t-174 -197.5t-178 -158.5z" />
    <glyph glyph-name="diamond" unicode="&#x2666;" horiz-adv-x="1193" 
d="M1071 510q-222 -222 -475 -549q-213 280 -473 549q221 231 473 551q256 -324 475 -551z" />
    <glyph glyph-name="uniF350" unicode="&#xf350;" horiz-adv-x="1251" 
d="M12 0l502 1077h223l502 -1077h-268l-101 221h-505l-101 -221h-252zM618 784l-149 -329h297z" />
    <glyph glyph-name="uniF351" unicode="&#xf351;" horiz-adv-x="1103" 
d="M922 1075v-235h-512v-164q52 8 176 8q194 0 302.5 -85.5t108.5 -246.5q0 -360 -467 -360q-85 0 -215 4t-155 4v1075h762zM555 451q-94 0 -145 -9v-211q94 -4 147 -4q103 0 147 28t44 85q0 56 -45.5 83.5t-147.5 27.5z" />
    <glyph glyph-name="uniF352" unicode="&#xf352;" horiz-adv-x="1105" 
d="M160 2v1069q165 10 403 10q204 0 302 -73.5t98 -192.5q0 -86 -43 -152t-123 -98v-2q202 -37 202 -237q0 -163 -125 -248.5t-327 -85.5q-270 0 -387 10zM578 430h-168v-192q63 -11 157 -11q181 0 181 105q0 49 -44.5 73.5t-125.5 24.5zM559 846q-97 0 -149 -6v-189h155
q65 0 106.5 24.5t41.5 74.5q0 96 -154 96z" />
    <glyph glyph-name="uniF353" unicode="&#xf353;" horiz-adv-x="903" 
d="M160 0v1075h712v-235h-462v-840h-250z" />
    <glyph glyph-name="uniF354" unicode="&#xf354;" horiz-adv-x="1306" 
d="M18 -184v420h129q50 57 108 225.5t71 398.5l10 215h770v-839h164v-420h-236v184h-780v-184h-236zM559 686q-17 -165 -57.5 -288t-77.5 -162h430v604h-274z" />
    <glyph glyph-name="uniF355" unicode="&#xf355;" horiz-adv-x="1019" 
d="M160 0v1075h735v-235h-485v-181h436v-235h-436v-188h503v-236h-753z" />
    <glyph glyph-name="uniF356" unicode="&#xf356;" horiz-adv-x="1675" 
d="M457 561l-422 514h303l375 -485v485h252v-485l374 485h303l-421 -510l440 -565h-303l-393 530v-530h-252v530l-394 -530h-303z" />
    <glyph glyph-name="uniF357" unicode="&#xf357;" horiz-adv-x="1056" 
d="M506 -23q-161 0 -279 59t-174 136l137 170q133 -129 318 -129q92 0 141 28t49 81q0 106 -194 106h-160v236h152q66 0 111.5 25.5t45.5 68.5q0 96 -147 96q-178 0 -270 -111l-146 170q64 80 173.5 128.5t250.5 48.5q169 0 279 -80.5t110 -223.5q0 -75 -35 -135.5
t-104 -91.5v-6q93 -21 139.5 -90t46.5 -166q0 -148 -122 -234t-322 -86z" />
    <glyph glyph-name="uniF358" unicode="&#xf358;" horiz-adv-x="1357" 
d="M379 0h-219v1075h250v-676l569 676h219v-1075h-250v676z" />
    <glyph glyph-name="uniF359" unicode="&#xf359;" horiz-adv-x="1357" 
d="M379 0h-219v1075h250v-676l569 676h219v-1075h-250v676zM340 1434h219q0 -109 123 -109q113 0 113 109h221q0 -132 -89.5 -207.5t-244.5 -75.5q-169 0 -255.5 73.5t-86.5 209.5z" />
    <glyph glyph-name="uniF35A" unicode="&#xf35a;" horiz-adv-x="1200" 
d="M160 0v1075h250v-487l415 487h326l-459 -495l492 -580h-340l-434 532v-532h-250z" />
    <glyph glyph-name="uniF35B" unicode="&#xf35b;" horiz-adv-x="1255" 
d="M844 0v840h-299l-25 -203q-19 -167 -49 -285.5t-72 -192.5t-96.5 -114t-121 -48.5t-146.5 3.5l4 242q18 -6 37 -2.5t37.5 9t37 26t35.5 48.5t33.5 77t30.5 111.5t26 151.5t21 197l18 215h781v-1075h-252z" />
    <glyph glyph-name="uniF35C" unicode="&#xf35c;" horiz-adv-x="1558" 
d="M160 0v1075h252l385 -448l364 448h238v-1075h-250v692l-352 -413h-35l-352 407v-686h-250z" />
    <glyph glyph-name="uniF35D" unicode="&#xf35d;" horiz-adv-x="1329" 
d="M920 0v430h-510v-430h-250v1075h250v-409h510v409h249v-1075h-249z" />
    <glyph glyph-name="uniF35E" unicode="&#xf35e;" horiz-adv-x="1349" 
d="M72 535q0 116 44 218t121.5 176.5t191 117.5t245.5 43q174 0 310.5 -66.5t215 -193.5t78.5 -295q0 -161 -78 -288.5t-216 -198.5t-310 -71q-173 0 -309 67t-214.5 194.5t-78.5 296.5zM338 535q0 -136 97.5 -229t238.5 -93q160 0 249 90.5t89 231.5q0 144 -96.5 231.5
t-241.5 87.5q-148 0 -242 -87t-94 -232z" />
    <glyph glyph-name="uniF35F" unicode="&#xf35f;" horiz-adv-x="1329" 
d="M920 0v840h-510v-840h-250v1075h1009v-1075h-249z" />
    <glyph glyph-name="uniF360" unicode="&#xf360;" horiz-adv-x="1067" 
d="M410 0h-250v1075q30 0 169.5 2t186.5 2q131 0 226.5 -30t149.5 -83.5t78.5 -120t24.5 -147.5q0 -169 -118.5 -278t-323.5 -109q-72 0 -143 6v-317zM543 844q-51 0 -133 -4v-285q86 -8 135 -8q83 0 133.5 38.5t50.5 112.5q0 146 -186 146z" />
    <glyph glyph-name="uniF361" unicode="&#xf361;" horiz-adv-x="1124" 
d="M975 291l96 -189q-56 -55 -163 -90t-224 -35q-279 0 -445.5 152.5t-166.5 405.5q0 113 38 211.5t110.5 176t190.5 122.5t267 45q114 0 211 -31t158 -80l-113 -188q-63 31 -119.5 47t-134.5 16q-154 0 -248 -83t-94 -236q0 -143 100.5 -232.5t268.5 -89.5q150 0 268 78z
" />
    <glyph glyph-name="uniF362" unicode="&#xf362;" horiz-adv-x="1030" 
d="M18 840v235h994v-235h-373v-840h-250v840h-371z" />
    <glyph glyph-name="uniF363" unicode="&#xf363;" horiz-adv-x="1161" 
d="M1147 1075l-406 -813q-62 -129 -146 -195.5t-200 -66.5q-92 0 -159 47l88 213q44 -24 84 -24q58 0 92 61l18 29l-500 749h316l311 -502l244 502h258z" />
    <glyph glyph-name="uniF364" unicode="&#xf364;" horiz-adv-x="1443" 
d="M594 -12v114q-247 3 -394 122t-147 329q0 207 148.5 326.5t392.5 124.5v83h252v-83q247 -5 395 -121t148 -330q0 -211 -148 -330t-395 -121v-114h-252zM1122 553q0 85 -69.5 151.5t-206.5 69.5v-442q140 3 208 62.5t68 158.5zM319 553q0 -95 71 -156.5t204 -64.5v442
q-132 -3 -203.5 -70t-71.5 -151z" />
    <glyph glyph-name="uniF365" unicode="&#xf365;" horiz-adv-x="1153" 
d="M1130 1075l-391 -526l408 -549h-311l-263 356l-256 -356h-311l408 549l-389 526h311l246 -342l239 342h309z" />
    <glyph glyph-name="uniF366" unicode="&#xf366;" horiz-adv-x="1345" 
d="M160 0v1075h250v-839h485v839h252v-839h162v-420h-234v184h-915z" />
    <glyph glyph-name="uniF367" unicode="&#xf367;" horiz-adv-x="1179" 
d="M1020 1075v-1075h-250v412q-100 -66 -270 -66q-70 0 -133.5 17.5t-121 55.5t-92 107.5t-34.5 163.5v385h250v-295q0 -198 184 -198q126 0 217 57v436h250z" />
    <glyph glyph-name="uniF368" unicode="&#xf368;" horiz-adv-x="1714" 
d="M160 0v1075h250v-839h321v839h252v-839h322v839h249v-1075h-1394z" />
    <glyph glyph-name="uniF369" unicode="&#xf369;" horiz-adv-x="1755" 
d="M160 0v1075h250v-839h321v839h252v-839h322v839h249v-839h164v-420h-235v184h-1323z" />
    <glyph glyph-name="uniF36A" unicode="&#xf36a;" horiz-adv-x="1157" 
d="M14 840v235h500v-334q55 7 119 7q227 0 339.5 -97t112.5 -268q0 -176 -131.5 -281.5t-373.5 -105.5q-67 0 -177.5 2t-140.5 2v840h-248zM610 512q-38 0 -96 -6v-270q44 -5 113 -5q88 0 140 35.5t52 110.5q0 135 -209 135z" />
    <glyph glyph-name="uniF36B" unicode="&#xf36b;" horiz-adv-x="1507" 
d="M1096 0v1075h252v-1075h-252zM506 512q-57 0 -96 -4v-272q44 -5 94 -5q194 0 194 146q0 67 -51 101t-141 34zM410 1075v-334q55 7 116 7q217 0 328 -97t111 -268q0 -175 -130.5 -281t-361.5 -106q-67 0 -175.5 2t-137.5 2v1075h250z" />
    <glyph glyph-name="uniF36C" unicode="&#xf36c;" horiz-adv-x="1054" 
d="M508 512q-20 0 -98 -4v-272q88 -5 94 -5q213 0 213 146q0 135 -209 135zM410 1075v-334q55 7 118 7q227 0 341 -97t114 -268q0 -176 -134 -281.5t-376 -105.5q-66 0 -175 2t-138 2v1075h250z" />
    <glyph glyph-name="uniF36D" unicode="&#xf36d;" horiz-adv-x="1150" 
d="M315 430v236h492q-68 192 -342 192q-199 0 -320 -78l-96 189q71 53 180.5 89t245.5 36q264 0 434 -154t170 -403q0 -258 -172 -406.5t-465 -148.5q-123 0 -233 32t-170 80l106 211q133 -88 328 -88q285 0 342 213h-500z" />
    <glyph glyph-name="uniF36E" unicode="&#xf36e;" horiz-adv-x="1796" 
d="M160 0v1075h250v-409h170q38 192 185 310t374 118q271 0 428 -149t157 -406q0 -249 -158.5 -403t-426.5 -154q-223 0 -375.5 119.5t-185.5 328.5h-168v-430h-250zM836 539q0 -140 86 -231t225 -91q151 0 231 90t80 232q0 145 -84.5 232t-226.5 87q-139 0 -225 -87.5
t-86 -231.5z" />
    <glyph glyph-name="uniF36F" unicode="&#xf36f;" horiz-adv-x="1144" 
d="M733 0v328h-188l-226 -328h-296l278 383q-182 104 -182 301q0 79 28.5 148t85 126t154 90t223.5 33q77 0 212 -3t163 -3v-1075h-252zM524 563h209v277q-69 6 -147 6q-95 0 -148 -39.5t-53 -106.5q0 -55 40.5 -91t98.5 -46z" />
    <glyph glyph-name="uniF371" unicode="&#xf371;" horiz-adv-x="1019" 
d="M160 0v1075h735v-235h-485v-181h436v-235h-436v-188h503v-236h-753zM221 1321q0 56 38 89.5t95 33.5q46 0 82.5 -34.5t36.5 -88.5q0 -58 -36.5 -92.5t-82.5 -34.5q-58 0 -95.5 33.5t-37.5 93.5zM588 1321q0 55 38.5 89t92.5 34q48 0 85.5 -34t37.5 -89q0 -58 -37 -92.5
t-86 -34.5q-55 0 -93 34t-38 93z" />
    <glyph glyph-name="uniF372" unicode="&#xf372;" horiz-adv-x="1314" 
d="M1243 328q0 -173 -82.5 -259.5t-232.5 -86.5q-69 0 -131 23t-86 52l82 193q53 -33 102 -33q47 0 71.5 23t24.5 77q0 111 -157 111q-41 0 -81 -9t-59.5 -17.5t-54.5 -24.5v-377h-250v840h-371v235h994v-235h-373v-219q114 43 242 43q77 0 141 -18.5t114.5 -57t78.5 -105
t28 -155.5z" />
    <glyph glyph-name="uniF373" unicode="&#xf373;" horiz-adv-x="903" 
d="M160 0v1075h712v-235h-462v-840h-250zM778 1409l-305 -242l-113 131l273 291z" />
    <glyph glyph-name="uniF374" unicode="&#xf374;" horiz-adv-x="1150" 
d="M838 659v-235h-498q34 -107 130 -157t235 -50q184 0 317 88l90 -211q-60 -48 -168.5 -80t-232.5 -32q-295 0 -467 148.5t-172 408.5q0 248 170.5 401.5t435.5 153.5q136 0 244.5 -36t179.5 -89l-111 -189q-58 37 -144.5 57.5t-160.5 20.5q-155 0 -239 -49.5t-111 -149.5
h502z" />
    <glyph glyph-name="uniF375" unicode="&#xf375;" horiz-adv-x="1024" 
d="M686 309q0 31 -32.5 55.5t-84.5 42t-114.5 36.5t-125 46t-114.5 62.5t-84.5 93.5t-32.5 133q0 65 24.5 119.5t75 98.5t137.5 69t204 25q101 0 223 -44t180 -106l-115 -186q-58 43 -146.5 71.5t-152.5 28.5q-163 0 -163 -88q0 -29 32.5 -50.5t84 -38t114.5 -34t125.5 -45
t114 -64t84 -97.5t32.5 -140q0 -142 -121 -231t-313 -89q-134 0 -268 52t-195 135l144 170q52 -48 152 -84.5t186 -36.5q66 0 107.5 25.5t41.5 70.5z" />
    <glyph glyph-name="uniF376" unicode="&#xf376;" horiz-adv-x="608" 
d="M178 0v1075h252v-1075h-252z" />
    <glyph glyph-name="uniF377" unicode="&#xf377;" horiz-adv-x="659" 
d="M59 1321q0 52 34.5 83.5t86.5 31.5q44 0 77.5 -32.5t33.5 -82.5q0 -56 -33.5 -89.5t-77.5 -33.5q-53 0 -87 33t-34 90zM371 1321q0 51 35 83t86 32q45 0 77.5 -32t32.5 -83q0 -56 -32.5 -89.5t-77.5 -33.5q-51 0 -86 33t-35 90zM205 0v1075h252v-1075h-252z" />
    <glyph glyph-name="uniF378" unicode="&#xf378;" horiz-adv-x="688" 
d="M528 1075v-811q0 -138 -78 -210t-227 -72q-72 0 -134 22.5t-85 52.5l82 193q49 -33 100 -33q45 0 69 23t24 67v768h249z" />
    <glyph glyph-name="uniF379" unicode="&#xf379;" horiz-adv-x="1720" 
d="M844 0v840h-293l-29 -203q-21 -167 -52 -285.5t-73 -193t-96 -113.5t-120 -48t-146 3l4 250q18 -5 37 -2t37.5 8t37 24.5t35.5 47t33.5 75.5t30.5 110t26 150.5t21 196.5l18 215h781v-334q52 7 114 7q217 0 328 -97t111 -268q0 -177 -130 -282t-362 -105q-67 0 -175.5 2
t-137.5 2zM1188 512q-36 0 -92 -6v-268q54 -7 90 -7q196 0 196 146q0 67 -51 101t-143 34z" />
    <glyph glyph-name="uniF37A" unicode="&#xf37a;" horiz-adv-x="1779" 
d="M160 0v1075h250v-375h493v375h250v-364q47 4 117 4q215 0 326.5 -93.5t111.5 -252.5q0 -167 -130.5 -270t-360.5 -103q-51 0 -142 2t-123 2h-49v465h-493v-465h-250zM1153 475v-237q58 -7 92 -7q95 0 146 33.5t51 95.5q0 58 -52.5 89.5t-142.5 31.5q-35 0 -94 -6z" />
    <glyph glyph-name="uniF37B" unicode="&#xf37b;" horiz-adv-x="1314" 
d="M18 840v235h994v-235h-373v-238q99 47 238 47q56 0 106 -10t98.5 -35t83.5 -63t56.5 -98t21.5 -136v-307h-252v231q0 101 -44.5 142t-123.5 41q-106 0 -184 -43v-371h-250v840h-371z" />
    <glyph glyph-name="uniF37C" unicode="&#xf37c;" horiz-adv-x="1200" 
d="M160 0v1075h250v-487l415 487h326l-459 -495l492 -580h-340l-434 532v-532h-250zM850 1409l-305 -242l-113 131l273 291z" />
    <glyph glyph-name="uniF37E" unicode="&#xf37e;" horiz-adv-x="1161" 
d="M1147 1075l-406 -813q-62 -129 -146 -195.5t-200 -66.5q-92 0 -159 47l88 213q44 -24 84 -24q58 0 92 61l18 29l-500 749h316l311 -502l244 502h258zM250 1434h219q0 -109 123 -109q113 0 113 109h221q0 -132 -89.5 -207.5t-244.5 -75.5q-169 0 -255.5 73.5t-86.5 209.5z
" />
    <glyph glyph-name="uniF37F" unicode="&#xf37f;" horiz-adv-x="1312" 
d="M160 0v1075h250v-839h493v839h250v-1075h-379v-231h-235v231h-379z" />
    <glyph glyph-name="uniF381" unicode="&#xf381;" horiz-adv-x="1079" 
d="M14 768v205h170v102h252v-102h252v-205h-252v-88q47 6 117 6q231 0 343 -83.5t112 -250.5q0 -172 -130.5 -264t-377.5 -92q-67 0 -176.5 2t-139.5 2v768h-170zM532 465q-12 0 -43.5 -1t-52.5 -1v-244q17 0 47 -2t45 -2q213 0 213 131q0 119 -209 119z" />
    <glyph glyph-name="uniF389" unicode="&#xf389;" horiz-adv-x="1349" 
d="M72 535q0 116 44 218t121.5 176.5t191 117.5t245.5 43q174 0 310.5 -66.5t215 -193.5t78.5 -295q0 -161 -78 -288.5t-216 -198.5t-310 -71q-173 0 -309 67t-214.5 194.5t-78.5 296.5zM496 506q-82 0 -148 -57q29 -105 118.5 -170.5t207.5 -65.5q104 0 180 40.5t115 111.5
q-55 -25 -103 -25q-54 0 -109.5 26t-93 57t-83.5 57t-84 26zM887 561q62 0 117 43q-23 115 -113.5 182.5t-216.5 67.5q-99 0 -176.5 -41t-118.5 -115q66 29 119 29q58 0 116 -26t96.5 -57t86.5 -57t90 -26z" />
    <glyph glyph-name="uniF38A" unicode="&#xf38a;" horiz-adv-x="1122" 
d="M958 725l-292 -725h-193l-485 1075h284l306 -733l178 489q61 174 145.5 228t251.5 16v-205q-67 12 -112 -21t-83 -124z" />
    <glyph glyph-name="uniF393" unicode="&#xf393;" horiz-adv-x="919" 
d="M160 0v1075h493v168h236v-403h-479v-840h-250z" />
    <glyph glyph-name="uniF394" unicode="&#xf394;" horiz-adv-x="905" 
d="M162 0v401h-144v220h144v454h712v-235h-462v-219h327v-220h-327v-401h-250z" />
    <glyph glyph-name="uniF395" unicode="&#xf395;" horiz-adv-x="1075" 
d="M160 0v1075h712v-235h-462v-219q114 43 231 43q77 0 141 -20t114.5 -60.5t79 -108.5t28.5 -158v-391q0 -174 -83.5 -263t-232.5 -89q-69 0 -131 23.5t-86 52.5l82 192q52 -32 102 -32q97 0 97 118v322q0 89 -41.5 133.5t-116.5 44.5q-41 0 -78 -8.5t-56 -17t-50 -25.5
v-377h-250z" />
    <glyph glyph-name="uniF396" unicode="&#xf396;" horiz-adv-x="1679" 
d="M457 561l-422 514h303l375 -485v485h252v-485l374 485h303l-421 -510l266 -329h160v-420h-234v184h-45l-403 530v-530h-252v530l-394 -530h-303z" />
    <glyph glyph-name="uniF397" unicode="&#xf397;" horiz-adv-x="1056" 
d="M623 -231h-236v219q-118 20 -204.5 71.5t-129.5 112.5l137 170q133 -129 318 -129q92 0 141 28t49 81q0 106 -194 106h-160v236h152q66 0 111.5 25.5t45.5 68.5q0 96 -147 96q-178 0 -270 -111l-146 170q64 80 173.5 128.5t250.5 48.5q169 0 279 -80.5t110 -223.5
q0 -75 -35 -135.5t-104 -91.5v-6q93 -21 139.5 -90t46.5 -166q0 -124 -88 -205.5t-239 -103.5v-219z" />
    <glyph glyph-name="uniF398" unicode="&#xf398;" horiz-adv-x="1185" 
d="M160 0v1075h250v-487l415 487h326l-459 -495l301 -344h160v-420h-233v184h-66l-444 532v-532h-250z" />
    <glyph glyph-name="uniF399" unicode="&#xf399;" horiz-adv-x="1277" 
d="M481 227v635h195v-133l258 346h307l-397 -510l418 -565h-318l-268 381v-154h-195zM160 0v1075h250v-1075h-250z" />
    <glyph glyph-name="uniF39B" unicode="&#xf39b;" horiz-adv-x="1333" 
d="M14 840v235h529v-487l415 487h326l-459 -495l492 -580h-340l-434 532v-532h-250v840h-279z" />
    <glyph glyph-name="uniF39C" unicode="&#xf39c;" horiz-adv-x="1368" 
d="M920 0v430h-510v-430h-250v1075h250v-409h510v409h249v-839h162v-420h-233v184h-178z" />
    <glyph glyph-name="uniF39D" unicode="&#xf39d;" horiz-adv-x="1634" 
d="M901 0v430h-489v-430h-250v1075h250v-409h489v409h703v-235h-453v-840h-250z" />
    <glyph glyph-name="uniF3A0" unicode="&#xf3a0;" horiz-adv-x="1124" 
d="M975 291l96 -189q-43 -42 -116.5 -73t-159.5 -43v-217h-236v219q-226 32 -356.5 178.5t-130.5 368.5q0 113 38 211.5t110.5 176t190.5 122.5t267 45q114 0 211 -31t158 -80l-113 -188q-63 31 -119.5 47t-134.5 16q-154 0 -248 -83t-94 -236q0 -143 100.5 -232.5
t268.5 -89.5q150 0 268 78z" />
    <glyph glyph-name="uniF3A2" unicode="&#xf3a2;" horiz-adv-x="1105" 
d="M1102 1075l-426 -639v-436h-250v436l-422 639h303l254 -403l256 403h285z" />
    <glyph glyph-name="uniF3A3" unicode="&#xf3a3;" horiz-adv-x="1105" 
d="M1102 1075l-350 -524h182v-219h-258v-332h-250v332h-258v219h182l-346 524h303l254 -403l256 403h285z" />
    <glyph glyph-name="uniF3A4" unicode="&#xf3a4;" horiz-adv-x="1165" 
d="M1130 1075l-391 -526l232 -313h162v-420h-234v184h-63l-263 356l-256 -356h-311l408 549l-389 526h311l246 -342l239 342h309z" />
    <glyph glyph-name="uniF3A6" unicode="&#xf3a6;" horiz-adv-x="1218" 
d="M1020 1075v-839h162v-420h-234v184h-178v412q-100 -66 -270 -66q-70 0 -133.5 17.5t-121 55.5t-92 107.5t-34.5 163.5v385h250v-295q0 -198 184 -198q126 0 217 57v436h250z" />
    <glyph glyph-name="uniF3A7" unicode="&#xf3a7;" horiz-adv-x="1179" 
d="M1020 1075v-1075h-250v412q-32 -19 -90 -35v-170h-205v151q-69 2 -128.5 20t-112.5 54t-84 102t-31 156v385h250v-295q0 -157 106 -188v229h205v-223q39 10 90 41v436h250z" />
    <glyph glyph-name="uniF3A8" unicode="&#xf3a8;" horiz-adv-x="1126" 
d="M160 1075h250v-459q109 48 258 48q74 0 140.5 -19.5t123 -60t90 -112t33.5 -165.5v-307h-252v231q0 197 -189 197q-126 0 -204 -43v-385h-250v1075z" />
    <glyph glyph-name="uniF3B0" unicode="&#xf3b0;" horiz-adv-x="1179" 
d="M1020 1075v-1075h-178v-184h-234v420h162v176q-100 -66 -270 -66q-70 0 -133.5 17.5t-121 55.5t-92 107.5t-34.5 163.5v385h250v-295q0 -198 184 -198q126 0 217 57v436h250z" />
    <glyph glyph-name="uniF3B2" unicode="&#xf3b2;" horiz-adv-x="1251" 
d="M12 0l502 1077h223l502 -1077h-268l-101 221h-505l-101 -221h-252zM618 784l-149 -329h297zM287 1434h219q0 -109 123 -109q112 0 112 109h222q0 -132 -89.5 -207.5t-244.5 -75.5q-169 0 -255.5 73.5t-86.5 209.5z" />
    <glyph glyph-name="uniF3B3" unicode="&#xf3b3;" horiz-adv-x="1251" 
d="M12 0l502 1077h223l502 -1077h-268l-101 221h-505l-101 -221h-252zM618 784l-149 -329h297zM315 1321q0 56 38.5 89.5t95.5 33.5q46 0 82 -34.5t36 -88.5q0 -58 -36 -92.5t-82 -34.5q-58 0 -96 34t-38 93zM682 1321q0 55 38.5 89t92.5 34q48 0 85.5 -34t37.5 -89
q0 -58 -37 -92.5t-86 -34.5q-55 0 -93 34t-38 93z" />
    <glyph glyph-name="uniF3B4" unicode="&#xf3b4;" horiz-adv-x="1628" 
d="M799 0v219h-398l-172 -219h-290l350 434q1 3 514 641h700v-235h-454v-181h403v-235h-403v-188h473v-236h-723zM799 723l-209 -268h209v268z" />
    <glyph glyph-name="uniF3B5" unicode="&#xf3b5;" horiz-adv-x="1019" 
d="M160 0v1075h735v-235h-485v-181h436v-235h-436v-188h503v-236h-753zM203 1434h219q0 -109 123 -109q112 0 112 109h222q0 -132 -89.5 -207.5t-244.5 -75.5q-169 0 -255.5 73.5t-86.5 209.5z" />
    <glyph glyph-name="uniF3B6" unicode="&#xf3b6;" horiz-adv-x="1277" 
d="M78 664h856q-25 92 -113.5 141t-212.5 49q-91 0 -150.5 -17.5t-121.5 -58.5l-98 187q163 125 395 125q262 0 417.5 -152.5t155.5 -405.5q0 -256 -161.5 -405.5t-421.5 -149.5q-136 0 -246 46.5t-184 132.5t-105 216.5t-10 291.5zM621 213q285 0 323 215h-606
q2 -89 79.5 -152t203.5 -63z" />
    <glyph glyph-name="uniF3B8" unicode="&#xf3b8;" horiz-adv-x="1675" 
d="M457 561l-422 514h303l375 -485v485h252v-485l374 485h303l-421 -510l440 -565h-303l-393 530v-530h-252v530l-394 -530h-303zM528 1321q0 56 38.5 89.5t95.5 33.5q46 0 82 -34.5t36 -88.5q0 -58 -36 -92.5t-82 -34.5q-58 0 -96 34t-38 93zM895 1321q0 55 38.5 89
t92.5 34q48 0 85.5 -34t37.5 -89q0 -58 -37 -92.5t-86 -34.5q-55 0 -93 34t-38 93z" />
    <glyph glyph-name="uniF3B9" unicode="&#xf3b9;" horiz-adv-x="1056" 
d="M506 -23q-161 0 -279 59t-174 136l137 170q133 -129 318 -129q92 0 141 28t49 81q0 106 -194 106h-160v236h152q66 0 111.5 25.5t45.5 68.5q0 96 -147 96q-178 0 -270 -111l-146 170q64 80 173.5 128.5t250.5 48.5q169 0 279 -80.5t110 -223.5q0 -75 -35 -135.5
t-104 -91.5v-6q93 -21 139.5 -90t46.5 -166q0 -148 -122 -234t-322 -86zM201 1321q0 56 38 89.5t95 33.5q46 0 82.5 -34.5t36.5 -88.5q0 -58 -36.5 -92.5t-82.5 -34.5q-58 0 -95.5 33.5t-37.5 93.5zM567 1321q0 55 38.5 89t92.5 34q48 0 85.5 -34t37.5 -89q0 -58 -37 -92.5
t-86 -34.5q-55 0 -93 34t-38 93z" />
    <glyph glyph-name="uniF3BB" unicode="&#xf3bb;" horiz-adv-x="1357" 
d="M379 0h-219v1075h250v-676l569 676h219v-1075h-250v676zM393 1223v190h572v-190h-572z" />
    <glyph glyph-name="uniF3BC" unicode="&#xf3bc;" horiz-adv-x="1357" 
d="M379 0h-219v1075h250v-676l569 676h219v-1075h-250v676zM369 1321q0 56 38 89.5t95 33.5q46 0 82.5 -34.5t36.5 -88.5q0 -58 -36.5 -92.5t-82.5 -34.5q-58 0 -95.5 33.5t-37.5 93.5zM735 1321q0 55 38.5 89t92.5 34q48 0 85.5 -34t37.5 -89q0 -58 -37 -92.5t-86 -34.5
q-55 0 -93 34t-38 93z" />
    <glyph glyph-name="uniF3BD" unicode="&#xf3bd;" horiz-adv-x="1349" 
d="M72 535q0 116 44 218t121.5 176.5t191 117.5t245.5 43q174 0 310.5 -66.5t215 -193.5t78.5 -295q0 -161 -78 -288.5t-216 -198.5t-310 -71q-173 0 -309 67t-214.5 194.5t-78.5 296.5zM338 535q0 -136 97.5 -229t238.5 -93q160 0 249 90.5t89 231.5q0 144 -96.5 231.5
t-241.5 87.5q-148 0 -242 -87t-94 -232zM365 1321q0 56 38 89.5t95 33.5q46 0 82 -34.5t36 -88.5q0 -58 -36 -92.5t-82 -34.5q-58 0 -95.5 33.5t-37.5 93.5zM731 1321q0 55 38.5 89t92.5 34q48 0 85.5 -34t37.5 -89q0 -58 -37 -92.5t-86 -34.5q-55 0 -93 34t-38 93z" />
    <glyph glyph-name="uniF3BE" unicode="&#xf3be;" horiz-adv-x="1349" 
d="M72 535q0 116 44 218t121.5 176.5t191 117.5t245.5 43q174 0 310.5 -66.5t215 -193.5t78.5 -295q0 -161 -78 -288.5t-216 -198.5t-310 -71q-173 0 -309 67t-214.5 194.5t-78.5 296.5zM674 213q126 0 208.5 57.5t112.5 155.5h-639q34 -96 120 -154.5t198 -58.5zM674 854
q-114 0 -198 -53.5t-118 -147.5h633q-35 93 -120.5 147t-196.5 54z" />
    <glyph glyph-name="uniF3C1" unicode="&#xf3c1;" horiz-adv-x="1161" 
d="M1147 1075l-406 -813q-62 -129 -146 -195.5t-200 -66.5q-92 0 -159 47l88 213q44 -24 84 -24q58 0 92 61l18 29l-500 749h316l311 -502l244 502h258zM315 1223v190h572v-190h-572z" />
    </font>
</defs>
</svg>
